osu file format v14

[General]
AudioFilename: Akikaze no Answer.mp3
AudioLeadIn: 0
PreviewTime: 71148
Countdown: 0
SampleSet: Soft
StackLeniency: 0.7
Mode: 0
LetterboxInBreaks: 1
EpilepsyWarning: 1
WidescreenStoryboard: 1

[Editor]
Bookmarks: 1200,13444,72220,78342,85689,89363,101608,150587,156710,164057,167730,179975,189771,214261,233853,239975,247322,250995,263240,273036
DistanceSpacing: 1.4
BeatDivisor: 4
GridSize: 4
TimelineZoom: 1.3

[Metadata]
Title:Akikaze no Answer
TitleUnicode:秋風のアンサー
Artist:Flower
ArtistUnicode:Flower
Creator:Kanari
Version:Insane
Source:ビンタ!〜弁護士事務員ミノワが愛で解決します〜
Tags:Hanadokei Mio Nakajima Shuuka Fujii Manami Shigetome Reina Washio Kyoka Ichiki Nozomi Bando Harumi Sato Chiharu Muto Kuey walaowey
BeatmapID:972904
BeatmapSetID:453713

[Difficulty]
HPDrainRate:7
CircleSize:4
OverallDifficulty:7
ApproachRate:8.5
SliderMultiplier:2.4
SliderTickRate:1

[Events]
//Background and Video events
0,0,"bg.jpg",0,0
//Break Periods
2,214461,223382
//Storyboard Layer 0 (Background)
//Storyboard Layer 1 (Fail)
//Storyboard Layer 2 (Pass)
//Storyboard Layer 3 (Foreground)
//Storyboard Sound Samples

[TimingPoints]
1200,612.244897959184,4,2,4,15,1,0
10842,-100,4,2,4,10,0,0
12832,-100,4,2,4,5,0,0
13138,-100,4,2,4,30,0,0
13291,-100,4,2,4,40,0,0
13444,-100,4,2,4,50,0,0
33036,-133.333333333333,4,2,2,50,0,0
37322,-100,4,2,2,50,0,0
37628,-133.333333333333,4,2,2,50,0,0
42220,-100,4,2,2,50,0,0
42526,-133.333333333333,4,2,2,50,0,0
47118,-100,4,2,2,50,0,0
47730,-133.333333333333,4,2,2,50,0,0
52016,-100,4,2,2,50,0,0
52628,-133.333333333333,4,2,3,60,0,0
72220,-100,4,2,4,70,0,1
91659,-100,4,2,4,70,0,0
91812,-100,4,2,4,70,0,1
101608,-100,4,2,4,60,0,0
111404,-133.333333333333,4,2,2,35,0,0
121200,-133.333333333333,4,2,2,50,0,0
130383,-133.333333333333,4,2,2,50,0,0
130995,-133.333333333333,4,2,3,60,0,0
150587,-100,4,2,4,70,0,1
170026,-100,4,2,4,70,0,0
170179,-100,4,2,4,70,0,1
179975,-100,4,2,4,60,0,0
189771,-100,4,2,4,60,0,1
190383,-100,4,2,4,60,0,0
209516,-100,4,2,4,40,0,0
211200,-100,4,2,4,30,0,0
213036,-100,4,2,4,20,0,0
214261,-100,4,2,4,50,0,1
214873,-100,4,2,4,50,0,0
224669,-133.333333333333,4,2,4,40,0,0
231404,-100,4,2,4,30,0,0
232016,-100,4,2,4,40,0,0
232628,-100,4,2,4,50,0,0
233240,-100,4,2,4,60,0,0
233853,-100,4,2,4,70,0,1
253291,-100,4,2,4,70,0,0
253444,-100,4,2,4,70,0,1
263240,-100,4,2,4,60,0,0
273036,-133.333333333333,4,2,4,40,0,0
273189,-133.333333333333,4,2,4,30,0,0
275485,-133.333333333333,4,2,4,20,0,0
278546,-133.333333333333,4,2,4,15,0,0
283062,-133.333333333333,4,2,4,10,0,0
285281,-133.333333333333,4,2,4,5,0,0

[Colours]
Combo1 : 255,128,255
Combo2 : 128,255,255
Combo3 : 255,255,128
Combo4 : 128,128,255

[HitObjects]
168,92,1200,6,0,L|224:68,2,60,2|0|0,0:0|0:0|0:0,0:0:0:0:
72,160,1659,2,0,L|48:104,2,60,0|2|0,0:0|0:0|0:0,0:0:0:0:
128,264,2118,2,0,L|72:288,2,60,0|0|2,0:0|0:0|0:0,0:0:0:0:
224,196,2577,2,0,L|248:252,2,60
168,92,3036,2,0,L|144:36,2,60,2|0|0,0:0|0:0|0:0,0:0:0:0:
344,296,3648,6,0,L|366:352,2,60,2|0|0,0:0|0:0|0:0,0:0:0:0:
323,179,4107,2,0,L|266:201,2,60,0|2|0,0:0|0:0|0:0,0:0:0:0:
437,145,4566,2,0,L|414:88,2,60,0|0|2,0:0|0:0|0:0,0:0:0:0:
456,261,5025,2,0,L|512:238,2,60
344,296,5484,2,0,L|287:318,2,60,2|0|0,0:0|0:0|0:0,0:0:0:0:
376,32,6097,5,2,0:0:0:0:
272,68,6251,1,0,0:0:0:0:
288,176,6404,2,0,P|324:192|348:192,1,60
452,208,6710,2,0,L|468:268,1,60,2|0,0:0|0:0,0:0:0:0:
376,344,7016,2,0,L|360:284,1,60
268,232,7322,2,0,P|232:216|208:216,1,60,2|0,0:0|0:0,0:0:0:0:
75,308,7628,2,0,P|105:305|132:292,1,60
116,172,7934,2,0,L|96:116,2,60,2|0|0,0:0|0:0|0:0,0:0:0:0:
227,51,8546,6,0,P|263:47|295:55,1,60,2|0,0:0|0:0,0:0:0:0:
336,148,8853,1,0,0:0:0:0:
444,148,9006,1,0,0:0:0:0:
508,60,9159,2,0,P|440:40|424:48,1,60,2|0,0:0|0:0,0:0:0:0:
348,32,9465,1,0,0:0:0:0:
252,76,9618,1,0,0:0:0:0:
240,184,9771,2,0,P|204:176|184:160,1,60,2|0,0:0|0:0,0:0:0:0:
80,156,10077,2,0,P|48:188|36:208,1,60
88,296,10383,2,0,P|114:310|148:320,1,60,2|0,0:0|0:0,0:0:0:0:
252,320,10689,1,0,0:0:0:0:
256,192,10842,12,0,12832,0:0:0:0:
380,40,13138,5,2,0:0:0:0:
400,156,13291,1,0,0:0:0:0:
380,272,13444,2,0,P|336:344|244:356,1,180,4|0,0:0|0:0,0:0:0:0:
144,344,14057,2,0,P|172:280|220:260,1,120,8|2,0:0|0:0,0:0:0:0:
300,204,14516,2,0,P|272:180|244:168,1,60
20,108,14975,1,2,0:0:0:0:
36,348,15281,1,8,0:0:0:0:
216,188,15587,1,2,0:0:0:0:
280,92,15740,1,0,0:0:0:0:
400,64,15893,6,0,P|452:92|468:204,1,180
444,300,16506,2,0,P|392:268|372:208,1,120,8|2,0:0|0:0,0:0:0:0:
332,116,16965,5,0,0:0:0:0:
240,72,17118,1,0,0:0:0:0:
140,76,17271,1,0,0:0:0:0:
52,128,17424,2,0,L|32:212,1,60,2|0,0:0|0:0,0:0:0:0:
84,352,17730,2,0,B|136:364|156:332|204:340,1,120,8|2,0:0|0:0,0:0:0:0:
352,204,18342,6,0,P|412:192|464:216,1,120,0|2,0:0|0:0,0:0:0:0:
400,296,18802,1,0,0:0:0:0:
300,288,18955,2,0,P|260:240|264:172,1,120,8|2,0:0|0:0,0:0:0:0:
284,84,19414,1,0,0:0:0:0:
188,44,19567,2,0,P|116:32|64:44,1,120,0|2,0:0|0:0,0:0:0:0:
32,276,20179,1,8,0:0:0:0:
212,120,20485,1,2,0:0:0:0:
408,256,20791,5,0,0:0:0:0:
408,256,20944,2,0,P|376:312|328:340,1,120
228,336,21404,2,0,L|168:324,1,60,8|0,0:0|0:0,0:0:0:0:
128,232,21710,2,0,L|188:244,2,60,2|0|0,0:0|0:0|0:0,0:0:0:0:
40,180,22169,1,0,0:0:0:0:
40,180,22322,2,0,P|72:120|64:68,1,120,2|8,0:0|0:0,0:0:0:0:
304,36,22934,2,0,L|368:52,1,60,2|0,0:0|0:0,0:0:0:0:
408,144,23240,6,0,P|456:96|464:44,1,120,0|2,0:0|0:0,0:0:0:0:
280,132,23853,2,0,P|260:192|272:248,1,120,8|2,0:0|0:0,0:0:0:0:
368,276,24312,1,0,0:0:0:0:
368,276,24465,2,0,P|440:288|484:316,1,120,0|2,0:0|0:0,0:0:0:0:
240,344,25077,1,8,0:0:0:0:
132,132,25383,2,0,P|84:132|60:140,1,60,2|0,0:0|0:0,0:0:0:0:
24,224,25689,6,0,P|52:152|20:56,1,180
120,36,26302,2,0,P|180:44|220:96,1,120,8|2,0:0|0:0,0:0:0:0:
248,184,26761,2,0,L|300:156,1,60
396,120,27067,1,0,0:0:0:0:
488,168,27220,1,2,0:0:0:0:
500,268,27373,1,0,0:0:0:0:
392,352,27526,2,0,B|344:372|320:336|272:348,1,120,8|2,0:0|0:0,0:0:0:0:
132,192,28138,6,0,P|64:192|24:228,1,120,0|2,0:0|0:0,0:0:0:0:
104,288,28597,1,0,0:0:0:0:
204,268,28751,2,0,P|240:212|228:160,1,120,8|2,0:0|0:0,0:0:0:0:
192,68,29210,1,0,0:0:0:0:
192,68,29363,2,0,P|248:36|304:28,1,120,0|2,0:0|0:0,0:0:0:0:
308,268,29975,1,8,0:0:0:0:
476,96,30281,1,2,0:0:0:0:
244,156,30587,5,0,0:0:0:0:
244,156,30740,2,0,P|172:168|124:144,1,120
60,224,31200,2,0,L|36:344,1,120,8|2,0:0|0:0,0:0:0:0:
136,328,31659,1,0,0:0:0:0:
136,328,31812,2,0,L|148:264,1,60
167,181,32118,5,2,0:0:0:0:
223,110,32271,1,0,0:0:0:0:
308,81,32424,1,8,0:0:0:0:
397,89,32577,1,0,0:0:0:0:
474,135,32730,1,2,0:0:0:0:
511,217,32883,1,0,0:0:0:0:
487,333,33036,6,0,P|443:323|413:291,1,90.0000034332277,4|2,0:0|0:0,0:0:0:0:
345,143,33648,2,0,P|301:131|257:139,1,90.0000034332277,8|2,0:0|0:0,0:0:0:0:
176,204,34108,1,0,0:0:0:0:
176,204,34261,2,0,L|152:292,1,90.0000034332277,0|2,0:0|0:0,0:0:0:0:
43,317,34873,2,0,L|24:361,2,45.0000017166138,8|0|2,0:0|0:0|0:0,0:0:0:0:
49,216,35332,1,0,0:0:0:0:
156,126,35485,6,0,P|204:142|232:218,1,135.000005149841
248,252,36097,2,0,P|296:280|332:280,1,90.0000034332277,8|2,0:0|0:0,0:0:0:0:
408,224,36557,1,0,0:0:0:0:
408,224,36710,2,0,P|368:192|324:188,1,90.0000034332277,0|2,0:0|0:0,0:0:0:0:
288,40,37322,2,0,P|344:28|408:32,1,120,8|2,0:0|0:0,0:0:0:0:
464,116,37934,6,0,P|408:128|368:128,1,90.0000034332277,0|2,0:0|0:0,0:0:0:0:
180,100,38546,1,8,0:0:0:0:
128,256,38853,1,2,0:0:0:0:
128,256,39006,2,0,P|176:280|256:280,1,135.000005149841,0|2,0:0|0:0,0:0:0:0:
424,248,39771,2,0,L|428:159,1,90.0000034332277,8|2,0:0|0:0,0:0:0:0:
300,40,40383,6,0,P|232:32|168:52,1,135.000005149841
96,116,40995,2,0,P|72:68|76:24,1,90.0000034332277,8|2,0:0|0:0,0:0:0:0:
176,128,41455,1,0,0:0:0:0:
176,128,41608,2,0,P|160:176|124:196,1,90.0000034332277,0|2,0:0|0:0,0:0:0:0:
44,224,42067,1,0,0:0:0:0:
16,310,42220,2,0,P|28:342|44:362,1,60,8|0,0:0|0:0,0:0:0:0:
192,324,42526,1,2,0:0:0:0:
192,324,42832,6,0,P|276:276|360:280,1,180.000006866455,0|8,0:0|0:0,0:0:0:0:
440,348,43751,1,2,0:0:0:0:
440,348,43904,2,0,P|468:312|472:224,1,135.000005149841,0|2,0:0|0:0,0:0:0:0:
362,202,44669,2,0,L|333:236,2,45.0000017166138,8|0|2,0:0|0:0|0:0,0:0:0:0:
433,106,45128,1,0,0:0:0:0:
287,47,45281,6,0,P|219:47|183:59,1,90.0000034332277,0|2,0:0|0:0,0:0:0:0:
259,304,45893,1,8,0:0:0:0:
256,172,46200,2,0,P|229:177|212:184,1,45.0000017166138,2|0,0:0|0:0,0:0:0:0:
300,200,46506,2,0,P|278:160|275:116,1,90.0000034332277,0|2,0:0|0:0,0:0:0:0:
458,230,47118,2,0,P|450:288|409:330,1,120,8|2,0:0|0:0,0:0:0:0:
284,52,47730,6,0,P|212:52|152:32,1,135.000005149841
108,48,48342,2,0,L|92:140,1,90.0000034332277,8|2,0:0|0:0,0:0:0:0:
129,200,48802,2,0,L|136:156,1,45.0000017166138
32,352,49261,1,2,0:0:0:0:
192,272,49567,1,8,0:0:0:0:
20,220,49873,1,2,0:0:0:0:
280,292,50179,6,0,P|280:240|256:204,1,90.0000034332277,0|2,0:0|0:0,0:0:0:0:
208,136,50638,1,0,0:0:0:0:
132,88,50791,2,0,L|48:56,1,90.0000034332277,8|2,0:0|0:0,0:0:0:0:
24,132,51251,1,0,0:0:0:0:
24,132,51404,2,0,L|68:148,1,45.0000017166138
168,200,51710,2,0,L|124:216,1,45.0000017166138,2|0,0:0|0:0,0:0:0:0:
20,284,52016,2,0,P|56:328|116:344,1,120,8|2,0:0|0:0,0:0:0:0:
288,236,52628,6,0,P|332:208|376:204,1,90.0000034332277,0|2,0:0|0:0,0:0:0:0:
452,128,53087,1,0,0:0:0:0:
452,128,53240,2,0,P|408:100|364:96,1,90.0000034332277,0|2,0:0|0:0,0:0:0:0:
192,124,53700,2,0,L|104:144,1,90.0000034332277
80,160,54159,1,2,0:0:0:0:
248,348,54465,2,0,P|296:348|336:332,1,90.0000034332277,8|2,0:0|0:0,0:0:0:0:
392,232,55077,6,0,P|428:256|448:300,1,90.0000034332277,0|2,0:0|0:0,0:0:0:0:
472,316,55536,1,0,0:0:0:0:
472,316,55689,2,0,L|484:224,1,90.0000034332277,0|2,0:0|0:0,0:0:0:0:
380,120,56148,2,0,L|368:212,1,90.0000034332277
384,276,56608,2,0,L|392:232,1,45.0000017166138,2|0,0:0|0:0,0:0:0:0:
236,340,56914,2,0,P|176:328|144:308,1,90.0000034332277,8|2,0:0|0:0,0:0:0:0:
192,168,57526,6,0,P|252:180|284:200,1,90.0000034332277,0|2,0:0|0:0,0:0:0:0:
304,224,57985,1,0,0:0:0:0:
304,224,58138,2,0,L|268:252,1,45.0000017166138
132,280,58444,2,0,L|140:188,1,90.0000034332277,2|0,0:0|0:0,0:0:0:0:
68,128,58904,1,0,0:0:0:0:
68,128,59057,2,0,L|60:176,1,45.0000017166138,2|0,0:0|0:0,0:0:0:0:
8,260,59363,2,0,L|24:164,1,90.0000034332277,8|2,0:0|0:0,0:0:0:0:
300,128,59975,6,0,L|284:224,1,90.0000034332277,0|2,0:0|0:0,0:0:0:0:
312,312,60434,1,0,0:0:0:0:
312,312,60587,2,0,P|360:312|400:296,1,90.0000034332277,0|2,0:0|0:0,0:0:0:0:
476,164,61046,1,0,0:0:0:0:
476,164,61200,2,0,L|448:128,1,45.0000017166138
332,56,61506,2,0,L|360:92,1,45.0000017166138,2|0,0:0|0:0,0:0:0:0:
364,320,61812,1,8,0:0:0:0:
196,216,62118,1,2,0:0:0:0:
464,244,62424,6,0,P|472:312|436:364,1,135.000005149841
324,352,63036,2,0,P|344:300|372:280,1,90.0000034332277,8|2,0:0|0:0,0:0:0:0:
384,236,63495,2,0,L|364:148,1,90.0000034332277
356,108,63955,1,2,0:0:0:0:
112,32,64261,2,0,P|80:68|40:80,1,90.0000034332277,8|2,0:0|0:0,0:0:0:0:
100,216,64873,6,0,P|132:180|172:168,1,90.0000034332277,0|2,0:0|0:0,0:0:0:0:
217,167,65332,1,0,0:0:0:0:
217,167,65485,2,0,L|228:124,2,45.0000017166138,8|0|2,0:0|0:0|0:0,0:0:0:0:
196,292,65944,2,0,P|164:336|124:348,1,90.0000034332277
92,356,66404,1,2,0:0:0:0:
132,88,66710,1,8,0:0:0:0:
348,232,67016,1,2,0:0:0:0:
56,208,67322,6,0,P|16:176|4:140,1,90.0000034332277,0|2,0:0|0:0,0:0:0:0:
136,96,67781,1,0,0:0:0:0:
136,96,67934,2,0,P|176:128|188:164,1,90.0000034332277,8|2,0:0|0:0,0:0:0:0:
416,308,68546,5,0,0:0:0:0:
392,152,68700,1,0,0:0:0:0:
264,244,68853,1,2,0:0:0:0:
472,224,69159,6,0,P|496:164|488:128,1,90.0000034332277,8|2,0:0|0:0,0:0:0:0:
292,148,69618,1,0,0:0:0:0:
324,324,69771,1,0,0:0:0:0:
72,168,70077,6,0,L|64:136,2,22.5000008583069,2|0|0,0:0|0:0|0:0,0:0:0:0:
208,260,70383,2,0,L|232:252,2,22.5000008583069
52,312,70689,2,0,L|40:340,2,22.5000008583069,2|0|0,0:0|0:0|0:0,0:0:0:0:
200,124,70995,2,0,L|192:96,15,22.5000008583069
376,56,72220,6,0,P|440:40|496:52,1,120,4|2,0:0|0:0,0:0:0:0:
436,156,72679,1,0,0:0:0:0:
338,236,72832,2,0,P|381:276|440:276,1,120,8|2,0:0|0:0,0:0:0:0:
476,256,73291,2,0,L|468:320,1,60
276,344,73751,1,2,0:0:0:0:
68,80,74057,5,8,0:0:0:0:
184,192,74210,1,0,0:0:0:0:
16,224,74363,1,2,0:0:0:0:
308,40,74669,6,0,P|316:104|300:156,1,120,0|2,0:0|0:0,0:0:0:0:
184,192,75128,1,0,0:0:0:0:
192,312,75281,2,0,P|256:340|330:324,1,120,8|2,0:0|0:0,0:0:0:0:
348,240,75740,1,0,0:0:0:0:
432,300,75893,2,0,L|416:364,2,60,0|0|2,0:0|0:0|0:0,0:0:0:0:
472,56,76506,2,0,P|412:36|344:36,1,120,8|2,0:0|0:0,0:0:0:0:
119,104,77118,6,0,P|179:106|236:87,1,120,0|2,0:0|0:0,0:0:0:0:
32,168,77730,2,0,P|15:226|26:285,1,120,8|2,0:0|0:0,0:0:0:0:
62,303,78189,2,0,P|78:283|106:263,1,60
179,222,78495,5,0,0:0:0:0:
259,201,78648,1,2,0:0:0:0:
339,224,78802,1,0,0:0:0:0:
408,267,78955,1,8,0:0:0:0:
390,348,79108,1,0,0:0:0:0:
307,355,79261,1,2,0:0:0:0:
273,278,79414,1,0,0:0:0:0:
339,224,79567,5,0,0:0:0:0:
339,224,79720,2,0,P|373:167|365:116,1,120
354,80,80179,2,0,P|285:55|227:52,1,120,8|2,0:0|0:0,0:0:0:0:
140,47,80638,1,0,0:0:0:0:
39,49,80791,2,0,P|19:71|12:100,1,60
56,120,81097,2,0,P|104:132|128:196,1,120,2|8,0:0|0:0,0:0:0:0:
180,352,81557,1,0,0:0:0:0:
228,192,81710,1,2,0:0:0:0:
100,292,81863,1,0,0:0:0:0:
252,300,82016,6,0,P|308:264|368:264,1,120,0|2,0:0|0:0,0:0:0:0:
464,96,82628,1,8,0:0:0:0:
172,88,82934,2,0,L|140:139,1,60,2|0,0:0|0:0,0:0:0:0:
160,168,83240,2,0,P|220:212|280:212,1,120,0|2,0:0|0:0,0:0:0:0:
256,92,83853,5,8,0:0:0:0:
56,188,84006,1,0,0:0:0:0:
8,40,84159,1,2,0:0:0:0:
160,168,84465,6,0,P|220:212|266:229,1,120,0|2,0:0|0:0,0:0:0:0:
359,260,84924,1,0,0:0:0:0:
456,268,85077,2,0,P|472:208|456:152,1,120,8|2,0:0|0:0,0:0:0:0:
428,52,85536,2,0,P|400:60|376:92,1,60
311,155,85842,5,0,0:0:0:0:
218,181,85995,1,2,0:0:0:0:
122,178,86148,1,0,0:0:0:0:
42,120,86302,1,8,0:0:0:0:
130,74,86455,1,0,0:0:0:0:
122,178,86608,1,2,0:0:0:0:
45,239,86761,1,0,0:0:0:0:
75,334,86914,6,0,P|148:349|213:322,1,120,0|2,0:0|0:0,0:0:0:0:
264,220,87526,2,0,P|324:244|344:296,1,120,8|2,0:0|0:0,0:0:0:0:
436,340,87985,2,0,P|448:304|444:268,1,60
408,56,88444,1,2,0:0:0:0:
264,220,88751,1,8,0:0:0:0:
460,188,89057,1,2,0:0:0:0:
228,48,89363,6,0,L|168:36,1,60
28,56,89669,2,0,L|88:68,1,60,2|0,0:0|0:0,0:0:0:0:
220,128,89975,2,0,L|160:116,1,60,8|0,0:0|0:0,0:0:0:0:
20,136,90281,2,0,L|80:148,1,60,2|0,0:0|0:0,0:0:0:0:
212,208,90587,2,0,L|152:196,1,60
12,216,90893,2,0,L|72:228,1,60,2|0,0:0|0:0,0:0:0:0:
208,292,91200,2,0,L|148:280,1,60,8|0,0:0|0:0,0:0:0:0:
4,300,91506,5,2,0:0:0:0:
120,352,91659,1,0,0:0:0:0:
296,284,91812,6,0,P|336:224|396:192,1,120,4|2,0:0|0:0,0:0:0:0:
464,152,92271,1,0,0:0:0:0:
416,64,92424,2,0,P|312:72|256:52,1,120,8|2,0:0|0:0,0:0:0:0:
200,108,92883,1,0,0:0:0:0:
184,224,93036,2,0,P|240:220|296:176,1,120,0|2,0:0|0:0,0:0:0:0:
200,108,93495,1,0,0:0:0:0:
84,184,93648,2,0,P|72:240|100:300,1,120,8|2,0:0|0:0,0:0:0:0:
480,100,94261,6,0,P|428:56|376:40,1,120,0|2,0:0|0:0,0:0:0:0:
300,88,94720,1,0,0:0:0:0:
304,184,94873,2,0,P|364:156|380:120,1,60,8|0,0:0|0:0,0:0:0:0:
448,180,95179,1,2,0:0:0:0:
484,264,95332,1,0,0:0:0:0:
436,348,95485,2,0,L|372:340,1,60
280,264,95791,2,0,L|344:272,1,60,2|0,0:0|0:0,0:0:0:0:
376,156,96097,2,0,P|332:108|276:92,1,120,8|2,0:0|0:0,0:0:0:0:
92,136,96710,6,0,P|80:77|104:23,1,120,0|2,0:0|0:0,0:0:0:0:
222,87,97169,1,0,0:0:0:0:
208,200,97322,2,0,P|188:232|160:248,1,60,8|0,0:0|0:0,0:0:0:0:
256,332,97628,2,0,P|276:300|304:284,1,60,2|0,0:0|0:0,0:0:0:0:
400,232,97934,2,0,P|456:208|472:152,1,120,0|2,0:0|0:0,0:0:0:0:
392,48,98393,1,0,0:0:0:0:
304,196,98546,1,8,0:0:0:0:
488,288,98853,1,2,0:0:0:0:
304,100,99159,5,0,0:0:0:0:
304,100,99312,2,0,P|232:136|224:168,1,120
256,184,99771,2,0,B|288:224|248:256|276:300,1,120,8|2,0:0|0:0,0:0:0:0:
148,303,100230,1,0,0:0:0:0:
148,303,100383,2,0,P|143:274|124:252,1,60
80,229,100689,5,2,0:0:0:0:
50,191,100842,1,0,0:0:0:0:
35,145,100995,1,8,0:0:0:0:
37,97,101148,1,0,0:0:0:0:
60,54,101302,1,2,0:0:0:0:
99,27,101455,1,0,0:0:0:0:
146,20,101608,6,0,B|210:40|202:112|294:120,1,180,4|0,0:0|0:0,0:0:0:0:
364,196,102220,2,0,P|400:140|388:88,1,120,8|2,0:0|0:0,0:0:0:0:
374,48,102679,2,0,P|402:36|432:32,1,60
328,312,103138,1,2,0:0:0:0:
96,136,103444,1,8,0:0:0:0:
444,104,103751,2,0,P|424:126|412:156,1,60,2|0,0:0|0:0,0:0:0:0:
392,188,104057,6,0,P|452:228|480:328,1,180
472,356,104669,2,0,P|401:342|352:348,1,120,8|2,0:0|0:0,0:0:0:0:
272,260,105128,2,0,L|260:200,1,60
140,148,105434,2,0,L|152:208,2,60,0|2|0,0:0|0:0|0:0,0:0:0:0:
232,64,105893,2,0,P|290:51|350:55,1,120,8|2,0:0|0:0,0:0:0:0:
444,176,106353,1,0,0:0:0:0:
444,176,106506,6,0,B|469:155|522:177|515:239|494:288|450:281|407:331|407:331|366:281|321:288|298:239|294:177|347:155|380:180,1,480,0|0,0:0|2:0,0:0:0:0:
88,44,108036,5,2,0:0:0:0:
32,276,108342,1,8,0:0:0:0:
264,212,108648,1,2,0:0:0:0:
32,144,108955,5,0,0:0:0:0:
32,144,109108,2,0,P|104:156|144:136,1,120
192,76,109567,2,0,L|184:196,1,120,8|2,0:0|0:0,0:0:0:0:
260,300,110026,1,0,0:0:0:0:
260,300,110179,2,0,L|264:240,1,60
276,132,110485,1,2,0:0:0:0:
352,56,110638,1,0,0:0:0:0:
460,64,110791,2,0,B|480:112|448:136|472:184,1,120,8|2,0:0|0:0,0:0:0:0:
480,320,111251,1,0,0:0:0:0:
260,300,111404,6,0,L|168:288,1,90.0000034332277,4|2,0:0|0:0,0:0:0:0:
216,200,112016,2,0,L|124:188,1,90.0000034332277,0|2,0:0|0:0,0:0:0:0:
48,84,112628,2,0,P|88:56|128:48,1,90.0000034332277,0|2,0:0|0:0,0:0:0:0:
220,88,113240,2,0,P|260:104|312:108,1,90.0000034332277,8|2,0:0|0:0,0:0:0:0:
356,96,113700,1,0,0:0:0:0:
404,84,113853,6,0,P|456:96|484:120,1,90.0000034332277,0|2,0:0|0:0,0:0:0:0:
439,264,114465,2,0,P|433:220|408:184,1,90.0000034332277,0|2,0:0|0:0,0:0:0:0:
304,272,115077,2,0,L|212:280,1,90.0000034332277,0|2,0:0|0:0,0:0:0:0:
104,204,115689,2,0,L|196:196,1,90.0000034332277,8|2,0:0|0:0,0:0:0:0:
165,362,116302,6,0,P|133:331|124:288,2,90.0000034332277,0|2|0,0:0|0:0|0:0,0:0:0:0:
168,196,117220,1,2,0:0:0:0:
168,196,117526,2,0,P|112:180|76:188,1,90.0000034332277,0|2,0:0|0:0,0:0:0:0:
116,280,118138,2,0,P|172:296|208:288,1,90.0000034332277,8|2,0:0|0:0,0:0:0:0:
260,208,118751,6,0,P|256:156|232:128,1,90.0000034332277,0|2,0:0|0:0,0:0:0:0:
136,100,119363,1,0,0:0:0:0:
72,176,119669,1,2,0:0:0:0:
100,272,119975,1,0,0:0:0:0:
200,284,120281,1,2,0:0:0:0:
260,208,120587,1,8,0:0:0:0:
232,112,120893,1,0,0:0:0:0:
100,272,121200,6,0,P|104:316|128:356,1,90.0000034332277,0|2,0:0|0:0,0:0:0:0:
232,328,121659,1,0,0:0:0:0:
232,328,121812,2,0,P|276:320|332:344,1,90.0000034332277,8|2,0:0|0:0,0:0:0:0:
428,332,122271,1,0,0:0:0:0:
464,228,122424,2,0,L|472:136,1,90.0000034332277,0|2,0:0|0:0,0:0:0:0:
368,168,123036,2,0,L|376:76,1,90.0000034332277,8|2,0:0|0:0,0:0:0:0:
332,44,123495,1,0,0:0:0:0:
280,44,123648,6,0,B|216:36|216:84|140:56,1,135.000005149841
116,68,124261,1,8,0:0:0:0:
40,200,124567,2,0,L|32:252,1,45.0000017166138,2|0,0:0|0:0,0:0:0:0:
52,272,124873,2,0,P|96:256|140:256,1,90.0000034332277,0|2,0:0|0:0,0:0:0:0:
232,308,125485,2,0,P|272:328|316:328,1,90.0000034332277,8|2,0:0|0:0,0:0:0:0:
408,172,126097,6,0,P|340:188|300:236,1,135.000005149841
336,252,126710,2,0,P|380:260|424:252,1,90.0000034332277,8|2,0:0|0:0,0:0:0:0:
484,184,127169,1,0,0:0:0:0:
484,184,127322,2,0,P|480:136|448:104,1,90.0000034332277,0|2,0:0|0:0,0:0:0:0:
352,68,127934,2,0,L|264:44,1,90.0000034332277,8|2,0:0|0:0,0:0:0:0:
160,172,128546,6,0,L|248:196,1,90.0000034332277,0|2,0:0|0:0,0:0:0:0:
160,72,129159,2,0,P|112:80|68:116,1,90.0000034332277,8|2,0:0|0:0,0:0:0:0:
56,136,129618,2,0,L|64:180,1,45.0000017166138
88,268,129924,5,0,0:0:0:0:
141,322,130077,1,2,0:0:0:0:
219,343,130230,1,0,0:0:0:0:
304,347,130383,1,8,0:0:0:0:
391,324,130536,1,0,0:0:0:0:
459,259,130689,1,2,0:0:0:0:
493,166,130842,1,0,0:0:0:0:
426,56,130995,6,0,B|370:44|346:80|290:72,1,135.000005149841,4|0,0:0|0:0,0:0:0:0:
238,124,131608,2,0,P|262:84|266:40,1,90.0000034332277,8|0,0:0|0:0,0:0:0:0:
136,104,132067,2,0,P|112:144|108:188,1,90.0000034332277
116,220,132526,2,0,L|136:264,1,45.0000017166138,2|0,0:0|0:0,0:0:0:0:
320,332,132832,2,0,P|380:336|412:324,1,90.0000034332277,8|2,0:0|0:0,0:0:0:0:
396,168,133444,6,0,L|360:256,1,90.0000034332277,0|2,0:0|0:0,0:0:0:0:
280,240,133904,1,0,0:0:0:0:
280,240,134057,2,0,L|316:156,1,90.0000034332277,8|2,0:0|0:0,0:0:0:0:
240,48,134516,2,0,P|192:36|152:36,1,90.0000034332277
40,112,134975,1,2,0:0:0:0:
280,240,135281,1,8,0:0:0:0:
280,240,135587,1,2,0:0:0:0:
456,48,135893,6,0,P|412:64|368:64,1,90.0000034332277,0|2,0:0|0:0,0:0:0:0:
336,76,136353,2,0,L|348:120,1,45.0000017166138,0|8,0:0|0:0,0:0:0:0:
272,160,136659,2,0,L|260:116,1,45.0000017166138,0|2,0:0|0:0,0:0:0:0:
192,140,136965,2,0,P|212:212|236:228,1,90.0000034332277
248,264,137424,2,0,P|284:236|328:228,1,90.0000034332277,2|8,0:0|0:0,0:0:0:0:
404,228,137883,1,0,0:0:0:0:
476,260,138036,1,2,0:0:0:0:
100,296,138342,6,0,P|72:264|56:216,1,90.0000034332277,0|2,0:0|0:0,0:0:0:0:
56,128,138802,1,0,0:0:0:0:
108,56,138955,2,0,P|152:56|196:36,1,90.0000034332277,8|2,0:0|0:0,0:0:0:0:
284,40,139414,1,0,0:0:0:0:
284,40,139567,2,0,L|252:128,1,90.0000034332277,0|2,0:0|0:0,0:0:0:0:
192,292,140179,1,8,0:0:0:0:
392,200,140485,1,2,0:0:0:0:
168,96,140791,6,0,P|120:100|80:120,1,90.0000034332277,0|2,0:0|0:0,0:0:0:0:
60,236,141251,1,0,0:0:0:0:
60,236,141404,2,0,L|104:200,1,45.0000017166138,8|0,0:0|0:0,0:0:0:0:
168,248,141710,1,2,0:0:0:0:
168,248,141863,2,0,L|100:312,1,90.0000034332277
80,328,142322,1,2,0:0:0:0:
456,192,142628,2,0,P|420:164|376:156,1,90.0000034332277,8|2,0:0|0:0,0:0:0:0:
356,324,143240,6,0,L|388:236,1,90.0000034332277,0|2,0:0|0:0,0:0:0:0:
456,288,143700,1,0,0:0:0:0:
456,288,143853,2,0,L|440:332,2,45.0000017166138,8|0|2,0:0|0:0|0:0,0:0:0:0:
324,188,144312,2,0,P|276:184|232:200,1,90.0000034332277
216,220,144771,1,2,0:0:0:0:
384,348,145077,1,8,0:0:0:0:
404,108,145383,1,2,0:0:0:0:
144,316,145689,6,0,P|184:336|228:336,1,90.0000034332277,0|2,0:0|0:0,0:0:0:0:
216,220,146148,1,0,0:0:0:0:
216,220,146302,2,0,P|176:200|132:200,1,90.0000034332277,8|2,0:0|0:0,0:0:0:0:
40,252,146761,2,0,L|24:296,1,45.0000017166138
36,156,147067,1,0,0:0:0:0:
36,156,147220,2,0,L|52:112,1,45.0000017166138,2|0,0:0|0:0,0:0:0:0:
228,80,147526,2,0,P|268:96|316:100,1,90.0000034332277,8|2,0:0|0:0,0:0:0:0:
476,256,147985,1,0,0:0:0:0:
476,256,148138,6,0,P|416:292|352:312,1,135.000005149841
128,324,148751,1,0,0:0:0:0:
381,107,149057,1,2,0:0:0:0:
32,348,149516,1,0,0:0:0:0:
136,148,149669,1,2,0:0:0:0:
404,100,149975,2,0,L|368:72,1,45.0000017166138,8|0,0:0|0:0,0:0:0:0:
252,160,150281,2,0,L|288:188,1,45.0000017166138,2|0,0:0|0:0,0:0:0:0:
164,24,150587,6,0,P|100:24|52:56,1,120,4|2,0:0|0:0,0:0:0:0:
136,136,151046,1,0,0:0:0:0:
252,160,151200,2,0,P|304:104|312:60,1,120,8|2,0:0|0:0,0:0:0:0:
432,68,151659,1,0,0:0:0:0:
476,180,151812,2,0,P|424:236|416:280,1,120,0|2,0:0|0:0,0:0:0:0:
36,344,152424,5,8,0:0:0:0:
88,184,152577,1,0,0:0:0:0:
200,324,152730,1,2,0:0:0:0:
32,100,153036,6,0,P|92:80|144:100,1,120,0|2,0:0|0:0,0:0:0:0:
220,193,153495,1,0,0:0:0:0:
328,252,153648,2,0,P|396:236|432:188,1,120,8|2,0:0|0:0,0:0:0:0:
324,135,154108,1,0,0:0:0:0:
220,193,154261,2,0,P|192:239|188:257,1,60
299,304,154567,2,0,P|326:257|331:240,1,60,2|0,0:0|0:0,0:0:0:0:
248,92,154873,1,8,0:0:0:0:
32,324,155179,1,2,0:0:0:0:
324,136,155485,6,0,B|372:120|392:160|444:140,1,120,0|2,0:0|0:0,0:0:0:0:
480,256,155944,1,0,0:1:0:0:
396,340,156097,2,0,P|336:348|280:328,1,120,8|2,0:0|0:0,0:0:0:0:
228,220,156557,2,0,L|168:232,1,60
52,252,156863,5,0,0:0:0:0:
69,182,157016,1,2,0:0:0:0:
109,115,157169,1,0,0:0:0:0:
175,63,157322,1,8,0:0:0:0:
262,41,157475,1,0,0:0:0:0:
357,38,157628,1,2,0:0:0:0:
455,63,157781,1,0,0:0:0:0:
506,226,157934,5,0,0:0:0:0:
506,226,158087,2,0,B|426:206|410:278|330:238,1,180,0|8,0:0|0:0,0:0:0:0:
40,60,158853,1,2,0:0:0:0:
40,60,159006,2,0,P|100:56|160:28,1,120
264,80,159465,2,0,L|284:136,1,60,2|0,0:0|0:0,0:0:0:0:
416,168,159771,2,0,L|396:112,1,60,8|0,0:0|0:0,0:0:0:0:
324,224,160077,2,0,L|344:280,1,60,2|0,0:0|0:0,0:0:0:0:
104,252,160383,6,0,P|145:210|204:202,1,120,0|2,0:0|0:0,0:0:0:0:
204,324,160842,1,0,0:0:0:0:
88,360,160995,2,0,P|32:336|4:284,1,120,8|2,0:0|0:0,0:0:0:0:
28,144,161455,2,0,L|76:108,1,60
308,40,161914,1,2,0:0:0:0:
484,284,162220,5,8,0:0:0:0:
272,216,162373,1,0,0:0:0:0:
396,348,162526,1,2,0:0:0:0:
28,144,162832,6,0,P|25:84|55:33,1,120,0|2,0:0|0:0,0:0:0:0:
260,124,163444,2,0,L|139:104,1,120,8|2,0:0|0:0,0:0:0:0:
28,144,163904,1,0,0:0:0:0:
61,254,164057,2,0,L|180:273,1,120,0|2,0:0|0:0,0:0:0:0:
277,245,164516,1,0,0:0:0:0:
280,144,164669,1,8,0:0:0:0:
185,110,164822,1,0,0:0:0:0:
123,189,164975,1,2,0:0:0:0:
178,272,165128,1,0,0:0:0:0:
279,249,165281,6,0,P|248:188|204:168,1,120,0|2,0:0|0:0,0:0:0:0:
228,328,165740,1,0,0:0:0:0:
228,328,165893,2,0,P|280:340|344:320,1,120,8|2,0:0|0:0,0:0:0:0:
116,248,166353,1,0,0:0:0:0:
116,248,166506,2,0,P|96:188|100:132,1,120,0|2,0:0|0:0,0:0:0:0:
376,36,167118,2,0,P|432:56|480:91,1,120,8|2,0:0|0:0,0:0:0:0:
324,272,167730,6,0,L|280:316,1,60
192,196,168036,2,0,L|236:152,1,60,2|0,0:0|0:0,0:0:0:0:
332,288,168342,2,0,L|288:332,1,60,8|0,0:0|0:0,0:0:0:0:
184,180,168648,2,0,L|228:136,1,60,2|0,0:0|0:0,0:0:0:0:
340,300,168955,2,0,L|296:344,1,60
176,168,169261,2,0,L|220:124,1,60,2|0,0:0|0:0,0:0:0:0:
348,316,169567,5,8,0:0:0:0:
236,336,169720,1,0,0:0:0:0:
124,320,169873,1,2,0:0:0:0:
48,236,170026,1,0,0:0:0:0:
36,124,170179,6,0,P|64:72|124:40,1,120,4|2,0:0|0:0,0:0:0:0:
236,52,170638,1,0,0:0:0:0:
328,128,170791,2,0,P|392:140|448:128,1,120,8|2,0:0|0:0,0:0:0:0:
476,276,171251,1,0,0:0:0:0:
476,276,171404,2,0,L|412:292,1,60
276,240,171710,2,0,L|340:224,1,60,2|0,0:0|0:0,0:0:0:0:
176,356,172016,2,0,P|132:308|128:248,1,120,8|2,0:0|0:0,0:0:0:0:
472,32,172628,6,0,B|496:80|452:96|476:148,1,120,0|2,0:0|0:0,0:0:0:0:
404,244,173087,1,0,0:0:0:0:
372,128,173240,2,0,P|376:96|384:68,1,60,8|0,0:0|0:0,0:0:0:0:
268,36,173546,2,0,P|264:68|256:96,1,60,2|0,0:0|0:0,0:0:0:0:
284,212,173853,1,0,0:0:0:0:
113,261,174006,1,0,0:0:0:0:
178,158,174159,1,2,0:0:0:0:
219,314,174312,1,0,0:0:0:0:
178,158,174465,2,0,L|148:40,1,120,8|2,0:0|0:0,0:0:0:0:
219,314,175077,6,0,P|272:336|336:328,1,120,0|2,0:0|0:0,0:0:0:0:
416,240,175536,1,0,0:0:0:0:
412,120,175689,2,0,P|384:100|356:92,1,60,8|0,0:0|0:0,0:0:0:0:
276,180,175995,2,0,P|304:200|332:208,1,60,2|0,0:0|0:0,0:0:0:0:
256,84,176302,2,0,P|224:96|200:116,1,60
136,232,176608,2,0,P|168:220|192:200,1,60,2|0,0:0|0:0,0:0:0:0:
104,96,176914,1,8,0:0:0:0:
324,332,177220,1,2,0:0:0:0:
480,36,177526,5,0,0:0:0:0:
480,36,177679,2,0,P|420:68|368:76,1,120
264,40,178138,2,0,P|255:98|284:149,1,120,8|2,0:0|0:0,0:0:0:0:
396,164,178597,1,0,0:0:0:0:
396,164,178751,2,0,P|428:168|456:184,1,60
420,312,179057,2,0,P|388:308|360:292,1,60,2|0,0:0|0:0,0:0:0:0:
240,208,179363,2,0,P|208:208|176:216,1,60,8|0,0:0|0:0,0:0:0:0:
96,340,179669,1,2,0:0:0:0:
16,176,179822,1,0,0:0:0:0:
216,112,179975,6,0,B|176:64|108:112|128:180|128:180|148:244|224:244|256:330|256:330|288:244|364:244|384:180|384:180|404:112|336:64|296:112,1,720,4|8,0:0|0:0,0:0:0:0:
36,316,182424,6,0,P|128:352|196:248,1,240,0|8,0:0|0:0,0:0:0:0:
152,100,183342,1,2,0:0:0:0:
152,100,183495,2,0,P|204:72|264:72,1,120
348,130,183955,2,0,L|296:160,1,60,2|0,0:0|0:0,0:0:0:0:
328,260,184261,2,0,L|380:230,2,60,8|0|2,0:0|0:0|0:0,0:0:0:0:
128,344,184873,6,0,P|32:300|56:184,1,240,0|8,0:0|0:0,0:0:0:0:
304,56,185791,2,0,P|336:48|368:52,1,60,2|0,0:0|0:0,0:0:0:0:
388,64,186097,1,0,0:0:0:0:
240,220,186404,1,2,0:0:0:0:
460,316,186710,1,8,0:0:0:0:
236,120,187016,2,0,P|204:116|176:120,1,60,2|0,0:0|0:0,0:0:0:0:
100,160,187322,5,0,0:0:0:0:
100,160,187475,2,0,P|132:136|148:60,1,120
236,40,187934,2,0,L|356:28,1,120,8|2,0:0|0:0,0:0:0:0:
404,128,188393,1,0,0:0:0:0:
404,128,188546,2,0,L|420:188,1,60
504,188,188853,2,0,L|472:72,1,120,2|8,0:0|0:0,0:0:0:0:
276,208,189465,1,2,0:0:0:0:
212,344,189618,1,0,0:0:0:0:
400,304,189771,6,0,P|428:228|424:188,1,120,4|2,0:0|0:0,0:0:0:0:
376,92,190230,1,0,0:0:0:0:
268,72,190383,2,0,P|200:68|152:40,1,120,8|2,0:0|0:0,0:0:0:0:
48,128,190842,1,0,0:0:0:0:
48,128,190995,2,0,L|56:68,1,60
136,136,191302,2,0,L|128:196,1,60,2|0,0:0|0:0,0:0:0:0:
40,256,191608,2,0,P|112:304|152:300,1,120,8|2,0:0|0:0,0:0:0:0:
220,228,192067,1,0,0:0:0:0:
284,140,192220,6,0,P|312:128|344:128,1,60
416,220,192526,2,0,P|388:232|356:232,1,60,2|0,0:0|0:0,0:0:0:0:
432,124,192832,2,0,P|492:152|512:200,1,120,8|2,0:0|0:0,0:0:0:0:
484,304,193291,1,0,0:0:0:0:
384,348,193444,2,0,P|350:341|328:328,1,60
240,244,193751,1,2,0:0:0:0:
256,124,193904,1,0,0:0:0:0:
156,56,194057,2,0,P|104:28|40:36,1,120,8|2,0:0|0:0,0:0:0:0:
64,224,194516,1,0,0:0:0:0:
64,224,194669,6,0,L|87:106,1,120,0|2,0:0|0:0,0:0:0:0:
140,256,195281,2,0,P|96:304|36:304,1,120,8|2,0:0|0:0,0:0:0:0:
8,308,195740,2,0,P|16:340|32:364,1,60
272,344,196200,1,2,0:0:0:0:
124,104,196506,1,8,0:0:0:0:
420,56,196812,2,0,L|480:40,1,60,2|0,0:0|0:0,0:0:0:0:
504,180,197118,5,0,0:0:0:0:
504,180,197271,2,0,P|520:123|504:66,1,120
400,128,197730,2,0,L|388:188,1,60,8|0,0:0|0:0,0:0:0:0:
436,296,198036,2,0,L|448:236,1,60,2|0,0:0|0:0,0:0:0:0:
320,336,198342,2,0,P|292:344|256:344,1,60
104,256,198648,5,2,0:0:0:0:
256,48,198955,1,8,0:0:0:0:
360,264,199261,1,2,0:0:0:0:
240,160,199414,1,0,0:0:0:0:
400,108,199567,6,0,P|464:124|496:168,1,120,0|2,0:0|0:0,0:0:0:0:
300,332,200179,2,0,P|236:332|192:292,1,120,8|2,0:0|0:0,0:0:0:0:
117,245,200638,2,0,P|136:222|163:212,1,60
384,348,201097,1,2,0:0:0:0:
424,60,201404,2,0,P|364:32|308:36,1,120,8|2,0:0|0:0,0:0:0:0:
192,48,201863,1,0,0:0:0:0:
192,48,202016,6,0,P|212:112|256:148,1,120,0|2,0:0|0:0,0:0:0:0:
456,296,202628,2,0,P|408:260|348:264,1,120,8|2,0:0|0:0,0:0:0:0:
268,320,203087,2,0,P|292:344|316:356,1,60
272,224,203393,2,0,P|244:228|212:244,1,60,0|2,0:0|0:0,0:0:0:0:
350,263,203700,2,0,P|356:228|352:200,1,60,0|8,0:0|0:0,0:0:0:0:
228,36,204159,1,2,0:0:0:0:
24,124,204465,6,0,P|16:188|48:232,1,120,0|2,0:0|0:0,0:0:0:0:
128,292,204924,2,0,P|120:324|101:345,2,60,0|8|0,0:0|0:0|0:0,0:0:0:0:
140,192,205383,2,0,P|176:195|200:204,1,60,2|0,0:0|0:0,0:0:0:0:
268,288,205689,2,0,P|324:328|376:324,1,120,0|2,0:0|0:0,0:0:0:0:
380,120,206302,2,0,L|344:240,1,120,8|2,0:0|0:0,0:0:0:0:
456,64,206914,5,0,0:0:0:0:
456,64,207067,2,0,P|388:28|344:36,1,120
320,52,207526,1,8,0:0:0:0:
120,188,207832,1,2,0:0:0:0:
184,88,207985,1,0,0:0:0:0:
120,188,208138,2,0,L|108:246,1,60
196,328,208444,2,0,P|256:320|300:276,1,120,2|8,0:0|0:0,0:0:0:0:
45,39,209057,5,2,0:0:0:0:
246,115,209210,1,0,0:0:0:0:
78,252,209363,1,4,0:0:0:0:
256,192,209516,12,2,213036,0:0:0:0:
256,192,214261,5,4,0:0:0:0:
256,192,224057,5,12,0:0:0:0:
89,126,224669,2,0,P|35:176|52:277,1,180.000006866455,8|0,0:0|0:0,0:0:0:0:
375,172,225893,1,8,0:0:0:0:
360,306,226046,1,0,0:0:0:0:
245,233,226200,1,2,0:0:0:0:
343,88,226506,6,0,P|392:84|430:102,1,90.0000034332277,0|2,0:0|0:0,0:0:0:0:
143,132,227118,2,0,P|94:136|56:118,1,90.0000034332277,8|2,0:0|0:0,0:0:0:0:
260,137,227730,2,0,L|242:233,1,90.0000034332277,0|2,0:0|0:0,0:0:0:0:
200,335,228342,1,0,0:0:0:0:
310,56,228648,1,2,0:0:0:0:
459,216,228955,6,0,P|426:243|383:260,1,90.0000034332277,0|2,0:0|0:0,0:0:0:0:
279,260,229414,1,0,0:0:0:0:
184,216,229567,2,0,P|136:212|95:224,1,90.0000034332277,8|2,0:0|0:0,0:0:0:0:
284,337,230179,2,0,L|372:322,2,90.0000034332277,0|2|8,0:0|0:0|0:0,0:0:0:0:
271,111,231097,2,0,P|337:124|380:154,1,90.0000034332277,2|0,0:0|0:0,0:0:0:0:
256,192,231557,12,4,233853,0:0:0:0:
320,252,234159,5,2,0:0:0:0:
320,252,234312,1,0,0:0:0:0:
320,252,234465,2,0,P|360:216|424:200,1,120,8|2,0:0|0:0,0:0:0:0:
420,320,234924,1,0,0:0:0:0:
304,352,235077,2,0,P|244:324|224:276,1,120,0|2,0:0|0:0,0:0:0:0:
23,34,235689,5,8,0:0:0:0:
67,180,235842,1,0,0:0:0:0:
204,78,235995,1,2,0:0:0:0:
32,280,236302,6,0,P|104:284|144:248,1,120,0|2,0:0|0:0,0:0:0:0:
236,184,236761,1,0,0:0:0:0:
324,104,236914,2,0,P|396:100|436:136,1,120,8|2,0:0|0:0,0:0:0:0:
324,268,237373,1,0,0:0:0:0:
324,268,237526,2,0,L|348:212,1,60
464,248,237832,2,0,L|440:304,1,60,2|0,0:0|0:0,0:0:0:0:
248,344,238138,1,8,0:0:0:0:
80,68,238444,1,2,0:0:0:0:
464,72,238751,6,0,P|416:120|416:168,1,120,0|2,0:0|0:0,0:0:0:0:
248,344,239363,2,0,P|296:296|296:248,1,120,8|2,0:0|0:0,0:0:0:0:
255,140,239822,2,0,P|226:147|202:170,1,60
116,210,240128,1,0,0:0:0:0:
49,134,240281,1,2,0:0:0:0:
97,51,240434,1,0,0:0:0:0:
194,72,240587,1,8,0:0:0:0:
203,169,240740,1,0,0:0:0:0:
176,263,240893,1,2,0:0:0:0:
256,319,241046,1,0,0:0:0:0:
333,259,241200,5,0,0:0:0:0:
301,166,241353,2,0,P|305:108|340:60,1,120
380,68,241812,2,0,P|312:84|264:76,1,120,8|2,0:0|0:0,0:0:0:0:
232,80,242271,1,0,0:0:0:0:
147,332,242577,1,0,0:0:0:0:
147,332,242730,2,0,L|167:276,1,60,2|0,0:0|0:0,0:0:0:0:
88,168,243036,2,0,L|68:224,1,60,8|0,0:0|0:0,0:0:0:0:
196,196,243342,2,0,L|216:140,1,60,2|0,0:0|0:0,0:0:0:0:
380,40,243648,6,0,P|444:40|492:76,1,120,0|2,0:0|0:0,0:0:0:0:
376,232,244261,2,0,L|416:116,1,120,8|2,0:0|0:0,0:0:0:0:
480,172,244720,2,0,L|460:228,1,60
256,352,245179,1,2,0:0:0:0:
145,63,245485,5,8,0:0:0:0:
336,115,245638,1,0,0:0:0:0:
179,273,245791,1,2,0:0:0:0:
263,52,246097,6,0,P|239:108|255:168,1,120,0|2,0:0|0:0,0:0:0:0:
344,243,246557,1,0,0:0:0:0:
422,312,246710,2,0,P|446:256|430:196,1,120,8|2,0:0|0:0,0:0:0:0:
239,252,247169,2,0,P|205:258|182:267,1,60
116,197,247475,1,0,0:0:0:0:
119,95,247628,1,2,0:0:0:0:
212,71,247781,1,0,0:0:0:0:
264,153,247934,1,8,0:0:0:0:
206,228,248087,1,0,0:0:0:0:
256,310,248240,1,2,0:0:0:0:
350,286,248393,1,0,0:0:0:0:
354,184,248546,6,0,L|372:62,1,120,0|2,0:0|0:0,0:0:0:0:
284,28,249006,1,0,0:0:0:0:
266,151,249159,2,0,L|250:271,1,120,8|2,0:0|0:0,0:0:0:0:
116,304,249618,1,0,0:0:0:0:
116,304,249771,2,0,L|56:300,1,60
36,356,250077,2,0,P|39:296|9:246,1,120,2|8,0:0|0:0,0:0:0:0:
132,40,250689,1,2,0:0:0:0:
352,140,250995,6,0,L|413:148,1,60
392,304,251302,2,0,L|330:295,1,60,2|0,0:0|0:0,0:0:0:0:
359,123,251608,2,0,L|420:131,1,60,8|0,0:0|0:0,0:0:0:0:
385,321,251915,2,0,L|323:312,1,60,2|0,0:0|0:0,0:0:0:0:
364,110,252220,2,0,L|425:118,1,60
380,334,252527,2,0,L|318:325,1,60,2|0,0:0|0:0,0:0:0:0:
369,96,252832,2,0,L|430:104,1,60,8|0,0:0|0:0,0:0:0:0:
376,352,253138,5,2,0:0:0:0:
216,312,253291,1,0,0:0:0:0:
136,152,253444,6,0,P|80:124|24:124,1,120,4|2,0:0|0:0,0:0:0:0:
60,240,253904,1,0,0:0:0:0:
176,268,254057,2,0,P|240:224|252:184,1,120,8|2,0:0|0:0,0:0:0:0:
136,152,254516,1,0,0:0:0:0:
60,240,254669,2,0,P|56:308|88:356,1,120,0|2,0:0|0:0,0:0:0:0:
292,236,255128,1,0,0:0:0:0:
292,236,255281,2,0,L|176:268,1,120,8|2,0:0|0:0,0:0:0:0:
400,188,255893,6,0,P|364:132|316:116,1,120,0|2,0:0|0:0,0:0:0:0:
292,236,256353,1,0,0:0:0:0:
384,316,256506,2,0,P|456:308|492:280,1,120,8|2,0:0|0:0,0:0:0:0:
400,188,256965,1,0,0:0:0:0:
296,128,257118,2,0,L|232:112,1,60
120,144,257424,1,2,0:0:0:0:
88,260,257577,1,0,0:0:0:0:
196,312,257730,2,0,P|252:320|312:344,1,120,8|2,0:0|0:0,0:0:0:0:
480,60,258342,6,0,P|424:52|364:28,1,120,0|2,0:0|0:0,0:0:0:0:
248,56,258802,1,0,0:0:0:0:
268,176,258955,2,0,P|328:144|344:116,1,60,8|0,0:0|0:0,0:0:0:0:
156,136,259261,2,0,P|96:168|80:196,1,60,2|0,0:0|0:0,0:0:0:0:
176,288,259567,2,0,P|176:248|156:216,1,60
44,252,259873,2,0,P|44:292|64:324,1,60,2|0,0:0|0:0,0:0:0:0:
276,332,260179,2,0,P|332:316|384:276,1,120,8|2,0:0|0:0,0:0:0:0:
208,88,260791,5,0,0:0:0:0:
208,88,260944,2,0,B|148:72|100:144|32:124,1,180,0|8,0:0|0:0,0:0:0:0:
284,172,261710,1,2,0:0:0:0:
284,172,261863,2,0,P|312:144|320:120,1,60
184,192,262169,2,0,P|155:219|148:244,1,60,0|2,0:0|0:0,0:0:0:0:
352,236,262475,1,0,0:0:0:0:
352,236,262628,2,0,P|292:264|232:252,1,120,8|2,0:0|0:0,0:0:0:0:
156,172,263087,1,0,0:0:0:0:
164,52,263240,6,0,B|244:56|236:112|332:108,1,180,4|0,0:0|0:0,0:0:0:0:
424,184,263853,2,0,P|448:124|440:68,1,120,8|2,0:0|0:0,0:0:0:0:
331,108,264312,2,0,P|311:144|311:176,1,60
156,344,264771,1,2,0:0:0:0:
60,88,265077,1,8,0:0:0:0:
396,352,265383,2,0,L|424:300,1,60,2|0,0:0|0:0,0:0:0:0:
440,252,265689,6,0,P|388:208|336:208,1,120,0|2,0:0|0:0,0:0:0:0:
228,248,266148,1,0,0:0:0:0:
156,344,266302,2,0,P|97:339|54:299,1,120,8|2,0:0|0:0,0:0:0:0:
168,176,266761,1,0,0:0:0:0:
168,176,266914,2,0,L|144:232,1,60
232,312,267220,5,2,0:0:0:0:
314,325,267373,1,0,0:0:0:0:
397,290,267526,1,8,0:0:0:0:
457,215,267679,1,0,0:0:0:0:
465,113,267832,1,2,0:0:0:0:
381,45,267985,1,0,0:0:0:0:
267,53,268138,6,0,B|233:0|158:38|170:107|170:107|183:174|257:183|279:272|279:272|321:191|396:200|425:141|425:141|451:74|391:18|348:60,1,720,0|8,0:0|0:0,0:0:0:0:
284,348,270281,1,2,0:0:0:0:
468,176,270587,5,0,0:0:0:0:
468,176,270740,2,0,P|420:140|400:84,1,120
384,52,271200,1,8,0:0:0:0:
160,140,271506,2,0,L|152:200,1,60,2|0,0:0|0:0,0:0:0:0:
244,304,271812,1,0,0:0:0:0:
244,304,271965,2,0,L|252:244,1,60,0|2,0:0|0:0,0:0:0:0:
120,28,272424,2,0,P|76:52|44:116,1,120,8|2,0:0|0:0,0:0:0:0:
160,140,272883,1,0,0:0:0:0:
272,148,273036,6,0,B|262:88|343:69|381:128|381:128|416:185|366:243|410:323|410:323|324:291|274:348|213:322|213:322|149:292|157:209|219:210,2,720,2|2|2,0:0|0:0|0:0,0:0:0:0:
88,112,278240,6,0,L|76:64,1,45.0000017166138
196,104,278546,2,0,L|208:152,2,45.0000017166138,2|0|0,0:0|0:0|0:0,0:0:0:0:
304,76,279006,2,0,L|292:28,2,45.0000017166138,0|2|0,0:0|0:0|0:0,0:0:0:0:
408,116,279465,2,0,L|420:164,2,45.0000017166138,0|0|2,0:0|0:0|0:0,0:0:0:0:
308,208,279924,2,0,L|288:248,1,45.0000017166138
256,192,280383,12,2,282526,0:0:0:0:
256,192,282832,5,2,0:0:0:0:
256,192,282909,1,0,0:0:0:0:
256,192,282985,1,0,0:0:0:0:
256,192,283062,12,0,285281,0:0:0:0:
