osu file format v14

[General]
AudioFilename: Akikaze no Answer.mp3
AudioLeadIn: 0
PreviewTime: 71148
Countdown: 0
SampleSet: Soft
StackLeniency: 0.7
Mode: 0
LetterboxInBreaks: 1
EpilepsyWarning: 1
WidescreenStoryboard: 1

[Editor]
Bookmarks: 1200,33036,72220,111404,189771,214261,233853,285281
DistanceSpacing: 1.6
BeatDivisor: 4
GridSize: 4
TimelineZoom: 0.8

[Metadata]
Title:Akikaze no Answer
TitleUnicode:秋風のアンサー
Artist:Flower
ArtistUnicode:Flower
Creator:Kanari
Version:Hard Collab
Source:ビンタ!〜弁護士事務員ミノワが愛で解決します〜
Tags:Hanadokei Mio Nakajima Shuuka Fujii Manami Shigetome Reina Washio Kyoka Ichiki Nozomi Bando Harumi Sato Chiharu Muto Kuey walaowey
BeatmapID:1244164
BeatmapSetID:453713

[Difficulty]
HPDrainRate:6
CircleSize:4
OverallDifficulty:6
ApproachRate:7
SliderMultiplier:1.8
SliderTickRate:1

[Events]
//Background and Video events
0,0,"bg.jpg",0,0
//Break Periods
2,214461,223157
2,224257,230504
//Storyboard Layer 0 (Background)
//Storyboard Layer 1 (Fail)
//Storyboard Layer 2 (Pass)
//Storyboard Layer 3 (Foreground)
Sprite,Foreground,Centre,"sb\Kanari.png",320,240 F,0,1200,2424,0,1 M,0,2424,,559.4839,419 F,0,2424,32424,1 F,0,32424,33648,1,0 F,0,71608,72832,0,1 F,0,72832,110179,1 F,0,110179,111404,1,0 F,0,110179,111404,1,0 F,0,189771,190995,0,1 F,0,190995,213648,1 F,0,213648,214873,1,0 F,0,233853,234465,0,1 F,0,234465,284057,1 F,0,284057,285281,1,0
Sprite,Foreground,Centre,"sb\Walaowey.png",320,240 F,0,33036,34261,0,1 M,0,34260,,559.4839,431.5871 F,0,34261,70995,1 F,0,70995,72220,1,0 F,0,70995,72220,1,0 F,0,111404,112628,0,1 F,0,112628,,1 F,0,112628,189159,1 F,0,189159,190383,1,0
//Storyboard Sound Samples

[TimingPoints]
1200,612.244897959184,4,2,4,15,1,0
10842,-100,4,2,4,10,0,0
12832,-100,4,2,4,5,0,0
13138,-100,4,2,4,30,0,0
13291,-100,4,2,4,40,0,0
13444,-100,4,2,4,50,0,0
33036,-133.333333333333,4,2,2,50,0,0
52628,-133.333333333333,4,2,3,60,0,0
72220,-100,4,2,4,70,0,1
91659,-100,4,2,4,70,0,0
91812,-100,4,2,4,70,0,1
101608,-100,4,2,4,60,0,0
111404,-133.333333333333,4,2,2,35,0,0
121200,-133.333333333333,4,2,2,25,0,0
121353,-133.333333333333,4,2,2,35,0,0
128546,-133.333333333333,4,2,2,45,0,0
130383,-133.333333333333,4,2,3,50,0,0
130995,-133.333333333333,4,2,3,60,0,0
150587,-100,4,2,4,70,0,1
170026,-100,4,2,4,70,0,0
170179,-100,4,2,4,70,0,1
179975,-100,4,2,4,60,0,0
189771,-100,4,2,4,60,0,1
190383,-100,4,2,4,60,0,0
209516,-100,4,2,4,40,0,0
211200,-100,4,2,1,30,0,0
213036,-100,4,2,1,20,0,0
214261,-100,4,2,1,50,0,1
214873,-100,4,2,1,50,0,0
231404,-100,4,2,1,30,0,0
232016,-100,4,2,1,40,0,0
232628,-100,4,2,1,50,0,0
233240,-100,4,2,4,60,0,0
233853,-100,4,2,4,70,0,1
253291,-100,4,2,4,70,0,0
253444,-100,4,2,4,70,0,1
263240,-100,4,2,4,60,0,0
273036,-133.333333333333,4,2,1,40,0,0
273189,-133.333333333333,4,2,4,30,0,0
275485,-133.333333333333,4,2,4,20,0,0
278546,-133.333333333333,4,2,4,15,0,0
283062,-133.333333333333,4,2,1,10,0,0
285281,-133.333333333333,4,2,1,5,0,0

[Colours]
Combo1 : 255,128,255
Combo2 : 128,255,255
Combo3 : 255,255,128
Combo4 : 128,128,255

[HitObjects]
256,96,1200,6,0,L|180:164,1,90,2|0,0:0|0:0,0:0:0:0:
156,184,1659,2,0,P|116:196|64:188,1,90
28,212,2118,2,0,L|32:308,1,90,0|2,0:0|0:0,0:0:0:0:
72,324,2577,2,0,P|116:330|159:318,1,90
200,300,3036,2,0,L|244:296,2,45,2|0|0,0:0|0:0|0:0,0:0:0:0:
100,156,3648,6,0,P|104:112|124:72,1,90,2|0,0:0|0:0,0:0:0:0:
164,52,4108,2,0,L|260:48,1,90
284,84,4567,2,0,L|380:80,1,90,0|2,0:0|0:0,0:0:0:0:
412,104,5026,2,0,P|408:148|388:188,1,90
348,208,5485,2,0,L|296:212,2,45,2|0|0,0:0|0:0|0:0,0:0:0:0:
456,292,6097,6,0,P|432:328|396:356,1,90,2|0,0:0|0:0,0:0:0:0:
352,352,6557,2,0,P|308:339|264:341,1,90
220,348,7016,2,0,P|175:350|132:337,2,90,0|2|0,0:0|0:0|0:0,0:0:0:0:
256,244,7934,2,0,L|272:180,2,45,2|0|0,0:0|0:0|0:0,0:0:0:0:
400,208,8546,6,0,P|396:156|376:124,1,90,2|0,0:0|0:0,0:0:0:0:
336,108,9006,2,0,P|284:104|252:84,1,90
208,76,9465,2,0,L|196:120,1,45
184,164,9771,2,0,P|132:172|92:160,1,90,2|0,0:0|0:0,0:0:0:0:
52,168,10230,1,0,0:0:0:0:
52,168,10383,2,0,L|36:232,2,45,2|0|0,0:0|0:0|0:0,0:0:0:0:
256,192,10842,12,0,13138,0:0:0:0:
256,196,13444,6,2,P|304:172|344:168,1,90,4|2,0:0|0:0,0:0:0:0:
384,172,13904,1,0,0:0:0:0:
428,180,14057,1,8,0:0:0:0:
512,272,14363,2,0,L|508:332,1,45,2|0,0:0|0:0,0:0:0:0:
488,344,14669,2,0,P|444:340|396:344,1,90,0|2,0:0|0:0,0:0:0:0:
264,352,15281,2,0,P|220:336|184:304,1,90,8|2,0:0|0:0,0:0:0:0:
184,264,15740,1,0,0:0:0:0:
164,224,15893,6,0,P|129:195|87:180,1,90,0|2,0:0|0:0,0:0:0:0:
44,188,16353,2,0,L|28:232,1,45,0|8,0:0|0:0,0:0:0:0:
108,340,16812,1,2,0:0:0:0:
152,352,16965,1,0,0:0:0:0:
196,356,17118,2,0,L|252:356,1,45
296,252,17424,2,0,L|240:252,1,45,2|0,0:0|0:0,0:0:0:0:
348,352,17730,2,0,P|384:328|400:284,1,90,8|2,0:0|0:0,0:0:0:0:
320,80,18342,6,0,B|228:108|228:60|140:80,1,180,0|8,0:0|0:0,0:0:0:0:
48,152,19261,1,2,0:0:0:0:
48,152,19414,2,0,P|8:216|16:280,1,135,0|2,0:0|0:0,0:0:0:0:
124,348,20179,1,8,0:0:0:0:
220,252,20485,1,2,0:0:0:0:
156,132,20791,5,0,0:0:0:0:
156,132,20944,2,0,P|196:80|264:60,1,135,0|8,0:0|0:0,0:0:0:0:
368,112,21710,2,0,L|432:120,1,45,2|0,0:0|0:0,0:0:0:0:
480,208,22016,2,0,L|416:200,1,45
328,236,22322,2,0,P|320:280|328:332,1,90,2|8,0:0|0:0,0:0:0:0:
480,208,22934,1,2,0:0:0:0:
480,208,23087,1,0,0:0:0:0:
480,208,23240,6,0,P|488:164|480:112,1,90,4|2,0:0|0:0,0:0:0:0:
416,60,23700,1,0,0:0:0:0:
416,60,23853,2,0,L|320:68,1,90,8|2,0:0|0:0,0:0:0:0:
288,88,24312,2,0,L|232:92,1,45
164,212,24771,1,2,0:0:0:0:
296,272,25077,1,8,0:0:0:0:
428,212,25383,1,2,0:0:0:0:
428,212,25536,1,0,0:0:0:0:
428,212,25689,6,0,P|432:164|424:120,1,90,0|2,0:0|0:0,0:0:0:0:
348,80,26148,1,0,0:0:0:0:
348,80,26302,2,0,P|308:100|256:108,1,90,8|2,0:0|0:0,0:0:0:0:
220,116,26761,1,0,0:0:0:0:
220,116,26914,2,0,L|148:156,1,45
240,236,27220,2,0,L|312:196,1,45,2|0,0:0|0:0,0:0:0:0:
120,240,27526,2,0,P|132:292|160:324,1,90,8|2,0:0|0:0,0:0:0:0:
372,244,28138,6,0,P|408:224|460:220,1,90,0|2,0:0|0:0,0:0:0:0:
436,312,28597,1,0,0:0:0:0:
340,328,28751,2,0,P|292:288|284:240,1,90,8|2,0:0|0:0,0:0:0:0:
260,224,29210,1,0,0:0:0:0:
260,224,29363,2,0,P|216:220|164:232,1,90,0|2,0:0|0:0,0:0:0:0:
112,68,29975,1,8,0:0:0:0:
280,36,30281,1,2,0:0:0:0:
368,184,30587,5,0,0:0:0:0:
368,184,30740,2,0,P|376:232|368:276,1,90
360,312,31200,2,0,P|424:336|464:336,1,90,8|2,0:0|0:0,0:0:0:0:
476,308,31659,1,0,0:0:0:0:
476,308,31812,2,0,L|484:252,1,45
424,152,32118,2,0,L|416:216,1,45,2|0,0:0|0:0,0:0:0:0:
328,236,32424,5,8,0:0:0:0:
236,272,32577,1,0,0:0:0:0:
196,180,32730,1,2,0:0:0:0:
288,144,32883,1,0,0:0:0:0:
328,236,33036,6,0,P|392:288|448:288,1,135.000005149842,4|8,0:0|0:0,0:0:0:0:
424,176,33955,2,0,L|404:133,1,33.7500012874604,2|0,0:0|0:0,0:0:0:0:
384,116,34261,2,0,P|350:84|313:73,1,67.5000025749208,0|2,0:0|0:0,0:0:0:0:
244,116,34873,1,8,0:0:0:0:
320,196,35179,2,0,L|333:253,1,33.7500012874604,2|0,0:0|0:0,0:0:0:0:
308,256,35485,6,0,L|256:320,2,67.5000025749208,0|0|8,0:0|0:0|0:0,0:0:0:0:
200,216,36404,2,0,L|166:222,1,33.7500012874604,2|0,0:0|0:0,0:0:0:0:
123,227,36710,2,0,P|84:217|46:201,1,67.5000025749208,0|2,0:0|0:0,0:0:0:0:
72,72,37322,1,8,0:0:0:0:
72,72,37934,6,0,P|104:60|136:56,2,67.5000025749208,0|2|8,0:0|0:0|0:0,0:0:0:0:
132,156,38853,2,0,L|170:156,1,33.7500012874604,2|0,0:0|0:0,0:0:0:0:
212,156,39159,2,0,L|308:156,1,67.5000025749208,0|2,0:0|0:0,0:0:0:0:
368,188,39771,1,8,0:0:0:0:
319,264,40077,2,0,L|291:299,1,33.7500012874604,2|0,0:0|0:0,0:0:0:0:
254,296,40383,6,0,L|240:229,2,67.5000025749208,0|2|8,0:0|0:0|0:0,0:0:0:0:
294,374,41302,2,0,P|312:373|340:363,1,33.7500012874604,2|0,0:0|0:0,0:0:0:0:
368,354,41608,2,0,P|408:329|452:328,1,67.5000025749208,0|2,0:0|0:0,0:0:0:0:
481,207,42220,1,8,0:0:0:0:
394,238,42526,2,0,P|375:234|352:212,1,33.7500012874604,2|0,0:0|0:0,0:0:0:0:
353,184,42832,6,0,P|358:141|343:102,2,67.5000025749208,0|2|8,0:0|0:0|0:0,0:0:0:0:
270,153,43751,2,0,P|242:153|228:155,1,33.7500012874604,2|0,0:0|0:0,0:0:0:0:
198,176,44057,2,0,P|156:188|106:175,1,67.5000025749208,0|2,0:0|0:0,0:0:0:0:
153,100,44669,1,8,0:0:0:0:
68,123,44975,2,0,P|56:138|45:166,1,33.7500012874604,2|0,0:0|0:0,0:0:0:0:
46,194,45281,6,0,P|55:226|99:269,2,67.5000025749208,0|2|8,0:0|0:0|0:0,0:0:0:0:
132,185,46200,2,0,L|174:205,1,33.7500012874604
188,235,46506,2,0,L|276:225,1,67.5000025749208
393,213,47118,1,8,0:0:0:0:
393,213,47730,6,0,P|428:203|452:176,2,67.5000025749208,0|2|8,0:0|0:0|0:0,0:0:0:0:
324,267,48648,2,0,L|296:292,1,33.7500012874604,2|0,0:0|0:0,0:0:0:0:
257,304,48955,2,0,P|217:311|193:325,1,67.5000025749208,0|2,0:0|0:0,0:0:0:0:
115,363,49567,1,8,0:0:0:0:
120,275,49873,2,0,P|117:247|106:229,1,33.7500012874604,2|0,0:0|0:0,0:0:0:0:
93,203,50179,6,0,P|69:163|66:130,1,67.5000025749208,0|2,0:0|0:0,0:0:0:0:
172,124,50791,2,0,P|212:100|245:97,1,67.5000025749208,8|2,0:0|0:0,0:0:0:0:
256,216,51404,2,0,P|280:256|283:289,1,67.5000025749208,0|2,0:0|0:0,0:0:0:0:
152,300,52016,2,0,P|112:324|79:327,1,67.5000025749208,8|2,0:0|0:0,0:0:0:0:
60,312,52475,1,0,0:0:0:0:
71,172,52628,6,0,L|72:85,1,67.5000025749208,4|2,0:0|0:0,0:0:0:0:
84,64,53087,2,0,P|104:56|139:55,1,33.7500012874604,0|8,0:0|0:0,0:0:0:0:
205,113,53546,2,0,P|248:134|312:124,1,101.250003862381,2|0,0:0|0:0,0:0:0:0:
344,104,54159,1,2,0:0:0:0:
391,231,54465,2,0,L|323:264,1,67.5000025749208,8|2,0:0|0:0,0:0:0:0:
338,361,55077,6,0,L|419:322,1,67.5000025749208,0|2,0:0|0:0,0:0:0:0:
446,314,55536,2,0,P|459:303|476:276,1,33.7500012874604,0|8,0:0|0:0,0:0:0:0:
391,231,55995,2,0,P|352:197|337:121,1,101.250003862381,2|0,0:0|0:0,0:0:0:0:
335,100,56608,1,2,0:0:0:0:
189,157,56914,2,0,P|158:167|113:167,1,67.5000025749208,8|2,0:0|0:0,0:0:0:0:
106,68,57526,6,0,P|137:58|182:58,1,67.5000025749208,0|2,0:0|0:0,0:0:0:0:
222,60,57985,2,0,P|246:57|262:45,1,33.7500012874604,0|8,0:0|0:0,0:0:0:0:
297,143,58444,2,0,L|252:259,1,101.250003862381,2|0,0:0|0:0,0:0:0:0:
242,285,59057,1,2,0:0:0:0:
374,306,59363,2,0,L|409:296,2,33.7500012874604,8|0|2,0:0|0:0|0:0,0:0:0:0:
288,359,59975,6,0,L|220:368,1,67.5000025749208,0|2,0:0|0:0,0:0:0:0:
164,260,60587,2,0,L|226:285,1,67.5000025749208,8|2,0:0|0:0,0:0:0:0:
340,200,61200,2,0,L|272:208,1,67.5000025749208,0|2,0:0|0:0,0:0:0:0:
172,108,61812,2,0,L|257:143,1,67.5000025749208,8|2,0:0|0:0,0:0:0:0:
196,32,62424,6,0,P|166:26|121:40,1,67.5000025749208,0|2,0:0|0:0,0:0:0:0:
94,69,62883,2,0,L|86:114,1,33.7500012874604,0|8,0:0|0:0,0:0:0:0:
130,197,63342,2,0,P|126:242|92:312,1,101.250003862381,2|0,0:0|0:0,0:0:0:0:
81,338,63955,1,2,0:0:0:0:
10,214,64261,2,0,L|21:133,1,67.5000025749208,8|2,0:0|0:0,0:0:0:0:
128,184,64873,6,0,L|119:263,1,67.5000025749208,0|2,0:0|0:0,0:0:0:0:
167,269,65332,2,0,P|192:268|203:264,1,33.7500012874604,0|8,0:0|0:0,0:0:0:0:
260,195,65791,2,0,P|216:218|200:265,1,101.250003862381,2|0,0:0|0:0,0:0:0:0:
224,308,66404,1,2,0:0:0:0:
363,337,66710,2,0,P|408:339|445:318,1,67.5000025749208,8|2,0:0|0:0,0:0:0:0:
441,205,67322,6,0,P|396:203|359:224,1,67.5000025749208,0|2,0:0|0:0,0:0:0:0:
334,182,67781,2,0,L|310:131,1,33.7500012874604,0|8,0:0|0:0,0:0:0:0:
184,103,68240,2,0,L|231:200,1,101.250003862381,2|0,0:0|0:0,0:0:0:0:
250,239,68853,1,2,0:0:0:0:
117,277,69159,2,0,P|79:261|54:236,1,67.5000025749208,8|2,0:0|0:0,0:0:0:0:
50,193,69618,1,0,0:0:0:0:
50,193,69771,6,0,L|50:111,1,67.5000025749208,0|2,0:0|0:0,0:0:0:0:
83,87,70230,1,0,0:0:0:0:
83,87,70383,2,0,P|134:86|167:65,1,67.5000025749208,0|2,0:0|0:0,0:0:0:0:
249,74,70995,2,0,P|248:97|241:125,1,33.7500012874604
232,156,71302,1,2,0:0:0:0:
270,249,71608,2,0,P|293:238|309:225,1,33.7500012874604
329,192,71914,2,0,L|346:144,1,33.7500012874604,2|0,0:0|0:0,0:0:0:0:
408,68,72220,6,0,P|448:54|500:54,1,90,4|2,0:0|0:0,0:0:0:0:
480,188,72832,2,0,L|476:284,1,90,8|2,0:0|0:0,0:0:0:0:
456,316,73291,1,0,0:0:0:0:
416,336,73444,2,0,P|372:352|324:352,1,90,0|2,0:0|0:0,0:0:0:0:
172,304,74057,2,0,L|128:284,2,45,8|0|2,0:0|0:0|0:0,0:0:0:0:
356,208,74669,6,0,P|355:164|340:112,1,90,0|2,0:0|0:0,0:0:0:0:
312,88,75128,1,0,0:0:0:0:
272,68,75281,2,0,L|156:64,1,90,8|2,0:0|0:0,0:0:0:0:
140,152,75740,1,0,0:0:0:0:
140,152,75893,2,0,L|196:156,1,45
236,164,76200,2,0,P|256:216|248:256,1,90,2|8,0:0|0:0,0:0:0:0:
464,360,76812,1,2,0:0:0:0:
488,200,77118,6,0,L|500:108,1,90,0|2,0:0|0:0,0:0:0:0:
476,72,77577,1,0,0:0:0:0:
436,48,77730,2,0,P|388:32|344:28,1,90,8|2,0:0|0:0,0:0:0:0:
232,112,78342,2,0,L|275:125,1,45
320,224,78648,2,0,L|276:210,1,45,2|0,0:0|0:0,0:0:0:0:
360,144,78955,2,0,L|403:157,1,45,8|0,0:0|0:0,0:0:0:0:
448,256,79261,2,0,L|404:242,1,45,2|0,0:0|0:0,0:0:0:0:
380,348,79567,5,0,0:0:0:0:
380,348,79720,2,0,P|468:352|520:328,1,135,0|8,0:0|0:0,0:0:0:0:
480,152,80485,1,2,0:0:0:0:
480,152,80638,2,0,L|392:132,1,90
356,136,81097,2,0,P|316:164|264:172,1,90,2|8,0:0|0:0,0:0:0:0:
240,176,81557,1,0,0:0:0:0:
204,172,81710,1,2,0:0:0:0:
168,168,81863,1,0,0:0:0:0:
132,156,82016,6,0,P|88:166|52:192,1,90,0|2,0:0|0:0,0:0:0:0:
72,336,82628,2,0,L|160:320,1,90,8|2,0:0|0:0,0:0:0:0:
236,308,83087,1,0,0:0:0:0:
304,272,83240,2,0,P|324:224|312:172,1,90,0|2,0:0|0:0,0:0:0:0:
208,44,83853,2,0,L|152:36,1,45,8|0,0:0|0:0,0:0:0:0:
124,32,84159,1,2,0:0:0:0:
40,256,84465,6,0,P|84:272|132:276,1,90,0|2,0:0|0:0,0:0:0:0:
272,172,85077,2,0,P|228:156|180:152,1,90,8|2,0:0|0:0,0:0:0:0:
148,136,85536,1,0,0:0:0:0:
128,100,85689,2,0,L|120:44,1,45
36,100,85995,2,0,L|44:156,1,45,2|0,0:0|0:0,0:0:0:0:
52,184,86302,2,0,P|88:196|112:244,1,90,8|2,0:0|0:0,0:0:0:0:
160,316,86761,1,0,0:0:0:0:
248,336,86914,6,0,L|336:312,1,90,0|2,0:0|0:0,0:0:0:0:
296,136,87526,2,0,L|208:160,1,90,8|2,0:0|0:0,0:0:0:0:
160,236,87985,1,0,0:0:0:0:
160,236,88138,2,0,P|124:200|120:156,2,90,0|2|8,0:0|0:0|0:0,0:0:0:0:
192,320,89057,1,2,0:0:0:0:
396,224,89363,6,0,L|408:168,1,45
376,88,89669,2,0,L|319:80,1,45,2|0,0:0|0:0,0:0:0:0:
236,92,89975,2,0,L|224:148,1,45,8|0,0:0|0:0,0:0:0:0:
256,228,90281,2,0,L|312:235,1,45,2|0,0:0|0:0,0:0:0:0:
336,240,90587,1,0,0:0:0:0:
372,248,90740,1,0,0:0:0:0:
404,260,90893,1,2,0:0:0:0:
436,272,91046,1,0,0:0:0:0:
468,288,91200,2,0,L|488:200,1,90,8|2,0:0|0:0,0:0:0:0:
420,44,91812,6,0,P|372:36|328:40,1,90,0|2,0:0|0:0,0:0:0:0:
296,52,92271,1,0,0:0:0:0:
260,64,92424,2,0,L|172:92,1,90,8|2,0:0|0:0,0:0:0:0:
140,104,92883,1,0,0:0:0:0:
112,124,93036,2,0,P|92:168|96:208,1,90,0|2,0:0|0:0,0:0:0:0:
244,256,93648,2,0,P|264:212|260:172,1,90,8|2,0:0|0:0,0:0:0:0:
156,344,94261,6,0,P|88:344|28:308,1,135
28,276,94873,2,0,L|28:184,1,90,8|2,0:0|0:0,0:0:0:0:
100,132,95332,1,0,0:0:0:0:
100,132,95485,2,0,L|144:128,1,45
164,32,95791,2,0,L|68:40,1,90,2|8,0:0|0:0,0:0:0:0:
312,316,96710,6,0,P|354:303|385:271,1,90,0|2,0:0|0:0,0:0:0:0:
376,196,97169,1,0,0:0:0:0:
312,156,97322,2,0,P|269:168|238:200,1,90,8|2,0:0|0:0,0:0:0:0:
176,244,97781,1,0,0:0:0:0:
100,248,97934,2,0,P|57:235|26:203,1,90,0|2,0:0|0:0,0:0:0:0:
88,48,98546,2,0,L|180:40,1,90,8|2,0:0|0:0,0:0:0:0:
356,64,99159,6,0,P|397:114|392:180,1,135
320,228,99771,2,0,P|308:184|316:140,1,90,8|2,0:0|0:0,0:0:0:0:
288,124,100230,1,0,0:0:0:0:
288,124,100383,2,0,L|244:120,1,45
176,60,100689,2,0,P|128:52|84:56,1,90,2|8,0:0|0:0,0:0:0:0:
52,208,101302,1,2,0:0:0:0:
104,264,101455,1,0,0:0:0:0:
180,276,101608,6,0,B|264:256|268:308|356:276,1,180,0|8,0:0|0:0,0:0:0:0:
300,132,102526,1,2,0:0:0:0:
300,132,102679,2,0,P|228:120|160:128,1,135,0|2,0:0|0:0,0:0:0:0:
56,232,103444,1,8,0:0:0:0:
212,324,103751,2,0,L|256:316,1,45,2|0,0:0|0:0,0:0:0:0:
292,308,104057,6,0,P|352:328|464:304,1,180,0|8,0:0|0:0,0:0:0:0:
492,156,104975,2,0,L|500:108,1,45,2|0,0:0|0:0,0:0:0:0:
424,96,105281,2,0,L|417:140,1,45
408,224,105587,1,2,0:0:0:0:
256,284,105893,1,8,0:0:0:0:
296,64,106506,6,0,B|334:17|402:65|382:133|382:133|362:197|294:198|254:283|254:283|222:197|146:197|126:133|126:133|106:65|174:17|214:65,1,720
452,168,109567,6,0,P|420:224|384:248,1,90,8|2,0:0|0:0,0:0:0:0:
332,264,110026,2,0,L|332:312,2,45
268,232,110485,2,0,P|220:236|180:248,1,90,2|8,0:0|0:0,0:0:0:0:
56,300,111097,1,2,0:0:0:0:
48,256,111251,1,0,0:0:0:0:
56,212,111404,6,0,P|76:172|56:88,1,135.000005149842,4|0,0:0|0:0,0:0:0:0:
230,104,112628,2,0,P|268:102|301:88,1,67.5000025749208,0|2,0:0|0:0,0:0:0:0:
365,39,113240,1,8,0:0:0:0:
377,125,113546,2,0,L|386:188,1,33.7500012874604,2|0,0:0|0:0,0:0:0:0:
378,202,113853,6,0,P|360:235|326:266,2,67.5000025749208,0|2|8,0:0|0:0|0:0,0:0:0:0:
208,155,115077,2,0,P|185:179|169:209,1,67.5000025749208,0|2,0:0|0:0,0:0:0:0:
190,294,115689,1,8,0:0:0:0:
364,311,116301,6,0,P|392:297|428:291,2,67.5000025749208,0|2|8,0:0|0:0|0:0,0:0:0:0:
294,365,117220,1,2,0:0:0:0:
284,277,117526,2,0,P|275:236|237:197,1,67.5000025749208,0|2,0:0|0:0,0:0:0:0:
196,275,118138,1,8,0:0:0:0:
137,340,118444,2,0,P|108:339|81:329,1,33.7500012874604,2|0,0:0|0:0,0:0:0:0:
69,310,118751,6,0,L|28:253,2,67.5000025749208,0|2|8,0:0|0:0|0:0,0:0:0:0:
110,232,119669,1,2,0:0:0:0:
52,165,119975,2,0,P|46:118|55:89,1,67.5000025749208,0|2,0:0|0:0,0:0:0:0:
121,46,120587,1,8,0:0:0:0:
176,114,120893,2,0,P|190:122|206:125,1,33.7500012874604,2|0,0:0|0:0,0:0:0:0:
244,102,121199,6,0,P|270:83|332:79,2,67.5000025749208,4|2|8,0:0|0:0|0:0,0:0:0:0:
307,162,122118,2,0,L|330:217,1,33.7500012874604,2|0,0:0|0:0,0:0:0:0:
344,229,122424,2,0,P|371:251|424:258,1,67.5000025749208,0|2,0:0|0:0,0:0:0:0:
410,172,123036,1,8,0:0:0:0:
480,223,123342,2,0,P|488:247|486:277,1,33.7500012874604,2|0,0:0|0:0,0:0:0:0:
482,298,123648,6,0,L|416:361,2,67.5000025749208,0|2|8,0:0|0:0|0:0,0:0:0:0:
402,259,124567,2,0,L|366:249,1,33.7500012874604,2|0,0:0|0:0,0:0:0:0:
327,235,124873,2,0,P|277:246|259:242,1,67.5000025749208,0|2,0:0|0:0,0:0:0:0:
194,186,125485,1,8,0:0:0:0:
194,186,126097,6,0,P|232:176|253:149,2,67.5000025749208,0|2|8,0:0|0:0|0:0,0:0:0:0:
107,171,127015,2,0,L|54:159,1,33.7500012874604,2|0,0:0|0:0,0:0:0:0:
30,157,127322,2,0,P|5:186|15:239,1,67.5000025749208,0|2,0:0|0:0,0:0:0:0:
31,296,127934,1,8,0:0:0:0:
115,271,128240,2,0,L|164:258,1,33.7500012874604,2|0,0:0|0:0,0:0:0:0:
188,246,128546,6,0,P|190:275|214:315,1,67.5000025749208,0|2,0:0|0:0,0:0:0:0:
295,316,129159,2,0,P|293:287|269:247,1,67.5000025749208,8|2,0:0|0:0,0:0:0:0:
239,173,129771,2,0,L|184:148,2,33.7500012874604,0|0|2,0:0|0:0|0:0,0:0:0:0:
282,165,130230,1,0,0:0:0:0:
316,138,130383,2,0,P|353:124|408:122,1,67.5000025749208,8|2,0:0|0:0,0:0:0:0:
430,131,130842,1,0,0:0:0:0:
480,200,130995,6,0,L|479:267,1,67.5000025749208,4|2,0:0|0:0,0:0:0:0:
444,300,131455,2,0,P|427:303|412:310,1,33.7500012874604,0|8,0:0|0:0,0:0:0:0:
315,278,131913,2,0,P|363:258|388:199,1,101.250003862381,2|0,0:0|0:0,0:0:0:0:
391,166,132526,1,2,0:0:0:0:
256,143,132832,2,0,L|183:194,1,67.5000025749208,8|2,0:0|0:0,0:0:0:0:
120,243,133444,6,0,P|99:206|101:169,1,67.5000025749208,0|2,0:0|0:0,0:0:0:0:
122,137,133903,2,0,P|135:126|152:99,1,33.7500012874604,0|8,0:0|0:0,0:0:0:0:
214,39,134362,2,0,P|225:84|300:107,1,101.250003862381,2|0,0:0|0:0,0:0:0:0:
320,112,134975,1,2,0:0:0:0:
396,236,135281,2,0,P|365:246|316:243,1,67.5000025749208,8|2,0:0|0:0,0:0:0:0:
288,344,135893,6,0,P|319:334|364:334,1,67.5000025749208,0|2,0:0|0:0,0:0:0:0:
404,337,136352,2,0,P|428:334|444:322,1,33.7500012874604,0|8,0:0|0:0,0:0:0:0:
476,236,136812,2,0,L|421:147,1,101.250003862381,2|0,0:0|0:0,0:0:0:0:
394,107,137424,1,2,0:0:0:0:
291,190,137730,2,0,L|258:199,2,33.7500012874604,8|0|2,0:0|0:0|0:0,0:0:0:0:
239,102,138342,6,0,P|208:112|176:141,1,67.5000025749208,0|2,0:0|0:0,0:0:0:0:
116,212,138955,2,0,P|94:186|84:154,1,67.5000025749208,8|2,0:0|0:0,0:0:0:0:
68,54,139567,2,0,P|36:64|10:85,1,67.5000025749208,0|2,0:0|0:0,0:0:0:0:
26,186,140179,2,0,P|57:175|83:154,1,67.5000025749208,8|2,0:0|0:0,0:0:0:0:
209,65,140791,6,0,P|177:75|151:96,1,67.5000025749208,0|2,0:0|0:0,0:0:0:0:
164,145,141250,2,0,P|165:167|158:189,1,33.7500012874604,0|8,0:0|0:0,0:0:0:0:
181,277,141709,2,0,P|235:250|258:186,1,101.250003862381,2|0,0:0|0:0,0:0:0:0:
261,165,142322,1,2,0:0:0:0:
396,204,142628,2,0,L|386:270,1,67.5000025749208,8|2,0:0|0:0,0:0:0:0:
311,337,143240,6,0,P|292:297|288:264,1,67.5000025749208,0|2,0:0|0:0,0:0:0:0:
262,230,143699,2,0,P|243:231|228:233,1,33.7500012874604,0|8,0:0|0:0,0:0:0:0:
135,274,144158,2,0,P|128:213|161:158,1,101.250003862381,2|0,0:0|0:0,0:0:0:0:
183,146,144771,1,2,0:0:0:0:
316,115,145077,2,0,P|357:113|398:96,1,67.5000025749208,8|2,0:0|0:0,0:0:0:0:
438,20,145689,6,0,P|463:40|481:80,1,67.5000025749208,0|2,0:0|0:0,0:0:0:0:
496,118,146148,2,0,L|499:156,1,33.7500012874604,0|8,0:0|0:0,0:0:0:0:
452,241,146608,2,0,P|435:195|379:158,1,101.250003862381,2|0,0:0|0:0,0:0:0:0:
345,153,147220,1,2,0:0:0:0:
359,253,147526,2,0,P|346:282|293:319,1,67.5000025749208,8|2,0:0|0:0,0:0:0:0:
271,320,147985,1,0,0:0:0:0:
224,300,148138,6,0,L|148:260,1,67.5000025749208,0|2,0:0|0:0,0:0:0:0:
121,241,148597,1,0,0:0:0:0:
78,213,148751,1,0,0:0:0:0:
92,112,149057,2,0,L|168:152,1,67.5000025749208,2|0,0:0|0:0,0:0:0:0:
195,171,149516,1,0,0:0:0:0:
238,199,149670,1,2,0:0:0:0:
337,180,149975,2,0,P|331:160|317:140,1,33.7500012874604,8|0,0:0|0:0,0:0:0:0:
289,112,150281,2,0,P|280:97|276:80,1,33.7500012874604,2|0,0:0|0:0,0:0:0:0:
412,60,150587,6,0,P|453:44|504:46,1,90,4|0,0:0|0:0,0:0:0:0:
475,151,151199,2,0,P|477:201|471:247,1,90,8|2,0:0|0:0,0:0:0:0:
450,280,151658,1,0,0:0:0:0:
405,284,151811,2,0,P|354:281|313:300,1,90,0|2,0:0|0:0,0:0:0:0:
120,292,152424,2,0,L|76:272,2,45,8|0|2,0:0|0:0|0:0,0:0:0:0:
255,165,153036,6,0,P|263:122|239:69,1,90,0|2,0:0|0:0,0:0:0:0:
199,47,153495,1,0,0:0:0:0:
175,129,153648,2,0,P|133:124|88:75,1,90,8|0,0:0|0:0,0:0:0:0:
63,65,154107,1,0,0:0:0:0:
20,80,154260,2,0,L|-1:143,1,45
16,166,154567,1,2,0:0:0:0:
169,254,154873,2,0,L|259:223,1,90,8|2,0:0|0:0,0:0:0:0:
380,224,155485,6,0,P|372:273|345:314,1,90,0|2,0:0|0:0,0:0:0:0:
313,331,155944,1,0,0:0:0:0:
221,333,156097,2,0,P|173:317|125:322,1,90,8|0,0:0|0:0,0:0:0:0:
147,112,156709,2,0,L|175:75,1,45
226,139,157016,2,0,L|262:111,1,45,2|0,0:0|0:0,0:0:0:0:
293,186,157322,2,0,L|336:168,1,45,8|0,0:0|0:0,0:0:0:0:
345,251,157628,2,0,L|391:245,1,45,2|0,0:0|0:0,0:0:0:0:
318,333,157934,5,0,0:0:0:0:
318,333,158087,2,0,P|254:354|187:346,1,135,0|8,0:0|0:0,0:0:0:0:
105,192,158852,1,2,0:0:0:0:
105,192,159005,2,0,P|148:207|173:251,1,90
183,286,159465,2,0,L|134:338,1,45,2|0,0:0|0:0,0:0:0:0:
57,313,159771,2,0,L|102:266,1,45,8|0,0:0|0:0,0:0:0:0:
46,263,160077,1,2,0:0:0:0:
20,226,160230,1,0,0:0:0:0:
12,181,160383,6,0,P|33:132|83:105,1,90,4|2,0:0|0:0,0:0:0:0:
207,164,160995,2,0,P|241:135|256:94,1,90,8|2,0:0|0:0,0:0:0:0:
276,53,161454,1,0,0:0:0:0:
320,48,161607,2,0,P|334:106|321:139,1,90,0|2,0:0|0:0,0:0:0:0:
169,81,162220,2,0,P|132:78|110:83,1,45,8|0,0:0|0:0,0:0:0:0:
82,94,162526,1,2,0:0:0:0:
60,266,162832,6,0,P|102:290|155:290,1,90,0|2,0:0|0:0,0:0:0:0:
303,271,163444,2,0,P|261:247|208:247,1,90,8|2,0:0|0:0,0:0:0:0:
188,212,163903,1,0,0:0:0:0:
174,168,164056,2,0,L|179:110,1,45
255,99,164362,2,0,L|252:167,1,45,2|0,0:0|0:0,0:0:0:0:
334,123,164669,2,0,P|332:71|296:26,1,90,8|2,0:0|0:0,0:0:0:0:
273,16,165128,1,0,0:0:0:0:
190,44,165281,6,0,P|150:61|103:67,1,90,0|2,0:0|0:0,0:0:0:0:
93,225,165893,2,0,P|133:208|179:201,1,90,8|2,0:0|0:0,0:0:0:0:
216,225,166352,1,0,0:0:0:0:
241,262,166505,2,0,P|249:305|282:335,2,90,0|2|8,0:0|0:0|0:0,0:0:0:0:
352,185,167424,1,2,0:0:0:0:
392,312,167730,6,0,P|405:326|448:346,1,45
458,265,168036,2,0,P|475:256|507:222,1,45,2|0,0:0|0:0,0:0:0:0:
434,186,168342,2,0,P|431:167|408:125,1,45,8|0,0:0|0:0,0:0:0:0:
352,185,168648,2,0,P|333:181|286:190,1,45,2|0,0:0|0:0,0:0:0:0:
326,261,168954,5,0,0:0:0:0:
309,302,169107,1,0,0:0:0:0:
275,332,169260,1,2,0:0:0:0:
231,344,169413,1,0,0:0:0:0:
186,338,169567,2,0,P|135:319|103:283,1,90,8|2,0:0|0:0,0:0:0:0:
85,256,170026,1,0,0:0:0:0:
89,166,170179,6,0,P|131:178|162:210,1,90,4|2,0:0|0:0,0:0:0:0:
326,167,170791,2,0,P|338:124|370:93,1,90,8|2,0:0|0:0,0:0:0:0:
412,79,171250,1,0,0:0:0:0:
456,87,171403,2,0,L|446:204,1,90,0|2,0:0|0:0,0:0:0:0:
357,284,172016,2,0,P|348:243|367:194,1,90,8|2,0:0|0:0,0:0:0:0:
417,341,172628,6,0,P|343:366|282:319,1,135
271,303,173240,2,0,P|245:264|186:242,1,90,8|2,0:0|0:0,0:0:0:0:
167,265,173700,2,0,L|123:269,1,45
93,196,174006,2,0,L|143:192,1,45,0|2,0:0|0:0,0:0:0:0:
290,98,174465,2,0,P|266:61|208:29,1,90,8|2,0:0|0:0,0:0:0:0:
280,208,175077,6,0,P|303:245|362:277,1,90,0|2,0:0|0:0,0:0:0:0:
385,275,175536,1,0,0:0:0:0:
450,212,175689,2,0,P|413:188|368:185,1,90,8|2,0:0|0:0,0:0:0:0:
347,145,176148,1,0,0:0:0:0:
309,120,176301,2,0,P|257:117|205:149,1,90,0|2,0:0|0:0,0:0:0:0:
130,317,176914,2,0,P|182:320|234:288,1,90,8|2,0:0|0:0,0:0:0:0:
98,172,177526,6,0,P|93:100|127:44,1,135
168,42,178138,2,0,P|163:86|196:131,1,90,8|2,0:0|0:0,0:0:0:0:
251,152,178597,1,0,0:0:0:0:
318,130,178751,1,0,0:0:0:0:
360,72,178904,2,0,P|379:69|406:64,1,45,0|2,0:0|0:0,0:0:0:0:
457,217,179363,1,8,0:0:0:0:
292,326,179669,1,2,0:0:0:0:
231,273,179822,1,0,0:0:0:0:
307,247,179975,6,0,B|364:263|371:324|371:324|401:257,1,180,4|8,0:0|0:0,0:0:0:0:
347,124,180893,1,2,0:0:0:0:
347,124,181046,2,0,P|275:112|207:120,1,135,0|2,0:0|0:0,0:0:0:0:
93,237,181812,2,0,P|148:232|196:193,1,90,8|2,0:0|0:0,0:0:0:0:
307,247,182424,6,0,P|367:272|460:217,1,180,0|8,0:0|0:0,0:0:0:0:
459,77,183342,2,0,P|431:77|390:94,1,45,2|0,0:0|0:0,0:0:0:0:
375,103,183648,1,0,0:0:0:0:
307,161,183802,2,0,P|285:165|262:165,1,45,0|2,0:0|0:0,0:0:0:0:
201,24,184261,2,0,P|243:41|277:71,1,90,8|2,0:0|0:0,0:0:0:0:
163,151,184873,6,0,P|121:134|87:104,1,90,0|2,0:0|0:0,0:0:0:0:
24,214,185485,2,0,P|65:230|99:260,1,90,8|2,0:0|0:0,0:0:0:0:
138,281,185944,2,0,L|189:265,1,45
313,198,186404,1,2,0:0:0:0:
303,344,186710,2,0,P|348:344|410:304,1,90,8|2,0:0|0:0,0:0:0:0:
419,293,187169,1,0,0:0:0:0:
449,221,187322,6,0,L|452:177,1,45
452,131,187628,1,2,0:0:0:0:
352,30,187934,2,0,P|340:78|284:110,1,90,8|2,0:0|0:0,0:0:0:0:
279,136,188393,2,0,L|279:184,2,45
266,92,188853,1,2,0:0:0:0:
120,151,189159,1,8,0:0:0:0:
247,248,189464,1,2,0:0:0:0:
216,176,189618,1,0,0:0:0:0:
172,240,189771,6,0,P|184:294|212:318,1,90,4|2,0:0|0:0,0:0:0:0:
284,328,190230,1,0,0:0:0:0:
356,300,190383,2,0,P|412:276|464:276,1,90,8|2,0:0|0:0,0:0:0:0:
480,208,190842,1,0,0:0:0:0:
496,132,190995,2,0,L|504:60,1,45
428,60,191302,2,0,L|420:132,1,45,2|0,0:0|0:0,0:0:0:0:
356,144,191608,2,0,P|308:148|264:144,1,90,8|2,0:0|0:0,0:0:0:0:
192,132,192067,1,0,0:0:0:0:
116,124,192220,6,0,P|92:140|80:156,1,45
108,228,192526,2,0,P|132:212|144:196,1,45,2|0,0:0|0:0,0:0:0:0:
36,212,192832,2,0,P|28:248|32:272,1,45,8|0,0:0|0:0,0:0:0:0:
88,304,193138,1,2,0:0:0:0:
88,304,193291,2,0,P|132:312|176:332,1,90
276,348,193751,1,2,0:0:0:0:
484,244,194057,1,8,0:0:0:0:
352,52,194363,1,2,0:0:0:0:
352,52,194516,1,0,0:0:0:0:
352,52,194669,6,0,P|279:50|236:64,1,90,0|2,0:0|0:0,0:0:0:0:
136,156,195281,2,0,P|208:157|252:144,1,90,8|2,0:0|0:0,0:0:0:0:
260,164,195740,1,0,0:0:0:0:
260,164,195893,2,0,L|252:256,1,90,0|2,0:0|0:0,0:0:0:0:
412,284,196506,1,8,0:0:0:0:
432,124,196812,1,2,0:0:0:0:
220,48,197118,5,0,0:0:0:0:
220,48,197271,2,0,P|156:48|116:60,1,90
100,72,197730,2,0,L|88:184,1,90,8|2,0:0|0:0,0:0:0:0:
128,244,198189,2,0,L|176:244,1,45
220,320,198495,2,0,L|176:320,1,45,0|2,0:0|0:0,0:0:0:0:
278,229,198955,1,8,0:0:0:0:
488,224,199261,1,2,0:0:0:0:
437,343,199414,1,0,0:0:0:0:
364,236,199567,6,0,P|368:184|388:148,1,90,4|2,0:0|0:0,0:0:0:0:
488,224,200179,2,0,P|484:276|464:312,1,90,8|2,0:0|0:0,0:0:0:0:
392,332,200638,1,0,0:0:0:0:
316,344,200791,2,0,P|268:344|224:336,1,90,0|2,0:0|0:0,0:0:0:0:
136,212,201404,1,8,0:0:0:0:
264,88,201710,2,0,L|264:133,1,45,2|0,0:0|0:0,0:0:0:0:
288,160,202016,6,0,P|336:168|384:160,1,90,0|2,0:0|0:0,0:0:0:0:
488,240,202628,2,0,L|468:344,1,90,8|2,0:0|0:0,0:0:0:0:
392,344,203087,1,0,0:0:0:0:
392,344,203240,2,0,L|336:348,1,45
304,268,203546,2,0,L|360:264,1,45,2|0,0:0|0:0,0:0:0:0:
228,336,203853,2,0,L|204:244,1,90,8|2,0:0|0:0,0:0:0:0:
268,128,204465,6,0,P|312:172|372:168,1,90,0|2,0:0|0:0,0:0:0:0:
380,160,204924,2,0,L|420:216,1,45,0|8,0:0|0:0,0:0:0:0:
300,320,205383,2,0,L|256:331,1,45,2|0,0:0|0:0,0:0:0:0:
233,291,205689,2,0,P|192:274|148:283,1,90,0|2,0:0|0:0,0:0:0:0:
32,172,206302,2,0,P|48:120|44:80,1,90,8|2,0:0|0:0,0:0:0:0:
164,44,206914,5,0,0:0:0:0:
164,44,207067,2,0,P|208:60|252:60,1,90
284,44,207526,2,0,L|284:136,1,90,8|2,0:0|0:0,0:0:0:0:
352,232,207985,2,0,L|352:180,1,45
179,160,208444,1,2,0:0:0:0:
276,328,208751,1,8,0:0:0:0:
245,104,209057,5,2,0:0:0:0:
102,126,209210,1,0,0:0:0:0:
194,239,209363,1,4,0:0:0:0:
256,192,209516,12,0,213036,0:0:0:0:
256,192,214261,5,4,0:0:0:0:
256,192,224057,5,4,0:0:0:0:
256,192,231404,12,4,233853,0:0:0:0:
184,112,234159,5,2,0:0:0:0:
184,112,234312,1,0,0:0:0:0:
184,112,234465,2,0,P|136:128|88:136,1,90,8|2,0:0|0:0,0:0:0:0:
48,200,234924,1,0,0:0:0:0:
88,272,235077,2,0,P|108:304|108:360,1,90,0|2,0:0|0:0,0:0:0:0:
288,344,235689,2,0,L|336:328,1,45,8|0,0:0|0:0,0:0:0:0:
408,308,235995,1,2,0:0:0:0:
476,140,236302,6,0,P|436:120|388:116,1,90,0|2,0:0|0:0,0:0:0:0:
320,156,236761,1,0,0:0:0:0:
320,156,236914,2,0,L|212:168,1,90,8|2,0:0|0:0,0:0:0:0:
88,228,237373,2,0,L|84:276,1,45
160,328,237679,2,0,L|164:280,1,45,0|2,0:0|0:0,0:0:0:0:
168,112,238138,1,8,0:0:0:0:
340,116,238444,1,2,0:0:0:0:
416,272,238751,6,0,P|336:304|296:308,1,90,0|2,0:0|0:0,0:0:0:0:
344,200,239210,1,0,0:0:0:0:
344,200,239363,2,0,P|424:168|464:164,1,90,8|2,0:0|0:0,0:0:0:0:
304,327,239975,2,0,P|291:341|248:361,1,45
238,280,240281,2,0,P|221:271|189:237,1,45,2|0,0:0|0:0,0:0:0:0:
262,201,240587,2,0,P|265:182|288:140,1,45,8|0,0:0|0:0,0:0:0:0:
344,200,240893,2,0,P|363:196|410:205,1,45,2|0,0:0|0:0,0:0:0:0:
448,260,241200,5,0,0:0:0:0:
448,260,241353,2,0,P|472:192|448:136,1,135,0|8,0:0|0:0,0:0:0:0:
256,48,242118,1,2,0:0:0:0:
256,48,242271,2,0,L|152:68,1,90
48,148,242730,1,2,0:0:0:0:
204,220,243036,2,0,L|260:212,1,45,8|0,0:0|0:0,0:0:0:0:
232,136,243342,2,0,L|176:144,1,45,2|0,0:0|0:0,0:0:0:0:
124,264,243648,6,0,P|160:296|204:308,1,90,0|2,0:0|0:0,0:0:0:0:
344,232,244261,2,0,P|380:200|424:188,1,90,8|2,0:0|0:0,0:0:0:0:
452,272,244720,1,0,0:0:0:0:
392,340,244873,2,0,P|348:352|300:344,1,90,0|2,0:0|0:0,0:0:0:0:
212,188,245485,2,0,L|228:144,1,45,8|0,0:0|0:0,0:0:0:0:
256,72,245791,1,2,0:0:0:0:
436,44,246097,6,0,P|472:68|488:112,1,90,0|2,0:0|0:0,0:0:0:0:
412,140,246557,1,0,0:0:0:0:
332,124,246710,2,0,P|284:128|240:140,1,90,8|2,0:0|0:0,0:0:0:0:
168,172,247169,1,0,0:0:0:0:
132,244,247322,2,0,L|160:284,1,45
256,276,247628,2,0,L|228:236,1,45,2|0,0:0|0:0,0:0:0:0:
128,160,247934,2,0,P|80:176|52:208,1,90,8|2,0:0|0:0,0:0:0:0:
64,284,248393,1,0,0:0:0:0:
120,344,248546,6,0,L|216:340,1,90,0|2,0:0|0:0,0:0:0:0:
372,152,249159,2,0,P|340:124|293:102,1,90,8|2,0:0|0:0,0:0:0:0:
320,240,249618,2,0,L|364:244,1,45
484,132,250077,1,2,0:0:0:0:
340,32,250383,2,0,P|296:28|248:28,1,90,8|2,0:0|0:0,0:0:0:0:
84,96,250995,6,0,L|46:146,1,45
152,152,251302,2,0,L|189:101,1,45,2|0,0:0|0:0,0:0:0:0:
104,220,251608,2,0,L|66:270,1,45,8|0,0:0|0:0,0:0:0:0:
172,276,251915,2,0,L|209:225,1,45,2|0,0:0|0:0,0:0:0:0:
288,232,252220,1,0,0:0:0:0:
332,220,252373,1,0,0:0:0:0:
376,208,252526,1,2,0:0:0:0:
416,188,252679,1,0,0:0:0:0:
448,156,252832,2,0,P|456:108|456:64,1,90,8|2,0:0|0:0,0:0:0:0:
380,40,253291,1,0,0:0:0:0:
300,44,253444,6,0,P|256:52|208:48,1,90,4|2,0:0|0:0,0:0:0:0:
128,56,253904,1,0,0:0:0:0:
68,112,254057,2,0,L|56:212,1,90,8|2,0:0|0:0,0:0:0:0:
52,284,254516,1,0,0:0:0:0:
116,336,254669,2,0,L|164:312,1,45
168,220,254975,2,0,L|120:244,1,45,2|0,0:0|0:0,0:0:0:0:
228,280,255281,2,0,P|252:240|248:192,1,90,8|2,0:0|0:0,0:0:0:0:
360,32,255893,6,0,P|404:36|448:48,1,90,0|2,0:0|0:0,0:0:0:0:
456,128,256353,1,0,0:0:0:0:
396,184,256506,2,0,P|352:180|308:168,1,90,8|2,0:0|0:0,0:0:0:0:
240,124,256965,1,0,0:0:0:0:
164,92,257118,2,0,L|108:96,1,45
100,180,257424,2,0,L|156:176,1,45,2|0,0:0|0:0,0:0:0:0:
28,128,257730,2,0,P|12:172|24:220,1,90,8|2,0:0|0:0,0:0:0:0:
176,336,258342,6,0,L|265:328,1,90,0|2,0:0|0:0,0:0:0:0:
324,272,258802,1,0,0:0:0:0:
336,192,258955,2,0,P|329:142|304:108,1,90,8|2,0:0|0:0,0:0:0:0:
228,112,259414,1,0,0:0:0:0:
168,168,259567,2,0,P|174:217|200:252,1,90,0|2,0:0|0:0,0:0:0:0:
276,248,260026,1,0,0:0:0:0:
336,192,260179,2,0,P|379:177|424:173,1,90,8|2,0:0|0:0,0:0:0:0:
332,309,260791,6,0,P|236:313|196:249,1,180,0|8,0:0|0:0,0:0:0:0:
204,64,261710,2,0,L|245:81,2,45,2|0|0,0:0|0:0|0:0,0:0:0:0:
160,52,262169,1,0,0:0:0:0:
116,44,262322,1,2,0:0:0:0:
72,56,262475,1,0,0:0:0:0:
32,76,262628,2,0,P|40:120|60:164,1,90,8|2,0:0|0:0,0:0:0:0:
140,168,263087,1,0,0:0:0:0:
216,140,263240,6,0,P|308:144|388:176,1,180,4|8,0:0|0:0,0:0:0:0:
348,332,264159,2,0,L|288:328,1,45,2|0,0:0|0:0,0:0:0:0:
224,324,264465,1,0,0:0:0:0:
296,160,264771,1,2,0:0:0:0:
428,284,265077,1,8,0:0:0:0:
488,68,265383,2,0,L|424:72,1,45,2|0,0:0|0:0,0:0:0:0:
360,104,265689,6,0,P|312:112|264:100,1,90,0|2,0:0|0:0,0:0:0:0:
200,160,266148,1,0,0:0:0:0:
220,248,266302,2,0,L|316:264,2,90,8|2|0,0:0|0:0|0:0,0:0:0:0:
88,124,267220,2,0,L|40:140,1,45,2|0,0:0|0:0,0:0:0:0:
0,216,267526,2,0,P|0:272|12:304,1,90,8|2,0:0|0:0,0:0:0:0:
160,236,268138,6,0,B|260:108|384:272|488:156,1,360
372,44,269669,1,2,0:0:0:0:
212,36,269975,2,0,P|164:40|116:48,1,90,8|2,0:0|0:0,0:0:0:0:
68,200,270587,6,0,P|116:196|164:188,1,90,0|2,0:0|0:0,0:0:0:0:
236,159,271046,2,0,L|252:99,1,45,0|8,0:0|0:0,0:0:0:0:
396,52,271506,2,0,L|464:56,1,45,2|0,0:0|0:0,0:0:0:0:
476,128,271812,2,0,P|480:172|468:224,1,90,0|2,0:0|0:0,0:0:0:0:
392,228,272271,1,0,0:0:0:0:
392,228,272424,2,0,L|296:228,1,90,8|2,0:0|0:0,0:0:0:0:
188,184,273036,6,0,B|218:149|269:187|253:238|253:238|237:287|179:286|153:351|153:351|130:285|72:284|57:235|57:235|44:183|96:147|126:184,2,540.000020599366,4|2|0,0:0|0:0|0:0,0:0:0:0:
208,76,278240,6,0,P|241:78|274:86,1,67.5000025749208,2|0,0:0|0:0,0:0:0:0:
312,188,278853,2,0,P|278:185|245:177,1,67.5000025749208,2|0,0:0|0:0,0:0:0:0:
136,184,279465,2,0,L|144:232,1,33.7500012874604,2|0,0:0|0:0,0:0:0:0:
152,268,279771,2,0,L|200:320,1,67.5000025749208,0|2,0:0|0:0,0:0:0:0:
256,192,280383,12,2,282526,0:0:0:0:
256,192,282832,12,0,285281,0:0:0:0:
