osu file format v14

[General]
AudioFilename: audio.mp3
AudioLeadIn: 0
PreviewTime: 71143
Countdown: 0
SampleSet: Soft
StackLeniency: 0.7
Mode: 3
LetterboxInBreaks: 0
SpecialStyle: 0
WidescreenStoryboard: 0

[Editor]
DistanceSpacing: 2
BeatDivisor: 4
GridSize: 4
TimelineZoom: 1

[Metadata]
Title:Akikaze no Answer (Cut Ver.)
TitleUnicode:秋風のアンサー (Cut Ver.)
Artist:Flower
ArtistUnicode:Flower
Creator:kaythen
Version:Autumn
Source:ビンタ!~弁護士事務員ミノワが愛で解決します~
Tags:花時計 hanadokei japanese pop jpop j-pop e-girls binta! bengoshi jimuin minowa ga ai de kaiketsu shimasu
BeatmapID:2302651
BeatmapSetID:1102223

[Difficulty]
HPDrainRate:7
CircleSize:10
OverallDifficulty:7
ApproachRate:5
SliderMultiplier:1.4
SliderTickRate:1

[Events]
//Background and Video events
0,0,"bg.jpg",0,0
//Break Periods
//Storyboard Layer 0 (Background)
//Storyboard Layer 1 (Fail)
//Storyboard Layer 2 (Pass)
//Storyboard Layer 3 (Foreground)
//Storyboard Layer 4 (Overlay)
//Storyboard Sound Samples

[TimingPoints]
1195,612.244897959184,4,2,1,30,1,0
52623,-100,4,2,2,30,0,0
72215,-100,4,2,1,30,0,1
101603,-100,4,2,1,30,0,0

[HitObjects]
486,192,1195,5,0,0:0:0:70:C#6S_Db6S_s.wav
384,192,1348,1,0,0:0:0:70:A5S_s.wav
281,192,1501,1,0,0:0:0:70:E5S_s.wav
486,192,1654,1,0,0:0:0:70:C#6S_Db6S_s.wav
384,192,1807,1,0,0:0:0:70:A5S_s.wav
281,192,1960,1,0,0:0:0:70:E5S_s.wav
486,192,2113,1,0,0:0:0:70:C#6S_Db6S_s.wav
384,192,2266,1,0,0:0:0:70:A5S_s.wav
281,192,2419,1,0,0:0:0:70:E5S_s.wav
486,192,2572,1,0,0:0:0:70:C#6S_Db6S_s.wav
384,192,2725,1,0,0:0:0:70:A5S_s.wav
281,192,2878,1,0,0:0:0:70:E5S_s.wav
486,192,3031,1,0,0:0:0:70:C#6S_Db6S_s.wav
384,192,3184,1,0,0:0:0:70:A5S_s.wav
281,192,3337,1,0,0:0:0:70:E5S_s.wav
435,192,3643,1,0,0:0:0:70:B5S_s.wav
384,192,3797,1,0,0:0:0:70:G#5S_Ab5S_s.wav
332,192,3950,1,0,0:0:0:70:E5S_s.wav
435,192,4103,1,0,0:0:0:70:B5S_s.wav
384,192,4256,1,0,0:0:0:70:G#5S_Ab5S_s.wav
332,192,4409,1,0,0:0:0:70:E5S_s.wav
435,192,4562,1,0,0:0:0:70:B5S_s.wav
384,192,4715,1,0,0:0:0:70:G#5S_Ab5S_s.wav
332,192,4868,1,0,0:0:0:70:E5S_s.wav
435,192,5021,1,0,0:0:0:70:B5S_s.wav
384,192,5174,1,0,0:0:0:70:G#5S_Ab5S_s.wav
332,192,5327,1,0,0:0:0:70:E5S_s.wav
435,192,5480,1,0,0:0:0:70:B5S_s.wav
384,192,5633,1,0,0:0:0:70:G#5S_Ab5S_s.wav
332,192,5786,1,0,0:0:0:70:E5S_s.wav
25,192,6092,1,0,0:0:0:70:A5S_s.wav
486,192,6092,1,0,0:0:0:0:
128,192,6246,1,0,0:0:0:70:F#5S_Gb5S_s.wav
230,192,6399,1,0,0:0:0:70:C#5S_Db5S_s.wav
435,192,6399,1,0,0:0:0:0:
25,192,6552,1,0,0:0:0:70:A5S_s.wav
384,192,6552,1,0,0:0:0:0:
128,192,6705,1,0,0:0:0:70:F#5S_Gb5S_s.wav
332,192,6858,1,0,0:0:0:0:
230,192,6858,1,0,0:0:0:70:C#5S_Db5S_s.wav
25,192,7011,1,0,0:0:0:70:A5S_s.wav
281,192,7011,1,0,0:0:0:0:
128,192,7164,1,0,0:0:0:70:F#5S_Gb5S_s.wav
230,192,7317,1,0,0:0:0:70:C#5S_Db5S_s.wav
25,192,7470,1,0,0:0:0:70:A5S_s.wav
128,192,7623,1,0,0:0:0:70:F#5S_Gb5S_s.wav
230,192,7776,1,0,0:0:0:70:C#5S_Db5S_s.wav
25,192,7929,1,0,0:0:0:70:A5S_s.wav
128,192,8082,1,0,0:0:0:70:F#5S_Gb5S_s.wav
230,192,8235,1,0,0:0:0:70:C#5S_Db5S_s.wav
76,192,8541,1,0,0:0:0:70:A5S_s.wav
128,192,8695,1,0,0:0:0:70:F#5S_Gb5S_s.wav
179,192,8848,1,0,0:0:0:70:D5S_s.wav
76,192,9001,1,0,0:0:0:70:A5S_s.wav
128,192,9154,1,0,0:0:0:70:F#5S_Gb5S_s.wav
179,192,9307,1,0,0:0:0:70:D5S_s.wav
76,192,9460,1,0,0:0:0:70:A5S_s.wav
128,192,9613,1,0,0:0:0:70:F#5S_Gb5S_s.wav
179,192,9766,1,0,0:0:0:70:D5S_s.wav
76,192,9919,1,0,0:0:0:70:A5S_s.wav
128,192,10072,1,0,0:0:0:70:F#5S_Gb5S_s.wav
179,192,10225,1,0,0:0:0:70:D5S_s.wav
76,192,10378,1,0,0:0:0:70:A5S_s.wav
128,192,10531,1,0,0:0:0:70:F#5S_Gb5S_s.wav
179,192,10684,1,0,0:0:0:70:D5S_s.wav
281,192,13133,1,0,0:0:0:70:A5S_s.wav
332,192,13286,1,0,0:0:0:70:B5S_s.wav
128,192,13439,1,2,0:0:0:0:
384,192,13439,1,0,0:0:0:70:C#6S_Db6S_s.wav
25,192,13439,1,0,0:0:0:30:cymbal.wav
486,192,13899,1,0,0:0:0:70:E6S_s.wav
179,192,14052,1,4,0:0:0:0:
230,192,14052,1,2,0:0:0:0:
128,192,14358,1,2,0:0:0:0:
384,192,14358,1,0,0:0:0:70:A5S_s.wav
179,192,14511,1,2,0:0:0:0:
25,192,14970,1,2,0:0:0:0:
128,192,15276,1,2,0:0:0:0:
230,192,15276,1,4,0:0:0:0:
332,192,15582,1,0,0:0:0:70:A5S_s.wav
384,192,15735,1,0,0:0:0:70:B5S_s.wav
25,192,15888,1,2,0:0:0:0:
384,192,15888,1,0,0:0:0:70:B5S_s.wav
486,192,16348,1,0,0:0:0:70:E6S_s.wav
179,192,16501,1,2,0:0:0:0:
230,192,16501,1,4,0:0:0:0:
76,192,16807,1,2,0:0:0:0:
435,192,16807,1,0,0:0:0:70:B5S_s.wav
179,192,16960,1,2,0:0:0:0:
128,192,17266,1,4,0:0:0:0:
230,192,17419,1,2,0:0:0:0:
25,192,17725,1,2,0:0:0:0:
76,192,17725,1,4,0:0:0:0:
128,192,17725,1,0,0:0:0:30:finish.wav
486,192,17725,1,0,0:0:0:70:E8S_s.wav
384,192,18031,1,0,0:0:0:70:A5S_s.wav
435,192,18184,1,0,0:0:0:50:B5S_s.wav
128,192,18337,1,2,0:0:0:0:
486,192,18337,1,0,0:0:0:70:E6S_s.wav
230,192,18337,1,0,0:0:0:0:
435,192,18643,1,0,0:0:0:0:
384,192,18797,1,0,0:0:0:70:E7S_s.wav
25,192,18950,1,2,0:0:0:0:
230,192,18950,1,4,0:0:0:0:
332,192,19103,1,0,0:0:0:0:
128,192,19256,1,2,0:0:0:0:
281,192,19256,1,0,0:0:0:70:D6S_s.wav
179,192,19409,1,2,0:0:0:0:
230,192,19868,1,2,0:0:0:0:
435,192,19868,1,0,0:0:0:70:C#6S_Db6S_s.wav
25,192,20174,1,2,0:0:0:0:
128,192,20174,1,4,0:0:0:0:
384,192,20174,1,0,0:0:0:70:B5S_s.wav
332,192,20480,1,0,0:0:0:70:A5S_s.wav
25,192,20786,1,2,0:0:0:0:
281,192,20786,1,0,0:0:0:70:A5S_s.wav
486,192,20786,1,0,0:0:0:0:
128,192,20939,1,2,0:0:0:0:
435,192,21092,1,0,0:0:0:0:
384,192,21246,1,0,0:0:0:70:E5S_s.wav
76,192,21399,1,2,0:0:0:0:
179,192,21399,1,4,0:0:0:0:
332,192,21552,1,0,0:0:0:0:
128,192,21705,1,2,0:0:0:0:
281,192,21705,1,0,0:0:0:70:A5S_s.wav
230,192,21858,1,2,0:0:0:0:
128,192,22164,1,4,0:0:0:0:
25,192,22317,1,2,0:0:0:0:
128,192,22623,1,2,0:0:0:0:
179,192,22623,1,4,0:0:0:0:
435,192,22623,1,0,0:0:0:70:B5S_s.wav
230,192,22623,1,0,0:0:0:30:finish.wav
25,192,22929,1,6,0:0:0:0:
128,192,23082,1,6,0:0:0:0:
230,192,23235,1,2,0:0:0:0:
281,192,23235,1,0,0:0:0:70:C#6S_Db6S_s.wav
384,192,23235,1,0,0:0:0:0:
486,192,23695,1,0,0:0:0:70:E6S_s.wav
179,192,23848,1,4,0:0:0:0:
230,192,23848,1,2,0:0:0:0:
128,192,24154,1,2,0:0:0:0:
384,192,24154,1,0,0:0:0:70:A5S_s.wav
179,192,24307,1,2,0:0:0:0:
25,192,24766,1,2,0:0:0:0:
128,192,25072,1,2,0:0:0:0:
230,192,25072,1,4,0:0:0:0:
332,192,25378,1,0,0:0:0:70:A5S_s.wav
384,192,25531,1,0,0:0:0:70:B5S_s.wav
25,192,25684,1,2,0:0:0:0:
384,192,25684,1,0,0:0:0:70:B5S_s.wav
486,192,26143,1,0,0:0:0:70:E6S_s.wav
179,192,26297,1,2,0:0:0:0:
230,192,26297,1,4,0:0:0:0:
76,192,26603,1,2,0:0:0:0:
435,192,26603,1,0,0:0:0:70:B5S_s.wav
179,192,26756,1,2,0:0:0:0:
128,192,27062,1,4,0:0:0:0:
230,192,27215,1,2,0:0:0:0:
25,192,27521,1,2,0:0:0:0:
76,192,27521,1,4,0:0:0:0:
128,192,27521,1,0,0:0:0:30:finish.wav
486,192,27521,1,0,0:0:0:70:E8S_s.wav
384,192,27827,1,0,0:0:0:70:A5S_s.wav
435,192,27980,1,0,0:0:0:50:B5S_s.wav
128,192,28133,1,2,0:0:0:0:
486,192,28133,1,0,0:0:0:70:E6S_s.wav
230,192,28133,1,0,0:0:0:0:
435,192,28439,1,0,0:0:0:0:
384,192,28592,1,0,0:0:0:70:E7S_s.wav
25,192,28746,1,2,0:0:0:0:
230,192,28746,1,4,0:0:0:0:
332,192,28899,1,0,0:0:0:0:
128,192,29052,1,2,0:0:0:0:
281,192,29052,1,0,0:0:0:70:A7S_s.wav
179,192,29205,1,2,0:0:0:0:
486,192,29358,1,0,0:0:0:0:
435,192,29664,1,2,0:0:0:0:
25,192,29664,1,0,0:0:0:70:G#6S_Ab6S_s.wav
384,192,29817,1,0,0:0:0:0:
179,192,29970,1,6,0:0:0:0:
128,192,29970,1,0,0:0:0:70:E6S_s.wav
332,192,30123,1,0,0:0:0:0:
230,192,30276,1,0,0:0:0:70:C#6S_Db6S_s.wav
281,192,30276,1,0,0:0:0:0:
25,192,30582,1,2,0:0:0:0:
486,192,30582,1,0,0:0:0:70:A6S_s.wav
128,192,30582,1,0,0:0:0:0:
384,192,30786,1,0,0:0:0:70:G#6S_Ab6S_s.wav
281,192,30990,1,0,0:0:0:70:E6S_s.wav
25,192,31195,1,6,0:0:0:0:
435,192,31195,1,0,0:0:0:70:F#6S_Gb6S_s.wav
384,192,31399,1,0,0:0:0:70:E6S_s.wav
332,192,31603,1,0,0:0:0:70:C#6S_Db6S_s.wav
486,192,31807,1,2,0:0:0:0:
25,192,31807,1,0,0:0:0:70:E6S_s.wav
128,192,32011,1,0,0:0:0:70:C#6S_Db6S_s.wav
230,192,32215,1,0,0:0:0:70:B5S_s.wav
384,192,32419,1,2,0:0:0:0:
332,192,32419,1,4,0:0:0:0:
76,192,32419,1,0,0:0:0:70:C#6S_Db6S_s.wav
435,192,32419,1,0,0:0:0:30:finish.wav
128,192,32623,1,0,0:0:0:70:B5S_s.wav
179,192,32827,1,0,0:0:0:70:A5S_s.wav
25,192,33031,1,2,0:0:0:0:
230,192,33031,1,0,0:0:0:30:cymbal.wav
486,192,33031,1,0,0:0:0:0:
25,192,33643,1,8,0:0:0:0:
128,192,33950,1,2,0:0:0:0:
179,192,34103,1,2,0:0:0:0:
435,192,34256,1,0,0:0:0:0:
332,192,34562,1,0,0:0:0:0:
25,192,34868,1,8,0:0:0:0:
435,192,34868,1,0,0:0:0:0:
384,192,35174,1,0,0:0:0:30:edge.wav
281,192,35327,1,0,0:0:0:30:edge.wav
332,192,35480,1,0,0:0:0:0:
179,192,35480,1,2,0:0:0:0:
25,192,36092,1,8,0:0:0:0:
128,192,36399,1,2,0:0:0:0:
179,192,36552,1,2,0:0:0:0:
281,192,36705,1,0,0:0:0:0:
230,192,37011,1,2,0:0:0:0:
384,192,37164,1,0,0:0:0:0:
25,192,37317,1,8,0:0:0:0:
76,192,37317,1,2,0:0:0:0:
128,192,37317,1,0,0:0:0:30:finish2.wav
486,192,37470,1,0,0:0:0:0:
435,192,37776,1,0,0:0:0:0:
179,192,37929,1,2,0:0:0:0:
25,192,38541,1,8,0:0:0:0:
128,192,38848,1,2,0:0:0:0:
332,192,38848,1,0,0:0:0:0:
179,192,39001,1,2,0:0:0:0:
384,192,39154,1,0,0:0:0:0:
332,192,39460,1,0,0:0:0:0:
25,192,39766,1,8,0:0:0:0:
384,192,39766,1,0,0:0:0:0:
128,192,40072,1,0,0:0:0:30:edge.wav
435,192,40072,1,0,0:0:0:0:
230,192,40225,1,0,0:0:0:30:edge.wav
76,192,40378,1,2,0:0:0:0:
486,192,40378,1,0,0:0:0:0:
384,192,40684,1,0,0:0:0:0:
25,192,40990,1,8,0:0:0:0:
281,192,40990,1,0,0:0:0:0:
230,192,41297,1,2,0:0:0:0:
384,192,41297,1,0,0:0:0:0:
128,192,41450,1,2,0:0:0:0:
230,192,41603,1,2,0:0:0:0:
486,192,41603,1,0,0:0:0:0:
179,192,41909,1,2,0:0:0:0:
384,192,41909,1,0,0:0:0:0:
76,192,42062,1,2,0:0:0:0:
179,192,42215,1,8,0:0:0:0:
230,192,42215,1,0,0:0:0:30:finish2.wav
281,192,42215,1,0,0:0:0:0:
76,192,42368,1,0,0:0:0:0:
179,192,42521,1,2,0:0:0:0:
384,192,42521,128,0,43133:0:0:0:0:
76,192,42674,1,2,0:0:0:0:
230,192,42827,1,2,0:0:0:0:
486,192,43133,1,0,0:0:0:0:
25,192,43439,1,8,0:0:0:0:
179,192,43746,1,2,0:0:0:0:
230,192,43899,1,2,0:0:0:0:
435,192,44052,1,0,0:0:0:0:
332,192,44358,1,0,0:0:0:0:
25,192,44664,1,8,0:0:0:0:
435,192,44664,1,0,0:0:0:0:
128,192,44970,1,0,0:0:0:30:edge.wav
384,192,44970,1,0,0:0:0:0:
230,192,45123,1,0,0:0:0:30:edge.wav
281,192,45123,1,0,0:0:0:0:
179,192,45276,1,2,0:0:0:0:
332,192,45276,1,0,0:0:0:0:
25,192,45888,1,8,0:0:0:0:
128,192,46195,1,2,0:0:0:0:
384,192,46195,1,0,0:0:0:0:
230,192,46348,1,2,0:0:0:0:
435,192,46501,1,0,0:0:0:0:
179,192,46807,1,2,0:0:0:0:
384,192,46807,1,0,0:0:0:0:
332,192,46960,1,0,0:0:0:0:
25,192,47113,1,8,0:0:0:0:
128,192,47113,1,2,0:0:0:0:
230,192,47113,1,0,0:0:0:30:finish2.wav
486,192,47266,1,0,0:0:0:0:
384,192,47572,1,0,0:0:0:0:
179,192,47725,1,2,0:0:0:0:
25,192,48337,1,8,0:0:0:0:
128,192,48643,1,2,0:0:0:0:
384,192,48643,1,0,0:0:0:0:
230,192,48797,1,2,0:0:0:0:
281,192,48950,1,0,0:0:0:0:
332,192,49256,1,0,0:0:0:0:
25,192,49562,1,8,0:0:0:0:
384,192,49562,1,0,0:0:0:0:
230,192,49868,1,0,0:0:0:30:edge.wav
435,192,49868,1,0,0:0:0:0:
128,192,50021,1,0,0:0:0:30:edge.wav
25,192,50174,1,2,0:0:0:0:
486,192,50174,1,0,0:0:0:70:F#6S_Gb6S_s.wav
384,192,50480,1,0,0:0:0:70:E6S_s.wav
128,192,50480,1,0,0:0:0:0:
230,192,50786,1,8,0:0:0:0:
281,192,50786,1,0,0:0:0:70:C#6S_Db6S_s.wav
25,192,51092,1,2,0:0:0:0:
486,192,51092,1,0,0:0:0:70:F#6S_Gb6S_s.wav
384,192,51399,1,0,0:0:0:70:E6S_s.wav
128,192,51399,1,0,0:0:0:0:
230,192,51705,1,2,0:0:0:0:
281,192,51705,1,0,0:0:0:70:C#6S_Db6S_s.wav
25,192,52011,1,8,0:0:0:0:
76,192,52011,1,2,0:0:0:0:
486,192,52011,128,0,52623:0:0:0:70:E6S_s.wav
128,192,52011,1,0,0:0:0:30:finish2.wav
230,192,52317,1,0,0:0:0:30:edge.wav
128,192,52470,1,0,0:0:0:30:edge.wav
25,192,52623,1,2,0:0:0:0:
230,192,52623,1,0,0:0:0:30:cymbal.wav
281,192,52623,1,0,0:0:0:0:
332,192,52929,1,0,0:0:0:0:
384,192,53082,1,0,0:0:0:0:
76,192,53235,1,2,0:0:0:0:
281,192,53388,1,0,0:0:0:0:
230,192,53541,1,2,0:0:0:0:
332,192,53541,1,0,0:0:0:0:
384,192,53695,1,0,0:0:0:0:
128,192,54154,1,2,0:0:0:0:
25,192,54460,1,2,0:0:0:0:
230,192,54460,1,8,0:0:0:0:
384,192,54460,1,0,0:0:0:0:
435,192,54766,1,0,0:0:0:0:
128,192,55072,1,2,0:0:0:0:
281,192,55072,1,0,0:0:0:0:
332,192,55378,1,0,0:0:0:0:
384,192,55531,1,0,0:0:0:0:
25,192,55684,1,2,0:0:0:0:
384,192,55837,1,0,0:0:0:0:
128,192,55990,1,2,0:0:0:0:
486,192,56143,1,0,0:0:0:0:
179,192,56603,1,2,0:0:0:0:
25,192,56909,1,2,0:0:0:0:
128,192,56909,1,8,0:0:0:0:
230,192,56909,1,0,0:0:0:30:finish2.wav
486,192,56909,1,0,0:0:0:0:
332,192,57215,1,0,0:0:0:0:
128,192,57521,1,2,0:0:0:0:
384,192,57521,1,0,0:0:0:0:
332,192,57827,1,0,0:0:0:0:
384,192,57980,1,0,0:0:0:0:
76,192,58133,1,2,0:0:0:0:
435,192,58286,1,0,0:0:0:0:
179,192,58439,1,2,0:0:0:0:
486,192,58592,1,0,0:0:0:0:
230,192,59052,1,2,0:0:0:0:
25,192,59358,1,2,0:0:0:0:
128,192,59358,1,8,0:0:0:0:
332,192,59358,1,0,0:0:0:0:
384,192,59511,1,0,0:0:0:0:
435,192,59664,1,0,0:0:0:0:
230,192,59970,1,2,0:0:0:0:
486,192,59970,1,0,0:0:0:0:
435,192,60276,1,0,0:0:0:0:
25,192,60582,1,2,0:0:0:0:
486,192,60582,1,0,0:0:0:0:
128,192,60888,1,2,0:0:0:0:
384,192,60888,1,0,0:0:0:0:
486,192,61195,1,0,0:0:0:0:
230,192,61501,1,2,0:0:0:0:
332,192,61501,1,0,0:0:0:0:
25,192,61807,1,2,0:0:0:0:
128,192,61807,1,8,0:0:0:0:
486,192,61807,1,0,0:0:0:0:
281,192,62113,1,0,0:0:0:0:
230,192,62419,1,2,0:0:0:0:
435,192,62419,1,0,0:0:0:0:
332,192,62725,1,0,0:0:0:0:
435,192,62878,1,0,0:0:0:0:
25,192,63031,1,2,0:0:0:0:
281,192,63184,128,0,63490:0:0:0:0:
128,192,63337,1,2,0:0:0:0:
384,192,63490,1,0,0:0:0:0:
230,192,63950,1,2,0:0:0:0:
25,192,64256,1,2,0:0:0:0:
128,192,64256,1,8,0:0:0:0:
332,192,64256,1,0,0:0:0:0:
435,192,64562,1,0,0:0:0:0:
179,192,64868,1,2,0:0:0:0:
281,192,64868,1,0,0:0:0:0:
332,192,65174,1,0,0:0:0:0:
384,192,65327,1,0,0:0:0:0:
25,192,65480,1,2,0:0:0:0:
384,192,65633,1,0,0:0:0:0:
230,192,65786,1,2,0:0:0:0:
384,192,65939,1,0,0:0:0:0:
128,192,66399,1,2,0:0:0:0:
332,192,66399,1,0,0:0:0:0:
25,192,66705,1,2,0:0:0:0:
230,192,66705,1,8,0:0:0:0:
486,192,66705,1,0,0:0:0:0:
332,192,67011,1,0,0:0:0:0:
128,192,67317,1,2,0:0:0:0:
486,192,67317,1,0,0:0:0:0:
384,192,67623,1,0,0:0:0:0:
25,192,67929,1,2,0:0:0:0:
230,192,67929,1,4,0:0:0:0:
128,192,68235,1,2,0:0:0:0:
486,192,68235,1,0,0:0:0:0:
384,192,68541,1,0,0:0:0:0:
128,192,68848,1,2,0:0:0:0:
25,192,69154,1,2,0:0:0:0:
230,192,69154,1,8,0:0:0:0:
486,192,69154,1,0,0:0:0:0:
128,192,69460,1,0,0:0:0:0:
384,192,69460,1,0,0:0:0:0:
281,192,69613,1,0,0:0:0:0:
25,192,69766,1,2,0:0:0:0:
486,192,69766,1,0,0:0:0:0:
128,192,70072,1,0,0:0:0:0:
179,192,70225,1,0,0:0:0:0:
230,192,70378,1,0,0:0:0:0:
25,192,70684,1,0,0:0:0:0:
76,192,70990,1,0,0:0:0:0:
128,192,71143,1,0,0:0:0:0:
179,192,71297,1,0,0:0:0:0:
332,192,71297,1,0,0:0:0:0:
230,192,71450,1,0,0:0:0:0:
25,192,71603,1,0,0:0:0:0:
486,192,71603,1,0,0:0:0:0:
76,192,71756,1,0,0:0:0:0:
435,192,71756,1,0,0:0:0:0:
128,192,71909,1,0,0:0:0:0:
384,192,71909,1,0,0:0:0:0:
179,192,72062,1,0,0:0:0:0:
332,192,72062,1,0,0:0:0:0:
25,192,72215,1,2,0:0:0:0:
281,192,72215,1,0,0:0:0:0:
486,192,72215,1,0,0:0:0:0:
230,192,72215,1,0,0:0:0:30:finish2.wav
384,192,72521,1,0,0:0:0:0:
25,192,72827,1,2,0:0:0:0:
230,192,72827,1,4,0:0:0:0:
486,192,72827,1,0,0:0:0:0:
128,192,73133,1,2,0:0:0:0:
179,192,73286,1,2,0:0:0:0:
332,192,73286,1,0,0:0:0:0:
435,192,73439,1,0,0:0:0:0:
76,192,73746,1,2,0:0:0:0:
128,192,74052,1,4,0:0:0:0:
230,192,74052,1,2,0:0:0:0:
281,192,74052,1,0,0:0:0:30:E7S.wav
332,192,74205,1,0,0:0:0:0:
384,192,74358,1,0,0:0:0:0:
25,192,74664,1,2,0:0:0:0:
486,192,74664,1,0,0:0:0:0:
384,192,74970,1,0,0:0:0:0:
179,192,75276,1,4,0:0:0:0:
230,192,75276,1,2,0:0:0:0:
486,192,75276,1,0,0:0:0:0:
25,192,75582,1,2,0:0:0:0:
332,192,75582,1,0,0:0:0:0:
128,192,75735,1,2,0:0:0:0:
281,192,75888,1,0,0:0:0:0:
230,192,76041,1,2,0:0:0:0:
128,192,76195,1,2,0:0:0:0:
486,192,76195,1,0,0:0:0:0:
384,192,76501,1,4,0:0:0:0:
179,192,76501,1,2,0:0:0:0:
230,192,76501,1,0,0:0:0:30:finish.wav
25,192,76501,1,0,0:0:0:30:E7S.wav
128,192,76807,1,0,0:0:0:0:
281,192,76807,1,0,0:0:0:0:
25,192,77113,1,2,0:0:0:0:
435,192,77113,1,0,0:0:0:0:
281,192,77419,1,0,0:0:0:0:
128,192,77725,1,4,0:0:0:0:
230,192,77725,1,0,0:0:0:0:
25,192,78031,1,2,0:0:0:0:
384,192,78031,1,0,0:0:0:0:
76,192,78184,1,2,0:0:0:0:
486,192,78337,1,0,0:0:0:70:A7S_s.wav
281,192,78337,1,0,0:0:0:0:
435,192,78490,1,0,0:0:0:70:G#7S_Ab7S_s.wav
128,192,78643,1,2,0:0:0:0:
384,192,78643,1,0,0:0:0:70:E7S_s.wav
332,192,78797,1,0,0:0:0:70:C#7S_Db7S_s.wav
486,192,78950,1,4,0:0:0:0:
230,192,78950,1,0,0:0:0:70:B6S_s.wav
281,192,78950,1,0,0:0:0:0:
179,192,79103,1,0,0:0:0:70:A6S_s.wav
128,192,79256,1,0,0:0:0:70:G#6S_Ab6S_s.wav
332,192,79256,1,0,0:0:0:0:
76,192,79409,1,0,0:0:0:70:A6S_s.wav
25,192,79562,1,2,0:0:0:0:
435,192,79562,1,0,0:0:0:0:
230,192,79715,1,2,0:0:0:0:
281,192,79868,1,0,0:0:0:0:
25,192,80174,1,4,0:0:0:0:
230,192,80174,1,2,0:0:0:0:
486,192,80174,1,0,0:0:0:0:
179,192,80480,1,2,0:0:0:0:
384,192,80480,1,0,0:0:0:0:
128,192,80633,1,2,0:0:0:0:
179,192,80939,1,4,0:0:0:0:
230,192,81092,1,2,0:0:0:0:
281,192,81092,1,0,0:0:0:0:
25,192,81399,1,4,0:0:0:0:
76,192,81399,1,2,0:0:0:0:
128,192,81399,1,0,0:0:0:30:finish.wav
486,192,81399,1,0,0:0:0:30:C#7S_Db7S.wav
435,192,81552,1,0,0:0:0:0:
179,192,81705,1,4,0:0:0:0:
384,192,81705,1,0,0:0:0:0:
128,192,81858,1,4,0:0:0:0:
332,192,81858,1,0,0:0:0:0:
281,192,82011,1,0,0:0:0:30:C#7S_Db7S.wav
230,192,82011,1,2,0:0:0:0:
384,192,82317,1,0,0:0:0:0:
25,192,82623,1,4,0:0:0:0:
230,192,82623,1,2,0:0:0:0:
486,192,82623,1,0,0:0:0:0:
128,192,82929,1,2,0:0:0:0:
332,192,82929,1,0,0:0:0:0:
179,192,83082,1,2,0:0:0:0:
435,192,83235,1,0,0:0:0:0:
76,192,83541,1,2,0:0:0:0:
128,192,83848,1,4,0:0:0:0:
281,192,83848,1,0,0:0:0:0:
230,192,83848,1,0,0:0:0:30:E7S.wav
332,192,84001,1,0,0:0:0:0:
384,192,84154,1,0,0:0:0:0:
25,192,84460,1,2,0:0:0:0:
486,192,84460,1,0,0:0:0:30:B6S.wav
384,192,84766,1,0,0:0:0:0:
179,192,85072,1,4,0:0:0:0:
230,192,85072,1,0,0:0:0:0:
486,192,85072,1,0,0:0:0:0:
25,192,85378,1,2,0:0:0:0:
332,192,85378,1,0,0:0:0:0:
128,192,85531,1,2,0:0:0:0:
281,192,85684,1,0,0:0:0:30:B6S_s.wav
76,192,85837,1,4,0:0:0:0:
332,192,85837,1,0,0:0:0:70:E7S_s.wav
230,192,85990,1,2,0:0:0:0:
486,192,85990,1,0,0:0:0:70:A7S_s.wav
179,192,86143,1,0,0:0:0:30:B6S_s.wav
25,192,86297,1,4,0:0:0:0:
281,192,86297,1,0,0:0:0:30:finish.wav
384,192,86297,1,0,0:0:0:0:
332,192,86297,1,0,0:0:0:70:E7S_s.wav
486,192,86450,1,0,0:0:0:70:A7S_s.wav
435,192,86603,1,0,0:0:0:0:
179,192,86603,1,0,0:0:0:30:B6S_s.wav
384,192,86756,1,0,0:0:0:70:E7S_s.wav
25,192,86909,1,2,0:0:0:0:
332,192,86909,1,0,0:0:0:70:F#7S_Gb7S_s.wav
128,192,86909,1,0,0:0:0:0:
281,192,87215,1,0,0:0:0:0:
128,192,87521,1,4,0:0:0:0:
230,192,87521,1,2,0:0:0:0:
25,192,87827,1,2,0:0:0:0:
384,192,87827,1,0,0:0:0:0:
76,192,87980,1,2,0:0:0:0:
281,192,88133,1,0,0:0:0:0:
128,192,88439,1,2,0:0:0:0:
25,192,88746,1,4,0:0:0:0:
230,192,88746,1,2,0:0:0:0:
281,192,88746,1,0,0:0:0:30:G#7S_Ab7S_s.wav
332,192,89052,1,0,0:0:0:0:
179,192,89358,1,2,0:0:0:0:
435,192,89358,1,0,0:0:0:0:
230,192,89511,1,2,0:0:0:0:
281,192,89664,1,0,0:0:0:0:
25,192,89970,1,4,0:0:0:0:
128,192,89970,1,2,0:0:0:0:
486,192,89970,1,0,0:0:0:0:
230,192,90276,1,2,0:0:0:0:
384,192,90276,1,0,0:0:0:0:
179,192,90429,1,2,0:0:0:0:
128,192,90735,1,2,0:0:0:0:
179,192,90888,1,2,0:0:0:0:
281,192,90888,1,0,0:0:0:0:
25,192,91195,1,4,0:0:0:0:
76,192,91195,1,2,0:0:0:0:
128,192,91195,1,0,0:0:0:30:finish.wav
486,192,91195,1,0,0:0:0:0:
230,192,91501,1,2,0:0:0:0:
179,192,91654,1,2,0:0:0:0:
435,192,91807,1,0,0:0:0:70:D7S_s.wav
128,192,91807,1,0,0:0:0:0:
384,192,92011,1,0,0:0:0:0:
332,192,92215,1,0,0:0:0:0:
25,192,92419,1,4,0:0:0:0:
230,192,92419,1,2,0:0:0:0:
435,192,92419,1,0,0:0:0:50:D7S_s.wav
384,192,92623,1,0,0:0:0:0:
128,192,92725,1,2,0:0:0:0:
332,192,92827,1,0,0:0:0:0:
435,192,93031,1,0,0:0:0:30:D7S_s.wav
384,192,93235,1,0,0:0:0:0:
25,192,93337,1,2,0:0:0:0:
332,192,93439,1,0,0:0:0:0:
128,192,93643,1,4,0:0:0:0:
230,192,93643,1,2,0:0:0:0:
435,192,93643,1,0,0:0:0:100:D7S_s.wav
25,192,94256,1,2,0:0:0:0:
486,192,94256,1,0,0:0:0:70:E7S_s.wav
384,192,94460,1,0,0:0:0:0:
281,192,94664,1,0,0:0:0:0:
128,192,94868,1,4,0:0:0:0:
230,192,94868,1,2,0:0:0:0:
486,192,94868,1,0,0:0:0:50:E7S_s.wav
384,192,95072,1,0,0:0:0:0:
25,192,95174,1,2,0:0:0:0:
281,192,95276,1,0,0:0:0:0:
486,192,95480,1,0,0:0:0:30:E7S_s.wav
384,192,95684,1,0,0:0:0:0:
179,192,95786,1,2,0:0:0:0:
281,192,95888,1,0,0:0:0:0:
25,192,96092,1,4,0:0:0:0:
128,192,96092,1,2,0:0:0:0:
486,192,96092,1,0,0:0:0:100:E7S_s.wav
230,192,96092,1,0,0:0:0:30:finish.wav
76,192,96705,1,2,0:0:0:0:
384,192,96705,1,0,0:0:0:70:F#7S_Gb7S_s.wav
332,192,96909,1,0,0:0:0:0:
281,192,97113,1,0,0:0:0:0:
128,192,97317,1,4,0:0:0:0:
230,192,97317,1,2,0:0:0:0:
384,192,97317,1,0,0:0:0:50:F#7S_Gb7S_s.wav
332,192,97521,1,0,0:0:0:0:
25,192,97623,1,2,0:0:0:0:
281,192,97725,1,0,0:0:0:0:
384,192,97929,1,0,0:0:0:30:F#7S_Gb7S_s.wav
332,192,98133,1,0,0:0:0:0:
128,192,98235,1,2,0:0:0:0:
281,192,98337,1,0,0:0:0:0:
25,192,98541,1,4,0:0:0:0:
230,192,98541,1,2,0:0:0:0:
384,192,98541,1,0,0:0:0:100:F#7S_Gb7S_s.wav
486,192,98848,1,0,0:0:0:0:
25,192,99154,1,2,0:0:0:0:
384,192,99154,1,0,0:0:0:70:G#7S_Ab7S_s.wav
230,192,99307,1,2,0:0:0:0:
179,192,99766,1,6,0:0:0:0:
230,192,99766,1,0,0:0:0:50:G#7S_Ab7S_s.wav
76,192,100072,1,2,0:0:0:0:
128,192,100225,1,2,0:0:0:0:
384,192,100378,1,0,0:0:0:70:A7S_s.wav
179,192,100531,1,4,0:0:0:0:
230,192,100684,1,2,0:0:0:0:
486,192,100684,1,0,0:0:0:0:
25,192,100990,1,4,0:0:0:0:
76,192,100990,1,2,0:0:0:0:
281,192,100990,1,0,0:0:0:70:G#7S_Ab7S_s.wav
384,192,100990,1,0,0:0:0:30:finish.wav
128,192,101297,1,4,0:0:0:0:
332,192,101297,1,0,0:0:0:0:
179,192,101450,1,4,0:0:0:0:
76,192,101603,1,2,0:0:0:0:
281,192,101603,1,0,0:0:0:70:C#6S_Db6S_s.wav
230,192,101603,1,0,0:0:0:30:cymbal.wav
435,192,101603,1,0,0:0:0:0:
486,192,102062,1,0,0:0:0:70:E6S_s.wav
25,192,102215,1,4,0:0:0:0:
76,192,102215,1,2,0:0:0:0:
179,192,102521,1,2,0:0:0:0:
384,192,102521,1,0,0:0:0:70:A5S_s.wav
230,192,102674,1,2,0:0:0:0:
25,192,103133,1,2,0:0:0:0:
128,192,103439,1,2,0:0:0:0:
230,192,103439,1,4,0:0:0:0:
332,192,103746,1,0,0:0:0:70:A5S_s.wav
384,192,103899,1,0,0:0:0:70:B5S_s.wav
25,192,104052,1,2,0:0:0:0:
384,192,104052,1,0,0:0:0:70:B5S_s.wav
486,192,104511,1,0,0:0:0:70:E6S_s.wav
179,192,104664,1,2,0:0:0:0:
230,192,104664,1,4,0:0:0:0:
76,192,104970,1,2,0:0:0:0:
384,192,104970,1,0,0:0:0:70:B5S_s.wav
179,192,105123,1,2,0:0:0:0:
128,192,105429,1,4,0:0:0:0:
230,192,105582,1,2,0:0:0:0:
384,192,105582,1,0,0:0:0:0:
25,192,105888,1,2,0:0:0:0:
76,192,105888,1,4,0:0:0:0:
128,192,105888,1,0,0:0:0:30:finish.wav
435,192,105888,1,0,0:0:0:0:
332,192,106195,1,0,0:0:0:70:A5S_s.wav
486,192,106348,1,0,0:0:0:70:B5S_s.wav
128,192,106501,1,2,0:0:0:0:
281,192,106501,1,0,0:0:0:70:C#6S_Db6S_s.wav
435,192,106807,1,0,0:0:0:0:
486,192,106960,1,0,0:0:0:70:E6S_s.wav
25,192,107113,1,2,0:0:0:0:
230,192,107113,1,4,0:0:0:0:
384,192,107113,1,0,0:0:0:0:
128,192,107419,1,2,0:0:0:0:
332,192,107419,1,0,0:0:0:70:D6S_s.wav
179,192,107572,1,2,0:0:0:0:
230,192,108031,1,2,0:0:0:0:
486,192,108031,1,0,0:0:0:70:C#6S_Db6S_s.wav
25,192,108337,1,2,0:0:0:0:
128,192,108337,1,4,0:0:0:0:
384,192,108337,1,0,0:0:0:70:B5S_s.wav
281,192,108643,1,0,0:0:0:70:A5S_s.wav
435,192,108643,1,0,0:0:0:0:
25,192,108950,1,2,0:0:0:0:
332,192,108950,1,0,0:0:0:70:A5S_s.wav
128,192,109103,1,2,0:0:0:0:
281,192,109409,1,0,0:0:0:70:E5S_s.wav
76,192,109562,1,2,0:0:0:0:
179,192,109562,1,4,0:0:0:0:
128,192,109868,1,2,0:0:0:0:
384,192,109868,1,0,0:0:0:70:A5S_s.wav
230,192,110021,1,2,0:0:0:0:
128,192,110327,1,4,0:0:0:0:
25,192,110480,1,2,0:0:0:0:
179,192,110786,1,2,0:0:0:0:
230,192,110786,1,4,0:0:0:0:
435,192,110786,1,0,0:0:0:70:B5S_s.wav
281,192,110786,1,0,0:0:0:30:finish.wav
128,192,111092,1,4,0:0:0:0:
384,192,111246,1,4,0:0:0:0:
230,192,111399,1,0,0:0:0:30:cymbal.wav
