osu file format v14

[General]
AudioFilename: No Light, No Light (DAS Remix).ogg
AudioLeadIn: 0
PreviewTime: 77119
Countdown: 0
SampleSet: Normal
StackLeniency: 0.7
Mode: 0
LetterboxInBreaks: 1
WidescreenStoryboard: 0

[Editor]
Bookmarks: 29586,164392,178937,198937,260756
DistanceSpacing: 1.1
BeatDivisor: 4
GridSize: 4
TimelineZoom: 1.7

[Metadata]
Title:No Light, No Light (DAS Remix)
TitleUnicode:No Light, No Light (DAS Remix)
Artist:Florence + The Machine
ArtistUnicode:Florence + The Machine
Creator:semaphore
Version:Normal
Source:
Tags:& and attendant Ruiz Duchamp LC La Cataline English electronic alternative indie pop ceremonials David Andrew Sitek
BeatmapID:4067326
BeatmapSetID:1898524

[Difficulty]
HPDrainRate:4
CircleSize:3
OverallDifficulty:5
ApproachRate:5
SliderMultiplier:1.2
SliderTickRate:1

[Events]
//Background and Video events
0,0,"output (3).jpg",0,0
//Break Periods
2,91865,97737
2,164592,177737
2,199137,203192
//Storyboard Layer 0 (Background)
//Storyboard Layer 1 (Fail)
//Storyboard Layer 2 (Pass)
//Storyboard Layer 3 (Foreground)
//Storyboard Layer 4 (Overlay)
//Storyboard Sound Samples

[TimingPoints]
756,454.545454545455,4,1,2,20,1,0
29846,-133.333333333333,4,1,1,15,0,0
30756,-133.333333333333,4,2,1,20,0,0
32575,-133.333333333333,4,1,1,30,0,0
33028,-133.333333333333,4,1,1,40,0,0
33483,-133.333333333333,4,2,1,20,0,0
43483,-133.333333333333,4,1,2,20,0,0
43937,-133.333333333333,4,2,2,30,0,0
44392,-133.333333333333,4,1,1,50,0,0
44733,-133.333333333333,4,1,2,30,0,0
45074,-133.333333333333,4,1,1,50,0,0
46551,-133.333333333333,4,1,2,30,0,0
46892,-133.333333333333,4,1,1,50,0,0
48710,-133.333333333333,4,1,2,30,0,0
48937,-133.333333333333,4,1,1,50,0,0
50187,-133.333333333333,4,1,2,30,0,0
50528,-133.333333333333,4,1,1,50,0,0
50983,-133.333333333333,4,1,1,40,0,0
51210,-133.333333333333,4,1,1,50,0,0
51437,-133.333333333333,4,1,1,60,0,0
51665,-133.333333333333,4,1,1,50,0,0
52006,-133.333333333333,4,1,2,30,0,0
52346,-133.333333333333,4,1,1,50,0,0
53824,-133.333333333333,4,1,2,30,0,0
54165,-133.333333333333,4,1,1,50,0,0
55755,-133.333333333333,4,1,2,30,0,0
55983,-133.333333333333,4,1,1,50,0,0
57460,-133.333333333333,4,1,2,30,0,0
57801,-133.333333333333,4,1,1,50,0,0
62574,-100,4,1,1,60,0,1
75983,-100,4,1,1,60,0,0
76437,-100,4,1,2,40,0,0
77119,-100,4,1,1,60,0,1
91210,-100,4,1,2,30,0,1
91437,-100,4,1,2,20,0,1
91665,-133.333333333333,4,1,1,40,0,0
98937,-133.333333333333,4,2,1,40,0,0
99278,-133.333333333333,4,1,2,20,0,0
99619,-133.333333333333,4,2,1,40,0,0
102915,-133.333333333333,4,1,2,20,0,0
103256,-133.333333333333,4,2,1,40,0,0
103483,-133.333333333333,4,1,2,20,0,0
103937,-133.333333333333,4,2,1,40,0,0
104733,-133.333333333333,4,1,2,20,0,0
105528,-133.333333333333,4,1,2,40,0,0
105982,-133.333333333333,4,1,2,20,0,0
106210,-133.333333333333,4,1,1,60,0,0
106551,-133.333333333333,4,1,2,30,0,0
106892,-133.333333333333,4,1,1,60,0,0
107119,-133.333333333333,4,1,2,30,0,0
107573,-133.333333333333,4,1,1,60,0,0
108369,-133.333333333333,4,1,2,30,0,0
108710,-133.333333333333,4,1,1,60,0,0
110756,-133.333333333333,4,1,2,30,0,0
111210,-133.333333333333,4,1,1,60,0,0
112006,-133.333333333333,4,1,2,30,0,0
112574,-133.333333333333,4,1,1,60,0,0
113824,-133.333333333333,4,1,2,30,0,0
114165,-133.333333333333,4,1,1,60,0,0
115755,-133.333333333333,4,1,2,30,0,0
116210,-133.333333333333,4,1,1,60,0,0
116891,-133.333333333333,4,1,2,30,0,0
117119,-133.333333333333,4,1,1,60,0,0
117460,-133.333333333333,4,1,2,30,0,0
117801,-133.333333333333,4,1,1,60,0,0
121210,-133.333333333333,4,1,2,30,0,0
121437,-133.333333333333,4,1,1,60,0,0
122914,-133.333333333333,4,1,2,30,0,0
123255,-133.333333333333,4,1,1,60,0,0
124846,-133.333333333333,4,1,2,30,0,0
125073,-133.333333333333,4,1,1,60,0,0
128482,-133.333333333333,4,1,2,30,0,0
128709,-133.333333333333,4,1,1,60,0,0
130186,-133.333333333333,4,1,2,30,0,0
130527,-133.333333333333,4,1,1,60,0,0
132119,-133.333333333333,4,1,2,30,0,0
132346,-133.333333333333,4,1,1,60,0,0
134619,-133.333333333333,4,1,2,40,0,0
135301,-100,4,1,1,70,0,1
148710,-100,4,1,1,70,0,0
149165,-100,4,1,2,50,0,0
149846,-100,4,1,1,70,0,1
163710,-100,4,1,2,50,0,1
164392,-133.333333333333,4,1,1,50,0,0
178937,-133.333333333333,4,1,1,60,0,0
181096,-133.333333333333,4,1,2,20,0,0
181437,-133.333333333333,4,1,1,60,0,0
185301,-133.333333333333,4,1,2,20,0,0
185528,-133.333333333333,4,1,1,60,0,0
206210,-100,4,1,1,80,0,1
219619,-100,4,1,1,80,0,0
220756,-100,4,1,1,80,0,1
234392,-100,4,1,1,80,0,0
235301,-100,4,1,1,90,0,1
249846,-100,4,1,1,80,0,0
250527,-100,4,1,2,20,0,0
250756,-100,4,1,2,60,0,0
251665,-100,4,1,1,80,0,0
254164,-100,4,1,2,20,0,0
254392,-100,4,1,1,80,0,0
258483,-100,4,1,2,50,0,0
258937,-100,4,1,1,80,0,0
260983,-100,4,1,2,20,0,0
264392,-100,4,2,0,10,0,0

[Colours]
Combo1 : 183,108,108
Combo2 : 143,186,116
Combo3 : 197,78,61
Combo4 : 234,217,157

[HitObjects]
144,72,29846,6,0,L|224:64,2,67.5000025749207,0|0|0,0:0|0:0|0:0,2:0:0:0:
96,80,30756,1,2,0:0:0:0:
72,256,31665,2,0,L|-8:264,2,67.5000025749207,0|0|0,1:0|1:0|1:0,0:0:0:0:
120,248,32575,1,0,0:0:0:0:
200,288,33028,1,0,0:0:0:0:
288,296,33483,6,0,L|296:368,2,67.5000025749207,0|0|0,1:0|1:0|1:0,0:0:0:0:
280,248,34392,1,2,0:0:0:0:
432,152,35301,2,0,L|424:80,2,67.5000025749207,0|0|0,1:0|1:0|1:0,0:0:0:0:
440,200,36210,1,0,0:0:0:0:
352,200,36665,1,0,1:0:0:0:
272,160,37119,6,0,B|240:168|192:168,2,67.5000025749207,0|0|0,1:0|1:0|1:0,0:0:0:0:
304,128,38028,1,2,0:0:0:0:
168,16,38937,2,0,B|200:8|234:8,2,67.5000025749207,0|0|0,1:0|1:0|1:0,0:0:0:0:
136,48,39846,1,2,0:0:0:0:
64,104,40301,1,0,1:0:0:0:
40,192,40756,6,0,B|16:256|40:328,1,135.000005149841,0|0,1:0|1:0,0:0:0:0:
72,352,41665,2,0,L|168:360,1,90.0000034332277,2|0,0:0|1:0,0:0:0:0:
236,308,42574,2,0,L|308:316,2,67.5000025749207,0|0|0,1:0|1:0|1:0,0:0:0:0:
204,276,43483,1,8,0:0:0:0:
128,228,43937,1,8,0:0:0:0:
172,148,44392,6,0,B|220:144|256:140,1,67.5000025749207,4|0,0:0|0:0,0:0:0:0:
320,132,45074,1,0,0:0:0:0:
364,124,45301,2,0,L|396:224,1,90.0000034332277,0|8,0:0|0:0,0:0:0:0:
420,304,46210,2,0,B|372:308|336:312,1,67.5000025749207
272,328,46892,1,0,0:0:0:0:
232,336,47119,1,4,0:0:0:0:
136,328,47574,1,8,0:0:0:0:
64,256,48028,6,0,B|80:184|64:112,1,135.000005149841,4|0,0:0|0:0,0:0:0:0:
56,80,48937,1,0,0:0:0:0:
144,32,49392,1,8,0:0:0:0:
212,104,49846,2,0,L|300:112,1,67.5000025749207
348,68,50528,1,0,0:0:0:0:
376,108,50756,1,4,0:0:0:0:
404,148,50983,2,0,B|468:156,2,45.0000017166138,8|8|0,0:0|0:0|0:0,0:0:0:0:
368,176,51665,6,0,B|360:224|356:256,1,67.5000025749207,4|0,0:0|0:0,0:0:0:0:
344,324,52346,1,0,0:0:0:0:
356,370,52574,1,0,0:0:0:0:
448,344,53028,1,8,0:0:0:0:
464,248,53483,2,0,B|472:208|476:160,1,67.5000025749207
504,108,54165,1,0,3:0:0:0:
490,60,54392,1,4,0:0:0:0:
388,40,54846,1,8,0:0:0:0:
296,88,55301,6,0,B|248:104|192:96,1,90.0000034332277,4|0,0:0|0:0,0:0:0:0:
176,64,55983,2,0,B|135:57|87:73,1,90.0000034332277
56,104,56665,1,8,0:0:0:0:
48,208,57119,2,0,L|52:296,1,67.5000025749207,4|0,0:0|0:0,0:0:0:0:
108,332,57801,1,0,0:0:0:0:
140,356,58028,2,0,L|196:364,1,45.0000017166138,4|8,0:0|0:0,0:0:0:0:
228,348,58483,2,0,L|284:356,1,45.0000017166138,8|0,0:0|0:0,0:0:0:0:
512,211,62574,6,0,L|448:200,1,60,4|2,0:0|0:0,0:0:0:0:
396,224,63028,2,2,L|332:213,1,60,0|2,0:0|0:0,0:0:0:0:
292,172,63483,1,0,0:0:0:0:
240,64,63937,1,14,0:0:0:0:
152,148,64392,2,0,B|144:200|132:240,2,90
136,92,65301,1,0,0:0:0:0:
28,148,65756,1,12,0:0:0:0:
20,208,65983,1,0,0:0:0:0:
12,268,66210,6,0,L|48:320,1,60,6|2,0:0|0:0,0:0:0:0:
88,360,66665,2,0,L|152:332,1,60,0|2,0:0|0:0,0:0:0:0:
204,344,67119,1,0,0:0:0:0:
260,236,67574,1,8,0:0:0:0:
312,268,67801,1,0,0:0:0:0:
360,304,68028,2,0,L|448:328,2,90,4|0|0,0:0|0:0|0:0,0:0:0:0:
308,332,68937,1,0,0:0:0:0:
240,232,69392,1,8,0:0:0:0:
348,176,69846,6,2,L|412:192,1,60,4|2,0:0|0:0,0:0:0:0:
464,172,70301,2,2,B|480:136|472:104,1,60,4|0,0:0|0:0,0:0:0:0:
440,64,70756,2,2,L|376:48,1,60,4|2,0:0|0:0,0:0:0:0:
328,72,71210,1,8,0:0:0:0:
212,36,71665,2,0,B|164:44|104:36,2,90,0|0|4,0:0|0:0|0:0,0:0:0:0:
240,88,72574,1,0,0:0:0:0:
224,148,72801,1,2,0:0:0:0:
168,164,73028,2,2,B|104:180|76:264,1,120,8|6,0:0|0:0,0:0:0:0:
136,352,73937,5,6,0:0:0:0:
240,292,74392,1,2,0:0:0:0:
188,184,74846,1,8,0:0:0:0:
136,216,75074,1,0,0:0:0:0:
84,244,75301,2,0,B|40:224|12:184,2,90
136,352,76437,1,10,0:0:0:0:
136,352,76665,1,10,0:0:0:0:
240,292,77119,6,2,L|308:300,1,60,4|2,0:0|0:0,0:0:0:0:
360,304,77574,2,2,L|400:240,1,60,4|2,0:0|0:0,0:0:0:0:
424,204,78028,2,0,L|408:136,1,60,6|2,0:0|0:0,0:0:0:0:
364,108,78483,1,8,0:0:0:0:
244,128,78937,2,0,L|216:24,2,90
224,184,79846,1,2,0:0:0:0:
188,232,80074,1,2,0:0:0:0:
68,248,80528,1,2,0:0:0:0:
68,248,80756,6,2,B|44:224|40:176,1,60,6|2,0:0|0:0,0:0:0:0:
88,156,81210,2,2,L|164:140,1,60,6|10,0:0|0:0,0:0:0:0:
204,132,81665,2,2,B|228:108|232:60,1,60,4|0,0:0|0:0,0:0:0:0:
224,20,82119,1,8,0:0:0:0:
104,24,82574,2,0,L|8:16,2,90
148,64,83483,1,4,0:0:0:0:
100,176,83937,1,8,0:0:0:0:
188,260,84392,6,2,L|256:272,1,60,6|2,0:0|0:0,0:0:0:0:
292,312,84846,2,0,L|256:368,1,60,6|2,0:0|0:0,0:0:0:0:
200,376,85301,1,4,0:0:0:0:
80,360,85756,1,8,0:0:0:0:
28,252,86210,2,0,L|0:164,2,90,4|0|0,0:0|0:0|0:0,0:0:0:0:
84,276,87119,1,0,0:0:0:0:
196,228,87574,1,8,0:0:0:0:
304,284,88028,5,6,0:0:0:0:
304,284,88256,2,2,L|372:292,1,60,0|0,0:0|0:0,0:0:0:0:
420,304,88710,2,2,B|456:252|444:180,1,120,8|2,0:0|0:0,0:0:0:0:
436,128,89392,1,8,0:0:0:0:
324,88,89846,2,0,B|300:136|312:192,2,90
340,28,90756,1,2,0:0:0:0:
220,36,91210,1,8,0:0:0:0:
164,60,91437,1,0,0:0:0:0:
108,44,91665,5,0,0:0:0:0:
124,32,98937,6,0,B|112:80|112:116,1,67.5000025749207,4|0,1:0|1:0,0:0:0:0:
88,176,99619,1,0,1:0:0:0:
84,220,99846,1,0,0:0:0:0:
72,320,100301,1,8,0:0:0:0:
168,352,100756,2,0,B|232:308|300:344,1,135.000005149841,0|0,1:0|1:0,0:0:0:0:
344,356,101665,1,0,1:0:0:0:
416,292,102119,1,8,0:0:0:0:
344,224,102574,6,0,B|328:184|324:144,1,67.5000025749207,0|0,1:0|1:0,0:0:0:0:
336,80,103256,1,0,1:0:0:0:
344,36,103483,2,0,L|440:24,1,90.0000034332277,0|8,0:0|0:0,0:0:0:0:
512,84,104392,2,0,B|512:130|500:164,1,67.5000025749207,0|0,1:0|1:0,0:0:0:0:
468,224,105074,1,0,0:0:0:0:
448,264,105301,1,0,1:0:0:0:
428,304,105528,2,0,L|440:348,2,45.0000017166138,8|8|0,0:0|0:0|0:0,0:0:0:0:
384,308,106210,6,0,L|304:316,1,67.5000025749207,4|0,0:0|0:0,0:0:0:0:
248,356,106892,1,0,0:0:0:0:
208,332,107119,2,0,L|176:244,1,90.0000034332277,0|8,0:0|0:0,0:0:0:0:
236,168,108028,2,0,L|208:96,1,67.5000025749207
208,24,108710,1,0,0:0:0:0:
167,2,108937,1,4,0:0:0:0:
64,16,109392,1,8,0:0:0:0:
28,108,109846,6,0,B|60:172|68:252,1,135.000005149841
48,280,110756,1,0,0:0:0:0:
108,360,111210,1,8,0:0:0:0:
176,288,111665,2,0,B|208:268|248:264,1,67.5000025749207
300,316,112346,1,0,0:0:0:0:
344,328,112574,1,4,0:0:0:0:
388,340,112801,2,0,L|400:384,2,45.0000017166138,8|8|0,0:0|0:0|0:0,0:0:0:0:
420,308,113483,6,0,B|436:268|436:228,1,67.5000025749207
460,164,114165,1,0,0:0:0:0:
468,120,114392,2,0,B|420:120|372:84,1,90.0000034332277,0|8,0:0|0:0,0:0:0:0:
300,32,115301,2,0,B|252:32|204:68,1,90.0000034332277
204,160,116210,1,4,0:0:0:0:
204,160,116437,2,0,B|252:160|300:124,1,90.0000034332277,8|0,0:0|0:0,0:0:0:0:
332,124,117119,6,0,L|340:208,1,67.5000025749207
352,272,117801,1,0,0:0:0:0:
356,316,118028,2,0,B|308:316|260:352,1,90.0000034332277,0|8,0:0|0:0,0:0:0:0:
172,364,118937,2,0,B|92:368|52:304,1,135.000005149841,4|0,0:0|0:0,0:0:0:0:
32,272,119846,1,4,0:0:0:0:
40,172,120301,1,8,0:0:0:0:
48,72,120756,6,0,L|144:64,1,90.0000034332277,4|0,0:0|0:0,0:0:0:0:
184,56,121437,1,0,0:0:0:0:
184,56,121665,2,0,L|204:104,1,45.0000017166138
216,140,122119,1,8,0:0:0:0:
316,136,122574,2,0,L|404:128,2,67.5000025749207
292,176,123483,1,4,0:0:0:0:
228,252,123937,1,8,0:0:0:0:
276,340,124392,6,0,L|372:332,1,90.0000034332277,4|0,0:0|0:0,0:0:0:0:
416,332,125073,1,0,0:0:0:0:
416,332,125301,2,0,L|436:284,1,45.0000017166138
452,248,125755,1,8,0:0:0:0:
412,156,126210,2,0,L|392:80,2,67.5000025749207
368,164,127119,1,4,0:0:0:0:
324,168,127346,1,8,0:0:0:0:
280,172,127574,1,8,0:0:0:0:
196,116,128028,6,0,L|100:124,1,90.0000034332277,4|0,0:0|0:0,0:0:0:0:
56,124,128709,1,0,0:0:0:0:
56,124,128937,2,0,L|36:172,1,45.0000017166138
20,208,129391,1,8,0:0:0:0:
88,280,129846,2,0,L|120:208,2,67.5000025749207
68,320,130756,1,4,0:0:0:0:
144,380,131210,1,8,0:0:0:0:
224,320,131665,6,0,L|324:312,1,90.0000034332277,4|0,0:0|0:0,0:0:0:0:
344,280,132346,1,0,0:0:0:0:
344,280,132574,2,0,L|408:272,1,45.0000017166138
420,244,133028,1,8,0:0:0:0:
436,148,133483,2,0,L|512:144,2,67.5000025749207
392,136,134392,1,4,0:0:0:0:
348,144,134619,1,8,0:0:0:0:
304,132,134846,1,8,0:0:0:0:
212,56,135301,6,2,L|148:52,1,60,4|2,0:0|0:0,0:0:0:0:
100,84,135756,2,0,B|80:116|80:156,1,60,0|6,0:0|0:0,0:0:0:0:
40,184,136210,1,0,0:0:0:0:
80,296,136665,1,8,0:0:0:0:
160,208,137119,2,0,B|204:188|252:192,2,90
108,240,138028,1,0,0:0:0:0:
156,352,138483,1,12,0:0:0:0:
216,344,138710,1,0,0:0:0:0:
276,340,138937,6,0,B|312:336|360:348,1,60,6|2,0:0|0:0,0:0:0:0:
396,356,139392,2,2,L|412:288,1,60,0|2,0:0|0:0,0:0:0:0:
428,240,139846,1,0,0:0:0:0:
360,140,140301,1,8,0:0:0:0:
380,84,140528,1,0,0:0:0:0:
364,28,140756,2,0,L|264:32,2,90,4|0|0,0:0|0:0|0:0,0:0:0:0:
424,24,141665,1,0,0:0:0:0:
488,124,142119,1,14,0:0:0:0:
400,208,142574,6,2,L|328:212,1,60,4|2,0:0|0:0,0:0:0:0:
308,260,143028,2,2,L|264:312,1,60,0|2,0:0|0:0,0:0:0:0:
228,348,143483,2,0,L|160:336,1,60,2|0,0:0|0:0,0:0:0:0:
108,344,143937,1,8,0:0:0:0:
24,260,144392,2,0,B|8:220|16:160,2,90,4|0|0,0:0|0:0|0:0,0:0:0:0:
84,264,145301,1,0,0:0:0:0:
132,228,145528,1,2,0:0:0:0:
124,168,145756,2,2,B|108:120|116:40,1,120,12|6,0:0|0:0,0:0:0:0:
236,36,146665,5,2,0:0:0:0:
356,52,147119,1,2,0:0:0:0:
476,48,147574,1,8,0:0:0:0:
480,108,147801,1,0,0:0:0:0:
484,168,148028,2,0,L|484:268,2,90,4|0|0,0:0|0:0|0:0,0:0:0:0:
368,176,149165,1,8,0:0:0:0:
368,176,149392,1,8,0:0:0:0:
308,280,149846,6,2,B|280:288|224:284,1,60,4|2,0:0|0:0,0:0:0:0:
216,236,150301,2,2,L|196:172,1,60,4|2,0:0|0:0,0:0:0:0:
180,120,150756,2,0,B|152:112|96:116,1,60,6|2,0:0|0:0,0:0:0:0:
64,128,151210,1,8,0:0:0:0:
28,244,151665,2,0,L|20:340,2,90,4|0|0,0:0|0:0|0:0,0:0:0:0:
84,224,152574,1,2,0:0:0:0:
144,216,152801,1,2,0:0:0:0:
240,288,153256,1,2,0:0:0:0:
240,288,153483,6,2,B|276:288|324:272,1,60,4|2,0:0|0:0,0:0:0:0:
340,236,153937,2,2,L|352:172,1,60,6|0,0:0|0:0,0:0:0:0:
312,132,154392,2,0,B|276:132|228:148,1,60,4|0,0:0|0:0,0:0:0:0:
192,136,154846,1,10,0:0:0:0:
112,44,155301,2,2,L|12:52,2,90,6|0|0,0:0|0:0|0:0,0:0:0:0:
172,32,156210,1,0,0:0:0:0:
292,20,156665,1,12,0:0:0:0:
408,56,157119,6,2,B|412:92|428:136,1,60,6|2,0:0|0:0,0:0:0:0:
440,172,157574,2,2,B|436:208|420:252,1,60,0|6,0:0|0:0,0:0:0:0:
436,288,158028,1,0,0:0:0:0:
324,332,158483,1,8,0:0:0:0:
308,212,158937,2,0,B|316:172|320:120,2,90,4|0|0,0:0|0:0|0:0,0:0:0:0:
268,260,159846,1,0,0:0:0:0:
172,188,160301,1,8,0:0:0:0:
60,232,160756,5,6,0:0:0:0:
60,232,160983,2,0,L|52:296,1,60,2|0,0:0|0:0,0:0:0:0:
44,352,161437,2,2,B|108:384|176:352,1,120,0|2,0:0|0:0,0:0:0:0:
204,320,162119,1,12,0:0:0:0:
320,348,162574,2,0,B|368:360|424:352,2,90,4|0|0,0:0|0:0|0:0,0:0:0:0:
288,296,163483,1,2,0:0:0:0:
280,236,163710,1,10,0:0:0:0:
304,180,163937,1,10,0:0:0:0:
256,68,164392,5,4,0:0:0:0:
256,104,178937,6,0,B|200:68|112:88,1,135.000005149841,4|0,0:0|0:0,0:0:0:0:
80,92,179846,1,0,0:0:0:0:
36,180,180301,1,8,0:0:0:0:
96,260,180756,2,0,B|136:264|176:248,1,67.5000025749207
240,232,181437,1,0,0:0:0:0:
284,220,181665,1,4,0:0:0:0:
336,304,182119,1,8,0:0:0:0:
436,316,182574,6,0,B|472:256|456:180,1,135.000005149841,4|0,0:0|0:0,0:0:0:0:
448,140,183483,1,0,0:0:0:0:
352,120,183937,1,8,0:0:0:0:
256,100,184392,2,0,B|216:104|156:100,2,90.0000034332277,4|0|0,0:0|0:0|0:0,0:0:0:0:
288,64,185528,1,0,0:0:0:0:
332,40,185756,1,12,0:0:0:0:
420,88,186210,6,0,B|384:140|396:232,1,135.000005149841,4|0,0:0|0:0,0:0:0:0:
400,264,187119,2,0,L|496:272,2,90.0000034332277,0|8|0,0:0|0:0|0:0,0:0:0:0:
304,292,188483,1,0,0:0:0:0:
212,260,188937,1,0,0:0:0:0:
168,272,189165,1,0,0:0:0:0:
124,284,189392,1,4,0:0:0:0:
36,240,189846,6,0,B|4:188|32:108,1,135.000005149841
76,100,190756,1,0,0:0:0:0:
120,104,190983,1,0,0:0:0:0:
164,96,191210,1,12,0:0:0:0:
256,56,191665,5,4,0:0:0:0:
256,192,191778,12,4,198937,0:0:0:0:
428,56,204392,6,0,B|416:104|420:160,1,90.0000034332277,8|0,0:0|0:0,0:0:0:0:
420,192,205074,1,8,0:0:0:0:
420,236,205301,1,8,0:0:0:0:
356,312,205756,1,8,0:0:0:0:
308,324,205983,1,8,0:0:0:0:
256,312,206210,6,2,B|220:300|180:308,1,60,6|2,0:0|0:0,0:0:0:0:
144,336,206665,2,2,B|120:341|84:329,1,60,0|6,0:0|0:0,0:0:0:0:
36,296,207119,1,0,0:0:0:0:
108,200,207574,1,10,0:0:0:0:
20,120,208028,2,0,B|12:88|16:24,2,90
24,180,208937,1,0,0:0:0:0:
124,112,209392,1,10,0:0:0:0:
180,136,209619,1,0,0:0:0:0:
232,108,209846,6,2,L|296:104,1,60,6|2,0:0|0:0,0:0:0:0:
344,132,210301,2,2,L|408:128,1,60,0|2,0:0|0:0,0:0:0:0:
460,104,210756,1,0,0:0:0:0:
512,212,211210,1,10,0:0:0:0:
420,288,211665,2,0,B|412:332|412:388,2,90,4|0|0,0:0|0:0|0:0,0:0:0:0:
424,228,212574,1,0,0:0:0:0:
344,140,213028,1,10,0:0:0:0:
264,228,213483,6,2,L|280:292,1,60,6|2,0:0|0:0,0:0:0:0:
236,328,213937,2,2,B|212:348|160:356,1,60,6|2,0:0|0:0,0:0:0:0:
124,364,214392,2,2,L|104:300,1,60,0|0,0:0|0:0,0:0:0:0:
92,248,214846,1,10,0:0:0:0:
180,168,215301,2,0,B|224:152|284:140,2,90,4|0|0,0:0|0:0|0:0,0:0:0:0:
120,164,216210,1,0,0:0:0:0:
88,112,216437,1,2,0:0:0:0:
100,52,216665,2,2,B|160:28|232:24,1,120,8|6,0:0|0:0,0:0:0:0:
336,32,217574,5,2,0:0:0:0:
364,148,218028,1,2,0:0:0:0:
244,144,218483,1,8,0:0:0:0:
232,84,218710,1,0,0:0:0:0:
216,25,218937,2,0,B|168:24|112:36,2,90,4|0|4,0:0|0:0|0:0,0:0:0:0:
336,32,220074,1,2,0:0:0:0:
336,32,220301,1,10,0:0:0:0:
364,148,220756,6,2,B|376:180|372:220,1,60,6|2,0:0|0:0,0:0:0:0:
316,224,221210,2,2,L|248:232,1,60,6|2,0:0|0:0,0:0:0:0:
200,252,221665,2,0,B|188:284|192:324,1,60,6|2,0:0|0:0,0:0:0:0:
212,368,222119,1,8,0:0:0:0:
332,352,222574,2,0,B|372:344|440:352,2,90,4|0|2,0:0|0:0|0:0,0:0:0:0:
304,300,223483,1,2,0:0:0:0:
308,240,223710,1,2,0:0:0:0:
232,144,224165,1,2,0:0:0:0:
232,144,224392,6,2,B|233:109|217:73,1,60,6|2,0:0|0:0,0:0:0:0:
164,92,224846,2,0,L|96:105,1,60,6|0,0:0|0:0,0:0:0:0:
100,164,225301,2,0,B|91:197|100:236,1,60,4|0,0:0|0:0,0:0:0:0:
72,276,225755,1,2,0:0:0:0:
192,292,226210,2,0,B|184:344|188:396,2,90,6|0|0,0:0|0:0|0:0,0:0:0:0:
200,232,227119,1,0,0:0:0:0:
316,264,227574,1,8,0:0:0:0:
432,240,228028,6,2,B|440:212|440:164,1,60,6|2,0:0|0:0,0:0:0:0:
404,132,228483,2,2,B|396:104|396:56,1,60,6|2,0:0|0:0,0:0:0:0:
416,16,228937,1,2,0:0:0:0:
296,4,229392,1,8,0:0:0:0:
224,100,229846,2,0,B|184:104|136:88,2,90,0|0|2,0:0|0:0|0:0,0:0:0:0:
256,152,230756,1,0,0:0:0:0:
244,212,230983,1,2,0:0:0:0:
268,268,231210,1,10,0:0:0:0:
192,360,231665,5,6,0:0:0:0:
192,360,231892,2,0,L|132:356,1,60,2|2,0:0|0:0,0:0:0:0:
72,348,232346,2,2,B|36:292|56:212,1,120,0|2,0:0|0:0,0:0:0:0:
60,172,233028,1,8,0:0:0:0:
120,68,233483,2,0,B|96:32|40:16,2,90,4|0|0,0:0|0:0|0:0,0:0:0:0:
160,116,234392,1,10,0:0:0:0:
276,92,234846,1,0,0:0:0:0:
336,104,235074,1,0,0:0:0:0:
396,96,235301,6,0,L|424:224,1,120,4|2,0:0|0:0,0:0:0:0:
432,272,235983,1,10,0:0:0:0:
444,332,236210,2,0,L|304:340,1,120,10|10,0:0|0:0,0:0:0:0:
208,304,237119,2,0,L|100:308,2,90,4|0|2,0:0|0:0|0:0,0:0:0:0:
260,276,238028,1,10,0:0:0:0:
324,172,238483,1,14,0:0:0:0:
272,64,238937,6,0,L|140:72,1,120,4|2,0:0|0:0,0:0:0:0:
92,80,239619,1,10,0:0:0:0:
32,88,239846,2,0,L|16:220,1,120,10|10,0:0|0:0,0:0:0:0:
112,280,240756,2,0,B|124:208|128:176,2,90,0|2|2,0:0|0:0|0:0,0:0:0:0:
104,340,241665,1,10,0:0:0:0:
224,336,242119,1,14,0:0:0:0:
284,348,242346,1,0,0:0:0:0:
344,344,242574,6,0,B|360:296|360:216,1,120,4|2,0:0|0:0,0:0:0:0:
392,176,243256,1,10,0:0:0:0:
372,120,243483,2,2,B|312:116|256:72,1,120,10|10,0:0|0:0,0:0:0:0:
152,32,244392,2,0,L|124:156,1,120,4|2,0:0|0:0,0:0:0:0:
96,200,245074,1,2,0:0:0:0:
100,260,245301,2,2,B|160:264|216:308,1,120,10|14,0:0|0:0,0:0:0:0:
316,360,246210,6,0,L|440:352,1,120,4|2,0:0|0:0,0:0:0:0:
444,292,246892,1,10,0:0:0:0:
452,232,247119,1,10,0:0:0:0:
472,112,247574,1,10,0:0:0:0:
356,144,248028,2,0,B|348:208|340:240,2,90,4|0|0,0:0|0:0|0:0,0:0:0:0:
364,84,248937,1,8,0:0:0:0:
244,72,249392,1,0,0:0:0:0:
124,64,249846,6,0,B|76:148|104:240,1,180,4|0,0:0|0:0,0:0:0:0:
88,296,250756,1,8,0:0:0:0:
136,328,250983,1,8,0:0:0:0:
168,376,251210,1,8,0:0:0:0:
276,328,251665,2,0,B|320:352|368:352,2,90,4|0|0,0:0|0:0|0:0,0:0:0:0:
224,300,252574,1,10,0:0:0:0:
200,184,253028,1,14,0:0:0:0:
316,220,253483,6,0,B|364:136|336:44,1,180,4|0,0:0|0:0,0:0:0:0:
280,28,254392,1,0,0:0:0:0:
220,40,254619,1,0,0:0:0:0:
168,12,254846,1,8,0:0:0:0:
100,112,255301,2,0,L|4:120,2,90,4|0|0,0:0|0:0|0:0,0:0:0:0:
156,136,256210,1,2,0:0:0:0:
216,128,256437,1,0,0:0:0:0:
272,152,256665,1,14,0:0:0:0:
392,160,257119,6,0,L|404:32,2,120,4|0|0,0:0|0:0|0:0,0:0:0:0:
448,268,258483,1,8,0:0:0:0:
332,300,258937,2,0,L|292:380,2,90,4|0|0,0:0|0:0|0:0,0:0:0:0:
344,240,259846,1,8,0:0:0:0:
256,156,260301,1,12,0:0:0:0:
164,236,260756,5,4,0:0:0:0:
256,192,260983,12,4,264392,0:0:0:0:
