osu file format v14

[General]
AudioFilename: Florence + The Machine - Cosmic Love (Seven Lions Remix).mp3
AudioLeadIn: 0
PreviewTime: 181710
Countdown: 0
SampleSet: Normal
StackLeniency: 0.7
Mode: 0
LetterboxInBreaks: 1
EpilepsyWarning: 1
WidescreenStoryboard: 0

[Editor]
Bookmarks: 27428,68571,195428,209142,222856,236571,263999
DistanceSpacing: 1
BeatDivisor: 8
GridSize: 8
TimelineZoom: 2.599999

[Metadata]
Title:Cosmic Love (Seven Lions Remix)
TitleUnicode:Cosmic Love (Seven Lions Remix)
Artist:Florence + The Machine
ArtistUnicode:Florence + The Machine
Creator:PandaHero
Version:Insane
Source:
Tags:La Cataline lc Mirash collab collaboration chillout dubstep
BeatmapID:1474874
BeatmapSetID:696222

[Difficulty]
HPDrainRate:7
CircleSize:4
OverallDifficulty:7
ApproachRate:8
SliderMultiplier:1.8
SliderTickRate:1

[Events]
//Background and Video events
0,0,"wallpaper-1968747.jpg",0,0
//Break Periods
2,41342,43821
2,72199,84964
//Storyboard Layer 0 (Background)
//Storyboard Layer 1 (Fail)
//Storyboard Layer 2 (Pass)
//Storyboard Layer 3 (Foreground)
//Storyboard Sound Samples

[TimingPoints]
13714,428.571428571429,4,2,1,60,1,0
33321,-100,4,2,2,60,0,0
33535,-100,4,2,1,60,0,0
41142,-100,4,1,1,60,0,0
41785,-100,4,1,1,40,0,0
41892,-100,4,1,1,10,0,0
42856,-100,4,1,1,20,0,0
44571,-100,4,1,1,20,0,0
45321,-100,4,1,1,80,0,0
45428,-142.857142857143,4,1,1,80,0,0
46821,-142.857142857143,4,2,1,60,0,0
47999,-100,4,2,1,60,0,0
48856,-100,4,1,1,60,0,0
49821,-100,4,2,1,60,0,0
56571,-100,4,1,1,40,0,0
56678,-100,4,2,1,60,0,0
63428,-100,4,1,1,40,0,0
63535,-100,4,2,1,60,0,0
85499,-100,4,2,2,45,0,0
85714,-200,4,2,2,45,0,0
86142,-200,4,2,2,25,0,0
86249,-200,4,2,2,45,0,0
92892,-200,4,2,2,25,0,0
93428,-200,4,2,2,45,0,0
94606,-200,4,2,2,25,0,0
95142,-200,4,2,2,45,0,0
96321,-200,4,2,2,25,0,0
96856,-200,4,2,2,45,0,0
99428,-100,4,1,1,55,0,0
99749,-100,4,2,1,55,0,0
101035,-100,4,1,1,55,0,0
101464,-100,4,2,1,55,0,0
102749,-100,4,1,1,55,0,0
103178,-100,4,2,1,55,0,0
106178,-100,4,1,1,65,0,0
106606,-100,4,2,1,55,0,0
107892,-100,4,1,1,55,0,0
108428,-100,4,2,1,55,0,0
109606,-100,4,1,1,55,0,0
110035,-100,4,2,1,55,0,0
111749,-100,4,2,2,35,0,0
111964,-100,4,2,1,55,0,0
112178,-100,4,2,2,45,0,0
112392,-100,4,2,1,55,0,0
112606,-100,4,1,1,55,0,0
113464,-100,4,2,1,55,0,0
114535,-100,4,1,1,35,0,0
114749,-100,4,1,1,55,0,0
115285,-100,4,2,1,55,0,0
115928,-100,4,1,1,35,0,0
116035,-100,4,2,1,55,0,0
116356,-100,4,1,1,35,0,0
116464,-100,4,1,1,55,0,0
116999,-100,4,2,1,55,0,0
117642,-100,4,1,1,35,0,0
117749,-100,4,2,1,55,0,0
118606,-100,4,2,2,35,0,0
118928,-100,4,2,1,55,0,0
119035,-100,4,2,2,45,0,0
119464,-100,4,1,1,45,0,0
119892,-100,4,1,1,60,0,0
120749,-100,4,2,1,60,0,0
121178,-100,4,2,2,40,0,0
121392,-100,4,2,1,60,0,0
121606,-100,4,1,1,60,0,0
122464,-100,4,2,1,60,0,0
122892,-100,4,2,2,40,0,0
123321,-100,4,1,1,70,0,0
124928,-100,4,2,1,70,0,0
125035,-100,4,2,2,50,0,0
126428,-100,4,1,1,20,0,0
126856,-66.6666666666667,4,1,1,80,0,1
127714,-200,4,1,1,80,0,0
127821,-200,4,2,1,80,0,0
128571,-66.6666666666667,4,1,1,80,0,1
129428,-100,4,1,1,80,0,0
129535,-100,4,2,1,80,0,0
130285,-66.6666666666667,4,1,1,80,0,1
131142,-200,4,1,1,80,0,0
131249,-200,4,1,1,40,0,0
131999,-66.6666666666667,4,1,1,80,0,1
132856,-100,4,1,1,80,0,0
132964,-100,4,2,2,80,0,0
133714,-66.6666666666667,4,1,1,80,0,1
134571,-200,4,1,1,80,0,0
134678,-200,4,1,1,60,0,0
134892,-200,4,2,1,40,0,0
135214,-200,4,1,1,80,0,0
135428,-66.6666666666667,4,1,1,80,0,1
136071,-66.6666666666667,4,2,1,80,0,1
136178,-66.6666666666667,4,1,1,80,0,1
136285,-66.6666666666667,4,1,1,80,0,0
136714,-66.6666666666667,4,2,0,80,0,0
137142,-66.6666666666667,4,1,1,80,0,0
140142,-200,4,1,1,80,0,0
140571,-66.6666666666667,4,1,1,80,0,1
141428,-200,4,1,1,80,0,0
141535,-200,4,1,1,5,0,0
142178,-200,4,2,1,80,0,0
142285,-66.6666666666667,4,1,1,80,0,1
142928,-66.6666666666667,4,1,1,80,0,0
143356,-66.6666666666667,4,2,1,80,0,0
143999,-66.6666666666667,4,1,1,80,0,1
144321,-66.6666666666667,4,2,1,5,0,1
144428,-66.6666666666667,4,1,1,80,0,1
144749,-66.6666666666667,4,2,1,5,0,1
144856,-66.6666666666667,4,1,1,80,0,1
145285,-200,4,1,1,80,0,0
145714,-66.6666666666667,4,1,1,80,0,1
146356,-100,4,1,1,80,0,0
146678,-100,4,2,2,80,0,0
147428,-66.6666666666667,4,1,1,80,0,1
148178,-66.6666666666667,4,2,1,5,0,1
148285,-200,4,2,2,40,0,0
148295,-200,4,2,1,100,0,0
148714,-200,4,2,1,5,0,0
149142,-66.6666666666667,4,1,1,80,0,1
149999,-66.6666666666667,4,1,2,30,0,0
150106,-66.6666666666667,4,1,2,20,0,0
150321,-66.6666666666667,4,1,2,80,0,0
150749,-66.6666666666667,4,2,1,80,0,0
150856,-66.6666666666667,4,1,1,80,0,1
152464,-66.6666666666667,4,2,1,5,0,1
152571,-66.6666666666667,4,1,1,80,0,1
153321,-66.6666666666667,4,2,0,70,0,1
153428,-200,4,2,0,70,0,0
154285,-125,4,1,1,60,0,0
154499,-125,4,2,1,60,0,0
165535,-125,4,1,1,40,0,0
166178,-125,4,2,0,60,0,0
166499,-125,4,2,1,60,0,0
167035,-125,4,2,2,80,0,0
167999,-125,4,1,1,60,0,0
168214,-125,4,2,1,60,0,0
171642,-125,4,2,0,40,0,0
171749,-125,4,2,1,60,0,0
178285,-125,4,1,1,60,0,0
181714,-76.9230769230769,4,1,1,70,0,0
182142,-76.9230769230769,4,2,2,50,0,0
182249,-76.9230769230769,4,1,1,70,0,0
182571,-76.9230769230769,4,2,1,70,0,0
182678,-76.9230769230769,4,1,1,70,0,0
183749,-76.9230769230769,4,2,2,50,0,0
184071,-76.9230769230769,4,1,1,70,0,0
185464,-76.9230769230769,4,2,2,50,0,0
185785,-76.9230769230769,4,1,1,70,0,0
195321,-76.9230769230769,4,1,1,75,0,0
202178,-76.9230769230769,4,1,1,80,0,0
207428,-200,4,1,1,80,0,0
209142,-66.6666666666667,4,1,1,70,0,1
209999,-200,4,1,1,70,0,0
210106,-200,4,2,2,70,0,0
210856,-66.6666666666667,4,1,1,70,0,1
211714,-100,4,1,1,70,0,0
211821,-100,4,2,2,70,0,0
212571,-66.6666666666667,4,1,1,70,0,1
212785,-66.6666666666667,4,1,1,70,0,0
212999,-66.6666666666667,4,1,1,70,0,1
213214,-66.6666666666667,4,1,1,70,0,0
213428,-200,4,1,1,50,0,0
214285,-66.6666666666667,4,1,1,70,0,1
215142,-100,4,1,1,70,0,0
215356,-100,4,2,2,70,0,0
215999,-66.6666666666667,4,1,1,70,0,1
216642,-66.6666666666667,4,1,1,70,0,0
216964,-66.6666666666667,4,2,2,70,0,0
217285,-200,4,2,2,70,0,0
217499,-200,4,1,1,70,0,0
217714,-66.6666666666667,4,1,1,70,0,1
218356,-66.6666666666667,4,1,1,5,0,1
218464,-66.6666666666667,4,1,1,70,0,1
218571,-66.6666666666667,4,1,1,70,0,0
218999,-66.6666666666667,4,1,1,30,0,0
219428,-100,4,1,1,70,0,0
222856,-66.6666666666667,4,1,1,70,0,1
223714,-200,4,1,1,70,0,0
223821,-200,4,1,1,5,0,0
224571,-66.6666666666667,4,1,1,70,0,1
225214,-66.6666666666667,4,1,1,70,0,0
225642,-66.6666666666667,4,2,2,70,0,0
226285,-66.6666666666667,4,1,1,70,0,1
226499,-66.6666666666667,4,1,1,70,0,0
226606,-66.6666666666667,4,1,1,5,0,0
226714,-66.6666666666667,4,1,1,70,0,1
226928,-66.6666666666667,4,1,1,70,0,0
227035,-66.6666666666667,4,1,1,5,0,0
227142,-200,4,1,1,70,0,0
227356,-200,4,1,1,40,0,0
227999,-66.6666666666667,4,1,1,70,0,1
228856,-66.6666666666667,4,1,1,70,0,0
228964,-66.6666666666667,4,2,2,70,0,0
229714,-66.6666666666667,4,1,1,70,0,1
230356,-66.6666666666667,4,1,1,70,0,0
230464,-66.6666666666667,4,2,1,5,0,0
230571,-66.6666666666667,4,2,2,45,0,0
230581,-66.6666666666667,4,2,1,100,0,0
230999,-66.6666666666667,4,2,1,5,0,0
231428,-66.6666666666667,4,1,1,70,0,1
232285,-66.6666666666667,4,1,2,40,0,0
232606,-66.6666666666667,4,1,2,70,0,0
233142,-66.6666666666667,4,1,1,70,0,0
233999,-200,4,1,1,70,0,0
236356,-142.857142857143,4,1,1,70,0,0
236571,-100,4,1,1,70,0,0
239464,-100,4,2,1,70,0,0
239785,-100,4,1,1,70,0,0
242892,-100,4,2,1,70,0,0
243321,-100,4,1,1,70,0,0
246321,-100,4,2,1,70,0,0
246642,-100,4,1,1,70,0,0
249749,-100,4,2,1,70,0,0
249964,-100,4,1,1,70,0,0
253178,-100,4,2,1,70,0,0
253499,-100,4,1,1,70,0,0
256606,-100,4,2,1,70,0,0
256821,-100,4,1,1,70,0,0
260035,-100,4,2,1,70,0,0
260249,-100,4,1,1,70,0,0
263464,-100,4,2,1,70,0,0
263785,-100,4,1,1,70,0,0
270856,-100,4,1,1,5,0,0

[Colours]
Combo1 : 226,99,121
Combo2 : 80,199,184
Combo3 : 249,81,85
Combo4 : 88,137,173

[HitObjects]
47,328,27428,6,0,P|179:302|318:316,1,270,4|0,0:0|0:0,0:0:0:0:
312,314,28285,1,8,0:0:0:0:
449,347,28714,2,0,L|454:263,2,60,2|0|0,0:0|0:0|0:0,0:0:0:0:
343,229,29142,2,0,P|336:144|395:27,1,180,0|4,0:0|0:0,0:0:0:0:
447,164,29785,1,0,0:0:0:0:
258,190,29999,2,0,P|198:168|152:138,1,90,8|0,0:0|0:0,0:0:0:0:
120,40,30428,2,0,P|115:73|102:117,2,60,2|0|0,0:0|0:0|0:0,0:0:0:0:
20,124,30856,6,0,P|40:193|43:308,1,180,4|2,0:0|0:0,0:0:0:0:
43,300,31499,1,0,0:0:0:0:
157,358,31714,2,0,P|191:306|229:278,1,90,8|0,0:0|0:0,0:0:0:0:
331,302,32142,2,0,P|336:332|337:394,2,60,2|0|0,0:0|0:0|0:0,0:0:0:0:
308,209,32571,1,2,0:0:0:0:
412,285,32785,1,4,0:0:0:0:
212,288,32999,1,4,0:0:0:0:
227,168,33214,1,2,0:0:0:0:
392,164,33428,2,0,P|443:167|495:182,1,90,10|0,0:0|0:0,0:0:0:0:
480,176,34285,5,4,0:0:0:0:
417,68,34714,2,0,P|378:92|338:123,1,90,2|0,0:0|0:0,0:0:0:0:
118,158,35142,2,0,P|165:168|235:189,1,90,8|0,0:0|0:0,0:0:0:0:
272,294,35571,2,0,P|278:264|287:236,2,60,2|0|0,0:0|0:0|0:0,0:0:0:0:
380,187,35999,6,0,P|367:139|343:84,1,90,0|0,0:0|0:0,0:0:0:0:
168,32,36428,1,4,0:0:0:0:
35,348,36856,1,8,0:0:0:0:
116,247,37285,2,0,P|127:278|135:310,2,60,2|0|0,0:0|0:0|0:0,0:0:0:0:
240,345,37714,6,0,B|326:331|332:368|451:347,1,180,4|2,0:0|0:0,0:0:0:0:
418,351,38356,1,0,0:0:0:0:
478,167,38571,2,0,P|435:170|289:189,1,180,8|0,0:0|0:0,0:0:0:0:
282,30,39214,1,4,0:0:0:0:
368,70,39428,2,0,P|389:151|394:252,1,180,0|4,0:0|0:0,0:0:0:0:
171,131,40285,2,0,P|175:81|184:26,1,90,8|0,0:0|0:0,0:0:0:0:
83,163,40660,2,0,L|96:208,3,45,2|0|0|0,0:0|0:0|0:0|0:0,0:0:0:0:
26,63,41142,1,4,0:0:0:0:
32,211,44571,5,0,0:0:0:0:
32,211,45428,2,0,L|170:213,1,125.999996154785,8|0,0:0|2:0,0:0:0:0:
164,217,46499,1,0,0:0:0:0:
164,217,46714,1,0,0:0:0:0:
164,217,47142,2,0,L|169:288,1,62.9999980773926,2|0,0:0|0:0,0:0:0:0:
273,211,47571,2,0,L|268:274,2,41.9999987182618,2|0|0,0:0|0:0|0:0,0:0:0:0:
324,350,47999,6,0,P|404:340|509:354,1,180,4|2,0:0|0:0,0:0:0:0:
502,352,48642,1,0,0:0:0:0:
445,170,48856,2,0,P|419:218|406:260,1,90,8|0,0:0|2:0,0:0:0:0:
407,251,49714,1,0,0:0:0:0:
289,197,49928,1,4,0:0:0:0:
289,197,50142,1,4,0:0:0:0:
289,197,50571,2,0,P|302:142|317:97,1,90,8|0,0:0|0:0,0:0:0:0:
192,68,50999,2,0,P|197:98|201:148,2,60,2|0|0,0:0|0:0|0:0,0:0:0:0:
41,36,51428,6,0,P|48:120|41:227,1,180,4|2,0:0|0:0,0:0:0:0:
42,215,52071,1,0,0:0:0:0:
107,348,52285,2,0,P|132:306|165:279,1,90,8|0,0:0|0:0,0:0:0:0:
248,301,52660,2,0,P|258:337|259:363,3,45,2|0|0|0,0:0|0:0|0:0|0:0,0:0:0:0:
193,194,53142,1,0,0:0:0:0:
403,315,53356,1,4,0:0:0:0:
403,315,53571,1,4,0:0:0:0:
403,315,53999,2,0,P|412:266|439:193,1,90,8|0,0:0|0:0,0:0:0:0:
372,156,54374,2,2,P|350:157|315:156,3,45,2|0|0|0,0:0|0:0|0:0|0:0,0:0:0:0:
231,38,54856,6,0,P|238:82|239:131,1,90,4|0,0:0|0:0,0:0:0:0:
161,178,55285,1,2,0:0:0:0:
97,115,55499,1,0,0:0:0:0:
245,211,55714,2,0,P|242:253|246:311,1,90,8|0,0:0|0:0,0:0:0:0:
161,342,56142,1,0,0:0:0:0:
161,342,56356,1,0,0:0:0:0:
287,371,56571,1,0,0:0:0:0:
389,277,56785,1,4,0:0:0:0:
389,277,56999,1,4,0:0:0:0:
389,277,57428,2,0,L|281:275,1,90,8|0,0:0|0:0,0:0:0:0:
304,280,58285,5,4,0:0:0:0:
304,280,58499,1,0,0:0:0:0:
332,189,58714,2,0,P|350:144|378:88,1,90,2|0,0:0|0:0,0:0:0:0:
275,18,59142,2,0,P|266:62|248:126,1,90,8|0,0:0|0:0,0:0:0:0:
73,82,59571,2,0,P|135:131|163:235,1,180,2|0,0:0|0:0,0:0:0:0:
49,302,60214,1,4,0:0:0:0:
49,302,60428,1,4,0:0:0:0:
49,302,60856,2,0,P|99:305|145:316,1,90,10|0,0:0|0:0,0:0:0:0:
137,313,61714,6,0,P|149:256|147:210,1,90,4|0,0:0|0:0,0:0:0:0:
206,144,62142,2,0,P|253:151|306:142,2,90,2|0|8,0:0|0:0|0:0,0:0:0:0:
82,107,62785,1,0,0:0:0:0:
82,107,63428,5,0,0:0:0:0:
62,315,63642,1,4,0:0:0:0:
62,315,63856,1,4,0:0:0:0:
62,315,64285,2,0,L|187:314,1,90,8|0,0:0|0:0,0:0:0:0:
467,317,65142,6,0,P|421:317|363:324,1,90,4|0,0:0|0:0,0:0:0:0:
290,348,65571,1,2,0:0:0:0:
290,348,65785,1,0,0:0:0:0:
314,222,65999,2,0,P|335:168|371:118,1,90,8|0,0:0|0:0,0:0:0:0:
474,31,66428,1,0,0:0:0:0:
487,148,66642,1,2,0:0:0:0:
168,38,67071,5,4,0:0:0:0:
168,38,67285,1,4,0:0:0:0:
168,38,67714,2,0,L|166:154,1,90,8|0,0:0|0:0,0:0:0:0:
38,73,68142,2,0,P|65:159|80:253,1,180,2|2,0:0|0:0,0:0:0:0:
256,192,70928,12,0,71999,0:0:0:0:
29,349,85714,6,0,P|110:328|226:323,1,180,0|4,0:0|0:0,0:0:0:0:
334,67,87428,2,0,P|253:46|137:41,1,180,0|4,0:0|0:0,0:0:0:0:
305,238,89142,2,0,P|394:232|481:210,2,180,0|4|0,0:0|0:0|0:0,0:0:0:0:
321,35,92571,6,0,P|341:117|331:215,1,180,0|4,0:0|0:0,0:0:0:0:
70,227,94285,2,0,P|152:207|250:217,1,180,0|4,0:0|0:0,0:0:0:0:
386,350,95999,2,0,P|304:330|206:340,2,180,0|4|2,0:0|0:0|0:0,0:0:0:0:
256,192,97821,12,0,99214,0:0:0:0:
43,348,99428,5,4,0:0:0:0:
43,348,99642,1,0,0:0:0:0:
43,348,99856,1,2,0:0:0:0:
43,348,100071,2,0,P|41:264|80:168,1,180,4|0,0:0|0:0,0:0:0:0:
206,73,100714,2,0,P|152:95|103:97,1,90,4|0,0:0|0:0,0:0:0:0:
310,29,101142,5,4,0:0:0:0:
379,175,101356,1,0,0:0:0:0:
234,241,101571,1,2,0:0:0:0:
159,97,101785,1,4,0:0:0:0:
379,175,101999,2,0,P|383:235|380:286,1,90,0|0,0:0|0:0,0:0:0:0:
150,349,102428,2,0,P|146:289|149:238,1,90,4|0,0:0|0:0,0:0:0:0:
277,174,102856,5,4,0:0:0:0:
97,160,103071,1,4,0:0:0:0:
307,300,103285,5,2,0:0:0:0:
467,270,103499,1,4,0:0:0:0:
408,53,103714,6,0,P|366:68|305:87,1,90,0|0,0:0|0:0,0:0:0:0:
102,12,104142,2,0,P|144:27|205:46,1,90,4|0,0:0|0:0,0:0:0:0:
382,187,104571,2,0,P|346:215|313:267,1,90,4|0,0:0|0:0,0:0:0:0:
124,146,104999,2,0,P|160:174|193:226,1,90,2|4,0:0|0:0,0:0:0:0:
396,369,105428,2,0,P|335:362|288:374,1,90,0|0,0:0|0:0,0:0:0:0:
114,328,105856,2,0,P|178:322|238:336,1,90,4|4,0:0|0:0,0:0:0:0:
26,348,106285,6,0,P|26:300|31:248,2,90,4|0|2,0:0|0:0|0:0,0:0:0:0:
114,328,106928,1,4,0:0:0:0:
202,204,107142,2,0,P|185:108|127:24,1,180,0|4,0:0|0:0,0:0:0:0:
49,66,107785,1,0,0:0:0:0:
291,158,107999,5,4,0:0:0:0:
386,131,108214,1,0,0:0:0:0:
475,96,108428,1,2,0:0:0:0:
418,206,108642,1,4,0:0:0:0:
291,158,108856,2,0,P|291:112|297:59,1,90,0|0,0:0|0:0,0:0:0:0:
375,22,109285,1,4,0:0:0:0:
214,97,109499,1,0,0:0:0:0:
115,45,109714,5,4,0:0:0:0:
143,166,109928,1,0,0:0:0:0:
168,287,110142,1,2,0:0:0:0:
54,242,110356,1,4,0:0:0:0:
264,237,110571,2,0,P|262:281|265:359,1,90,2|0,0:0|0:0,0:0:0:0:
448,153,110999,2,0,P|457:201|459:267,1,90,4|2,0:0|0:0,0:0:0:0:
249,115,111428,6,0,P|246:73|250:13,2,90,4|0|4,0:0|0:0|0:0,0:0:0:0:
264,237,112071,1,4,0:0:0:0:
148,202,112285,2,0,P|99:191|19:188,2,90,4|0|4,0:0|0:0|0:0,0:0:0:0:
264,237,112928,1,0,0:0:0:0:
392,355,113142,5,4,0:0:0:0:
403,366,113356,1,0,0:0:0:0:
403,366,113571,1,2,0:0:0:0:
403,366,113785,2,0,P|438:285|443:165,1,180,4|0,0:0|0:0,0:0:0:0:
454,38,114428,2,0,P|484:91|515:117,1,90,4|0,0:0|0:0,0:0:0:0:
348,163,114856,5,4,0:0:0:0:
262,29,115071,1,0,0:0:0:0:
376,76,115285,1,2,0:0:0:0:
236,159,115499,2,0,P|170:162|34:199,1,180,4|0,0:0|0:0,0:0:0:0:
34,60,116142,2,0,P|94:63|150:80,1,90,4|0,0:0|0:0,0:0:0:0:
128,273,116571,2,0,P|83:282|39:282,2,90,4|0|2,0:0|0:0|0:0,0:0:0:0:
245,169,117214,5,4,0:0:0:0:
349,30,117428,2,0,P|339:131|337:238,2,180,0|4|4,0:0|0:0|0:0,0:0:0:0:
475,140,118714,2,0,L|364:145,1,90,4|4,0:0|0:0,0:0:0:0:
206,195,119142,2,0,L|78:179,1,90,4|0,0:0|0:0,0:0:0:0:
392,348,119571,2,0,L|263:341,1,90,4|0,0:0|0:0,0:0:0:0:
146,352,119999,5,4,0:0:0:0:
62,269,120214,1,0,0:0:0:0:
165,197,120428,1,0,0:0:0:0:
248,292,120642,1,0,0:0:0:0:
165,197,120856,5,4,0:0:0:0:
81,114,121071,1,4,0:0:0:0:
184,42,121285,1,4,0:0:0:0:
267,137,121499,1,0,0:0:0:0:
184,42,121714,5,4,0:0:0:0:
341,48,121928,1,0,0:0:0:0:
341,209,122142,1,0,0:0:0:0:
179,210,122356,1,0,0:0:0:0:
341,209,122571,6,0,L|447:198,1,90,4|4,0:0|0:0,0:0:0:0:
153,345,122999,2,0,L|32:337,1,90,4|2,0:0|0:0,0:0:0:0:
330,32,123428,6,0,P|327:77|329:142,2,90,4|0|0,0:0|0:0|0:0,0:0:0:0:
180,91,124071,1,0,0:0:0:0:
166,218,124285,1,0,0:0:0:0:
153,345,124499,1,0,0:0:0:0:
44,269,124714,2,0,P|45:223|52:155,1,90,4|6,0:0|0:0,0:0:0:0:
166,218,125142,1,0,0:0:0:0:
256,192,125249,12,0,126428,0:0:0:0:
458,345,126856,6,2,P|465:240|507:64,1,270.000010299683,6|0,0:0|2:0,0:0:0:0:
267,184,127714,2,0,L|362:191,1,90,8|2,0:0|0:0,0:0:0:0:
41,308,128571,6,2,P|177:315|345:335,1,270.000010299683,6|2,0:0|2:0,0:0:0:0:
318,339,129428,1,8,0:0:0:0:
318,339,129642,1,0,0:0:0:0:
318,339,129856,1,2,0:0:0:0:
46,64,130285,6,2,L|192:75,1,135.000005149842,6|0,0:0|0:0,0:0:0:0:
63,228,130714,2,2,L|220:209,1,135.000005149842,6|0,0:0|0:0,0:0:0:0:
294,82,131142,2,0,P|291:128|291:173,1,90,12|0,0:0|0:0,0:0:0:0:
457,355,131999,6,2,P|454:218|475:62,1,270.000010299683,6|0,0:0|2:0,0:0:0:0:
470,85,132856,1,8,0:0:0:0:
364,153,133071,1,2,0:0:0:0:
257,212,133285,2,0,P|205:205|152:200,1,90,8|2,0:0|0:0,0:0:0:0:
55,34,133714,6,2,P|118:57|183:77,2,135.000005149842,6|2|2,0:0|0:0|0:0,0:0:0:0:
270,49,134356,1,0,0:0:0:0:
50,187,134571,2,0,L|113:188,1,45,8|0,0:0|0:0,0:0:0:0:
145,277,134999,2,0,B|117:273|117:273|88:278,1,45,2|0,0:0|2:0,0:0:0:0:
289,349,135428,6,2,P|305:204|288:59,1,270.000010299683,6|0,0:0|2:0,0:0:0:0:
175,342,136285,2,0,P|167:251|181:198,1,135.000005149842,8|0,0:0|0:0,0:0:0:0:
406,271,136714,2,0,P|414:180|400:127,1,135.000005149842,4|2,0:0|0:0,0:0:0:0:
223,64,137142,6,0,P|283:75|364:57,2,135.000005149842,4|0|0,0:0|0:0|0:0,0:0:0:0:
66,29,137785,1,0,0:0:0:0:
210,191,137999,2,0,P|270:186|344:147,2,135.000005149842,4|0|0,0:0|0:0|0:0,0:0:0:0:
63,129,138642,1,0,0:0:0:0:
50,347,138856,6,0,P|28:265|38:194,1,135.000005149842,4|0,0:0|0:0,0:0:0:0:
126,77,139285,2,0,B|205:100|205:100|350:74,1,202.500007724762
379,131,139714,2,0,P|377:188|375:274,1,135.000005149842,4|0,0:0|0:0,0:0:0:0:
493,136,140142,6,0,L|490:58,1,67.5
489,34,140571,6,2,B|389:54|389:54|262:25,2,202.500007724762,6|2|2,0:0|0:0|0:0,0:0:0:0:
228,140,141428,2,0,L|137:118,1,90,8|2,0:0|0:0,0:0:0:0:
284,357,142285,6,2,P|296:228|359:98,1,270.000010299683,6|0,0:0|2:0,0:0:0:0:
446,109,142928,1,0,0:0:0:0:
474,353,143142,2,0,P|489:269|476:215,1,135.000005149842,8|0,0:0|0:0,0:0:0:0:
254,257,143571,2,0,P|239:173|252:119,1,135.000005149842,2|0,0:0|0:0,0:0:0:0:
325,13,143999,6,2,P|210:53|54:9,2,270.000010299683,6|6|12,0:0|0:0|0:0,0:0:0:0:
197,151,145071,1,0,0:0:0:0:
197,151,145285,2,0,L|138:142,1,45,0|0,0:0|0:0,0:0:0:0:
20,85,145714,6,2,P|46:182|8:350,1,270.000010299683,6|0,0:0|2:0,0:0:0:0:
99,358,146356,1,0,0:0:0:0:
290,334,146571,1,8,0:0:0:0:
291,234,146785,1,2,0:0:0:0:
200,269,146999,1,8,0:0:0:0:
391,349,147214,5,2,0:0:0:0:
391,349,147428,2,2,P|401:261|425:191,2,135.000005149842,6|2|2,0:0|0:0|0:0,0:0:0:0:
291,234,148071,1,0,0:0:0:0:
386,116,148285,2,0,B|429:117|429:117|479:133,1,90,8|0,0:0|0:0,0:0:0:0:
465,145,149142,6,2,P|330:189|260:86,1,270.000010299683,6|0,0:0|2:0,0:0:0:0:
247,8,149785,1,0,0:0:0:0:
22,111,149999,2,0,L|173:104,1,135.000005149842,10|10,0:0|0:0,0:0:0:0:
217,216,150428,2,2,L|50:226,1,135.000005149842,0|0,0:0|0:0,0:0:0:0:
211,340,150856,6,0,L|516:347,2,270.000010299683,4|0|12,0:0|0:0|0:0,0:0:0:0:
100,282,151928,2,0,P|93:182|164:23,1,270.000010299683,0|0,0:0|2:0,0:0:0:0:
466,312,152571,2,0,P|364:316|200:241,1,270.000010299683,4|0,0:0|2:0,0:0:0:0:
393,27,153214,1,0,0:0:0:0:
393,27,153428,2,0,P|402:107|392:189,1,157.5,4|0,0:0|0:0,0:0:0:0:
381,260,154285,6,0,P|420:256|456:256,2,72,0|0|2,0:0|0:0|0:0,0:0:0:0:
277,291,154928,1,4,0:0:0:0:
196,173,155142,2,0,P|210:108|223:78,1,72,8|0,0:0|0:0,0:0:0:0:
317,115,155571,2,0,P|303:50|290:20,1,72,2|0,0:0|0:0,0:0:0:0:
147,35,155999,5,2,0:0:0:0:
44,90,156214,1,4,0:0:0:0:
64,223,156428,1,0,0:0:0:0:
235,244,156642,1,4,0:0:0:0:
235,244,156749,1,0,0:0:0:0:
235,244,156856,2,0,L|368:250,1,108,8|0,0:0|0:0,0:0:0:0:
370,257,157285,2,0,L|362:306,1,36,2|0,0:0|0:0,0:0:0:0:
451,241,157499,2,0,L|457:182,1,36,0|0,0:0|0:0,0:0:0:0:
426,66,157714,6,0,L|339:75,1,72,4|0,0:0|0:0,0:0:0:0:
333,92,158035,1,4,0:0:0:0:
314,114,158142,1,0,0:0:0:0:
168,128,158356,1,4,0:0:0:0:
186,23,158571,2,0,L|257:26,1,72,8|0,0:0|0:0,0:0:0:0:
168,128,158999,2,0,L|17:125,1,144,2|0,0:0|0:0,0:0:0:0:
25,34,159642,5,4,0:0:0:0:
67,222,159856,1,0,0:0:0:0:
159,218,160071,1,4,0:0:0:0:
260,334,160285,2,0,P|162:326|94:338,1,144,12|0,0:0|0:0,0:0:0:0:
353,332,160928,5,0,0:0:0:0:
441,344,161142,1,4,0:0:0:0:
492,262,161356,2,0,P|480:186|462:140,1,108,0|0,0:0|0:0,0:0:0:0:
456,130,161785,1,4,0:0:0:0:
255,171,161999,2,0,L|354:185,1,72,8|0,0:0|0:0,0:0:0:0:
240,63,162428,2,0,L|160:58,2,48,2|0|0,0:0|0:0|0:0,0:0:0:0:
309,96,162856,5,4,0:0:0:0:
208,230,163071,1,4,0:0:0:0:
91,214,163285,1,0,0:0:0:0:
96,91,163499,1,4,0:0:0:0:
296,260,163714,2,0,L|290:343,1,72,8|0,0:0|0:0,0:0:0:0:
188,324,164142,5,2,0:0:0:0:
63,366,164356,1,0,0:0:0:0:
188,324,164571,2,0,P|321:333|414:357,1,216,4|4,0:0|0:0,0:0:0:0:
488,313,165428,2,0,L|494:268,4,36,8|0|0|0|0,0:0|0:0|0:0|0:0|0:0,0:0:0:0:
400,352,166071,1,0,0:0:0:0:
391,229,166285,5,4,0:0:0:0:
383,135,166499,1,4,0:0:0:0:
489,83,166714,2,0,L|445:104,1,36
371,47,166928,2,0,L|366:17,2,18,4|0|0,0:0|0:0|0:0,0:0:0:0:
371,47,167142,2,0,P|295:47|219:49,1,144,8|0,0:0|0:0,0:0:0:0:
227,48,167999,6,0,P|231:82|232:139,2,72,4|0|2,0:0|0:0|0:0,0:0:0:0:
33,133,168642,1,4,0:0:0:0:
33,133,168856,2,0,L|31:237,1,72,8|0,0:0|0:0,0:0:0:0:
103,310,169285,2,0,L|184:286,1,72,2|0,0:0|0:0,0:0:0:0:
343,350,169714,2,0,P|330:273|307:224,1,108,2|0,0:0|0:0,0:0:0:0:
309,218,170142,2,0,L|223:213,1,72,4|0,0:0|0:0,0:0:0:0:
360,109,170571,2,0,L|532:125,1,144,8|2,0:0|0:0,0:0:0:0:
503,122,171214,1,0,0:0:0:0:
296,36,171428,2,0,L|217:51,2,72,4|4|0,0:0|0:0|0:0,0:0:0:0:
155,148,172071,5,4,0:0:0:0:
72,208,172285,2,0,P|81:306|94:327,1,108,8|0,0:0|0:0,0:0:0:0:
107,340,172714,2,0,L|190:284,1,72
351,270,173142,1,0,0:0:0:0:
259,356,173356,1,4,0:0:0:0:
273,202,173571,2,0,L|281:108,1,72,0|4,0:0|0:0,0:0:0:0:
307,107,173892,1,0,0:0:0:0:
336,86,173999,2,0,L|481:114,1,144,8|2,0:0|0:0,0:0:0:0:
482,267,174642,1,0,0:0:0:0:
309,344,174856,5,4,0:0:0:0:
352,250,175071,1,0,0:0:0:0:
254,170,175285,1,2,0:0:0:0:
64,294,175499,1,4,0:0:0:0:
64,294,175714,2,0,L|52:200,1,72,8|0,0:0|0:0,0:0:0:0:
146,93,176142,2,0,L|157:174,1,72,2|0,0:0|0:0,0:0:0:0:
350,214,176571,5,2,0:0:0:0:
399,103,176785,1,4,0:0:0:0:
254,170,176999,1,0,0:0:0:0:
347,319,177214,1,4,0:0:0:0:
347,319,177428,2,0,L|441:323,1,72,8|0,0:0|0:0,0:0:0:0:
276,257,177856,1,0,0:0:0:0:
187,308,178071,1,0,0:0:0:0:
87,352,178285,6,0,P|71:259|88:191,1,144,4|0,0:0|0:0,0:0:0:0:
310,26,179142,2,0,P|266:82|245:151,1,144,0|0,0:0|0:0,0:0:0:0:
361,355,179999,2,0,P|413:306|479:278,1,144,0|0,0:0|0:0,0:0:0:0:
244,249,180642,1,0,0:0:0:0:
244,249,180856,2,0,B|145:208|137:300|12:250,1,216,0|0,0:0|0:0,0:0:0:0:
233,345,181714,5,4,0:0:0:0:
233,345,181928,1,0,0:0:0:0:
233,345,182142,1,4,0:0:0:0:
233,345,182356,2,0,P|254:266|223:98,1,233.999989288331,4|0,0:0|0:0,0:0:0:0:
46,64,182999,2,0,P|124:72|188:38,1,116.999994644165,0|0,0:0|0:0,0:0:0:0:
327,33,183428,5,4,0:0:0:0:
146,256,183642,1,0,0:0:0:0:
358,349,183856,1,4,0:0:0:0:
354,151,184071,1,8,0:0:0:0:
255,212,184285,2,0,P|301:176|353:150,1,116.999994644165,0|0,0:0|0:0,0:0:0:0:
495,133,184714,2,0,P|445:178|410:224,1,116.999994644165,10|0,0:0|0:0,0:0:0:0:
294,373,185142,5,4,0:0:0:0:
407,311,185356,1,0,0:0:0:0:
144,272,185571,2,0,P|83:282|18:301,1,116.999994644165,4|8,0:0|0:0,0:0:0:0:
371,226,185999,2,0,P|393:144|377:84,1,116.999994644165,2|0,0:0|0:0,0:0:0:0:
163,162,186428,2,0,P|141:80|157:20,1,116.999994644165,10|0,0:0|0:0,0:0:0:0:
387,112,186856,2,0,P|441:92|500:96,1,116.999994644165,0|0,0:0|0:0,0:0:0:0:
163,162,187285,2,0,P|109:182|50:178,1,116.999994644165,2|8,0:0|0:0,0:0:0:0:
300,16,187714,2,0,P|297:74|317:128,1,116.999994644165,4|2,0:0|0:0,0:0:0:0:
212,368,188142,2,0,P|214:309|194:255,1,116.999994644165,12|2,0:0|0:0,0:0:0:0:
83,355,188571,5,4,0:0:0:0:
212,368,188785,1,0,0:0:0:0:
338,348,188999,2,0,P|337:278|319:208,1,116.999994644165,0|8,0:0|0:0,0:0:0:0:
190,73,189428,1,0,0:0:0:0:
250,149,189642,2,0,P|328:144|431:23,1,233.999989288331,2|2,0:0|0:0,0:0:0:0:
464,157,190285,5,4,0:0:0:0:
428,253,190499,1,0,0:0:0:0:
394,348,190714,1,0,0:0:0:0:
273,249,190928,1,10,0:0:0:0:
273,249,191142,2,0,L|401:260,1,116.999994644165,2|0,0:0|0:0,0:0:0:0:
169,167,191571,2,0,L|41:178,1,116.999994644165,8|2,0:0|0:0,0:0:0:0:
50,79,191999,5,4,0:0:0:0:
62,274,192214,1,0,0:0:0:0:
208,330,192428,1,2,0:0:0:0:
249,163,192642,1,8,0:0:0:0:
62,274,192856,2,0,L|102:385,2,116.999994644165,2|0|8,0:0|0:0|0:0,0:0:0:0:
134,161,193499,2,0,P|187:172|268:154,1,116.999994644165,2|0,0:0|0:0,0:0:0:0:
311,88,193928,5,0,0:0:0:0:
449,51,194142,2,0,P|417:92|397:175,2,116.999994644165,2|8|2,0:0|0:0|0:0,0:0:0:0:
311,88,194785,1,2,0:0:0:0:
328,221,194999,1,12,0:0:0:0:
439,279,195214,1,2,0:0:0:0:
461,62,195428,5,4,0:0:0:0:
461,62,195642,1,0,0:0:0:0:
461,62,195856,1,0,0:0:0:0:
461,62,196071,2,0,P|396:57|214:91,1,233.999989288331,8|2,0:0|0:0,0:0:0:0:
199,268,196714,2,0,P|173:205|135:156,1,116.999994644165,0|2,0:0|0:0,0:0:0:0:
48,92,197142,5,4,0:0:0:0:
144,165,197356,1,0,0:0:0:0:
271,181,197571,1,0,0:0:0:0:
153,36,197785,2,0,P|112:140|109:277,1,233.999989288331,10|2,0:0|0:0,0:0:0:0:
265,371,198428,2,0,P|278:304|279:238,1,116.999994644165,0|2,0:0|0:0,0:0:0:0:
181,261,198856,5,4,0:0:0:0:
357,339,199071,1,0,0:0:0:0:
157,376,199285,1,0,0:0:0:0:
465,375,199499,1,10,0:0:0:0:
465,375,199714,2,0,P|483:295|477:231,1,116.999994644165,2|0,0:0|0:0,0:0:0:0:
181,261,200142,2,0,P|163:181|169:117,1,116.999994644165,10|0,0:0|0:0,0:0:0:0:
394,191,200571,6,0,P|314:209|250:203,1,116.999994644165,2|0,0:0|0:0,0:0:0:0:
502,95,200999,2,0,P|420:91|359:69,1,116.999994644165,2|8,0:0|0:0,0:0:0:0:
33,302,201428,2,0,P|114:305|175:327,1,116.999994644165,2|0,0:0|0:0,0:0:0:0:
56,103,201856,2,0,P|134:127|186:164,1,116.999994644165,14|0,0:0|0:0,0:0:0:0:
236,346,202285,5,4,0:0:0:0:
375,351,202499,1,0,0:0:0:0:
435,225,202714,1,0,0:0:0:0:
296,220,202928,1,8,0:0:0:0:
435,225,203142,2,0,P|465:157|475:107,1,116.999994644165,0|4,0:0|0:0,0:0:0:0:
332,26,203571,5,12,0:0:0:0:
315,122,203785,1,0,0:0:0:0:
296,220,203999,2,0,L|275:362,1,116.999994644165,12|0,0:0|0:0,0:0:0:0:
52,308,204428,1,0,0:0:0:0:
144,168,204642,1,8,0:0:0:0:
381,265,204856,2,0,L|504:307,1,116.999994644165,4|0,0:0|0:0,0:0:0:0:
293,357,205285,1,8,0:0:0:0:
171,309,205499,1,0,0:0:0:0:
151,177,205714,5,4,0:0:0:0:
151,177,205928,1,0,0:0:0:0:
151,177,206142,1,0,0:0:0:0:
276,81,206356,1,8,0:0:0:0:
151,177,206571,5,0,0:0:0:0:
151,177,206785,1,0,0:0:0:0:
151,177,206999,1,0,0:0:0:0:
276,81,207214,1,8,0:0:0:0:
151,177,207428,6,0,L|92:175,2,45,0|0|0,0:0|0:0|0:0,0:0:0:0:
276,81,208071,1,0,0:0:0:0:
368,286,208285,6,0,L|427:284,2,45,0|0|0,0:0|0:0|0:0,0:0:0:0:
243,190,208928,1,0,0:0:0:0:
52,351,209142,6,2,P|45:246|3:70,1,270.000010299683,6|0,0:0|2:0,0:0:0:0:
243,190,210000,2,0,L|148:197,1,90,8|12,0:0|0:0,0:0:0:0:
411,302,210856,6,2,P|316:302|115:343,1,270.000010299683,6|0,0:0|2:0,0:0:0:0:
475,355,211714,1,8,0:0:0:0:
411,302,211928,1,0,0:0:0:0:
427,222,212142,1,12,0:0:0:0:
494,274,212356,1,0,0:0:0:0:
278,155,212571,6,2,P|345:141|409:88,1,135.000005149842,6|0,0:0|0:0,0:0:0:0:
278,155,212999,6,2,P|345:141|409:88,1,135.000005149842,2|0,0:0|0:0,0:0:0:0:
297,246,213428,5,0,0:0:0:0:
209,219,213642,2,0,L|156:204,2,45,0|0|0,0:0|0:0|0:0,0:0:0:0:
320,339,214285,2,2,P|238:327|31:362,1,270.000010299683,6|0,0:0|2:0,0:0:0:0:
54,353,214928,1,0,0:0:0:0:
209,224,215142,1,8,0:0:0:0:
103,163,215356,1,2,0:0:0:0:
17,248,215571,1,12,0:0:0:0:
129,305,215785,1,0,0:0:0:0:
260,40,215999,5,4,0:0:0:0:
470,116,216214,1,0,0:0:0:0:
389,328,216428,1,0,0:0:0:0:
184,256,216642,2,0,L|33:217,1,135.000005149842,0|8,0:0|0:0,0:0:0:0:
275,310,217071,1,0,0:0:0:0:
319,228,217285,2,0,L|269:214,1,45,2|0,0:0|0:0,0:0:0:0:
40,68,217714,6,2,P|155:97|342:59,1,270.000010299683,6|0,0:0|2:0,0:0:0:0:
428,34,218356,1,0,0:0:0:0:
428,34,218571,2,0,P|409:104|413:179,1,135.000005149842,8|0,0:0|0:0,0:0:0:0:
192,353,218999,2,0,P|192:285|175:220,1,135.000005149842,0|2,0:0|0:0,0:0:0:0:
41,193,219428,6,0,L|21:311,2,90,4|0|0,0:0|0:0|0:0,0:0:0:0:
149,140,220071,1,0,0:0:0:0:
360,242,220285,6,0,L|380:360,2,90,4|0|0,0:0|0:0|0:0,0:0:0:0:
252,189,220928,1,0,0:0:0:0:
185,341,221142,5,4,0:0:0:0:
185,341,221356,2,0,B|110:330|110:330|-3:357,1,180,0|0,0:0|0:0,0:0:0:0:
289,356,221999,1,12,0:0:0:0:
295,265,222214,1,0,0:0:0:0:
299,175,222428,1,0,0:0:0:0:
187,67,222642,1,0,0:0:0:0:
152,156,222856,6,2,B|118:255|118:255|118:376,2,202.500007724762,6|2|2,0:0|0:0|0:0,0:0:0:0:
33,102,223714,2,0,B|26:146|26:146|37:193,1,90,8|2,0:0|0:0,0:0:0:0:
244,358,224571,2,2,P|246:271|386:126,1,270.000010299683,6|0,0:0|2:0,0:0:0:0:
358,135,225214,1,0,0:0:0:0:
169,142,225428,2,0,P|114:108|83:33,1,135.000005149842,8|2,0:0|0:0,0:0:0:0:
221,255,225856,1,12,0:0:0:0:
347,241,226071,1,0,0:0:0:0:
164,356,226285,6,2,P|76:332|18:341,1,135.000005149842,6|0,0:0|0:0,0:0:0:0:
164,356,226714,6,2,P|76:332|18:341,1,135.000005149842,6|0,0:0|0:0,0:0:0:0:
268,354,227142,5,12,0:0:0:0:
344,300,227356,2,0,L|396:315,2,45,0|0|4,0:0|0:0|0:0,0:0:0:0:
254,264,227999,6,2,P|197:152|273:23,1,270.000010299683,6|0,0:0|2:0,0:0:0:0:
258,32,228642,1,0,0:0:0:0:
101,50,228856,1,10,0:0:0:0:
31,133,229071,1,2,0:0:0:0:
103,212,229285,1,12,0:0:0:0:
181,137,229499,1,2,0:0:0:0:
33,346,229714,5,4,0:0:0:0:
166,348,229928,1,0,0:0:0:0:
294,346,230142,1,0,0:0:0:0:
234,150,230356,2,0,L|122:169,1,67.5000025749208,0|0,0:0|0:0,0:0:0:0:
97,151,230571,2,0,L|84:102,6,33.7500012874604,8|0|0|0|0|0|0,0:0|0:0|0:0|0:0|0:0|0:0|0:0,0:0:0:0:
121,224,230999,1,0,0:0:0:0:
121,224,231428,6,2,P|214:244|407:209,1,270.000010299683,6|0,0:0|2:0,0:0:0:0:
305,37,232285,2,0,L|147:39,1,135.000005149842,2|0,0:0|0:0,0:0:0:0:
350,139,232714,2,2,P|412:119|506:141,1,135.000005149842,0|0,0:0|0:0,0:0:0:0:
191,187,233142,6,0,L|191:340,1,135.000005149842,4|0,0:0|0:0,0:0:0:0:
72,142,233571,2,0,L|71:278,1,135.000005149842,0|0,0:0|0:0,0:0:0:0:
296,351,233999,2,0,L|297:249,1,90,12|0,0:0|0:0,0:0:0:0:
296,261,234535,1,0,0:0:0:0:
296,261,234642,1,0,0:0:0:0:
464,90,234856,6,0,P|369:120|319:109,1,135,4|0,0:0|0:0,0:0:0:0:
165,37,235714,2,0,P|192:81|192:148,1,112.5,4|0,0:0|0:0,0:0:0:0:
171,162,236356,2,0,L|120:149,1,31.4999990386963,8|8,0:0|0:0,0:0:0:0:
135,242,236571,5,4,0:0:0:0:
135,242,236785,1,0,0:0:0:0:
135,242,236999,1,0,0:0:0:0:
135,242,237214,2,0,P|194:262|270:330,1,135,12|0,0:0|0:0,0:0:0:0:
279,340,237642,1,0,0:0:0:0:
369,208,237856,2,0,P|366:267|373:320,1,90,8|0,0:0|0:0,0:0:0:0:
368,297,238178,1,0,0:0:0:0:
368,297,238285,6,0,L|493:298,2,90,4|0|0,0:0|0:0|0:0,0:0:0:0:
267,211,238928,2,0,P|272:131|301:64,1,135,12|0,0:0|0:0,0:0:0:0:
324,49,239356,1,0,0:0:0:0:
418,87,239571,2,0,P|432:135|430:208,1,90,2|0,0:0|0:0,0:0:0:0:
434,174,239892,1,0,0:0:0:0:
434,174,239999,5,4,0:0:0:0:
350,223,240214,1,0,0:0:0:0:
202,178,240428,1,0,0:0:0:0:
79,44,240642,2,0,P|77:125|68:208,1,135,12|0,0:0|0:0,0:0:0:0:
67,223,241071,1,0,0:0:0:0:
185,306,241285,2,0,P|190:249|207:189,1,90,8|0,0:0|0:0,0:0:0:0:
197,217,241606,1,0,0:0:0:0:
197,217,241714,6,0,L|299:217,2,90,4|0|0,0:0|0:0|0:0,0:0:0:0:
269,309,242356,2,0,P|357:312|430:333,1,135,12|0,0:0|0:0,0:0:0:0:
444,338,242785,1,0,0:0:0:0:
485,190,242999,2,0,P|435:218|403:260,1,90,2|0,0:0|0:0,0:0:0:0:
413,242,243321,1,0,0:0:0:0:
413,242,243428,5,4,0:0:0:0:
334,147,243642,1,0,0:0:0:0:
413,44,243856,1,0,0:0:0:0:
221,82,244071,2,0,P|235:168|215:240,1,135,12|0,0:0|0:0,0:0:0:0:
209,256,244499,1,0,0:0:0:0:
37,223,244714,2,0,P|85:247|114:280,1,90,8|0,0:0|0:0,0:0:0:0:
109,273,245035,1,0,0:0:0:0:
109,273,245142,6,0,P|86:316|62:350,2,90,4|0|0,0:0|0:0|0:0,0:0:0:0:
191,344,245785,2,0,P|270:351|351:346,1,135,12|0,0:0|0:0,0:0:0:0:
370,342,246214,1,0,0:0:0:0:
478,365,246428,2,0,P|480:302|516:218,1,135,2|0,0:0|0:0,0:0:0:0:
461,247,246856,5,4,0:0:0:0:
343,213,247071,1,0,0:0:0:0:
458,242,247285,1,0,0:0:0:0:
249,270,247499,2,0,P|190:231|180:158,1,135,12|0,0:0|0:0,0:0:0:0:
188,127,247928,1,0,0:0:0:0:
317,34,248142,2,0,P|270:47|224:45,1,90,8|0,0:0|0:0,0:0:0:0:
184,37,248464,1,0,0:0:0:0:
184,37,248571,1,4,0:0:0:0:
49,118,248785,5,0,0:0:0:0:
49,118,248892,1,0,0:0:0:0:
49,118,248999,2,0,P|72:163|72:209,1,90,0|12,0:0|0:0,0:0:0:0:
24,328,249428,1,0,0:0:0:0:
161,353,249642,1,0,0:0:0:0:
161,353,249856,2,0,P|175:304|175:238,1,90,2|0,0:0|0:0,0:0:0:0:
177,265,250178,1,0,0:0:0:0:
177,265,250285,5,4,0:0:0:0:
295,344,250499,1,0,0:0:0:0:
404,279,250714,1,0,0:0:0:0:
283,141,250928,2,0,P|202:152|120:138,1,135,12|0,0:0|0:0,0:0:0:0:
112,120,251356,1,0,0:0:0:0:
14,187,251571,2,0,P|47:223|63:272,1,90,8|0,0:0|0:0,0:0:0:0:
61,261,251892,1,0,0:0:0:0:
61,261,251999,6,0,L|157:260,2,90,4|0|0,0:0|0:0|0:0,0:0:0:0:
172,343,252642,2,0,L|309:344,1,135,12|0,0:0|0:0,0:0:0:0:
352,347,253071,2,0,P|350:298|356:249,2,90,0|2|0,0:0|0:0|0:0,0:0:0:0:
394,362,253606,5,0,0:0:0:0:
394,362,253714,1,4,0:0:0:0:
483,276,253928,1,0,0:0:0:0:
387,138,254142,2,0,L|338:182,1,45,0|0,0:0|0:0,0:0:0:0:
271,189,254356,2,0,P|258:110|225:40,1,135,12|0,0:0|0:0,0:0:0:0:
201,31,254785,1,0,0:0:0:0:
61,96,254999,2,0,P|60:153|69:209,1,90,8|0,0:0|0:0,0:0:0:0:
73,230,255321,5,0,0:0:0:0:
73,230,255428,2,0,L|181:232,1,90,4|0,0:0|0:0,0:0:0:0:
288,324,255856,1,0,0:0:0:0:
288,324,256071,2,0,P|211:315|92:345,1,180,12|0,0:0|0:0,0:0:0:0:
22,300,256714,1,2,0:0:0:0:
140,157,256928,5,0,0:0:0:0:
140,157,257035,1,0,0:0:0:0:
140,157,257142,1,4,0:0:0:0:
271,158,257356,1,0,0:0:0:0:
254,35,257571,1,0,0:0:0:0:
31,58,257785,2,0,B|45:114|45:114|40:220,1,135,12|0,0:0|0:0,0:0:0:0:
32,235,258214,1,0,0:0:0:0:
207,305,258428,2,0,L|211:197,1,90,8|0,0:0|0:0,0:0:0:0:
208,170,258749,5,0,0:0:0:0:
208,170,258856,2,0,P|264:171|318:162,2,90,4|0|0,0:0|0:0|0:0,0:0:0:0:
320,266,259499,2,0,P|392:256|494:263,1,135,12|0,0:0|0:0,0:0:0:0:
484,290,259928,1,0,0:0:0:0:
412,357,260142,1,2,0:0:0:0:
308,360,260356,5,0,0:0:0:0:
308,360,260464,1,0,0:0:0:0:
308,360,260571,1,4,0:0:0:0:
239,221,260785,1,0,0:0:0:0:
343,156,260999,1,8,0:0:0:0:
215,309,261214,2,0,P|133:298|68:302,1,135,12|0,0:0|0:0,0:0:0:0:
36,307,261642,1,0,0:0:0:0:
42,149,261856,1,12,0:0:0:0:
216,212,262071,5,0,0:0:0:0:
223,220,262178,1,0,0:0:0:0:
223,220,262285,2,0,P|246:148|243:103,2,90,12|0|0,0:0|0:0|0:0,0:0:0:0:
363,347,262928,2,0,P|358:239|381:177,1,135,12|0,0:0|0:0,0:0:0:0:
381,172,263356,1,0,0:0:0:0:
495,271,263571,2,0,P|497:331|492:377,2,90,2|0|4,0:0|0:0|0:0,0:0:0:0:
256,192,264106,12,0,270856,0:0:0:0:
