osu file format v14

[General]
AudioFilename: Florence + The Machine - Cosmic Love (Seven Lions Remix).mp3
AudioLeadIn: 0
PreviewTime: 181710
Countdown: 0
SampleSet: Normal
StackLeniency: 0.7
Mode: 0
LetterboxInBreaks: 1
EpilepsyWarning: 1
WidescreenStoryboard: 0

[Editor]
Bookmarks: 27428,41142,54856,68571,71999,85714,99428,113142,126856,140571,154285,167999,195428,209142,222856,236571,250285,263999
DistanceSpacing: 1.2
BeatDivisor: 4
GridSize: 8
TimelineZoom: 1.2

[Metadata]
Title:Cosmic Love (Seven Lions Remix)
TitleUnicode:Cosmic Love (Seven Lions Remix)
Artist:Florence + The Machine
ArtistUnicode:Florence + The Machine
Creator:PandaHero
Version:Collab Hard
Source:
Tags:La Cataline lc Mirash collab collaboration chillout dubstep
BeatmapID:1480232
BeatmapSetID:696222

[Difficulty]
HPDrainRate:5
CircleSize:4
OverallDifficulty:6
ApproachRate:7
SliderMultiplier:1.2
SliderTickRate:1

[Events]
//Background and Video events
0,0,"wallpaper-1968747.jpg",0,0
//Break Periods
2,71999,84814
//Storyboard Layer 0 (Background)
//Storyboard Layer 1 (Fail)
//Storyboard Layer 2 (Pass)
//Storyboard Layer 3 (Foreground)
//Storyboard Sound Samples

[TimingPoints]
13714,428.571428571429,4,2,1,60,1,0
33321,-100,4,2,2,60,0,0
33535,-100,4,2,1,60,0,0
41142,-100,4,1,1,60,0,0
41785,-100,4,1,1,40,0,0
41892,-100,4,1,1,10,0,0
42856,-100,4,1,1,20,0,0
44571,-100,4,1,1,10,0,0
45321,-100,4,1,1,80,0,0
46821,-100,4,2,1,60,0,0
48856,-100,4,1,1,60,0,0
49821,-100,4,2,1,60,0,0
56571,-100,4,1,1,40,0,0
56678,-100,4,2,1,60,0,0
63428,-100,4,1,1,40,0,0
63535,-100,4,2,1,60,0,0
85499,-100,4,2,2,45,0,0
85714,-125,4,2,2,45,0,0
86142,-125,4,2,2,25,0,0
86249,-125,4,2,2,45,0,0
92892,-125,4,2,2,25,0,0
93428,-125,4,2,2,45,0,0
94606,-125,4,2,2,25,0,0
95142,-125,4,2,2,45,0,0
96321,-125,4,2,2,25,0,0
96856,-125,4,2,2,45,0,0
98571,-200,4,2,2,45,0,0
99428,-83.3333333333333,4,1,1,55,0,0
99749,-83.3333333333333,4,2,1,55,0,0
101035,-83.3333333333333,4,1,1,55,0,0
101464,-83.3333333333333,4,2,1,55,0,0
102749,-83.3333333333333,4,1,1,55,0,0
103178,-83.3333333333333,4,2,1,55,0,0
106178,-83.3333333333333,4,1,1,65,0,0
106606,-83.3333333333333,4,2,1,55,0,0
107892,-83.3333333333333,4,1,1,55,0,0
108428,-83.3333333333333,4,2,1,55,0,0
109606,-83.3333333333333,4,1,1,55,0,0
110035,-83.3333333333333,4,2,1,55,0,0
111749,-83.3333333333333,4,2,2,35,0,0
111964,-83.3333333333333,4,2,1,55,0,0
112178,-83.3333333333333,4,2,2,45,0,0
112392,-83.3333333333333,4,2,1,55,0,0
112606,-83.3333333333333,4,1,1,55,0,0
113464,-83.3333333333333,4,2,1,55,0,0
114535,-83.3333333333333,4,1,1,35,0,0
114749,-83.3333333333333,4,1,1,55,0,0
115285,-83.3333333333333,4,2,1,55,0,0
115928,-83.3333333333333,4,1,1,35,0,0
116035,-83.3333333333333,4,2,1,55,0,0
116356,-83.3333333333333,4,1,1,35,0,0
116464,-83.3333333333333,4,1,1,55,0,0
116999,-83.3333333333333,4,2,1,55,0,0
117642,-83.3333333333333,4,1,1,35,0,0
117749,-83.3333333333333,4,2,1,55,0,0
118606,-83.3333333333333,4,2,2,35,0,0
118928,-83.3333333333333,4,2,1,55,0,0
119035,-83.3333333333333,4,2,2,45,0,0
119464,-83.3333333333333,4,1,1,45,0,0
119892,-83.3333333333333,4,1,1,60,0,0
120749,-83.3333333333333,4,2,1,60,0,0
121178,-83.3333333333333,4,2,2,40,0,0
121392,-83.3333333333333,4,2,1,60,0,0
121606,-83.3333333333333,4,1,1,60,0,0
122464,-83.3333333333333,4,2,1,60,0,0
122892,-83.3333333333333,4,2,2,40,0,0
123321,-83.3333333333333,4,1,1,70,0,0
124928,-83.3333333333333,4,2,1,70,0,0
125035,-83.3333333333333,4,2,2,50,0,0
126428,-83.3333333333333,4,1,1,20,0,0
126856,-200,4,1,1,80,0,1
127821,-200,4,2,1,80,0,0
127928,-83.3333333333333,4,2,1,80,0,0
128571,-200,4,1,1,80,0,1
129535,-200,4,2,1,80,0,0
130285,-83.3333333333333,4,1,1,80,0,1
131249,-83.3333333333333,4,1,1,40,0,0
131999,-200,4,1,1,80,0,1
132964,-200,4,2,2,80,0,0
133714,-200,4,1,1,80,0,1
134142,-83.3333333333333,4,1,1,80,0,1
134678,-83.3333333333333,4,1,1,60,0,0
134785,-200,4,1,1,60,0,0
134892,-200,4,2,1,40,0,0
135214,-200,4,1,1,80,0,0
135428,-200,4,1,1,80,0,1
136071,-200,4,2,1,80,0,1
136178,-200,4,1,1,80,0,1
136285,-200,4,1,1,80,0,0
136714,-200,4,2,0,80,0,0
137142,-83.3333333333333,4,1,1,80,0,0
140571,-83.3333333333333,4,1,1,80,0,1
141428,-83.3333333333333,4,1,1,80,0,0
141535,-83.3333333333333,4,1,1,5,0,0
142178,-83.3333333333333,4,2,1,80,0,0
142285,-200,4,1,1,80,0,1
143142,-200,4,1,1,80,0,0
143356,-200,4,2,1,80,0,0
143999,-83.3333333333333,4,1,1,80,0,1
144321,-83.3333333333333,4,2,1,5,0,0
144428,-83.3333333333333,4,1,1,80,0,1
144749,-83.3333333333333,4,2,1,5,0,0
144856,-83.3333333333333,4,1,1,80,0,0
145714,-200,4,1,1,80,0,1
146571,-100,4,1,1,80,0,0
146678,-200,4,2,2,80,0,0
146785,-83.3333333333333,4,2,2,80,0,0
147428,-83.3333333333333,4,1,1,80,0,1
148178,-83.3333333333333,4,2,1,5,0,0
148285,-83.3333333333333,4,2,2,40,0,0
148295,-83.3333333333333,4,2,1,100,0,0
148714,-83.3333333333333,4,2,1,5,0,0
149142,-200,4,1,1,80,0,1
149999,-200,4,1,2,30,0,0
150106,-200,4,1,2,20,0,0
150321,-200,4,1,2,80,0,0
150428,-83.3333333333333,4,1,2,80,0,0
150749,-83.3333333333333,4,2,1,80,0,0
150856,-83.3333333333333,4,1,1,80,0,0
152464,-83.3333333333333,4,2,1,5,0,0
152571,-83.3333333333333,4,1,1,80,0,0
153321,-83.3333333333333,4,2,0,70,0,0
154285,-100,4,1,1,60,0,0
154499,-100,4,2,1,60,0,0
165535,-100,4,1,1,40,0,0
166178,-100,4,2,0,60,0,0
166499,-100,4,2,1,60,0,0
167035,-100,4,2,2,80,0,0
167999,-100,4,1,1,60,0,0
168214,-100,4,2,1,60,0,0
171642,-100,4,2,0,40,0,0
171749,-100,4,2,1,60,0,0
178285,-100,4,1,1,60,0,0
181714,-83.3333333333333,4,1,1,70,0,0
182142,-83.3333333333333,4,2,2,50,0,0
182249,-83.3333333333333,4,1,1,70,0,0
182571,-83.3333333333333,4,2,1,70,0,0
182678,-83.3333333333333,4,1,1,70,0,0
183749,-83.3333333333333,4,2,2,50,0,0
184071,-83.3333333333333,4,1,1,70,0,0
185464,-83.3333333333333,4,2,2,50,0,0
185785,-83.3333333333333,4,1,1,70,0,0
195321,-83.3333333333333,4,1,1,75,0,0
202178,-83.3333333333333,4,1,1,80,0,0
209142,-200,4,1,1,70,0,1
210106,-200,4,2,2,70,0,0
210214,-83.3333333333333,4,2,2,70,0,0
210856,-200,4,1,1,70,0,1
211821,-200,4,2,2,70,0,0
212571,-83.3333333333333,4,1,1,70,0,1
213428,-83.3333333333333,4,1,1,50,0,0
214285,-200,4,1,1,70,0,1
215142,-200,4,1,1,70,0,0
215356,-200,4,2,2,70,0,0
215999,-200,4,1,1,70,0,1
216428,-83.3333333333333,4,1,1,70,0,1
216964,-83.3333333333333,4,2,2,70,0,0
217071,-200,4,2,2,70,0,0
217499,-200,4,1,1,70,0,0
217714,-200,4,1,1,70,0,1
218356,-200,4,1,1,5,0,1
218464,-200,4,1,1,70,0,1
218571,-200,4,1,1,70,0,0
218999,-200,4,1,1,30,0,0
219214,-83.3333333333333,4,1,1,30,0,0
219428,-83.3333333333333,4,1,1,70,0,0
222856,-83.3333333333333,4,1,1,70,0,1
223714,-83.3333333333333,4,1,1,70,0,0
223821,-83.3333333333333,4,1,1,5,0,0
224571,-200,4,1,1,70,0,1
225428,-200,4,1,1,70,0,0
225642,-200,4,2,2,70,0,0
226285,-83.3333333333333,4,1,1,70,0,1
226606,-83.3333333333333,4,1,1,5,0,1
226714,-83.3333333333333,4,1,1,70,0,1
227035,-83.3333333333333,4,1,1,5,0,1
227142,-83.3333333333333,4,1,1,70,0,0
227356,-83.3333333333333,4,1,1,40,0,0
227999,-200,4,1,1,70,0,1
228856,-200,4,1,1,70,0,0
228964,-200,4,2,2,70,0,0
229071,-83.3333333333333,4,2,2,70,0,0
229714,-83.3333333333333,4,1,1,70,0,1
230464,-83.3333333333333,4,2,1,5,0,0
230571,-83.3333333333333,4,2,2,45,0,0
230581,-83.3333333333333,4,2,1,100,0,0
230999,-83.3333333333333,4,2,1,5,0,0
231428,-200,4,1,1,70,0,1
232285,-200,4,1,2,40,0,0
232606,-200,4,1,2,70,0,0
232714,-83.3333333333333,4,1,2,70,0,0
233142,-83.3333333333333,4,1,1,70,0,0
236571,-100,4,1,1,70,0,0
239464,-100,4,2,1,70,0,0
239785,-100,4,1,1,70,0,0
242892,-100,4,2,1,70,0,0
243321,-100,4,1,1,70,0,0
246321,-100,4,2,1,70,0,0
246642,-100,4,1,1,70,0,0
249749,-100,4,2,1,70,0,0
249964,-100,4,1,1,70,0,0
253178,-100,4,2,1,70,0,0
253499,-100,4,1,1,70,0,0
256606,-100,4,2,1,70,0,0
256821,-100,4,1,1,70,0,0
260035,-100,4,2,1,70,0,0
260249,-100,4,1,1,70,0,0
263464,-100,4,2,1,70,0,0
263785,-100,4,1,1,70,0,0
270856,-100,4,1,1,5,0,0

[Colours]
Combo1 : 226,99,121
Combo2 : 80,199,184
Combo3 : 249,81,85
Combo4 : 88,137,173

[HitObjects]
442,334,27428,6,0,P|410:280|428:213,1,120,4|2,0:0|0:0,0:0:0:0:
494,233,28071,1,0,0:0:0:0:
490,159,28285,2,0,L|243:132,1,240,8|0,0:0|0:0,0:0:0:0:
253,137,29571,2,0,P|241:175|240:216,1,60,4|0,0:0|0:0,0:0:0:0:
156,288,29999,2,0,P|168:243|102:57,1,240,8|4,0:0|0:0,0:0:0:0:
24,84,31071,5,2,0:0:0:0:
24,84,31178,1,0,0:0:0:0:
24,84,31285,1,2,0:0:0:0:
67,141,31499,1,0,0:0:0:0:
22,197,31714,2,0,P|25:271|172:358,1,240,8|2,0:0|0:0,0:0:0:0:
240,368,32785,1,4,0:0:0:0:
309,310,32999,2,0,P|273:286|198:304,1,120,4|10,0:0|0:0,0:0:0:0:
197,159,34285,6,0,L|215:101,1,60,4|2,0:0|0:0,0:0:0:0:
300,73,34714,2,0,L|275:148,1,60,2|0,0:0|0:0,0:0:0:0:
271,201,35142,2,0,P|341:222|464:107,1,240,8|0,0:0|0:0,0:0:0:0:
440,268,36428,2,0,L|511:274,1,60,4|2,0:0|0:0,0:0:0:0:
488,344,36856,2,0,L|225:322,1,240,8|4,0:0|0:0,0:0:0:0:
190,281,37928,5,2,0:0:0:0:
190,281,38035,1,0,0:0:0:0:
190,281,38142,2,0,L|111:291,1,60,2|0,0:0|0:0,0:0:0:0:
18,217,38571,2,0,L|200:197,1,180,8|4,0:0|0:0,0:0:0:0:
266,242,39428,1,0,0:0:0:0:
266,242,39856,2,0,L|335:225,1,60,4|0,0:0|0:0,0:0:0:0:
496,108,40285,2,0,L|250:167,1,240,8|4,0:0|0:0,0:0:0:0:
256,192,41249,12,0,44571,0:0:0:0:
89,350,45428,6,0,P|105:260|38:49,1,300,8|0,0:0|0:0,0:0:0:0:
177,115,46714,1,0,0:0:0:0:
177,115,47142,2,0,P|274:112|361:113,1,180,10|0,0:0|0:0,0:0:0:0:
450,76,47999,6,0,P|440:133|450:212,1,120,4|2,0:0|0:0,0:0:0:0:
483,343,48856,2,0,B|383:303|362:390|237:341,1,240,8|0,0:0|0:0,0:0:0:0:
190,302,49928,1,4,0:0:0:0:
121,322,50142,1,4,0:0:0:0:
45,179,50571,2,0,P|55:237|49:297,1,120,8|0,0:0|0:0,0:0:0:0:
197,58,51428,6,0,P|137:51|78:61,1,120,4|2,0:0|0:0,0:0:0:0:
316,33,52285,2,0,P|278:117|336:255,1,240,8|0,0:0|0:0,0:0:0:0:
400,248,53356,1,4,0:0:0:0:
442,189,53571,1,4,0:0:0:0:
405,355,53999,2,0,P|309:336|207:337,1,180,10|0,0:0|0:0,0:0:0:0:
167,295,54856,6,0,P|131:281|93:274,1,60,4|0,0:0|0:0,0:0:0:0:
75,213,55285,2,0,P|108:194|138:175,1,60,2|0,0:0|0:0,0:0:0:0:
196,162,55714,2,0,P|243:91|446:58,1,300,8|4,0:0|0:0,0:0:0:0:
484,124,56999,1,4,0:0:0:0:
484,124,57428,2,0,L|452:379,1,240,8|4,0:0|0:0,0:0:0:0:
382,369,58499,5,0,0:0:0:0:
382,369,58606,1,0,0:0:0:0:
382,369,58714,2,0,P|346:356|298:348,1,60,2|0,0:0|0:0,0:0:0:0:
255,369,59142,2,0,P|211:362|137:140,1,300,8|4,0:0|0:0,0:0:0:0:
194,124,60428,2,0,L|257:150,1,60,4|0,0:0|0:0,0:0:0:0:
297,200,60856,2,0,P|349:151|274:10,1,240,10|4,0:0|0:0,0:0:0:0:
232,54,61928,5,0,0:0:0:0:
232,54,62035,1,0,0:0:0:0:
232,54,62142,2,0,P|191:50|146:44,1,60,2|0,0:0|0:0,0:0:0:0:
103,27,62571,2,0,P|31:90|26:237,1,240,8|0,0:0|0:0,0:0:0:0:
72,277,63642,1,4,0:0:0:0:
137,247,63856,2,0,P|173:249|214:262,1,60,4|2,0:0|0:0,0:0:0:0:
236,315,64285,2,0,P|307:324|428:203,1,240,8|4,0:0|0:0,0:0:0:0:
378,164,65356,5,0,0:0:0:0:
378,164,65464,1,0,0:0:0:0:
378,164,65571,1,2,0:0:0:0:
446,142,65785,1,0,0:0:0:0:
446,142,65999,2,0,P|437:100|221:98,1,300,8|4,0:0|0:0,0:0:0:0:
202,149,67285,2,0,P|151:157|76:147,1,120,4|8,0:0|0:0,0:0:0:0:
25,149,85714,6,0,B|117:132|117:204|235:184,1,192,0|4,0:0|0:0,0:0:0:0:
431,306,87428,2,0,B|339:289|339:361|221:341,1,192,0|4,0:0|0:0,0:0:0:0:
255,125,89142,2,0,B|347:108|347:180|439:163,2,192,0|4|0,0:0|0:0|0:0,0:0:0:0:
88,328,92571,6,0,P|78:235|21:135,1,192,0|4,0:0|0:0,0:0:0:0:
292,117,94285,2,0,P|196:113|109:75,1,192,0|4,0:0|0:0,0:0:0:0:
324,213,95999,2,0,P|247:269|196:350,2,192,0|4|2,0:0|0:0|0:0,0:0:0:0:
153,138,98571,6,0,P|197:165|247:183,1,105,0|0,0:0|0:0,0:0:0:0:
289,172,99428,6,0,P|269:227|279:322,1,143.999995605469,4|2,0:0|0:0,0:0:0:0:
355,343,100071,1,4,0:0:0:0:
469,213,100500,1,0,0:0:0:0:
469,213,100714,1,4,0:0:0:0:
388,60,101142,6,0,P|340:48|309:45,1,71.9999978027344,4|0,0:0|0:0,0:0:0:0:
252,102,101571,2,0,P|197:110|157:114,1,71.9999978027344,2|4,0:0|0:0,0:0:0:0:
102,74,101999,2,0,P|78:105|83:285,1,215.999993408203,0|0,0:0|0:0,0:0:0:0:
161,288,102856,5,4,0:0:0:0:
161,288,103071,1,4,0:0:0:0:
245,303,103285,1,2,0:0:0:0:
245,303,103499,1,4,0:0:0:0:
305,256,103714,6,0,B|386:262|353:226|445:233,5,143.999995605469,0|4|4|2|0|4,0:0|0:0|0:0|0:0|0:0|0:0,0:0:0:0:
311,119,106285,5,4,0:0:0:0:
248,179,106499,1,0,0:0:0:0:
168,150,106714,1,2,0:0:0:0:
230,87,106928,1,4,0:0:0:0:
175,232,107142,2,0,P|117:229|39:106,1,215.999993408203,0|0,0:0|0:0,0:0:0:0:
144,45,107999,6,0,P|134:90|116:122,1,71.9999978027344,4|0,0:0|0:0,0:0:0:0:
194,160,108428,2,0,P|245:153|276:149,1,71.9999978027344,2|4,0:0|0:0,0:0:0:0:
227,57,108856,2,0,P|267:73|454:73,1,215.999993408203,0|0,0:0|0:0,0:0:0:0:
494,143,109714,5,4,0:0:0:0:
472,226,109928,1,0,0:0:0:0:
392,193,110142,1,2,0:0:0:0:
366,275,110356,1,4,0:0:0:0:
447,305,110571,2,0,P|429:333|391:368,1,71.9999978027344,2|0,0:0|0:0,0:0:0:0:
282,300,110999,2,0,P|287:258|307:213,1,71.9999978027344,4|2,0:0|0:0,0:0:0:0:
208,342,111428,5,4,0:0:0:0:
208,342,111642,1,0,0:0:0:0:
116,257,111856,2,0,P|164:261|208:259,1,71.9999978027344,4|4,0:0|0:0,0:0:0:0:
43,359,112285,2,0,P|83:343|141:331,1,71.9999978027344,4|0,0:0|0:0,0:0:0:0:
29,265,112714,2,0,P|33:222|33:176,1,71.9999978027344,4|4,0:0|0:0,0:0:0:0:
20,84,113142,5,4,0:0:0:0:
20,84,113356,1,0,0:0:0:0:
20,84,113571,1,2,0:0:0:0:
20,84,113785,2,0,P|75:86|172:58,1,143.999995605469,4|0,0:0|0:0,0:0:0:0:
271,13,114428,2,0,P|255:46|245:91,1,71.9999978027344,4|0,0:0|0:0,0:0:0:0:
331,173,114856,5,4,0:0:0:0:
236,175,115071,1,0,0:0:0:0:
331,173,115285,1,2,0:0:0:0:
236,175,115499,2,0,P|159:194|88:237,1,143.999995605469,4|0,0:0|0:0,0:0:0:0:
191,356,116142,2,0,P|191:317|175:268,1,71.9999978027344,4|0,0:0|0:0,0:0:0:0:
104,318,116571,5,4,0:0:0:0:
265,344,116785,1,0,0:0:0:0:
300,255,116999,1,2,0:0:0:0:
451,197,117214,1,4,0:0:0:0:
451,197,117428,2,0,B|433:262|433:262|447:368,5,143.999995605469,0|4|4|4|4|4,0:0|0:0|0:0|0:0|0:0|0:0,0:0:0:0:
305,248,119999,5,4,0:0:0:0:
305,248,120214,1,0,0:0:0:0:
278,158,120428,1,0,0:0:0:0:
278,158,120642,1,0,0:0:0:0:
339,87,120856,1,4,0:0:0:0:
339,87,121071,1,4,0:0:0:0:
429,157,121285,2,0,L|343:175,1,71.9999978027344,4|0,0:0|0:0,0:0:0:0:
207,172,121714,6,0,L|278:158,1,71.9999978027344,4|0,0:0|0:0,0:0:0:0:
251,68,122142,1,0,0:0:0:0:
251,68,122356,1,0,0:0:0:0:
164,31,122571,1,4,0:0:0:0:
164,31,122785,1,4,0:0:0:0:
90,88,122999,1,4,0:0:0:0:
90,88,123214,1,2,0:0:0:0:
126,207,123428,6,0,P|166:206|216:205,2,71.9999978027344,4|0|0,0:0|0:0|0:0,0:0:0:0:
116,300,124071,1,0,0:0:0:0:
198,343,124285,1,0,0:0:0:0:
263,276,124499,1,0,0:0:0:0:
383,287,124714,2,0,L|397:384,1,71.9999978027344,4|6,0:0|0:0,0:0:0:0:
256,192,125142,12,0,126428,0:0:0:0:
103,279,126856,6,2,L|227:284,1,120,6|8,0:0|0:0,0:0:0:0:
273,118,128142,6,0,P|244:89|212:72,1,71.9999978027344,2|0,0:0|0:0,0:0:0:0:
144,81,128571,6,2,L|154:211,1,120,6|8,0:0|0:0,0:0:0:0:
153,200,129642,1,0,0:0:0:0:
153,200,129856,1,2,0:0:0:0:
163,278,130285,6,2,B|199:278|199:278|242:302,1,71.9999978027344,6|0,0:0|0:0,0:0:0:0:
214,376,130714,2,2,L|377:360,1,143.999995605469,6|12,0:0|0:0,0:0:0:0:
438,332,131356,2,0,P|397:331|355:320,2,71.9999978027344
317,268,131999,6,2,L|321:171,1,90,6|0,0:0|0:0,0:0:0:0:
395,180,132856,1,8,0:0:0:0:
469,171,133071,1,2,0:0:0:0:
481,97,133285,1,8,0:0:0:0:
417,57,133499,1,2,0:0:0:0:
366,113,133714,6,0,L|329:111,1,30,6|2,0:0|0:0,0:0:0:0:
266,67,134142,6,2,P|231:63|187:73,1,71.9999978027344,2|0,0:0|0:0,0:0:0:0:
147,142,134571,1,8,0:0:0:0:
147,142,134785,6,0,L|151:183,2,30,0|2|0,0:0|0:0|0:0,0:0:0:0:
91,220,135428,6,2,L|78:344,1,120,6|8,0:0|0:0,0:0:0:0:
141,382,136714,1,4,0:0:0:0:
206,338,137142,6,0,P|253:323|364:337,1,143.999995605469,4|0,0:0|0:0,0:0:0:0:
355,338,137999,2,0,B|348:169|470:253|464:54,2,287.999991210938,4|4|4,0:0|0:0|0:0,0:0:0:0:
262,64,140571,6,2,P|286:117|297:176,2,107.999996704102,6|2|2,0:0|0:0|0:0,0:0:0:0:
173,35,141428,2,2,L|164:200,1,143.999995605469,10|2,0:0|0:0,0:0:0:0:
167,196,142285,6,2,P|109:189|37:189,1,120,6|8,0:0|0:0,0:0:0:0:
47,188,143356,1,0,0:0:0:0:
47,188,143571,1,2,0:0:0:0:
245,319,143999,6,2,P|242:281|232:230,1,71.9999978027344,6|0,0:0|0:0,0:0:0:0:
364,354,144428,2,2,P|367:316|377:265,1,71.9999978027344,6|0,0:0|0:0,0:0:0:0:
294,185,144856,1,12,0:0:0:0:
388,160,145071,2,0,P|415:176|479:184,2,71.9999978027344
279,177,145714,6,2,L|147:182,1,120,6|8,0:0|0:0,0:0:0:0:
52,126,146785,2,0,P|59:168|58:224,2,71.9999978027344,2|8|2,0:0|0:0|0:0,0:0:0:0:
19,42,147428,5,6,0:0:0:0:
19,42,147642,1,2,0:0:0:0:
19,42,147856,1,2,0:0:0:0:
270,54,148285,2,0,B|202:51|202:51|119:73,1,143.999995605469,8|0,0:0|0:0,0:0:0:0:
137,82,149142,6,2,L|138:208,1,120,6|10,0:0|0:0,0:0:0:0:
342,245,150428,2,2,P|298:253|253:254,1,71.9999978027344,0|0,0:0|0:0,0:0:0:0:
336,346,150856,2,0,P|413:326|489:340,1,143.999995605469,4|0,0:0|0:0,0:0:0:0:
478,150,151714,2,0,P|358:136|272:76,1,215.999993408203,12|0,0:0|0:0,0:0:0:0:
157,28,152571,2,0,P|172:75|151:252,1,215.999993408203,4|0,0:0|0:0,0:0:0:0:
212,349,153428,2,0,B|325:309|323:392|454:345,1,215.999993408203,4|0,0:0|0:0,0:0:0:0:
444,368,154285,6,0,P|460:329|461:279,1,90,0|0,0:0|0:0,0:0:0:0:
434,257,154714,2,0,P|429:227|428:177,1,60,2|4,0:0|0:0,0:0:0:0:
474,142,155142,2,0,P|440:113|315:60,1,180,8|0,0:0|0:0,0:0:0:0:
245,49,155999,6,0,P|247:95|254:124,1,60,2|4,0:0|0:0,0:0:0:0:
304,155,156428,2,0,P|291:187|266:224,1,60,0|4,0:0|0:0,0:0:0:0:
241,207,156749,1,0,0:0:0:0:
205,203,156856,2,0,P|177:239|237:361,1,180,8|0,0:0|0:0,0:0:0:0:
281,318,157714,5,4,0:0:0:0:
350,354,157928,1,0,0:0:0:0:
350,354,158035,1,4,0:0:0:0:
415,324,158249,1,0,0:0:0:0:
415,324,158356,1,4,0:0:0:0:
480,353,158571,2,0,P|502:315|464:181,1,180,8|0,0:0|0:0,0:0:0:0:
473,189,159642,6,0,L|397:202,1,60,4|0,0:0|0:0,0:0:0:0:
349,166,160071,1,4,0:0:0:0:
280,187,160285,2,0,P|226:200|83:87,1,240,12|4,0:0|0:0,0:0:0:0:
86,100,161571,6,0,P|82:139|73:171,1,60,2|4,0:0|0:0,0:0:0:0:
29,212,161999,2,0,P|86:221|234:339,1,240,8|4,0:0|0:0,0:0:0:0:
313,345,163071,6,0,P|265:355|235:374,1,60,4|0,0:0|0:0,0:0:0:0:
278,272,163499,1,4,0:0:0:0:
354,278,163714,2,0,P|387:263|398:72,1,240,8|4,0:0|0:0,0:0:0:0:
339,80,164785,5,0,0:0:0:0:
339,80,164892,1,0,0:0:0:0:
339,80,164999,1,2,0:0:0:0:
258,76,165214,1,4,0:0:0:0:
183,76,165428,2,0,P|148:103|122:116,1,60,8|0,0:0|0:0,0:0:0:0:
134,110,165749,1,0,0:0:0:0:
134,110,165856,1,0,0:0:0:0:
67,82,166071,1,0,0:0:0:0:
44,156,166285,6,0,P|42:219|42:235,1,60,4|4,0:0|0:0,0:0:0:0:
43,294,166714,2,0,L|104:327,1,60,0|4,0:0|0:0,0:0:0:0:
123,345,167035,1,2,0:0:0:0:
158,367,167142,6,0,L|339:356,1,180,8|0,0:0|0:0,0:0:0:0:
454,361,167999,6,0,P|445:297|474:172,1,180,4|4,0:0|0:0,0:0:0:0:
439,88,168856,2,0,P|415:114|386:136,1,60,8|0,0:0|0:0,0:0:0:0:
308,87,169285,2,0,P|306:51|311:15,1,60,2|0,0:0|0:0,0:0:0:0:
314,183,169714,2,0,P|266:193|213:200,1,90,2|0,0:0|0:0,0:0:0:0:
191,209,170142,2,0,P|201:242|206:278,1,60,4|0,0:0|0:0,0:0:0:0:
92,347,170571,2,0,B|161:336|161:336|271:359,1,180,8|0,0:0|0:0,0:0:0:0:
360,313,171428,6,0,L|349:380,2,60,4|4|0,0:0|0:0|0:0,0:0:0:0:
298,236,172071,1,4,0:0:0:0:
473,294,172285,2,0,P|482:251|485:209,1,60,8|0,0:0|0:0,0:0:0:0:
390,204,172714,2,0,P|381:161|378:119,1,60,0|0,0:0|0:0,0:0:0:0:
468,76,173142,2,0,P|419:70|380:58,1,90,0|0,0:0|0:0,0:0:0:0:
357,29,173571,2,0,P|331:61|310:81,1,60,0|4,0:0|0:0,0:0:0:0:
208,31,173999,2,0,P|232:84|245:167,1,120,8|2,0:0|0:0,0:0:0:0:
210,208,174642,1,0,0:0:0:0:
138,208,174856,5,4,0:0:0:0:
306,289,175071,2,0,P|320:234|366:173,1,120,0|4,0:0|0:0,0:0:0:0:
451,138,175714,2,0,L|451:332,1,180,8|0,0:0|0:0,0:0:0:0:
362,357,176571,1,2,0:0:0:0:
362,357,176785,2,0,P|354:318|347:290,1,60,4|0,0:0|0:0,0:0:0:0:
311,236,177214,1,4,0:0:0:0:
248,271,177428,2,0,P|238:303|230:338,1,60,8|0,0:0|0:0,0:0:0:0:
165,355,177856,1,0,0:0:0:0:
127,293,178071,1,0,0:0:0:0:
93,229,178285,6,0,L|207:159,1,120,4|0,0:0|0:0,0:0:0:0:
35,155,179142,2,0,L|149:85,1,120,0|0,0:0|0:0,0:0:0:0:
139,309,179999,2,0,L|253:239,1,120,0|0,0:0|0:0,0:0:0:0:
417,128,180856,2,0,P|411:194|445:310,1,180,0|0,0:0|0:0,0:0:0:0:
440,302,181714,5,4,0:0:0:0:
354,296,181928,1,0,0:0:0:0:
284,347,182142,1,4,0:0:0:0:
199,328,182356,2,0,B|217:177|117:193|131:57,1,287.999991210938,4|0,0:0|0:0,0:0:0:0:
211,23,183428,5,4,0:0:0:0:
281,72,183642,2,0,P|331:66|361:50,2,71.9999978027344,0|4|8,0:0|0:0|0:0,0:0:0:0:
113,54,184285,2,0,P|91:94|76:221,1,143.999995605469,0|10,0:0|0:0,0:0:0:0:
72,189,184928,1,0,0:0:0:0:
40,269,185142,5,4,0:0:0:0:
125,282,185356,1,0,0:0:0:0:
150,364,185571,1,4,0:0:0:0:
64,353,185785,1,0,0:0:0:0:
217,300,185999,6,0,B|297:300|264:339|358:339,5,143.999995605469,2|10|6|2|4|12,0:0|0:0|0:0|0:0|0:0|0:0,0:0:0:0:
452,195,188571,5,4,0:0:0:0:
424,276,188785,1,0,0:0:0:0:
343,244,188999,1,0,0:0:0:0:
368,161,189214,1,8,0:0:0:0:
452,195,189428,2,0,P|393:237|252:191,1,215.999993408203,0|2,0:0|0:0,0:0:0:0:
221,127,190285,5,4,0:0:0:0:
140,96,190499,1,0,0:0:0:0:
83,161,190714,1,0,0:0:0:0:
161,197,190928,1,10,0:0:0:0:
161,197,191142,2,0,P|168:274|165:373,1,143.999995605469,2|8,0:0|0:0,0:0:0:0:
167,340,191785,1,2,0:0:0:0:
322,373,191999,5,4,0:0:0:0:
264,308,192214,1,0,0:0:0:0:
349,293,192428,1,2,0:0:0:0:
322,373,192642,1,8,0:0:0:0:
408,366,192856,6,0,P|427:306|433:273,1,71.9999978027344,2|0,0:0|0:0,0:0:0:0:
395,217,193285,2,0,P|387:167|377:122,1,71.9999978027344,8|2,0:0|0:0,0:0:0:0:
438,79,193714,1,0,0:0:0:0:
438,79,194142,2,0,P|391:68|365:60,1,71.9999978027344,2|8,0:0|0:0,0:0:0:0:
283,81,194571,2,0,P|234:94|192:112,2,71.9999978027344,2|2|12,0:0|0:0|0:0,0:0:0:0:
311,0,195214,1,2,0:0:0:0:
297,99,195428,6,0,P|290:139|285:200,1,71.9999978027344,4|0,0:0|0:0,0:0:0:0:
277,270,195856,1,0,0:0:0:0:
277,270,196071,2,0,P|191:252|113:266,1,143.999995605469,8|2,0:0|0:0,0:0:0:0:
89,347,196714,2,0,P|66:314|29:279,1,71.9999978027344,8|2,0:0|0:0,0:0:0:0:
167,341,197142,6,0,P|194:343|238:358,2,71.9999978027344,4|0|0,0:0|0:0|0:0,0:0:0:0:
136,258,197785,2,0,P|151:189|196:118,1,143.999995605469,10|2,0:0|0:0,0:0:0:0:
283,160,198428,2,0,P|293:200|297:248,1,71.9999978027344,8|2,0:0|0:0,0:0:0:0:
405,294,198856,5,4,0:0:0:0:
483,230,199071,1,0,0:0:0:0:
433,142,199285,1,0,0:0:0:0:
302,236,199499,1,10,0:0:0:0:
302,236,199714,2,0,B|221:211|235:262|146:234,5,143.999995605469,2|10|2|2|2|14,0:0|0:0|0:0|0:0|0:0|0:0,0:0:0:0:
50,34,202285,6,0,P|42:69|37:127,1,71.9999978027344,4|0,0:0|0:0,0:0:0:0:
127,152,202714,1,0,0:0:0:0:
127,152,202928,1,8,0:0:0:0:
237,109,203142,2,0,P|234:69|230:26,2,71.9999978027344,0|4|12,0:0|0:0|0:0,0:0:0:0:
316,169,203785,1,0,0:0:0:0:
443,170,203999,6,0,P|465:102|438:36,1,143.999995605469,12|0,0:0|0:0,0:0:0:0:
339,52,204642,1,8,0:0:0:0:
316,169,204856,2,0,P|314:206|315:248,1,71.9999978027344,4|0,0:0|0:0,0:0:0:0:
425,313,205285,2,0,P|388:311|346:312,1,71.9999978027344,8|0,0:0|0:0,0:0:0:0:
198,240,205714,6,0,P|198:204|196:168,2,71.9999978027344,4|0|0,0:0|0:0|0:0,0:0:0:0:
84,317,206356,2,0,P|58:244|62:167,1,143.999995605469,8|0,0:0|0:0,0:0:0:0:
113,92,206999,1,12,0:0:0:0:
113,92,207214,1,0,0:0:0:0:
256,192,207428,12,0,208714,0:0:0:0:
342,128,209142,6,2,L|335:256,1,120,6|8,0:0|0:0,0:0:0:0:
343,260,210214,6,0,P|312:256|263:251,1,71.9999978027344,0|12,0:0|0:0,0:0:0:0:
208,286,210642,1,0,0:0:0:0:
108,348,210856,6,2,L|120:219,1,120,6|8,0:0|0:0,0:0:0:0:
119,228,211928,1,0,0:0:0:0:
119,228,212142,1,12,0:0:0:0:
209,218,212571,6,2,P|213:179|209:132,1,71.9999978027344,6|0,0:0|0:0,0:0:0:0:
144,70,212999,2,2,P|130:143|119:228,1,143.999995605469,2|0,0:0|0:0,0:0:0:0:
141,309,213642,2,0,P|147:267|149:224,2,71.9999978027344
211,146,214285,6,2,L|301:126,1,90,6|0,0:0|0:0,0:0:0:0:
373,114,215142,1,8,0:0:0:0:
446,99,215356,1,2,0:0:0:0:
468,170,215571,1,12,0:0:0:0:
395,187,215785,1,0,0:0:0:0:
403,261,215999,6,2,P|386:267|368:273,1,30,6|2,0:0|0:0,0:0:0:0:
299,258,216428,6,2,P|261:263|223:263,1,71.9999978027344,2|0,0:0|0:0,0:0:0:0:
154,211,216856,1,8,0:0:0:0:
154,211,217071,6,0,L|145:173,2,30,0|2|0,0:0|0:0|0:0,0:0:0:0:
70,346,217714,6,2,P|71:290|73:216,1,120,6|8,0:0|0:0,0:0:0:0:
30,165,218999,1,0,0:0:0:0:
81,103,219428,6,0,P|124:99|169:99,1,71.9999978027344,4|0,0:0|0:0,0:0:0:0:
229,154,219856,2,0,P|282:158|314:157,1,71.9999978027344,0|0,0:0|0:0,0:0:0:0:
406,81,220285,2,0,P|429:118|413:295,1,215.999993408203,4|0,0:0|0:0,0:0:0:0:
322,278,221142,6,0,P|281:271|244:267,1,71.9999978027344,4|0,0:0|0:0,0:0:0:0:
163,323,221571,2,0,P|121:325|79:322,1,71.9999978027344
37,184,221999,2,0,P|83:174|158:330,1,251.999992309571,12|0,0:0|0:0,0:0:0:0:
163,323,222856,6,2,L|297:329,2,107.999996704102,6|2|2,0:0|0:0|0:0,0:0:0:0:
259,238,223714,2,0,L|416:250,1,143.999995605469,8|2,0:0|0:0,0:0:0:0:
417,259,224571,6,2,L|423:130,1,120,6|8,0:0|0:0,0:0:0:0:
417,56,225642,1,0,0:0:0:0:
495,83,225856,1,12,0:0:0:0:
314,151,226285,6,2,P|275:145|214:150,1,71.9999978027344,6|0,0:0|0:0,0:0:0:0:
347,33,226714,2,2,P|275:47|205:39,1,143.999995605469,6|12,0:0|0:0,0:0:0:0:
107,21,227356,2,0,P|121:56|132:100,2,71.9999978027344,0|0|4,0:0|0:0|0:0,0:0:0:0:
30,76,227999,6,2,L|30:198,1,120,6|8,0:0|0:0,0:0:0:0:
39,282,229071,1,2,0:0:0:0:
39,282,229285,1,12,0:0:0:0:
39,282,229499,1,2,0:0:0:0:
39,282,229714,6,2,L|131:285,2,71.9999978027344,6|2|2,0:0|0:0|0:0,0:0:0:0:
145,353,230571,2,0,B|181:336|181:336|286:365,1,143.999995605469,8|0,0:0|0:0,0:0:0:0:
291,344,231428,6,2,L|299:222,1,120,6|2,0:0|0:0,0:0:0:0:
449,204,232714,2,2,L|457:286,1,71.9999978027344,0|0,0:0|0:0,0:0:0:0:
380,328,233142,2,0,L|298:331,1,71.9999978027344,4|0,0:0|0:0,0:0:0:0:
244,213,233571,2,0,L|326:210,1,71.9999978027344,0|0,0:0|0:0,0:0:0:0:
151,159,233999,2,0,P|161:265|120:364,1,215.999993408203,12|0,0:0|0:0,0:0:0:0:
31,285,234856,2,0,P|20:178|61:79,1,215.999993408203,4|0,0:0|0:0,0:0:0:0:
206,30,235714,2,0,B|305:5|305:82|449:43,1,215.999993408203,4|8,0:0|0:0,0:0:0:0:
456,26,236464,5,8,0:0:0:0:
456,26,236571,2,0,P|454:73|447:105,1,60,4|0,0:0|0:0,0:0:0:0:
398,142,236999,1,0,0:0:0:0:
314,213,237214,2,0,P|355:213|421:283,1,120,12|0,0:0|0:0,0:0:0:0:
466,342,237856,2,0,L|386:334,1,60,8|0,0:0|0:0,0:0:0:0:
389,353,238178,1,0,0:0:0:0:
376,373,238285,2,0,P|336:356|292:355,1,60,4|0,0:0|0:0,0:0:0:0:
270,293,238714,5,0,0:0:0:0:
218,351,238928,2,0,P|166:357|97:379,1,120,12|0,0:0|0:0,0:0:0:0:
26,356,239571,1,2,0:0:0:0:
84,304,239785,5,0,0:0:0:0:
84,304,239892,1,0,0:0:0:0:
84,304,239999,2,0,P|86:257|85:221,1,60,4|0,0:0|0:0,0:0:0:0:
38,181,240428,1,0,0:0:0:0:
80,65,240642,2,0,P|101:107|175:155,1,120,12|0,0:0|0:0,0:0:0:0:
271,88,241285,2,0,L|258:152,1,60,8|0,0:0|0:0,0:0:0:0:
274,167,241606,1,0,0:0:0:0:
288,186,241714,2,0,L|348:196,1,60,4|0,0:0|0:0,0:0:0:0:
418,165,242142,5,0,0:0:0:0:
460,99,242356,2,0,P|430:50|368:43,1,120,12|0,0:0|0:0,0:0:0:0:
300,74,242999,1,2,0:0:0:0:
188,25,243214,5,0,0:0:0:0:
188,25,243321,1,0,0:0:0:0:
188,25,243428,2,0,P|186:73|180:111,1,60,4|0,0:0|0:0,0:0:0:0:
226,150,243856,1,0,0:0:0:0:
109,131,244071,2,0,P|128:199|121:264,1,120,12|0,0:0|0:0,0:0:0:0:
101,362,244714,2,0,P|163:355|195:339,1,90,8|0,0:0|0:0,0:0:0:0:
201,300,245142,6,0,P|239:296|280:303,1,60,4|0,0:0|0:0,0:0:0:0:
312,356,245571,1,0,0:0:0:0:
363,297,245785,2,0,P|372:225|372:172,1,120,12|0,0:0|0:0,0:0:0:0:
310,129,246428,1,2,0:0:0:0:
416,103,246642,5,0,0:0:0:0:
416,103,246749,1,0,0:0:0:0:
416,103,246856,2,0,P|414:141|415:185,1,60,4|0,0:0|0:0,0:0:0:0:
457,228,247285,1,0,0:0:0:0:
307,243,247499,2,0,P|279:220|171:212,1,120,12|0,0:0|0:0,0:0:0:0:
117,287,248142,2,0,P|99:262|84:214,1,60,8|0,0:0|0:0,0:0:0:0:
107,201,248464,1,0,0:0:0:0:
118,163,248571,2,0,P|99:124|73:106,1,60,4|0,0:0|0:0,0:0:0:0:
61,39,248999,5,0,0:0:0:0:
138,49,249214,2,0,L|272:63,1,120,12|0,0:0|0:0,0:0:0:0:
334,70,249856,1,2,0:0:0:0:
422,48,250071,5,0,0:0:0:0:
434,45,250178,1,0,0:0:0:0:
446,40,250285,2,0,L|452:117,1,60,4|0,0:0|0:0,0:0:0:0:
460,177,250714,1,0,0:0:0:0:
359,251,250928,2,0,P|319:194|283:160,1,120,12|0,0:0|0:0,0:0:0:0:
165,201,251571,2,0,L|156:284,1,60,8|0,0:0|0:0,0:0:0:0:
156,281,251892,1,0,0:0:0:0:
152,301,251999,6,0,P|122:289|93:282,2,60,4|0|0,0:0|0:0|0:0,0:0:0:0:
223,332,252642,2,0,P|287:326|345:325,1,120,12|0,0:0|0:0,0:0:0:0:
416,350,253285,1,2,0:0:0:0:
465,251,253499,5,0,0:0:0:0:
465,251,253606,1,0,0:0:0:0:
465,251,253714,2,0,L|388:245,1,60,4|0,0:0|0:0,0:0:0:0:
329,228,254142,1,0,0:0:0:0:
232,134,254356,2,0,P|233:199|223:274,1,120,12|0,0:0|0:0,0:0:0:0:
101,166,254999,2,0,P|104:205|109:233,1,60,8|0,0:0|0:0,0:0:0:0:
112,249,255321,1,0,0:0:0:0:
117,272,255428,6,0,L|45:273,1,60,4|0,0:0|0:0,0:0:0:0:
10,213,255856,1,0,0:0:0:0:
79,354,256071,2,0,P|143:350|215:356,1,120,12|0,0:0|0:0,0:0:0:0:
275,357,256714,1,2,0:0:0:0:
304,267,256928,1,0,0:0:0:0:
304,267,257035,1,0,0:0:0:0:
304,267,257142,6,0,L|303:188,2,60,4|0|0,0:0|0:0|0:0,0:0:0:0:
426,293,257785,2,0,P|441:251|440:173,1,120,12|0,0:0|0:0,0:0:0:0:
394,98,258428,2,0,L|315:103,1,60,8|0,0:0|0:0,0:0:0:0:
313,113,258749,1,0,0:0:0:0:
291,123,258856,5,4,0:0:0:0:
277,28,259071,1,0,0:0:0:0:
368,28,259285,1,0,0:0:0:0:
291,123,259499,2,0,L|158:116,1,120,12|0,0:0|0:0,0:0:0:0:
19,108,260142,2,0,L|26:178,1,60,2|0,0:0|0:0,0:0:0:0:
40,186,260464,1,0,0:0:0:0:
55,204,260571,6,0,L|62:274,1,60,4|0,0:0|0:0,0:0:0:0:
163,231,260999,2,0,L|156:301,1,60,8|12,0:0|0:0,0:0:0:0:
221,353,261428,1,0,0:0:0:0:
281,286,261642,1,0,0:0:0:0:
366,312,261856,2,0,L|439:335,1,60,12|0,0:0|0:0,0:0:0:0:
441,319,262178,1,0,0:0:0:0:
459,308,262285,6,0,L|466:232,2,60,12|0|0,0:0|0:0|0:0,0:0:0:0:
332,224,262928,2,0,P|354:166|384:116,1,120,12|0,0:0|0:0,0:0:0:0:
259,88,263571,2,0,P|270:127|275:175,1,60,2|0,0:0|0:0,0:0:0:0:
256,192,263999,12,0,270856,0:0:0:0:
