osu file format v14

[General]
AudioFilename: audio.mp3
AudioLeadIn: 0
PreviewTime: 51992
Countdown: 0
SampleSet: Normal
StackLeniency: 0.7
Mode: 3
LetterboxInBreaks: 0
SpecialStyle: 0
WidescreenStoryboard: 1

[Editor]
Bookmarks: 3992,34742,51992,67992,83992,99492,99992,115992,131992
DistanceSpacing: 0.8
BeatDivisor: 6
GridSize: 32
TimelineZoom: 1.6

[Metadata]
Title:spring tides
TitleUnicode:spring tides
Artist:Floopy
ArtistUnicode:Floopy
Creator:Ulis-
Version:hard
Source:
Tags:bird with hat floop dance electronic video game future bass beach long instrumental EP
BeatmapID:4108107
BeatmapSetID:1916718

[Difficulty]
HPDrainRate:7.5
CircleSize:4
OverallDifficulty:7.5
ApproachRate:5
SliderMultiplier:1.4
SliderTickRate:1

[Events]
//Background and Video events
0,0,"Masayume BG.jpg",0,0
//Break Periods
//Storyboard Layer 0 (Background)
//Storyboard Layer 1 (Fail)
//Storyboard Layer 2 (Pass)
//Storyboard Layer 3 (Foreground)
//Storyboard Layer 4 (Overlay)
//Storyboard Sound Samples

[TimingPoints]
4016,500,4,1,1,15,1,0
33982,500,4,1,1,35,1,0
35986,500,4,1,1,35,1,0
83986,-100,4,1,1,15,0,0
99986,-100,4,1,1,35,0,0

[HitObjects]
64,192,4016,128,0,5016:0:0:0:0:
192,192,4016,128,0,5016:0:0:0:0:
320,192,5016,128,0,6016:0:0:0:0:
448,192,5516,128,0,7016:0:0:0:0:
192,192,6016,128,0,7016:0:0:0:0:
64,192,7016,128,0,7891:0:0:0:0:
320,192,7891,128,0,7953:0:0:0:0:
192,192,7953,128,0,8016:0:0:0:0:
64,192,8016,128,0,9016:0:0:0:0:
448,192,8016,128,0,9016:0:0:0:0:
320,192,9016,128,0,10016:0:0:0:0:
192,192,9516,128,0,11016:0:0:0:0:
64,192,10016,128,0,11016:0:0:0:0:
320,192,11016,128,0,12016:0:0:0:0:
448,192,11516,128,0,12016:0:0:0:0:
64,192,12016,128,0,13016:0:0:0:0:
192,192,12016,128,0,13016:0:0:0:0:
320,192,13016,128,0,14016:0:0:0:0:
448,192,13516,128,0,14016:0:0:0:0:
64,192,14016,128,0,15516:0:0:0:0:
192,192,15016,128,0,15516:0:0:0:0:
448,192,15516,128,0,15891:0:0:0:0:
320,192,15891,128,0,15953:0:0:0:0:
192,192,15953,128,0,16016:0:0:0:0:
64,192,16016,128,0,18016:0:0:0:0:
448,192,16016,128,0,18016:0:0:0:0:
192,192,20016,128,0,21016:0:0:0:0:
448,192,20016,128,0,21016:0:0:0:0:
64,192,21016,128,0,22016:0:0:0:0:
320,192,21516,128,0,23016:0:0:0:0:
192,192,22016,128,0,23016:0:0:0:0:
448,192,23016,128,0,23891:0:0:0:0:
320,192,23891,128,0,23953:0:0:0:0:
192,192,23953,128,0,24016:0:0:0:0:
64,192,24016,128,0,25016:0:0:0:0:
320,192,24016,128,0,25016:0:0:0:0:
448,192,25016,128,0,26016:0:0:0:0:
320,192,25516,128,0,27016:0:0:0:0:
192,192,26016,128,0,27016:0:0:0:0:
64,192,27016,128,0,27516:0:0:0:0:
320,192,27516,128,0,28016:0:0:0:0:
64,192,28016,128,0,29016:0:0:0:0:
448,192,28016,128,0,29016:0:0:0:0:
192,192,29016,128,0,29516:0:0:0:0:
320,192,29516,128,0,30016:0:0:0:0:
64,192,30016,128,0,31016:0:0:0:0:
448,192,30016,128,0,31016:0:0:0:0:
192,192,31016,128,0,31516:0:0:0:0:
448,192,31516,128,0,31891:0:0:0:0:
320,192,31891,128,0,31953:0:0:0:0:
192,192,31953,128,0,32016:0:0:0:0:
64,192,32016,128,0,33982:0:0:0:0:
448,192,32016,128,0,33982:0:0:0:0:
64,192,34732,1,0,0:0:0:35:snare22.wav
192,192,34732,1,0,0:0:0:0:
320,192,34857,1,0,0:0:0:0:
192,192,34919,1,0,0:0:0:0:
320,192,34982,1,0,0:0:0:35:snare22.wav
448,192,34982,1,0,0:0:0:0:
448,192,35232,1,0,0:0:0:0:
192,192,35398,1,0,0:0:0:35:snare22.wav
64,192,35482,1,0,0:0:0:35:snare22.wav
448,192,35482,1,0,0:0:0:0:
320,192,35648,1,0,0:0:0:0:
64,192,35732,1,0,0:0:0:35:snare22.wav
192,192,35732,1,0,0:0:0:0:
448,192,35898,128,0,36986:0:0:0:0:
64,192,35986,1,0,0:0:0:0:
320,192,35986,128,0,36986:0:0:0:0:
64,192,36486,1,0,0:0:0:25:clap01.wav
192,192,36986,1,0,0:0:0:0:
192,192,37236,1,0,0:0:0:0:
320,192,37402,1,0,0:0:0:0:
64,192,37486,1,0,0:0:0:25:clap01.wav
448,192,37486,1,0,0:0:0:0:
192,192,37652,1,0,0:0:0:0:
320,192,37736,1,0,0:0:0:0:
64,192,37902,128,0,38652:0:0:0:0:
192,192,37986,128,0,38652:0:0:0:0:
448,192,37986,1,0,0:0:0:0:
448,192,38486,1,0,0:0:0:25:clap01.wav
320,192,38652,1,0,0:0:0:0:
448,192,38736,128,0,38902:0:0:0:0:
64,192,38902,1,0,0:0:0:0:
320,192,38986,1,0,0:0:0:0:
320,192,39236,1,0,0:0:0:0:
192,192,39402,1,0,0:0:0:0:
64,192,39486,1,0,0:0:0:25:clap01.wav
448,192,39486,1,0,0:0:0:0:
320,192,39652,1,0,0:0:0:0:
192,192,39736,1,0,0:0:0:0:
448,192,39902,128,0,40361:0:0:0:0:
320,192,39986,128,0,40361:0:0:0:0:
64,192,39986,1,0,0:0:0:0:
192,192,40361,128,0,40423:0:0:0:0:
320,192,40423,128,0,40486:0:0:0:0:
64,192,40486,128,0,40736:0:0:0:25:clap01.wav
448,192,40736,128,0,40986:0:0:0:0:
64,192,40986,128,0,41236:0:0:0:0:
448,192,41236,1,0,0:0:0:0:
320,192,41402,1,0,0:0:0:0:
64,192,41486,1,0,0:0:0:25:clap01.wav
448,192,41486,1,0,0:0:0:0:
192,192,41652,1,0,0:0:0:0:
320,192,41736,1,0,0:0:0:0:
64,192,41902,128,0,42986:0:0:0:0:
192,192,41986,128,0,42986:0:0:0:0:
448,192,41986,1,0,0:0:0:0:
448,192,42486,1,0,0:0:0:25:clap01.wav
320,192,42986,1,0,0:0:0:0:
320,192,43236,1,0,0:0:0:0:
192,192,43402,1,0,0:0:0:0:
64,192,43486,1,0,0:0:0:25:clap01.wav
448,192,43486,1,0,0:0:0:0:
320,192,43652,1,0,0:0:0:0:
192,192,43736,1,0,0:0:0:0:
448,192,43902,128,0,44986:0:0:0:0:
64,192,43986,1,0,0:0:0:0:
320,192,43986,128,0,44986:0:0:0:0:
64,192,44486,1,0,0:0:0:25:clap01.wav
64,192,44986,1,0,0:0:0:0:
64,192,45236,1,0,0:0:0:0:
320,192,45402,1,0,0:0:0:0:
64,192,45486,1,0,0:0:0:25:clap01.wav
448,192,45486,1,0,0:0:0:0:
192,192,45652,1,0,0:0:0:0:
320,192,45736,1,0,0:0:0:0:
64,192,45902,128,0,46652:0:0:0:0:
192,192,45986,128,0,46652:0:0:0:0:
448,192,45986,1,0,0:0:0:0:
448,192,46486,1,0,0:0:0:25:clap01.wav
320,192,46652,1,0,0:0:0:0:
448,192,46736,128,0,46902:0:0:0:0:
64,192,46902,1,0,0:0:0:0:
320,192,46986,1,0,0:0:0:0:
320,192,47236,1,0,0:0:0:0:
192,192,47402,1,0,0:0:0:0:
64,192,47486,1,0,0:0:0:25:clap01.wav
448,192,47486,1,0,0:0:0:0:
320,192,47652,1,0,0:0:0:0:
192,192,47736,1,0,0:0:0:0:
448,192,47902,128,0,48361:0:0:0:0:
320,192,47986,128,0,48361:0:0:0:0:
64,192,47986,1,0,0:0:0:0:
192,192,48361,128,0,48423:0:0:0:0:
320,192,48423,128,0,48486:0:0:0:0:
64,192,48486,128,0,48736:0:0:0:25:clap01.wav
448,192,48736,128,0,48986:0:0:0:0:
64,192,48986,128,0,49236:0:0:0:0:
448,192,49236,1,0,0:0:0:0:
320,192,49402,1,0,0:0:0:0:
64,192,49486,1,0,0:0:0:25:clap01.wav
448,192,49486,1,0,0:0:0:0:
192,192,49652,1,0,0:0:0:0:
64,192,49736,1,0,0:0:0:0:
320,192,49902,1,0,0:0:0:0:
192,192,49986,1,0,0:0:0:0:
448,192,50152,128,0,50736:0:0:0:0:
320,192,50236,128,0,50736:0:0:0:0:
64,192,50486,1,0,0:0:0:25:clap01.wav
64,192,50736,1,0,0:0:0:35:snare22.wav
192,192,50736,1,0,0:0:0:0:
320,192,50861,1,0,0:0:0:35:snare22.wav
192,192,50923,1,0,0:0:0:0:
64,192,50986,1,0,0:0:0:35:snare22.wav
448,192,50986,1,0,0:0:0:0:
320,192,51402,1,0,0:0:0:35:snare22.wav
64,192,51486,1,0,0:0:0:35:snare22.wav
192,192,51486,1,0,0:0:0:0:
320,192,51736,1,0,0:0:0:35:snare22.wav
448,192,51736,1,0,0:0:0:0:
64,192,51986,1,0,0:0:0:50:LR_CymbalLGLH.wav
192,192,51986,1,0,0:0:0:40:LR_Drum Kick Wet Fast.wav
448,192,51986,128,0,52236:0:0:0:0:
320,192,52236,1,0,0:0:0:0:
192,192,52402,1,0,0:0:0:0:
320,192,52486,1,0,0:0:0:75:LR4_HatSCFU.wav
64,192,52652,1,0,0:0:0:0:
192,192,52736,1,0,0:0:0:0:
448,192,52902,1,0,0:0:0:75:LR4_HatSCFU.wav
192,192,52986,128,0,53152:0:0:0:0:
320,192,53152,1,0,0:0:0:0:
64,192,53236,1,0,0:0:0:40:LR_Drum Kick Wet Fast.wav
192,192,53236,1,0,0:0:0:0:
64,192,53402,1,0,0:0:0:0:
320,192,53486,128,0,53652:0:0:0:75:LR4_HatSCFU.wav
192,192,53652,1,0,0:0:0:0:
448,192,53736,1,0,0:0:0:0:
64,192,53902,1,0,0:0:0:0:
320,192,53986,1,0,0:0:0:40:LR_Drum Kick Wet Fast.wav
448,192,53986,128,0,54152:0:0:0:0:
192,192,54152,1,0,0:0:0:0:
320,192,54236,128,0,54402:0:0:0:0:
64,192,54402,1,0,0:0:0:0:
192,192,54486,1,0,0:0:0:75:LR4_HatSCFU.wav
448,192,54652,1,0,0:0:0:0:
320,192,54736,1,0,0:0:0:0:
64,192,54902,128,0,55402:0:0:0:75:LR4_HatSCFU.wav
320,192,55236,1,0,0:0:0:40:LR_Drum Kick Wet Fast.wav
448,192,55236,1,0,0:0:0:0:
192,192,55402,1,0,0:0:0:0:
448,192,55486,128,0,55652:0:0:0:75:LR4_HatSCFU.wav
320,192,55652,1,0,0:0:0:0:
64,192,55736,1,0,0:0:0:0:
448,192,55902,1,0,0:0:0:0:
64,192,55986,1,0,0:0:0:40:LR_Drum Kick Wet Fast.wav
192,192,55986,128,0,56236:0:0:0:0:
448,192,56236,1,0,0:0:0:0:
64,192,56402,1,0,0:0:0:0:
320,192,56486,1,0,0:0:0:75:LR4_HatSCFU.wav
192,192,56652,1,0,0:0:0:0:
448,192,56736,128,0,56902:0:0:0:0:
320,192,56902,1,0,0:0:0:75:LR4_HatSCFU.wav
64,192,56986,1,0,0:0:0:0:
448,192,57152,1,0,0:0:0:0:
64,192,57236,1,0,0:0:0:40:LR_Drum Kick Wet Fast.wav
192,192,57236,1,0,0:0:0:0:
320,192,57402,1,0,0:0:0:0:
64,192,57486,128,0,57652:0:0:0:75:LR4_HatSCFU.wav
448,192,57736,128,0,57902:0:0:0:0:
320,192,57902,1,0,0:0:0:0:
64,192,57986,1,0,0:0:0:40:LR_Drum Kick Wet Fast.wav
448,192,57986,1,0,0:0:0:0:
192,192,58152,1,0,0:0:0:0:
320,192,58236,1,0,0:0:0:0:
64,192,58402,128,0,58902:0:0:0:0:
192,192,58486,1,0,0:0:0:75:LR4_HatSCFU.wav
192,192,58902,1,0,0:0:0:75:LR4_HatSCFU.wav
448,192,58986,1,0,0:0:0:0:
320,192,59152,1,0,0:0:0:0:
448,192,59319,1,0,0:0:0:0:
64,192,59319,1,0,0:0:0:40:LR_Drum Kick Wet Fast.wav
192,192,59486,1,0,0:0:0:75:LR4_HatSCFU.wav
64,192,59652,1,0,0:0:0:40:LR_Drum Kick Wet Fast.wav
448,192,59652,1,0,0:0:0:0:
320,192,59819,1,0,0:0:0:0:
64,192,59986,1,0,0:0:0:40:LR_Drum Kick Wet Fast.wav
448,192,59986,128,0,60236:0:0:0:0:
192,192,60236,1,0,0:0:0:0:
320,192,60402,1,0,0:0:0:0:
448,192,60486,1,0,0:0:0:75:LR4_HatSCFU.wav
192,192,60652,1,0,0:0:0:0:
320,192,60736,1,0,0:0:0:0:
64,192,60902,128,0,61111:0:0:0:40:LR_Drum Kick Wet Fast.wav
192,192,60902,128,0,61111:0:0:0:75:LR4_HatSCFU.wav
448,192,61402,1,0,0:0:0:0:
64,192,61486,128,0,61736:0:0:0:75:LR4_HatSCFU.wav
320,192,61736,1,0,0:0:0:0:
192,192,61902,128,0,62152:0:0:0:0:
64,192,61986,1,0,0:0:0:40:LR_Drum Kick Wet Fast.wav
448,192,61986,1,0,0:0:0:0:
320,192,62152,1,0,0:0:0:0:
192,192,62236,1,0,0:0:0:0:
320,192,62402,128,0,62611:0:0:0:75:LR4_HatSCFU.wav
448,192,62402,128,0,62611:0:0:0:0:
320,192,62902,1,0,0:0:0:75:LR4_HatSCFU.wav
64,192,62986,128,0,63236:0:0:0:0:
320,192,63236,1,0,0:0:0:40:LR_Drum Kick Wet Fast.wav
448,192,63236,1,0,0:0:0:0:
192,192,63402,1,0,0:0:0:0:
64,192,63486,1,0,0:0:0:75:LR4_HatSCFU.wav
320,192,63652,1,0,0:0:0:0:
64,192,63736,1,0,0:0:0:0:
448,192,63902,1,0,0:0:0:0:
64,192,63986,1,0,0:0:0:40:LR_Drum Kick Wet Fast.wav
192,192,63986,128,0,64486:0:0:0:0:
448,192,64236,1,0,0:0:0:0:
448,192,64402,1,0,0:0:0:0:
64,192,64486,1,0,0:0:0:75:LR4_HatSCFU.wav
320,192,64652,1,0,0:0:0:0:
192,192,64736,128,0,64902:0:0:0:0:
64,192,64902,1,0,0:0:0:75:LR4_HatSCFU.wav
448,192,64986,128,0,65236:0:0:0:0:
64,192,65236,1,0,0:0:0:40:LR_Drum Kick Wet Fast.wav
192,192,65236,128,0,65486:0:0:0:0:
448,192,65486,1,0,0:0:0:75:LR4_HatSCFU.wav
64,192,65569,1,0,0:0:0:0:
320,192,65652,1,0,0:0:0:0:
192,192,65736,128,0,65902:0:0:0:0:
64,192,65902,1,0,0:0:0:0:
320,192,65986,1,0,0:0:0:40:LR_Drum Kick Wet Fast.wav
448,192,65986,128,0,67486:0:0:0:0:
64,192,67236,1,0,0:0:0:40:LR_Drum Kick Wet Fast.wav
192,192,67236,1,0,0:0:0:0:
320,192,67486,1,0,0:0:0:75:LR4_HatSCFU.wav
448,192,67569,1,0,0:0:0:0:
64,192,67652,1,0,0:0:0:0:
192,192,67736,1,0,0:0:0:75:LR4_HatSCFU.wav
320,192,67902,1,0,0:0:0:0:
64,192,67986,128,0,68236:0:0:0:50:LR_CymbalLGLH.wav
448,192,67986,1,0,0:0:0:40:LR_Drum Kick Wet Fast.wav
192,192,68236,1,0,0:0:0:55:LR_Hat Normal.wav
448,192,68402,1,0,0:0:0:0:
64,192,68486,1,0,0:0:0:0:
64,192,68652,1,0,0:0:0:0:
320,192,68736,1,0,0:0:0:55:LR_Hat Normal.wav
320,192,68902,1,0,0:0:0:0:
192,192,68986,1,0,0:0:0:0:
192,192,69152,1,0,0:0:0:0:
448,192,69236,1,0,0:0:0:40:LR_Drum Kick Wet Fast.wav
320,192,69236,1,0,0:0:0:55:LR4_HatSCFU.wav
448,192,69402,1,0,0:0:0:0:
192,192,69486,1,0,0:0:0:75:LR4_HatSCFU.wav
192,192,69652,1,0,0:0:0:75:LR4_HatSCFU.wav
320,192,69736,1,0,0:0:0:55:LR_Hat Normal.wav
320,192,69902,1,0,0:0:0:75:LR4_HatSCFU.wav
64,192,69986,1,0,0:0:0:40:LR_Drum Kick Wet Fast.wav
448,192,69986,128,0,70236:0:0:0:0:
320,192,70236,1,0,0:0:0:55:LR_Hat Normal.wav
64,192,70402,1,0,0:0:0:0:
320,192,70486,1,0,0:0:0:75:LR4_HatSCFU.wav
320,192,70652,1,0,0:0:0:0:
64,192,70736,1,0,0:0:0:55:LR_Hat Normal.wav
64,192,70902,1,0,0:0:0:75:LR4_HatSCFU.wav
448,192,70986,1,0,0:0:0:0:
448,192,71152,1,0,0:0:0:0:
64,192,71236,1,0,0:0:0:40:LR_Drum Kick Wet Fast.wav
192,192,71236,1,0,0:0:0:55:LR_Hat Normal.wav
64,192,71402,1,0,0:0:0:0:
320,192,71486,128,0,71652:0:0:0:75:LR4_HatSCFU.wav
448,192,71736,1,0,0:0:0:55:LR_Hat Normal.wav
448,192,71902,1,0,0:0:0:0:
64,192,71986,1,0,0:0:0:40:LR_Drum Kick Wet Fast.wav
192,192,71986,1,0,0:0:0:0:
320,192,72236,1,0,0:0:0:55:LR_Hat Normal.wav
64,192,72402,1,0,0:0:0:0:
320,192,72486,1,0,0:0:0:75:LR4_HatSCFU.wav
448,192,72652,1,0,0:0:0:0:
192,192,72736,1,0,0:0:0:55:LR_Hat Normal.wav
64,192,72902,128,0,73152:0:0:0:75:LR4_HatSCFU.wav
192,192,73236,1,0,0:0:0:40:LR_Drum Kick Wet Fast.wav
448,192,73236,1,0,0:0:0:55:LR_Hat Normal.wav
320,192,73402,1,0,0:0:0:0:
192,192,73486,1,0,0:0:0:75:LR4_HatSCFU.wav
192,192,73652,1,0,0:0:0:0:
320,192,73736,1,0,0:0:0:75:LR4_HatSCFU.wav
64,192,73902,128,0,74152:0:0:0:40:LR_Drum Kick Wet Fast.wav
192,192,73902,1,0,0:0:0:50:LR_CymbalFSU.wav
320,192,73986,1,0,0:0:0:0:
448,192,73986,128,0,74236:0:0:0:0:
192,192,74152,1,0,0:0:0:75:LR4_HatSCFU.wav
320,192,74236,1,0,0:0:0:75:LR4_HatSCFU.wav
320,192,74402,1,0,0:0:0:40:LR_Drum Kick Wet Fast.wav
448,192,74402,128,0,74652:0:0:0:50:LR_CymbalFSU.wav
64,192,74486,128,0,74736:0:0:0:0:
192,192,74486,1,0,0:0:0:0:
320,192,74652,1,0,0:0:0:75:LR4_HatSCFU.wav
192,192,74736,1,0,0:0:0:75:LR4_HatSCFU.wav
64,192,74902,128,0,75152:0:0:0:40:LR_Drum Kick Wet Fast.wav
192,192,74902,1,0,0:0:0:50:LR_CymbalFSU.wav
320,192,74986,1,0,0:0:0:0:
448,192,74986,128,0,75236:0:0:0:0:
192,192,75152,1,0,0:0:0:75:LR4_HatSCFU.wav
320,192,75236,1,0,0:0:0:75:LR4_HatSCFU.wav
320,192,75402,1,0,0:0:0:40:LR_Drum Kick Wet Fast.wav
448,192,75402,128,0,75652:0:0:0:50:LR_CymbalFSU.wav
64,192,75486,128,0,75736:0:0:0:0:
192,192,75486,1,0,0:0:0:0:
320,192,75736,128,0,75986:0:0:0:55:LR_J Hit Pong.wav
64,192,75986,1,0,0:0:0:40:LR_CymbalLGLH.wav
192,192,75986,1,0,0:0:0:40:LR_Drum Kick Wet Fast.wav
320,192,76236,1,0,0:0:0:55:LR_Hat Normal.wav
448,192,76402,1,0,0:0:0:0:
192,192,76486,1,0,0:0:0:75:LR4_HatSCFU.wav
320,192,76652,1,0,0:0:0:0:
64,192,76736,1,0,0:0:0:55:LR_Hat Normal.wav
64,192,76902,128,0,77079:0:0:0:40:LR_Drum Kick Wet Fast.wav
192,192,76902,128,0,77079:0:0:0:75:LR4_HatSCFU.wav
320,192,77486,1,0,0:0:0:75:LR4_HatSCFU.wav
192,192,77736,1,0,0:0:0:55:LR_Hat Normal.wav
64,192,77902,1,0,0:0:0:0:
320,192,77986,1,0,0:0:0:40:LR_Drum Kick Wet Fast.wav
448,192,77986,1,0,0:0:0:0:
192,192,78152,1,0,0:0:0:0:
448,192,78236,1,0,0:0:0:55:LR_Hat Normal.wav
320,192,78402,128,0,78579:0:0:0:75:LR4_HatSCFU.wav
448,192,78402,128,0,78579:0:0:0:0:
448,192,78736,1,0,0:0:0:0:
320,192,78819,1,0,0:0:0:0:
64,192,78902,1,0,0:0:0:75:LR4_HatSCFU.wav
192,192,78902,128,0,79236:0:0:0:0:
320,192,78986,1,0,0:0:0:40:LR_Drum Kick Wet Fast.wav
448,192,78986,128,0,79236:0:0:0:50:LR_CymbalFSU.wav
64,192,79236,1,0,0:0:0:55:LR_Hat Normal.wav
320,192,79402,128,0,79736:0:0:0:75:LR4_HatSCFU.wav
448,192,79402,1,0,0:0:0:0:
64,192,79486,128,0,79736:0:0:0:40:LR_Drum Kick Wet Fast.wav
192,192,79486,1,0,0:0:0:50:LR_CymbalFSU.wav
448,192,79736,1,0,0:0:0:55:LR_Hat Normal.wav
64,192,79902,1,0,0:0:0:75:LR4_HatSCFU.wav
192,192,79902,128,0,80236:0:0:0:0:
320,192,79986,1,0,0:0:0:40:LR_CymbalLGLH.wav
448,192,79986,128,0,80236:0:0:0:40:LR_Drum Kick Wet Fast.wav
64,192,80236,1,0,0:0:0:55:LR_Hat Normal.wav
320,192,80402,1,0,0:0:0:0:
64,192,80486,1,0,0:0:0:75:LR4_HatSCFU.wav
192,192,80652,1,0,0:0:0:0:
448,192,80736,1,0,0:0:0:55:LR_Hat Normal.wav
320,192,80902,1,0,0:0:0:75:LR4_HatSCFU.wav
64,192,81236,1,0,0:0:0:40:LR_Drum Kick Wet Fast.wav
448,192,81236,128,0,81486:0:0:0:55:LR_Hat Normal.wav
192,192,81486,1,0,0:0:0:75:LR4_HatSCFU.wav
320,192,81569,1,0,0:0:0:0:
64,192,81652,1,0,0:0:0:0:
192,192,81736,1,0,0:0:0:55:LR_Hat Normal.wav
448,192,81902,1,0,0:0:0:0:
64,192,82236,128,0,82402:0:0:0:40:LR_CymbalLGLH.wav
192,192,82236,1,0,0:0:0:40:LR_Drum Kick Wet Fast.wav
64,192,82486,128,0,82652:0:0:0:75:LR4_HatSCFU.wav
192,192,82652,128,0,82819:0:0:0:55:LR_Hat Normal.wav
320,192,82819,128,0,82986:0:0:0:75:LR4_HatSCFU.wav
64,192,82986,1,0,0:0:0:40:LR_Drum Kick Wet Fast.wav
448,192,82986,128,0,83486:0:0:0:0:
64,192,83486,1,0,0:0:0:75:LR4_HatSCFU.wav
192,192,83486,1,0,0:0:0:0:
448,192,83986,1,0,0:0:0:0:
192,192,84402,1,0,0:0:0:0:
320,192,84736,1,0,0:0:0:0:
64,192,85152,1,0,0:0:0:0:
448,192,85486,1,0,0:0:0:0:
192,192,85736,1,0,0:0:0:0:
64,192,85986,1,0,0:0:0:0:
320,192,86402,1,0,0:0:0:0:
192,192,86736,1,0,0:0:0:0:
448,192,87152,1,0,0:0:0:0:
64,192,87486,1,0,0:0:0:0:
320,192,87736,1,0,0:0:0:0:
448,192,87986,1,0,0:0:0:0:
64,192,88402,1,0,0:0:0:0:
320,192,88736,1,0,0:0:0:0:
64,192,89152,1,0,0:0:0:0:
448,192,89486,1,0,0:0:0:0:
192,192,89736,1,0,0:0:0:0:
64,192,89986,1,0,0:0:0:0:
320,192,90402,1,0,0:0:0:0:
192,192,90736,1,0,0:0:0:0:
448,192,91152,1,0,0:0:0:0:
64,192,91486,1,0,0:0:0:0:
320,192,91736,1,0,0:0:0:0:
320,192,91986,1,0,0:0:0:0:
448,192,91986,1,0,0:0:0:0:
192,192,92402,1,0,0:0:0:0:
320,192,92736,1,0,0:0:0:0:
64,192,93152,1,0,0:0:0:0:
448,192,93486,1,0,0:0:0:0:
192,192,93736,1,0,0:0:0:0:
64,192,93986,1,0,0:0:0:0:
192,192,93986,1,0,0:0:0:0:
320,192,94402,1,0,0:0:0:0:
192,192,94736,1,0,0:0:0:0:
448,192,95152,1,0,0:0:0:0:
64,192,95486,1,0,0:0:0:0:
320,192,95736,1,0,0:0:0:0:
320,192,95986,1,0,0:0:0:0:
448,192,95986,1,0,0:0:0:0:
192,192,96402,1,0,0:0:0:0:
320,192,96736,1,0,0:0:0:0:
64,192,97152,1,0,0:0:0:0:
448,192,97486,1,0,0:0:0:0:
192,192,97736,1,0,0:0:0:0:
64,192,97986,1,0,0:0:0:0:
192,192,97986,1,0,0:0:0:0:
320,192,98402,1,0,0:0:0:0:
192,192,98736,1,0,0:0:0:0:
448,192,99152,1,0,0:0:0:0:
64,192,99486,128,0,99986:0:0:0:0:
192,192,99736,1,0,0:0:0:0:
320,192,99986,1,0,0:0:0:35:LR_Drum Kick Low.wav
448,192,99986,128,0,101402:0:0:0:40:LR_CymbalFSU.wav
64,192,100236,1,0,0:0:0:30:LR_Drum Hit Clap Sn.wav
64,192,100402,1,0,0:0:0:30:LR_Drum Hit Clap Sn.wav
320,192,100652,1,0,0:0:0:35:LR_Drum Kick Low.wav
64,192,100736,1,0,0:0:0:30:LR_Drum Hit Clap Sn.wav
192,192,100736,1,0,0:0:0:0:
64,192,101152,1,0,0:0:0:30:LR_Drum Hit Clap Sn.wav
64,192,101402,1,0,0:0:0:30:LR_Drum Hit Clap Sn.wav
192,192,101402,1,0,0:0:0:0:
320,192,101486,128,0,101736:0:0:0:30:LR_Drum Hit Clap Sn.wav
448,192,101486,1,0,0:0:0:0:
192,192,101736,128,0,101986:0:0:0:0:
64,192,101986,128,0,102986:0:0:0:35:LR_Drum Kick Low.wav
448,192,102236,1,0,0:0:0:30:LR_Drum Hit Clap Sn.wav
448,192,102402,1,0,0:0:0:30:LR_Drum Hit Clap Sn.wav
192,192,102652,1,0,0:0:0:35:LR_Drum Kick Low.wav
320,192,102736,1,0,0:0:0:30:LR_Drum Hit Clap Sn.wav
448,192,102736,1,0,0:0:0:0:
320,192,102986,128,0,103986:0:0:0:0:
448,192,103152,1,0,0:0:0:30:LR_Drum Hit Clap Sn.wav
64,192,103402,1,0,0:0:0:30:LR_Drum Hit Clap Sn.wav
192,192,103402,1,0,0:0:0:0:
64,192,103486,1,0,0:0:0:30:LR_Drum Hit Clap Sn.wav
192,192,103486,1,0,0:0:0:0:
448,192,103736,1,0,0:0:0:35:LR_Drum Kick Low.wav
64,192,103986,1,0,0:0:0:35:LR_Drum Kick Low.wav
192,192,103986,1,0,0:0:0:50:LR_CymbalFSU.wav
448,192,103986,128,0,105402:0:0:0:0:
64,192,104236,1,0,0:0:0:30:LR_Drum Hit Clap Sn.wav
64,192,104402,1,0,0:0:0:30:LR_Drum Hit Clap Sn.wav
320,192,104652,1,0,0:0:0:35:LR_Drum Kick Low.wav
64,192,104736,1,0,0:0:0:30:LR_Drum Hit Clap Sn.wav
192,192,104736,1,0,0:0:0:0:
64,192,105152,1,0,0:0:0:30:LR_Drum Hit Clap Sn.wav
64,192,105402,1,0,0:0:0:30:LR_Drum Hit Clap Sn.wav
192,192,105402,1,0,0:0:0:0:
320,192,105486,128,0,105736:0:0:0:30:LR_Drum Hit Clap Sn.wav
448,192,105486,1,0,0:0:0:0:
192,192,105736,128,0,105986:0:0:0:0:
448,192,105986,128,0,106236:0:0:0:35:LR_Drum Kick Low.wav
320,192,106236,1,0,0:0:0:30:LR_Drum Hit Clap Sn.wav
320,192,106402,1,0,0:0:0:30:LR_Drum Hit Clap Sn.wav
64,192,106486,128,0,106736:0:0:0:0:
192,192,106652,1,0,0:0:0:35:LR_Drum Kick Low.wav
320,192,106736,1,0,0:0:0:30:LR_Drum Hit Clap Sn.wav
448,192,106736,1,0,0:0:0:0:
192,192,107152,1,0,0:0:0:30:LR_Drum Hit Clap Sn.wav
64,192,107402,1,0,0:0:0:30:LR_Drum Hit Clap Sn.wav
192,192,107402,1,0,0:0:0:0:
320,192,107486,1,0,0:0:0:30:LR_Drum Hit Clap Sn.wav
448,192,107486,128,0,107736:0:0:0:0:
192,192,107736,1,0,0:0:0:35:LR_Drum Kick Low.wav
64,192,107986,128,0,109402:0:0:0:35:LR_Drum Kick Low.wav
192,192,107986,1,0,0:0:0:50:LR_CymbalFSU.wav
448,192,108236,1,0,0:0:0:30:LR_Drum Hit Clap Sn.wav
448,192,108402,1,0,0:0:0:30:LR_Drum Hit Clap Sn.wav
192,192,108652,1,0,0:0:0:35:LR_Drum Kick Low.wav
320,192,108736,1,0,0:0:0:30:LR_Drum Hit Clap Sn.wav
448,192,108736,1,0,0:0:0:0:
320,192,109152,1,0,0:0:0:30:LR_Drum Hit Clap Sn.wav
320,192,109402,1,0,0:0:0:30:LR_Drum Hit Clap Sn.wav
448,192,109402,1,0,0:0:0:0:
64,192,109486,1,0,0:0:0:30:LR_Drum Hit Clap Sn.wav
192,192,109486,128,0,109736:0:0:0:0:
320,192,109736,128,0,109986:0:0:0:0:
448,192,109986,128,0,110486:0:0:0:35:LR_Drum Kick Low.wav
192,192,110236,1,0,0:0:0:30:LR_Drum Hit Clap Sn.wav
192,192,110402,1,0,0:0:0:30:LR_Drum Hit Clap Sn.wav
64,192,110486,128,0,110986:0:0:0:0:
192,192,110652,1,0,0:0:0:35:LR_Drum Kick Low.wav
320,192,110736,1,0,0:0:0:30:LR_Drum Hit Clap Sn.wav
448,192,110736,1,0,0:0:0:0:
320,192,110986,128,0,111402:0:0:0:0:
192,192,111152,1,0,0:0:0:35:LR_Drum Hit Clap Sn.wav
64,192,111402,1,0,0:0:0:30:LR_Drum Hit Clap Sn.wav
448,192,111402,1,0,0:0:0:0:
192,192,111486,128,0,111986:0:0:0:30:LR_Drum Hit Clap Sn.wav
320,192,111486,1,0,0:0:0:0:
448,192,111736,1,0,0:0:0:35:LR_Drum Kick Low.wav
64,192,111986,1,0,0:0:0:35:LR_Drum Kick Low.wav
448,192,111986,128,0,113402:0:0:0:50:LR_CymbalFSU.wav
64,192,112236,1,0,0:0:0:30:LR_Drum Hit Clap Sn.wav
64,192,112402,1,0,0:0:0:30:LR_Drum Hit Clap Sn.wav
320,192,112652,1,0,0:0:0:35:LR_Drum Kick Low.wav
64,192,112736,1,0,0:0:0:30:LR_Drum Hit Clap Sn.wav
192,192,112736,1,0,0:0:0:0:
192,192,113152,1,0,0:0:0:30:LR_Drum Hit Clap Sn.wav
64,192,113402,1,0,0:0:0:30:LR_Drum Hit Clap Sn.wav
192,192,113402,1,0,0:0:0:0:
320,192,113486,128,0,113736:0:0:0:30:LR_Drum Hit Clap Sn.wav
448,192,113486,1,0,0:0:0:0:
192,192,113736,128,0,113986:0:0:0:0:
320,192,113986,128,0,114236:0:0:0:35:LR_Drum Kick Low.wav
64,192,114236,1,0,0:0:0:30:LR_Drum Hit Clap Sn.wav
64,192,114402,1,0,0:0:0:30:LR_Drum Hit Clap Sn.wav
64,192,114652,1,0,0:0:0:35:LR_Drum Kick Low.wav
320,192,114736,128,0,114819:0:0:0:30:LR_Drum Hit Clap Sn.wav
448,192,114736,1,0,0:0:0:0:
192,192,114819,128,0,114902:0:0:0:0:
64,192,114902,128,0,114986:0:0:0:0:
448,192,114986,128,0,115402:0:0:0:0:
320,192,115152,1,0,0:0:0:35:LR_Drum Hit Clap Sn.wav
64,192,115402,1,0,0:0:0:30:LR_Drum Hit Clap Sn.wav
192,192,115402,1,0,0:0:0:0:
320,192,115486,128,0,115986:0:0:0:30:LR_Drum Hit Clap Sn.wav
448,192,115486,1,0,0:0:0:0:
192,192,115736,1,0,0:0:0:35:LR_Drum Kick Low.wav
64,192,115986,128,0,117402:0:0:0:35:LR_Drum Kick Low.wav
448,192,115986,1,0,0:0:0:50:LR_CymbalFSU.wav
192,192,116402,1,0,0:0:0:30:LR_Drum Hit Clap Sn.wav
320,192,116486,1,0,0:0:0:35:LR_Drum Kick Low.wav
448,192,116486,1,0,0:0:0:0:
192,192,116736,1,0,0:0:0:70:LR_Drum Rim Fast.wav
448,192,116736,1,0,0:0:0:0:
320,192,116986,1,0,0:0:0:35:LR_Drum Kick Low.wav
192,192,117402,1,0,0:0:0:30:LR_Drum Hit Clap Sn.wav
320,192,117486,128,0,117736:0:0:0:35:LR_Drum Kick Low.wav
448,192,117486,1,0,0:0:0:0:
64,192,117736,1,0,0:0:0:70:LR_Drum Rim Fast.wav
448,192,117736,128,0,117986:0:0:0:0:
64,192,117986,128,0,118986:0:0:0:35:LR_Drum Kick Low.wav
192,192,118402,1,0,0:0:0:30:LR_Drum Hit Clap Sn.wav
320,192,118486,1,0,0:0:0:35:LR_Drum Kick Low.wav
448,192,118486,1,0,0:0:0:0:
192,192,118736,1,0,0:0:0:70:LR_Drum Rim Fast.wav
448,192,118736,1,0,0:0:0:0:
320,192,118986,128,0,119986:0:0:0:35:LR_Drum Kick Low.wav
448,192,119402,1,0,0:0:0:30:LR_Drum Hit Clap Sn.wav
64,192,119486,1,0,0:0:0:35:LR_Drum Kick Low.wav
192,192,119486,1,0,0:0:0:0:
64,192,119736,1,0,0:0:0:70:LR_Drum Rim Fast.wav
448,192,119736,1,0,0:0:0:0:
64,192,119986,1,0,0:0:0:35:LR_Drum Kick Low.wav
192,192,119986,128,0,121402:0:0:0:50:LR_CymbalFSU.wav
64,192,120402,1,0,0:0:0:30:LR_Drum Hit Clap Sn.wav
320,192,120486,1,0,0:0:0:35:LR_Drum Kick Low.wav
448,192,120486,1,0,0:0:0:0:
64,192,120736,1,0,0:0:0:70:LR_Drum Rim Fast.wav
448,192,120736,1,0,0:0:0:0:
320,192,120986,1,0,0:0:0:35:LR_Drum Kick Low.wav
64,192,121402,1,0,0:0:0:30:LR_Drum Hit Clap Sn.wav
320,192,121486,128,0,121736:0:0:0:35:LR_Drum Kick Low.wav
448,192,121486,1,0,0:0:0:0:
64,192,121736,128,0,121986:0:0:0:70:LR_Drum Rim Fast.wav
448,192,121736,1,0,0:0:0:0:
320,192,121986,128,0,122236:0:0:0:35:LR_Drum Kick Low.wav
448,192,122402,1,0,0:0:0:30:LR_Drum Hit Clap Sn.wav
64,192,122486,1,0,0:0:0:35:LR_Drum Kick Low.wav
192,192,122486,128,0,122736:0:0:0:0:
64,192,122736,1,0,0:0:0:70:LR_Drum Rim Fast.wav
448,192,122736,1,0,0:0:0:0:
320,192,122986,1,0,0:0:0:35:LR_Drum Kick Low.wav
64,192,123402,1,0,0:0:0:30:LR_Drum Hit Clap Sn.wav
320,192,123486,128,0,123736:0:0:0:35:LR_Drum Kick Low.wav
448,192,123486,1,0,0:0:0:0:
64,192,123736,1,0,0:0:0:70:LR_Drum Rim Fast.wav
448,192,123736,1,0,0:0:0:0:
192,192,123986,128,0,125486:0:0:0:35:LR_Drum Kick Low.wav
448,192,123986,1,0,0:0:0:50:LR_CymbalFSU.wav
64,192,124402,1,0,0:0:0:30:LR_Drum Hit Clap Sn.wav
320,192,124486,1,0,0:0:0:35:LR_Drum Kick Low.wav
448,192,124486,1,0,0:0:0:0:
64,192,124736,1,0,0:0:0:70:LR_Drum Rim Fast.wav
448,192,124736,1,0,0:0:0:0:
320,192,124986,1,0,0:0:0:35:LR_Drum Kick Low.wav
64,192,125402,1,0,0:0:0:30:LR_Drum Hit Clap Sn.wav
320,192,125486,128,0,125736:0:0:0:35:LR_Drum Kick Low.wav
448,192,125486,1,0,0:0:0:0:
192,192,125736,1,0,0:0:0:70:LR_Drum Rim Fast.wav
448,192,125736,128,0,125986:0:0:0:0:
64,192,125986,128,0,126402:0:0:0:35:LR_Drum Kick Low.wav
320,192,126402,1,0,0:0:0:30:LR_Drum Hit Clap Sn.wav
64,192,126486,1,0,0:0:0:35:LR_Drum Kick Low.wav
192,192,126486,128,0,126986:0:0:0:0:
64,192,126736,1,0,0:0:0:70:LR_Drum Rim Fast.wav
448,192,126736,1,0,0:0:0:0:
448,192,126986,128,0,127402:0:0:0:35:LR_Drum Kick Low.wav
64,192,127402,1,0,0:0:0:30:LR_Drum Hit Clap Sn.wav
320,192,127486,128,0,127986:0:0:0:35:LR_Drum Kick Low.wav
448,192,127486,1,0,0:0:0:0:
64,192,127736,1,0,0:0:0:70:LR_Drum Rim Fast.wav
448,192,127736,1,0,0:0:0:0:
64,192,127986,1,0,0:0:0:35:LR_Drum Kick Low.wav
192,192,127986,128,0,129402:0:0:0:50:LR_CymbalFSU.wav
64,192,128402,1,0,0:0:0:30:LR_Drum Hit Clap Sn.wav
320,192,128486,1,0,0:0:0:35:LR_Drum Kick Low.wav
448,192,128486,1,0,0:0:0:0:
64,192,128736,1,0,0:0:0:70:LR_Drum Rim Fast.wav
448,192,128736,1,0,0:0:0:0:
320,192,128986,1,0,0:0:0:35:LR_Drum Kick Low.wav
64,192,129402,1,0,0:0:0:30:LR_Drum Hit Clap Sn.wav
320,192,129486,128,0,129736:0:0:0:35:LR_Drum Kick Low.wav
448,192,129486,1,0,0:0:0:0:
192,192,129736,128,0,129986:0:0:0:70:LR_Drum Rim Fast.wav
320,192,129986,128,0,130236:0:0:0:35:LR_Drum Kick Low.wav
448,192,129986,1,0,0:0:0:0:
64,192,130402,1,0,0:0:0:30:LR_Drum Hit Clap Sn.wav
320,192,130486,1,0,0:0:0:35:LR_Drum Kick Low.wav
448,192,130486,1,0,0:0:0:0:
64,192,130736,128,0,130819:0:0:0:30:LR_Drum Hit Clap Sn.wav
192,192,130819,128,0,130902:0:0:0:0:
320,192,130902,128,0,130986:0:0:0:30:LR_Drum Hit Clap Sn.wav
64,192,130902,1,0,0:0:0:0:
192,192,130986,1,0,0:0:0:35:LR_Drum Kick Low.wav
448,192,130986,128,0,131486:0:0:0:0:
192,192,131152,1,0,0:0:0:35:LR_Drum Kick Low.wav
64,192,131236,1,0,0:0:0:70:LR_Tom Hit.wav
320,192,131402,1,0,0:0:0:70:LR_Tom Hit 2.wav
192,192,131486,128,0,131736:0:0:0:70:LR_Drum Rim Fast.wav
64,192,131486,1,0,0:0:0:0:
320,192,131736,1,0,0:0:0:70:LR_Tom Hit 3.wav
192,192,131902,1,0,0:0:0:30:LR_Drum Hit Clap Sn.wav
64,192,131986,1,0,0:0:0:35:LR_Drum Kick Low.wav
448,192,131986,1,0,0:0:0:50:LR_CymbalFSU.wav
320,192,132111,1,0,0:0:0:0:
192,192,132236,1,0,0:0:0:0:
64,192,132329,1,0,0:0:0:0:
448,192,132527,1,0,0:0:0:0:
