osu file format v14

[General]
AudioFilename: 08. GENSO-MIYAKO-BUSHI.mp3
AudioLeadIn: 0
PreviewTime: -1
Countdown: 1
SampleSet: None
StackLeniency: 0.7
Mode: 0
LetterboxInBreaks: 1
WidescreenStoryboard: 0

[Editor]
Bookmarks: 16037,38363
DistanceSpacing: 1.3
BeatDivisor: 3
GridSize: 4
TimelineZoom: 1

[Metadata]
Title:GENSO-MIYAKO-BUSHI
TitleUnicode:GENSO-MIYAKO-BUSHI
Artist:Floating Cloud
ArtistUnicode:Floating Cloud
Creator:Ekoro
Version:Traditional
Source:東方風神録 ~ Mountain of Faith
Tags:the gensokyo the gods loved mof th10 てりー@LDMT 神々が恋した幻想郷 irish arrangement nersery stories
BeatmapID:1618323
BeatmapSetID:769669

[Difficulty]
HPDrainRate:4
CircleSize:4.5
OverallDifficulty:4
ApproachRate:7
SliderMultiplier:1
SliderTickRate:1

[Events]
//Background and Video events
0,0,"516512.jpg",0,0
//Break Periods
//Storyboard Layer 0 (Background)
//Storyboard Layer 1 (Fail)
//Storyboard Layer 2 (Pass)
//Storyboard Layer 3 (Foreground)
//Storyboard Sound Samples

[TimingPoints]
1353,731.707317073171,3,2,1,70,1,0
2084,697.674418604651,3,2,1,70,1,0
15804,-100,3,2,2,70,0,0
38363,-100,3,2,1,70,0,0
75514,-100,3,2,1,30,0,0
76735,-100,3,2,1,70,0,0

[Colours]
Combo1 : 255,255,128
Combo2 : 165,218,218
Combo3 : 67,199,205
Combo4 : 128,255,128

[HitObjects]
364,44,1353,6,0,P|400:36|432:36,1,66.6666666666667,2|0,0:0|0:0,0:0:0:0:
468,56,2084,6,0,L|460:164,1,100,2|2,0:0|0:0,0:0:0:0:
404,220,3246,1,2,0:0:0:0:
404,220,3479,2,0,P|372:224|336:216,1,66.6666666666667,2|0,0:0|0:0,0:0:0:0:
304,188,4177,2,0,P|272:184|236:192,1,66.6666666666667,2|0,0:0|0:0,0:0:0:0:
208,220,4874,6,0,L|216:288,1,66.6666666666667,2|0,0:0|0:0,0:0:0:0:
188,320,5572,2,0,P|155:326|122:322,1,66.6666666666667,2|2,0:0|0:0,0:0:0:0:
84,300,6270,1,0,0:0:0:0:
32,180,6967,2,0,L|28:112,1,66.6666666666667,2|0,0:0|0:0,0:0:0:0:
52,76,7665,6,0,P|100:68|148:88,1,100,2|2,0:0|0:0,0:0:0:0:
188,164,8828,1,0,0:0:0:0:
188,164,9060,2,0,L|256:168,1,66.6666666666667,2|0,0:0|0:0,0:0:0:0:
288,148,9758,1,2,0:0:0:0:
344,32,10456,6,0,L|412:28,1,66.6666666666667,2|0,0:0|0:0,0:0:0:0:
448,48,11153,2,0,P|440:80|444:116,1,66.6666666666667,2|0,0:0|0:0,0:0:0:0:
476,140,11851,2,0,P|479:173|471:205,1,66.6666666666667,2|2,0:0|0:0,0:0:0:0:
432,228,12549,2,0,P|423:260|427:293,1,66.6666666666667,2|0,0:0|0:0,0:0:0:0:
464,316,13246,5,2,0:0:0:0:
388,360,13711,1,2,0:0:0:0:
348,348,13944,1,2,0:0:0:0:
296,280,14409,1,0,0:0:0:0:
256,292,14642,1,2,0:0:0:0:
8,376,16037,6,0,P|40:308|36:224,1,158.333333333333,0|0,0:0|0:0,0:0:0:0:
16,188,17374,1,2,0:0:0:0:
84,132,17839,1,2,0:0:0:0:
120,156,18062,1,0,0:0:0:0:
256,204,18828,6,0,P|368:212|448:92,1,266.666666666667,2|2,0:0|0:0,0:0:0:0:
436,52,20921,1,0,0:0:0:0:
324,8,21560,6,0,L|148:24,1,175,2|0,0:0|0:0,0:0:0:0:
112,44,23014,1,2,0:0:0:0:
308,208,24409,6,0,L|476:220,1,166.666666666667,0|0,0:0|0:0,0:0:0:0:
512,244,25805,1,2,0:0:0:0:
280,360,27200,6,0,P|248:348|212:348,1,66.6666666666667,2|0,0:0|0:0,0:0:0:0:
172,356,27897,1,2,0:0:0:0:
172,356,28552,2,0,P|138:355|80:320,1,100,2|2,0:0|0:0,0:0:0:0:
52,252,29758,1,0,0:0:0:0:
52,252,29932,6,0,L|36:52,1,200,2|2,0:0|0:0,0:0:0:0:
160,20,32040,1,2,0:0:0:0:
252,128,32781,5,0,0:0:0:0:
252,128,35354,5,0,0:0:0:0:
292,140,35572,1,2,0:0:0:0:
292,140,37621,1,2,0:0:0:0:
292,140,38363,6,0,P|296:107|300:68,1,66.6666666666667,2|0,0:0|0:0,0:0:0:0:
304,32,39060,2,0,L|374:17,1,66.6666666666667,2|0,0:0|0:0,0:0:0:0:
412,12,39758,2,0,L|447:74,1,66.6666666666667,2|0,0:0|0:0,0:0:0:0:
465,106,40455,2,0,L|416:159,1,66.6666666666667,2|0,0:0|0:0,0:0:0:0:
392,188,41153,6,0,P|348:172|296:176,1,100,2|2,0:0|0:0,0:0:0:0:
228,228,42316,1,0,0:0:0:0:
228,228,42549,2,0,L|236:300,1,66.6666666666667,2|0,0:0|0:0,0:0:0:0:
212,332,43246,1,2,0:0:0:0:
84,352,43944,6,0,P|48:316|32:268,1,100,2|0,0:0|0:0,0:0:0:0:
112,240,45107,1,0,0:0:0:0:
112,240,45339,2,0,P|148:204|164:156,1,100,0|2,0:0|0:0,0:0:0:0:
156,72,46502,1,0,0:0:0:0:
128,40,46735,5,2,0:0:0:0:
40,32,47200,1,0,0:0:0:0:
4,56,47432,2,0,L|8:128,1,66.6666666666667,2|0,0:0|0:0,0:0:0:0:
44,148,48130,2,0,P|92:152|140:136,1,100,2|0,0:0|0:0,0:0:0:0:
200,72,49293,1,0,0:0:0:0:
200,72,49525,6,0,L|268:68,1,66.6666666666667,2|0,0:0|0:0,0:0:0:0:
308,52,50223,2,0,P|300:96|316:148,1,100,2|2,0:0|0:0,0:0:0:0:
360,224,51386,1,2,0:0:0:0:
360,224,51618,2,0,L|292:220,1,66.6666666666667
252,204,52316,6,0,P|260:248|244:300,1,100,2|0,0:0|0:0,0:0:0:0:
164,336,53479,1,0,0:0:0:0:
164,336,53711,2,0,L|64:328,1,100,2|2,0:0|0:0,0:0:0:0:
24,204,55107,6,0,L|124:196,1,100,2|0,0:0|0:0,0:0:0:0:
200,156,56270,1,0,0:0:0:0:
200,156,56502,2,0,P|208:104|192:60,1,100,0|0,0:0|0:0,0:0:0:0:
272,20,57665,1,0,0:0:0:0:
272,20,57781,1,0,0:0:0:0:
272,20,57897,6,0,L|372:28,1,100,2|2,0:0|0:0,0:0:0:0:
448,64,59060,2,0,L|456:104,1,33.3333333333333,0|2,0:0|0:0,0:0:0:0:
472,180,59758,5,2,0:0:0:0:
472,180,59990,1,2,0:0:0:0:
388,208,60456,1,0,0:0:0:0:
388,208,60688,6,0,P|356:212|328:208,1,58.3333333333333,2|0,0:0|0:0,0:0:0:0:
296,180,61328,2,0,L|304:80,1,100,2|2,0:0|0:0,0:0:0:0:
232,44,62490,1,0,0:0:0:0:
232,44,62738,2,0,P|200:36|164:40,1,66.6666666666667,2|0,0:0|0:0,0:0:0:0:
128,56,63421,6,0,L|116:164,1,108.333333333333,2|2,0:0|0:0,0:0:0:0:
152,244,64642,1,0,0:0:0:0:
192,256,64874,2,0,P|220:256|248:252,1,56.25,2|0,0:0|0:0,0:0:0:0:
292,232,65528,2,0,L|296:300,1,68.75,2|0,0:0|0:0,0:0:0:0:
336,328,66270,6,0,P|384:324|432:352,1,100,2|0,0:0|0:0,0:0:0:0:
484,280,67432,1,0,0:0:0:0:
484,280,67665,2,0,L|476:216,1,58.3333333333333,2|0,0:0|0:0,0:0:0:0:
432,188,68363,2,0,L|440:120,1,66.6666666666667,2|0,0:0|0:0,0:0:0:0:
476,100,69060,6,0,P|460:56|412:32,1,100,2|2,0:0|0:0,0:0:0:0:
352,64,70223,1,0,0:0:0:0:
352,64,70456,1,2,0:0:0:0:
308,136,70921,1,2,0:0:0:0:
308,136,71153,2,0,L|312:204,1,66.6666666666667,0|0,0:0|0:0,0:0:0:0:
336,240,71851,6,0,P|288:232|240:248,1,100,2|0,0:0|0:0,0:0:0:0:
168,296,73014,1,0,0:0:0:0:
168,296,73246,2,0,L|100:292,1,66.6666666666667,0|2,0:0|0:0,0:0:0:0:
68,264,73944,2,0,P|76:228|72:196,1,66.6666666666667,0|0,0:0|0:0,0:0:0:0:
40,172,74642,6,0,L|32:104,1,66.6666666666667,2|0,0:0|0:0,0:0:0:0:
60,72,75339,1,0,0:0:0:0:
104,64,75572,6,0,L|136:68,1,31.25,10|10,0:0|0:0,0:0:0:0:
168,88,75993,2,0,L|208:84,1,37.5,10|10,0:0|0:0,0:0:0:0:
252,52,76560,1,10,0:0:0:0:
252,52,76735,6,0,L|324:60,1,66.6666666666667,2|0,0:0|0:0,0:0:0:0:
352,88,77432,6,0,P|376:132|420:160,1,100,2|2,0:0|0:0,0:0:0:0:
500,180,78595,1,0,0:0:0:0:
500,180,78828,2,0,L|496:252,1,66.6666666666667,2|2,0:0|0:0,0:0:0:0:
468,280,79525,2,0,P|436:292|400:292,1,66.6666666666667,0|0,0:0|0:0,0:0:0:0:
364,272,80223,2,0,P|308:264|228:372,1,200,2|8,0:0|0:0,0:0:0:0:
100,340,82316,2,0,L|92:272,1,66.6666666666667,2|0,0:0|0:0,0:0:0:0:
116,236,83014,6,0,P|168:244|216:232,1,100,2|2,0:0|0:0,0:0:0:0:
256,156,84177,1,0,0:0:0:0:
256,156,84409,2,0,L|248:88,1,66.6666666666667,2|2,0:0|0:0,0:0:0:0:
292,96,85107,2,0,L|300:28,1,66.6666666666667
340,48,85804,2,0,P|384:32|488:124,1,200,2|8,0:0|0:0,0:0:0:0:
436,192,87665,1,2,0:0:0:0:
436,192,87781,1,0,0:0:0:0:
436,192,87897,2,0,L|368:200,1,66.6666666666667,2|0,0:0|0:0,0:0:0:0:
328,216,88595,6,0,B|248:244|224:164|136:196,1,200,2|8,0:0|0:0,0:0:0:0:
64,244,90456,1,2,0:0:0:0:
64,244,90572,1,0,0:0:0:0:
64,244,90688,2,0,L|60:312,1,66.6666666666667,2|0,0:0|0:0,0:0:0:0:
92,340,91386,6,0,B|172:368|196:288|284:320,1,200,2|8,0:0|0:0,0:0:0:0:
356,368,93246,1,2,0:0:0:0:
356,368,93479,2,0,L|428:372,1,66.6666666666667,2|0,0:0|0:0,0:0:0:0:
460,352,94177,6,0,P|476:304|468:256,1,100,2|2,0:0|0:0,0:0:0:0:
392,216,95339,1,0,0:0:0:0:
392,216,95572,2,0,L|324:224,1,66.6666666666667,2|0,0:0|0:0,0:0:0:0:
288,248,96270,2,0,L|220:240,1,66.6666666666667,2|0,0:0|0:0,0:0:0:0:
192,208,96967,6,0,P|204:144|112:60,1,200,2|8,0:0|0:0,0:0:0:0:
32,92,98828,1,2,0:0:0:0:
32,92,99060,2,0,L|28:160,1,66.6666666666667,2|0,0:0|0:0,0:0:0:0:
44,200,99758,6,0,P|88:224|144:224,1,100,2|2,0:0|0:0,0:0:0:0:
208,196,100863,1,0,0:0:0:0:
208,196,101153,2,0,L|216:136,1,58.3333333333333,2|0,0:0|0:0,0:0:0:0:
180,104,101851,2,0,L|172:36,1,66.6666666666667,2|0,0:0|0:0,0:0:0:0:
212,16,102549,6,0,P|300:60|400:48,1,200,2|8,0:0|0:0,0:0:0:0:
480,16,104409,1,2,0:0:0:0:
480,16,104642,1,2,0:0:0:0:
460,100,105107,1,0,0:0:0:0:
460,100,105339,5,4,0:0:0:0:
444,188,105819,2,0,L|448:228,1,37.5,2|2,0:0|0:0,0:0:0:0:
424,268,106342,2,0,L|420:312,2,43.75,2|2|2,0:0|0:0|0:0,0:0:0:0:
344,224,107432,6,0,P|312:236|288:256,1,66.6666666666667,2|0,0:0|0:0,0:0:0:0:
268,296,108130,6,0,P|236:336|188:352,1,100,2|2,0:0|0:0,0:0:0:0:
108,332,109293,1,0,0:0:0:0:
108,332,109525,1,2,0:0:0:0:
56,260,109990,1,2,0:0:0:0:
56,260,110223,2,0,L|52:192,1,66.6666666666667,0|0,0:0|0:0,0:0:0:0:
80,160,110921,2,0,P|140:168|232:76,1,200,2|8,0:0|0:0,0:0:0:0:
352,28,113014,2,0,L|428:32,1,66.6666666666667,2|0,0:0|0:0,0:0:0:0:
452,56,113711,6,0,P|436:104|444:156,1,100,2|2,0:0|0:0,0:0:0:0:
484,228,114874,1,0,0:0:0:0:
484,228,115107,2,0,L|416:232,1,66.6666666666667,2|2,0:0|0:0,0:0:0:0:
380,252,115804,2,0,P|384:288|380:320,1,66.6666666666667
344,344,116502,2,0,P|296:352|200:252,1,200,2|8,0:0|0:0,0:0:0:0:
236,176,118363,1,2,0:0:0:0:
236,176,118479,1,0,0:0:0:0:
236,176,118595,2,0,P|244:140|240:108,1,66.6666666666667,2|0,0:0|0:0,0:0:0:0:
212,80,119293,6,0,P|120:80|64:164,1,200,2|8,0:0|0:0,0:0:0:0:
88,248,121153,2,0,L|92:260,3,8.33333333333333,2|0|0|2,0:0|0:0|0:0|0:0,0:0:0:0:
148,336,121851,1,0,0:0:0:0:
188,352,122083,6,0,P|280:352|336:268,1,200,2|8,0:0|0:0,0:0:0:0:
296,192,123944,1,0,0:0:0:0:
296,192,124177,2,0,P|288:160|288:124,1,66.6666666666667,2|0,0:0|0:0,0:0:0:0:
304,88,124874,6,0,P|348:64|396:68,1,100,2|2,0:0|0:0,0:0:0:0:
468,116,126037,1,0,0:0:0:0:
468,116,126270,2,0,L|472:188,1,66.6666666666667,2|2,0:0|0:0,0:0:0:0:
440,212,126967,2,0,L|436:284,1,66.6666666666667,0|0,0:0|0:0,0:0:0:0:
468,308,127665,6,0,P|388:364|296:332,1,200,2|8,0:0|0:0,0:0:0:0:
256,260,129525,1,0,0:0:0:0:
256,260,129758,2,0,L|248:192,1,66.6666666666667,2|0,0:0|0:0,0:0:0:0:
272,156,130456,6,0,P|288:112|284:60,1,100,2|2,0:0|0:0,0:0:0:0:
212,12,131618,1,0,0:0:0:0:
212,12,131851,2,0,L|144:16,1,66.6666666666667,2|0,0:0|0:0,0:0:0:0:
108,36,132549,2,0,P|92:80|96:132,1,100,2|2,0:0|0:0,0:0:0:0:
152,196,133711,5,0,0:0:0:0:
196,204,133944,1,2,0:0:0:0:
172,288,134409,1,2,0:0:0:0:
128,296,134642,2,0,P|60:256|48:172,1,166.666666666667,10|0,0:0|0:0,0:0:0:0:
72,136,136037,5,2,0:0:0:0:
140,80,136517,1,2,0:0:0:0:
192,56,136822,1,2,0:0:0:0:
256,48,137171,1,2,0:0:0:0:
328,68,137563,1,2,0:0:0:0:
380,128,137999,1,2,0:0:0:0:
412,228,138566,1,2,0:0:0:0:
404,340,139177,1,2,0:0:0:0:
404,340,139830,5,0,0:0:0:0:
372,328,140005,1,0,0:0:0:0:
340,316,140179,1,2,0:0:0:0:
256,288,140659,2,0,L|164:304,1,93.75,0|0,0:0|0:0,0:0:0:0:
116,316,141575,5,2,0:0:0:0:
116,316,144409,1,2,0:0:0:0:
