osu file format v14

[General]
AudioFilename: audio.mp3
AudioLeadIn: 0
PreviewTime: 50506
Countdown: 0
SampleSet: None
StackLeniency: 0.7
Mode: 1
LetterboxInBreaks: 0
WidescreenStoryboard: 0

[Editor]
DistanceSpacing: 1.1
BeatDivisor: 4
GridSize: 32
TimelineZoom: 1.3

[Metadata]
Title:Run ft. RedFoo of LMFAO (Speed Up Ver.)
TitleUnicode:Run ft. RedFoo of LMFAO (Speed Up Ver.)
Artist:Flo Rida
ArtistUnicode:Flo Rida
Creator:Lost The Lights
Version:Run
Source:
Tags:
BeatmapID:1457906
BeatmapSetID:688762

[Difficulty]
HPDrainRate:6
CircleSize:5
OverallDifficulty:6
ApproachRate:5
SliderMultiplier:1.4
SliderTickRate:1

[Events]
//Background and Video events
0,0,"girl_anime_sky_running_schoolgirl_106804_1366x768.jpg",0,-100
//Break Periods
//Storyboard Layer 0 (Background)
//Storyboard Layer 1 (Fail)
//Storyboard Layer 2 (Pass)
//Storyboard Layer 3 (Foreground)
//Storyboard Sound Samples

[TimingPoints]
220,399.095383796727,4,1,0,80,1,0
25762,-100,4,1,0,60,0,0
38533,-100,4,1,0,70,0,0
51304,-100,4,1,0,90,0,1
64075,-100,4,1,0,80,0,0
80039,-100,4,1,0,60,0,0
92810,-100,4,1,0,70,0,0
105581,-100,4,1,0,90,0,1
118352,-100,4,1,0,60,0,0
147087,-100,4,1,0,70,0,0
159858,-100,4,1,0,90,0,1
185400,-100,4,1,0,80,0,0

[HitObjects]
256,192,220,5,0,0:0:0:0:
256,192,419,1,0,0:0:0:0:
256,192,619,1,8,0:0:0:0:
256,192,818,1,0,0:0:0:0:
256,192,1018,1,0,0:0:0:0:
256,192,1217,1,0,0:0:0:0:
256,192,1417,1,8,0:0:0:0:
256,192,1616,1,8,0:0:0:0:
256,192,1716,1,8,0:0:0:0:
256,192,1816,1,0,0:0:0:0:
256,192,2015,1,0,0:0:0:0:
256,192,2215,1,8,0:0:0:0:
256,192,2415,1,0,0:0:0:0:
256,192,2614,1,0,0:0:0:0:
256,192,2814,1,0,0:0:0:0:
256,192,3013,1,8,0:0:0:0:
256,192,3213,1,0,0:0:0:0:
256,192,3412,1,0,0:0:0:0:
256,192,3611,1,0,0:0:0:0:
256,192,3811,1,8,0:0:0:0:
256,192,4010,1,0,0:0:0:0:
256,192,4210,1,0,0:0:0:0:
256,192,4409,1,0,0:0:0:0:
256,192,4609,1,8,0:0:0:0:
256,192,4808,1,8,0:0:0:0:
256,192,4908,1,8,0:0:0:0:
256,192,5008,1,0,0:0:0:0:
256,192,5207,1,0,0:0:0:0:
256,192,5407,1,8,0:0:0:0:
256,192,5607,1,0,0:0:0:0:
256,192,5806,1,0,0:0:0:0:
256,192,6006,1,0,0:0:0:0:
256,192,6205,1,8,0:0:0:0:
256,192,6405,1,8,0:0:0:0:
256,192,6505,1,8,0:0:0:0:
256,192,6605,1,0,0:0:0:0:
256,192,6804,1,0,0:0:0:0:
256,192,7004,1,8,0:0:0:0:
256,192,7203,1,0,0:0:0:0:
256,192,7403,1,0,0:0:0:0:
256,192,7602,1,0,0:0:0:0:
256,192,7802,1,8,0:0:0:0:
256,192,8001,1,8,0:0:0:0:
256,192,8101,1,8,0:0:0:0:
256,192,8201,1,0,0:0:0:0:
256,192,8301,1,8,0:0:0:0:
256,192,8400,1,0,0:0:0:0:
256,192,8600,1,8,0:0:0:0:
256,192,8800,1,8,0:0:0:0:
256,192,8999,1,0,0:0:0:0:
256,192,9199,1,0,0:0:0:0:
256,192,9398,1,8,0:0:0:0:
256,192,9598,1,8,0:0:0:0:
256,192,9798,1,0,0:0:0:0:
256,192,9997,1,0,0:0:0:0:
256,192,10197,1,8,0:0:0:0:
256,192,10396,1,0,0:0:0:0:
256,192,10596,1,0,0:0:0:0:
256,192,10795,1,0,0:0:0:0:
256,192,10995,1,8,0:0:0:0:
256,192,11195,1,8,0:0:0:0:
256,192,11294,1,8,0:0:0:0:
256,192,11394,1,0,0:0:0:0:
256,192,11494,1,8,0:0:0:0:
256,192,11593,1,0,0:0:0:0:
256,192,11793,1,8,0:0:0:0:
256,192,11993,1,8,0:0:0:0:
256,192,12192,1,0,0:0:0:0:
256,192,12392,1,0,0:0:0:0:
256,192,12591,1,8,0:0:0:0:
256,192,12791,1,8,0:0:0:0:
256,192,12891,1,8,0:0:0:0:
256,192,12991,1,0,0:0:0:0:
256,192,13090,1,0,0:0:0:0:
256,192,13190,1,8,0:0:0:0:
256,192,13290,1,0,0:0:0:0:
256,192,13390,1,8,0:0:0:0:
256,192,13589,1,8,0:0:0:0:
256,192,13689,1,0,0:0:0:0:
256,192,13789,1,8,0:0:0:0:
256,192,13988,1,0,0:0:0:0:
256,192,14188,1,8,0:0:0:0:
256,192,14387,1,8,0:0:0:0:
256,192,14487,1,8,0:0:0:0:
256,192,14587,1,0,0:0:0:0:
256,192,14786,1,8,0:0:0:0:
256,192,14986,1,8,0:0:0:0:
256,192,15186,1,0,0:0:0:0:
256,192,15385,1,8,0:0:0:0:
256,192,15585,1,8,0:0:0:0:
256,192,15684,1,0,0:0:0:0:
256,192,15784,1,8,0:0:0:0:
256,192,15984,1,8,0:0:0:0:
256,192,16183,1,0,0:0:0:0:
256,192,16383,1,0,0:0:0:0:
256,192,16483,1,8,0:0:0:0:
256,192,16582,1,0,0:0:0:0:
256,192,16682,1,0,0:0:0:0:
256,192,16782,1,8,0:0:0:0:
256,192,16982,1,0,0:0:0:0:
256,192,17181,1,8,0:0:0:0:
256,192,17281,1,8,0:0:0:0:
256,192,17381,1,0,0:0:0:0:
256,192,17480,1,0,0:0:0:0:
256,192,17580,1,8,0:0:0:0:
256,192,17780,1,0,0:0:0:0:
256,192,17979,1,8,0:0:0:0:
256,192,18179,1,8,0:0:0:0:
256,192,18378,1,0,0:0:0:0:
256,192,18578,1,8,0:0:0:0:
256,192,18777,1,0,0:0:0:0:
256,192,18977,1,8,0:0:0:0:
256,192,19177,1,8,0:0:0:0:
256,192,19276,1,8,0:0:0:0:
256,192,19376,1,0,0:0:0:0:
256,192,19576,1,0,0:0:0:0:
256,192,19675,1,8,0:0:0:0:
256,192,19775,1,0,0:0:0:0:
256,192,19975,1,8,0:0:0:0:
256,192,20174,1,0,0:0:0:0:
256,192,20374,1,8,0:0:0:0:
256,192,20474,1,8,0:0:0:0:
256,192,20573,1,0,0:0:0:0:
256,192,20773,1,8,0:0:0:0:
256,192,20873,1,8,0:0:0:0:
256,192,20972,1,0,0:0:0:0:
256,192,21072,1,8,0:0:0:0:
256,192,21172,1,0,0:0:0:0:
256,192,21272,1,0,0:0:0:0:
256,192,21372,1,8,0:0:0:0:
256,192,21571,1,8,0:0:0:0:
256,192,21671,1,0,0:0:0:0:
256,192,21771,1,8,0:0:0:0:
256,192,21970,1,0,0:0:0:0:
256,192,22170,1,8,0:0:0:0:
256,192,22369,1,8,0:0:0:0:
256,192,22569,1,0,0:0:0:0:
256,192,22768,1,8,0:0:0:0:
256,192,22968,1,0,0:0:0:0:
256,192,23167,1,8,0:0:0:0:
256,192,23367,1,8,0:0:0:0:
256,192,23467,1,0,0:0:0:0:
256,192,23567,1,8,0:0:0:0:
256,192,23666,1,8,0:0:0:0:
256,192,23766,1,0,0:0:0:0:
256,192,23966,1,8,0:0:0:0:
256,192,24065,1,8,0:0:0:0:
256,192,24165,1,0,0:0:0:0:
256,192,24265,1,8,0:0:0:0:
256,192,24365,1,0,0:0:0:0:
256,192,24465,1,0,0:0:0:0:
256,192,24564,1,8,0:0:0:0:
256,192,24764,1,0,0:0:0:0:
256,192,24864,1,0,0:0:0:0:
256,192,24963,1,8,0:0:0:0:
256,192,25163,1,0,0:0:0:0:
256,192,25363,1,8,0:0:0:0:
256,192,25562,1,8,0:0:0:0:
256,192,25762,1,8,0:0:0:0:
256,192,25861,1,0,0:0:0:0:
256,192,25961,1,8,0:0:0:0:
256,192,26061,1,8,0:0:0:0:
256,192,26161,1,0,0:0:0:0:
256,192,26260,1,0,0:0:0:0:
256,192,26360,1,8,0:0:0:0:
256,192,26460,1,0,0:0:0:0:
256,192,26560,1,8,0:0:0:0:
256,192,26759,1,0,0:0:0:0:
256,192,26959,1,8,0:0:0:0:
256,192,27158,1,8,0:0:0:0:
256,192,27358,1,8,0:0:0:0:
256,192,27458,1,0,0:0:0:0:
256,192,27558,1,8,0:0:0:0:
256,192,27657,1,0,0:0:0:0:
256,192,27757,1,8,0:0:0:0:
256,192,27857,1,8,0:0:0:0:
256,192,27957,1,0,0:0:0:0:
256,192,28056,1,0,0:0:0:0:
256,192,28156,1,8,0:0:0:0:
256,192,28356,1,0,0:0:0:0:
256,192,28555,1,8,0:0:0:0:
256,192,28755,1,8,0:0:0:0:
256,192,28954,1,8,0:0:0:0:
256,192,29154,1,8,0:0:0:0:
256,192,29254,1,0,0:0:0:0:
256,192,29353,1,8,0:0:0:0:
256,192,29453,1,8,0:0:0:0:
256,192,29553,1,0,0:0:0:0:
256,192,29653,1,0,0:0:0:0:
256,192,29753,1,8,0:0:0:0:
256,192,29952,1,0,0:0:0:0:
256,192,30152,1,8,0:0:0:0:
256,192,30351,1,8,0:0:0:0:
256,192,30551,1,8,0:0:0:0:
256,192,30651,1,0,0:0:0:0:
256,192,30750,1,8,0:0:0:0:
256,192,30850,1,0,0:0:0:0:
256,192,30950,1,8,0:0:0:0:
256,192,31050,1,8,0:0:0:0:
256,192,31149,1,0,0:0:0:0:
256,192,31249,1,0,0:0:0:0:
256,192,31349,1,8,0:0:0:0:
256,192,31449,1,0,0:0:0:0:
256,192,31548,1,8,0:0:0:0:
256,192,31748,1,8,0:0:0:0:
256,192,32047,1,8,0:0:0:0:
256,192,32147,1,0,0:0:0:0:
256,192,32347,1,8,0:0:0:0:
256,192,32546,1,0,0:0:0:0:
256,192,32746,1,8,0:0:0:0:
256,192,33145,1,8,0:0:0:0:
256,192,33245,1,0,0:0:0:0:
256,192,33344,1,8,0:0:0:0:
256,192,33544,1,8,0:0:0:0:
256,192,33943,1,8,0:0:0:0:
256,192,34143,1,8,0:0:0:0:
256,192,34342,1,0,0:0:0:0:
256,192,34442,1,8,0:0:0:0:
256,192,34542,1,0,0:0:0:0:
256,192,34741,1,0,0:0:0:0:
256,192,34941,1,8,0:0:0:0:
256,192,35140,1,8,0:0:0:0:
256,192,35539,1,8,0:0:0:0:
256,192,35639,1,0,0:0:0:0:
256,192,35739,1,8,0:0:0:0:
256,192,35839,1,8,0:0:0:0:
256,192,35939,1,0,0:0:0:0:
256,192,36038,1,0,0:0:0:0:
256,192,36138,1,8,0:0:0:0:
256,192,36238,1,0,0:0:0:0:
256,192,36338,1,8,0:0:0:0:
256,192,36537,1,0,0:0:0:0:
256,192,36737,1,8,0:0:0:0:
256,192,37136,1,8,0:0:0:0:
256,192,37236,1,8,0:0:0:0:
256,192,37335,1,0,0:0:0:0:
256,192,37435,1,0,0:0:0:0:
256,192,37535,1,8,0:0:0:0:
256,192,37635,1,0,0:0:0:0:
256,192,37734,1,8,0:0:0:0:
256,192,37934,1,0,0:0:0:0:
256,192,38134,1,8,0:0:0:0:
256,192,38333,1,8,0:0:0:0:
256,192,38533,1,4,0:0:0:0:
256,192,38732,1,8,0:0:0:0:
256,192,38932,1,8,0:0:0:0:
256,192,39131,1,0,0:0:0:0:
256,192,39331,1,8,0:0:0:0:
256,192,39530,1,0,0:0:0:0:
256,192,39730,1,0,0:0:0:0:
256,192,39929,1,8,0:0:0:0:
256,192,40129,1,0,0:0:0:0:
256,192,40329,1,8,0:0:0:0:
256,192,40529,1,8,0:0:0:0:
256,192,40728,1,0,0:0:0:0:
256,192,40928,1,8,0:0:0:0:
256,192,41127,1,0,0:0:0:0:
256,192,41327,1,8,0:0:0:0:
256,192,41526,1,8,0:0:0:0:
256,192,41726,1,0,0:0:0:0:
256,192,41925,1,8,0:0:0:0:
256,192,42125,1,0,0:0:0:0:
256,192,42324,1,8,0:0:0:0:
256,192,42524,1,0,0:0:0:0:
256,192,42723,1,8,0:0:0:0:
256,192,42923,1,0,0:0:0:0:
256,192,43122,1,8,0:0:0:0:
256,192,43322,1,8,0:0:0:0:
256,192,43621,1,8,0:0:0:0:
256,192,43721,1,0,0:0:0:0:
256,192,43920,1,8,0:0:0:0:
256,192,44120,1,0,0:0:0:0:
256,192,44320,1,8,0:0:0:0:
256,192,44519,1,0,0:0:0:0:
256,192,44719,1,8,0:0:0:0:
256,192,44918,1,4,0:0:0:0:
256,192,45118,1,8,0:0:0:0:
256,192,45317,1,8,0:0:0:0:
256,192,45517,1,8,0:0:0:0:
256,192,45617,1,8,0:0:0:0:
256,192,45716,1,0,0:0:0:0:
256,192,45916,1,8,0:0:0:0:
256,192,46115,1,0,0:0:0:0:
256,192,46315,1,8,0:0:0:0:
256,192,46415,1,8,0:0:0:0:
256,192,46515,1,0,0:0:0:0:
256,192,46714,1,8,0:0:0:0:
256,192,46914,1,0,0:0:0:0:
256,192,47113,1,8,0:0:0:0:
256,192,47313,1,0,0:0:0:0:
256,192,47512,1,8,0:0:0:0:
256,192,47712,1,8,0:0:0:0:
256,192,47911,1,8,0:0:0:0:
256,192,48011,1,8,0:0:0:0:
256,192,48111,1,0,0:0:0:0:
256,192,48310,1,8,0:0:0:0:
256,192,48510,1,0,0:0:0:0:
256,192,48710,1,8,0:0:0:0:
256,192,48909,1,0,0:0:0:0:
256,192,49109,1,8,0:0:0:0:
256,192,49308,1,0,0:0:0:0:
256,192,49508,1,8,0:0:0:0:
256,192,49707,1,8,0:0:0:0:
256,192,49807,1,8,0:0:0:0:
256,192,49907,1,0,0:0:0:0:
256,192,50007,1,0,0:0:0:0:
256,192,50106,1,8,0:0:0:0:
256,192,50206,1,8,0:0:0:0:
256,192,50306,1,8,0:0:0:0:
256,192,50406,1,8,0:0:0:0:
256,192,51304,1,4,0:0:0:0:
256,192,51503,1,8,0:0:0:0:
256,192,51703,1,0,0:0:0:0:
256,192,51902,1,8,0:0:0:0:
256,192,52002,1,8,0:0:0:0:
256,192,52102,1,0,0:0:0:0:
256,192,52301,1,8,0:0:0:0:
256,192,52501,1,8,0:0:0:0:
256,192,52701,1,8,0:0:0:0:
256,192,52800,1,8,0:0:0:0:
256,192,52900,1,0,0:0:0:0:
256,192,53100,1,8,0:0:0:0:
256,192,53299,1,0,0:0:0:0:
256,192,53499,1,8,0:0:0:0:
256,192,53898,1,8,0:0:0:0:
256,192,54097,1,8,0:0:0:0:
256,192,54297,1,0,0:0:0:0:
256,192,54397,1,0,0:0:0:0:
256,192,54496,1,8,0:0:0:0:
256,192,54696,1,8,0:0:0:0:
256,192,54896,1,0,0:0:0:0:
256,192,55095,1,8,0:0:0:0:
256,192,55195,1,8,0:0:0:0:
256,192,55295,1,0,0:0:0:0:
256,192,55494,1,8,0:0:0:0:
256,192,55694,1,8,0:0:0:0:
256,192,55894,1,8,0:0:0:0:
256,192,55993,1,8,0:0:0:0:
256,192,56093,1,0,0:0:0:0:
256,192,56292,1,8,0:0:0:0:
256,192,56492,1,0,0:0:0:0:
256,192,56692,1,8,0:0:0:0:
256,192,57091,1,8,0:0:0:0:
256,192,57290,1,8,0:0:0:0:
256,192,57490,1,0,0:0:0:0:
256,192,57589,1,0,0:0:0:0:
256,192,57689,1,8,0:0:0:0:
256,192,57889,1,8,0:0:0:0:
256,192,58089,1,0,0:0:0:0:
256,192,58288,1,8,0:0:0:0:
256,192,58687,1,8,0:0:0:0:
256,192,58787,1,0,0:0:0:0:
256,192,58887,1,0,0:0:0:0:
256,192,59087,1,8,0:0:0:0:
256,192,59286,1,8,0:0:0:0:
256,192,59486,1,0,0:0:0:0:
256,192,59685,1,0,0:0:0:0:
256,192,59885,1,8,0:0:0:0:
256,192,60284,1,8,0:0:0:0:
256,192,60483,1,0,0:0:0:0:
256,192,60683,1,8,0:0:0:0:
256,192,60782,1,8,0:0:0:0:
256,192,60882,1,0,0:0:0:0:
256,192,61082,1,8,0:0:0:0:
256,192,61282,1,0,0:0:0:0:
256,192,61481,1,8,0:0:0:0:
256,192,61580,1,0,0:0:0:0:
256,192,61681,1,8,0:0:0:0:
256,192,61880,1,0,0:0:0:0:
256,192,62080,1,0,0:0:0:0:
256,192,62280,1,8,0:0:0:0:
256,192,62679,1,8,0:0:0:0:
256,192,62878,1,0,0:0:0:0:
256,192,63078,1,8,0:0:0:0:
256,192,63477,1,0,0:0:0:0:
256,192,63676,1,8,0:0:0:0:
256,192,63876,1,8,0:0:0:0:
256,192,63975,1,8,0:0:0:0:
256,192,67268,1,12,0:0:0:0:
256,192,67667,1,8,0:0:0:0:
256,192,67966,1,0,0:0:0:0:
256,192,68066,1,8,0:0:0:0:
256,192,68265,1,8,0:0:0:0:
256,192,68465,1,0,0:0:0:0:
256,192,68664,1,8,0:0:0:0:
256,192,68764,1,8,0:0:0:0:
256,192,68864,1,0,0:0:0:0:
256,192,69063,1,8,0:0:0:0:
256,192,69163,1,0,0:0:0:0:
256,192,69263,1,8,0:0:0:0:
256,192,69463,1,8,0:0:0:0:
256,192,69562,1,8,0:0:0:0:
256,192,69662,1,0,0:0:0:0:
256,192,69862,1,8,0:0:0:0:
256,192,70061,1,0,0:0:0:0:
256,192,70261,1,8,0:0:0:0:
256,192,70460,1,0,0:0:0:0:
256,192,70660,1,8,0:0:0:0:
256,192,70760,1,0,0:0:0:0:
256,192,70859,1,8,0:0:0:0:
256,192,70959,1,8,0:0:0:0:
256,192,71059,1,0,0:0:0:0:
256,192,71159,1,0,0:0:0:0:
256,192,71258,1,8,0:0:0:0:
256,192,71458,1,8,0:0:0:0:
256,192,71658,1,0,0:0:0:0:
256,192,71857,1,8,0:0:0:0:
256,192,71957,1,8,0:0:0:0:
256,192,72057,1,0,0:0:0:0:
256,192,72156,1,8,0:0:0:0:
256,192,72256,1,0,0:0:0:0:
256,192,72456,1,8,0:0:0:0:
256,192,72655,1,0,0:0:0:0:
256,192,72755,1,8,0:0:0:0:
256,192,72855,1,0,0:0:0:0:
256,192,73054,1,0,0:0:0:0:
256,192,73254,1,8,0:0:0:0:
256,192,73454,1,8,0:0:0:0:
256,192,73553,1,8,0:0:0:0:
256,192,73653,1,0,0:0:0:0:
256,192,73853,1,8,0:0:0:0:
256,192,73952,1,8,0:0:0:0:
256,192,74052,1,8,0:0:0:0:
256,192,74152,1,0,0:0:0:0:
256,192,74252,1,0,0:0:0:0:
256,192,74351,1,0,0:0:0:0:
256,192,74451,1,8,0:0:0:0:
256,192,74651,1,8,0:0:0:0:
256,192,74850,1,0,0:0:0:0:
256,192,75050,1,8,0:0:0:0:
256,192,75150,1,8,0:0:0:0:
256,192,75249,1,0,0:0:0:0:
256,192,75349,1,8,0:0:0:0:
256,192,75449,1,0,0:0:0:0:
256,192,75649,1,8,0:0:0:0:
256,192,75848,1,8,0:0:0:0:
256,192,75948,1,0,0:0:0:0:
256,192,76048,1,8,0:0:0:0:
256,192,76247,1,0,0:0:0:0:
256,192,76347,1,8,0:0:0:0:
256,192,76447,1,0,0:0:0:0:
256,192,76646,1,8,0:0:0:0:
256,192,76846,1,4,0:0:0:0:
256,192,77045,1,8,0:0:0:0:
256,192,77245,1,0,0:0:0:0:
256,192,77444,1,8,0:0:0:0:
256,192,77644,1,8,0:0:0:0:
256,192,77844,1,0,0:0:0:0:
256,192,78043,1,8,0:0:0:0:
256,192,78243,1,8,0:0:0:0:
256,192,78342,1,8,0:0:0:0:
256,192,78442,1,0,0:0:0:0:
256,192,78542,1,8,0:0:0:0:
256,192,78642,1,0,0:0:0:0:
256,192,78742,1,0,0:0:0:0:
256,192,78841,1,8,0:0:0:0:
256,192,79041,1,0,0:0:0:0:
256,192,79240,1,8,0:0:0:0:
256,192,79440,1,8,0:0:0:0:
256,192,79639,1,0,0:0:0:0:
256,192,79839,1,8,0:0:0:0:
256,192,79939,1,8,0:0:0:0:
256,192,80039,1,0,0:0:0:0:
256,192,80138,1,8,0:0:0:0:
256,192,80238,1,8,0:0:0:0:
256,192,80338,1,0,0:0:0:0:
256,192,80438,1,8,0:0:0:0:
256,192,80637,1,8,0:0:0:0:
256,192,80837,1,8,0:0:0:0:
256,192,81036,1,0,0:0:0:0:
256,192,81136,1,8,0:0:0:0:
256,192,81236,1,0,0:0:0:0:
256,192,81435,1,8,0:0:0:0:
256,192,81635,1,8,0:0:0:0:
256,192,81735,1,8,0:0:0:0:
256,192,81835,1,0,0:0:0:0:
256,192,81934,1,0,0:0:0:0:
256,192,82034,1,8,0:0:0:0:
256,192,82234,1,8,0:0:0:0:
256,192,82333,1,0,0:0:0:0:
256,192,82433,1,8,0:0:0:0:
256,192,82633,1,8,0:0:0:0:
256,192,82832,1,0,0:0:0:0:
256,192,83032,1,8,0:0:0:0:
256,192,83231,1,8,0:0:0:0:
256,192,83331,1,0,0:0:0:0:
256,192,83431,1,8,0:0:0:0:
256,192,83531,1,8,0:0:0:0:
256,192,83630,1,0,0:0:0:0:
256,192,83830,1,0,0:0:0:0:
256,192,84030,1,8,0:0:0:0:
256,192,84229,1,0,0:0:0:0:
256,192,84429,1,8,0:0:0:0:
256,192,84628,1,8,0:0:0:0:
256,192,84728,1,0,0:0:0:0:
256,192,84828,1,8,0:0:0:0:
256,192,84927,1,8,0:0:0:0:
256,192,85027,1,8,0:0:0:0:
256,192,85227,1,8,0:0:0:0:
256,192,85426,1,8,0:0:0:0:
256,192,85626,1,8,0:0:0:0:
256,192,85825,1,0,0:0:0:0:
256,192,86025,1,0,0:0:0:0:
256,192,86225,1,8,0:0:0:0:
256,192,86624,1,0,0:0:0:0:
256,192,86823,1,8,0:0:0:0:
256,192,87023,1,0,0:0:0:0:
256,192,87422,1,8,0:0:0:0:
256,192,87522,1,8,0:0:0:0:
256,192,87621,1,0,0:0:0:0:
256,192,87821,1,8,0:0:0:0:
256,192,88220,1,8,0:0:0:0:
256,192,88420,1,0,0:0:0:0:
256,192,88619,1,8,0:0:0:0:
256,192,88719,1,0,0:0:0:0:
256,192,88819,1,8,0:0:0:0:
256,192,89018,1,0,0:0:0:0:
256,192,89218,1,8,0:0:0:0:
256,192,89417,1,8,0:0:0:0:
256,192,89816,1,8,0:0:0:0:
256,192,90016,1,0,0:0:0:0:
256,192,90216,1,8,0:0:0:0:
256,192,90615,1,8,0:0:0:0:
256,192,90814,1,8,0:0:0:0:
256,192,91014,1,8,0:0:0:0:
256,192,91413,1,8,0:0:0:0:
256,192,91513,1,0,0:0:0:0:
256,192,91612,1,8,0:0:0:0:
256,192,91712,1,8,0:0:0:0:
256,192,91812,1,0,0:0:0:0:
256,192,91912,1,0,0:0:0:0:
256,192,92011,1,8,0:0:0:0:
256,192,92211,1,0,0:0:0:0:
256,192,92411,1,8,0:0:0:0:
256,192,92610,1,8,0:0:0:0:
256,192,92810,1,0,0:0:0:0:
256,192,93009,1,8,0:0:0:0:
256,192,93209,1,8,0:0:0:0:
256,192,93408,1,0,0:0:0:0:
256,192,93608,1,8,0:0:0:0:
256,192,93807,1,0,0:0:0:0:
256,192,94007,1,0,0:0:0:0:
256,192,94206,1,8,0:0:0:0:
256,192,94406,1,0,0:0:0:0:
256,192,94606,1,8,0:0:0:0:
256,192,94806,1,8,0:0:0:0:
256,192,95005,1,0,0:0:0:0:
256,192,95205,1,8,0:0:0:0:
256,192,95404,1,0,0:0:0:0:
256,192,95604,1,8,0:0:0:0:
256,192,95803,1,8,0:0:0:0:
256,192,96003,1,0,0:0:0:0:
256,192,96202,1,8,0:0:0:0:
256,192,96402,1,0,0:0:0:0:
256,192,96601,1,8,0:0:0:0:
256,192,96801,1,0,0:0:0:0:
256,192,97000,1,8,0:0:0:0:
256,192,97200,1,0,0:0:0:0:
256,192,97399,1,8,0:0:0:0:
256,192,97599,1,8,0:0:0:0:
256,192,97898,1,8,0:0:0:0:
256,192,97998,1,0,0:0:0:0:
256,192,98197,1,8,0:0:0:0:
256,192,98397,1,0,0:0:0:0:
256,192,98597,1,8,0:0:0:0:
256,192,98796,1,0,0:0:0:0:
256,192,98996,1,8,0:0:0:0:
256,192,99195,1,4,0:0:0:0:
256,192,99395,1,8,0:0:0:0:
256,192,99594,1,8,0:0:0:0:
256,192,99794,1,8,0:0:0:0:
256,192,99894,1,8,0:0:0:0:
256,192,99993,1,0,0:0:0:0:
256,192,100193,1,8,0:0:0:0:
256,192,100392,1,0,0:0:0:0:
256,192,100592,1,8,0:0:0:0:
256,192,100692,1,8,0:0:0:0:
256,192,100792,1,0,0:0:0:0:
256,192,100991,1,8,0:0:0:0:
256,192,101191,1,0,0:0:0:0:
256,192,101390,1,8,0:0:0:0:
256,192,101590,1,0,0:0:0:0:
256,192,101789,1,8,0:0:0:0:
256,192,101989,1,8,0:0:0:0:
256,192,102188,1,8,0:0:0:0:
256,192,102288,1,8,0:0:0:0:
256,192,102388,1,0,0:0:0:0:
256,192,102587,1,8,0:0:0:0:
256,192,102787,1,0,0:0:0:0:
256,192,102987,1,8,0:0:0:0:
256,192,103186,1,0,0:0:0:0:
256,192,103386,1,8,0:0:0:0:
256,192,103585,1,0,0:0:0:0:
256,192,103785,1,8,0:0:0:0:
256,192,103984,1,8,0:0:0:0:
256,192,104084,1,8,0:0:0:0:
256,192,104184,1,0,0:0:0:0:
256,192,104284,1,0,0:0:0:0:
256,192,104383,1,8,0:0:0:0:
256,192,104483,1,8,0:0:0:0:
256,192,104583,1,8,0:0:0:0:
256,192,104683,1,8,0:0:0:0:
256,192,105581,1,4,0:0:0:0:
256,192,105780,1,8,0:0:0:0:
256,192,105980,1,0,0:0:0:0:
256,192,106179,1,8,0:0:0:0:
256,192,106279,1,8,0:0:0:0:
256,192,106379,1,0,0:0:0:0:
256,192,106578,1,8,0:0:0:0:
256,192,106778,1,8,0:0:0:0:
256,192,106978,1,8,0:0:0:0:
256,192,107077,1,8,0:0:0:0:
256,192,107177,1,0,0:0:0:0:
256,192,107377,1,8,0:0:0:0:
256,192,107576,1,0,0:0:0:0:
256,192,107776,1,8,0:0:0:0:
256,192,108175,1,8,0:0:0:0:
256,192,108374,1,8,0:0:0:0:
256,192,108574,1,0,0:0:0:0:
256,192,108674,1,0,0:0:0:0:
256,192,108773,1,8,0:0:0:0:
256,192,108973,1,8,0:0:0:0:
256,192,109173,1,0,0:0:0:0:
256,192,109372,1,8,0:0:0:0:
256,192,109472,1,8,0:0:0:0:
256,192,109572,1,0,0:0:0:0:
256,192,109771,1,8,0:0:0:0:
256,192,109971,1,8,0:0:0:0:
256,192,110171,1,8,0:0:0:0:
256,192,110270,1,8,0:0:0:0:
256,192,110370,1,0,0:0:0:0:
256,192,110569,1,8,0:0:0:0:
256,192,110769,1,0,0:0:0:0:
256,192,110969,1,8,0:0:0:0:
256,192,111368,1,8,0:0:0:0:
256,192,111567,1,8,0:0:0:0:
256,192,111767,1,0,0:0:0:0:
256,192,111866,1,0,0:0:0:0:
256,192,111966,1,8,0:0:0:0:
256,192,112166,1,8,0:0:0:0:
256,192,112366,1,0,0:0:0:0:
256,192,112565,1,8,0:0:0:0:
256,192,112964,1,8,0:0:0:0:
256,192,113064,1,0,0:0:0:0:
256,192,113164,1,0,0:0:0:0:
256,192,113364,1,8,0:0:0:0:
256,192,113563,1,8,0:0:0:0:
256,192,113763,1,0,0:0:0:0:
256,192,113962,1,0,0:0:0:0:
256,192,114162,1,8,0:0:0:0:
256,192,114561,1,8,0:0:0:0:
256,192,114760,1,0,0:0:0:0:
256,192,114960,1,8,0:0:0:0:
256,192,115059,1,8,0:0:0:0:
256,192,115159,1,0,0:0:0:0:
256,192,115359,1,8,0:0:0:0:
256,192,115559,1,0,0:0:0:0:
256,192,115758,1,8,0:0:0:0:
256,192,115857,1,0,0:0:0:0:
256,192,115958,1,8,0:0:0:0:
256,192,116157,1,0,0:0:0:0:
256,192,116357,1,0,0:0:0:0:
256,192,116557,1,8,0:0:0:0:
256,192,116956,1,8,0:0:0:0:
256,192,117155,1,0,0:0:0:0:
256,192,117355,1,8,0:0:0:0:
256,192,117754,1,0,0:0:0:0:
256,192,117953,1,8,0:0:0:0:
256,192,118153,1,8,0:0:0:0:
256,192,118252,1,8,0:0:0:0:
256,192,121544,1,0,0:0:0:0:
256,192,121644,1,8,0:0:0:0:
256,192,121844,1,0,0:0:0:0:
256,192,121944,1,8,0:0:0:0:
256,192,122143,1,0,0:0:0:0:
256,192,122243,1,0,0:0:0:0:
256,192,122343,1,8,0:0:0:0:
256,192,122542,1,0,0:0:0:0:
256,192,122642,1,8,0:0:0:0:
256,192,122941,1,8,0:0:0:0:
256,192,123141,1,8,0:0:0:0:
256,192,123340,1,0,0:0:0:0:
256,192,123540,1,8,0:0:0:0:
256,192,123739,1,8,0:0:0:0:
256,192,123939,1,8,0:0:0:0:
256,192,124139,1,0,0:0:0:0:
256,192,124238,1,8,0:0:0:0:
256,192,124438,1,8,0:0:0:0:
256,192,124538,1,0,0:0:0:0:
256,192,124737,1,12,0:0:0:0:
256,192,124937,1,0,0:0:0:0:
256,192,125037,1,8,0:0:0:0:
256,192,125336,1,0,0:0:0:0:
256,192,125436,1,0,0:0:0:0:
256,192,125535,1,8,0:0:0:0:
256,192,125735,1,0,0:0:0:0:
256,192,125835,1,8,0:0:0:0:
256,192,126134,1,0,0:0:0:0:
256,192,126234,1,0,0:0:0:0:
256,192,126334,1,8,0:0:0:0:
256,192,126633,1,8,0:0:0:0:
256,192,126932,1,0,0:0:0:0:
256,192,127032,1,0,0:0:0:0:
256,192,127132,1,8,0:0:0:0:
256,192,127331,1,0,0:0:0:0:
256,192,127431,1,0,0:0:0:0:
256,192,127730,1,0,0:0:0:0:
256,192,127930,1,4,0:0:0:0:
256,192,128130,1,8,0:0:0:0:
256,192,128329,1,8,0:0:0:0:
256,192,128629,1,0,0:0:0:0:
256,192,128729,1,8,0:0:0:0:
256,192,128929,1,0,0:0:0:0:
256,192,129028,1,8,0:0:0:0:
256,192,129427,1,8,0:0:0:0:
256,192,129526,1,0,0:0:0:0:
256,192,129726,1,0,0:0:0:0:
256,192,129925,1,8,0:0:0:0:
256,192,130125,1,8,0:0:0:0:
256,192,130325,1,8,0:0:0:0:
256,192,130524,1,0,0:0:0:0:
256,192,130624,1,8,0:0:0:0:
256,192,130823,1,8,0:0:0:0:
256,192,130923,1,0,0:0:0:0:
256,192,131123,1,12,0:0:0:0:
256,192,131322,1,0,0:0:0:0:
256,192,131422,1,8,0:0:0:0:
256,192,131721,1,0,0:0:0:0:
256,192,131821,1,0,0:0:0:0:
256,192,131921,1,8,0:0:0:0:
256,192,132121,1,0,0:0:0:0:
256,192,132220,1,8,0:0:0:0:
256,192,132520,1,0,0:0:0:0:
256,192,132619,1,0,0:0:0:0:
256,192,132719,1,8,0:0:0:0:
256,192,133018,1,8,0:0:0:0:
256,192,133318,1,0,0:0:0:0:
256,192,133517,1,8,0:0:0:0:
256,192,133717,1,0,0:0:0:0:
256,192,133817,1,8,0:0:0:0:
256,192,134016,1,0,0:0:0:0:
256,192,134116,1,8,0:0:0:0:
256,192,134216,1,0,0:0:0:0:
256,192,134316,1,0,0:0:0:0:
256,192,134515,1,8,0:0:0:0:
256,192,134715,1,0,0:0:0:0:
256,192,134914,1,8,0:0:0:0:
256,192,135114,1,8,0:0:0:0:
256,192,135313,1,0,0:0:0:0:
256,192,135413,1,8,0:0:0:0:
256,192,135812,1,8,0:0:0:0:
256,192,135912,1,0,0:0:0:0:
256,192,136012,1,8,0:0:0:0:
256,192,136111,1,8,0:0:0:0:
256,192,136211,1,0,0:0:0:0:
256,192,136311,1,8,0:0:0:0:
256,192,136411,1,8,0:0:0:0:
256,192,136511,1,0,0:0:0:0:
256,192,136610,1,0,0:0:0:0:
256,192,136710,1,8,0:0:0:0:
256,192,136910,1,0,0:0:0:0:
256,192,137009,1,8,0:0:0:0:
256,192,137309,1,8,0:0:0:0:
256,192,137508,1,4,0:0:0:0:
256,192,137708,1,8,0:0:0:0:
256,192,137907,1,8,0:0:0:0:
256,192,138107,1,8,0:0:0:0:
256,192,138207,1,0,0:0:0:0:
256,192,138307,1,8,0:0:0:0:
256,192,138506,1,8,0:0:0:0:
256,192,138606,1,0,0:0:0:0:
256,192,138905,1,8,0:0:0:0:
256,192,139005,1,0,0:0:0:0:
256,192,139105,1,8,0:0:0:0:
256,192,139204,1,0,0:0:0:0:
256,192,139304,1,8,0:0:0:0:
256,192,139404,1,0,0:0:0:0:
256,192,139504,1,8,0:0:0:0:
256,192,139604,1,0,0:0:0:0:
256,192,139703,1,8,0:0:0:0:
256,192,139803,1,8,0:0:0:0:
256,192,139903,1,8,0:0:0:0:
256,192,140102,1,0,0:0:0:0:
256,192,140202,1,8,0:0:0:0:
256,192,140502,1,8,0:0:0:0:
256,192,140701,1,4,0:0:0:0:
256,192,140901,1,8,0:0:0:0:
256,192,141000,1,0,0:0:0:0:
256,192,141100,1,8,0:0:0:0:
256,192,141499,1,8,0:0:0:0:
256,192,141599,1,0,0:0:0:0:
256,192,141699,1,8,0:0:0:0:
256,192,141898,1,8,0:0:0:0:
256,192,142098,1,0,0:0:0:0:
256,192,142297,1,8,0:0:0:0:
256,192,142397,1,8,0:0:0:0:
256,192,142497,1,0,0:0:0:0:
256,192,142597,1,0,0:0:0:0:
256,192,142697,1,8,0:0:0:0:
256,192,142996,1,0,0:0:0:0:
256,192,143096,1,8,0:0:0:0:
256,192,143295,1,0,0:0:0:0:
256,192,143395,1,8,0:0:0:0:
256,192,143495,1,0,0:0:0:0:
256,192,143694,1,8,0:0:0:0:
256,192,143894,1,0,0:0:0:0:
256,192,144093,1,8,0:0:0:0:
256,192,144193,1,0,0:0:0:0:
256,192,144293,1,8,0:0:0:0:
256,192,144393,1,8,0:0:0:0:
256,192,144492,1,0,0:0:0:0:
256,192,144592,1,0,0:0:0:0:
256,192,144692,1,8,0:0:0:0:
256,192,144892,1,0,0:0:0:0:
256,192,145091,1,8,0:0:0:0:
256,192,145291,1,0,0:0:0:0:
256,192,145690,1,8,0:0:0:0:
256,192,145790,1,0,0:0:0:0:
256,192,145889,1,8,0:0:0:0:
256,192,146089,1,8,0:0:0:0:
256,192,146288,1,8,0:0:0:0:
256,192,146388,1,8,0:0:0:0:
256,192,146488,1,0,0:0:0:0:
256,192,146588,1,0,0:0:0:0:
256,192,146688,1,8,0:0:0:0:
256,192,146887,1,8,0:0:0:0:
256,192,147087,1,4,0:0:0:0:
256,192,147386,1,0,0:0:0:0:
256,192,147486,1,8,0:0:0:0:
256,192,147685,1,0,0:0:0:0:
256,192,147885,1,8,0:0:0:0:
256,192,148084,1,8,0:0:0:0:
256,192,148284,1,0,0:0:0:0:
256,192,148483,1,0,0:0:0:0:
256,192,148683,1,8,0:0:0:0:
256,192,148982,1,0,0:0:0:0:
256,192,149082,1,8,0:0:0:0:
256,192,149282,1,8,0:0:0:0:
256,192,149481,1,8,0:0:0:0:
256,192,149681,1,0,0:0:0:0:
256,192,149880,1,8,0:0:0:0:
256,192,150080,1,0,0:0:0:0:
256,192,150279,1,8,0:0:0:0:
256,192,150579,1,0,0:0:0:0:
256,192,150678,1,8,0:0:0:0:
256,192,150878,1,0,0:0:0:0:
256,192,151078,1,8,0:0:0:0:
256,192,151277,1,8,0:0:0:0:
256,192,151477,1,0,0:0:0:0:
256,192,151676,1,0,0:0:0:0:
256,192,151876,1,8,0:0:0:0:
256,192,152175,1,0,0:0:0:0:
256,192,152275,1,8,0:0:0:0:
256,192,152474,1,8,0:0:0:0:
256,192,152674,1,0,0:0:0:0:
256,192,152873,1,8,0:0:0:0:
256,192,153073,1,0,0:0:0:0:
256,192,153273,1,8,0:0:0:0:
256,192,153372,1,8,0:0:0:0:
256,192,153472,1,0,0:0:0:0:
256,192,153672,1,8,0:0:0:0:
256,192,153771,1,0,0:0:0:0:
256,192,153871,1,0,0:0:0:0:
256,192,154071,1,8,0:0:0:0:
256,192,154270,1,0,0:0:0:0:
256,192,154470,1,8,0:0:0:0:
256,192,154570,1,0,0:0:0:0:
256,192,154669,1,0,0:0:0:0:
256,192,154869,1,8,0:0:0:0:
256,192,155069,1,0,0:0:0:0:
256,192,155268,1,8,0:0:0:0:
256,192,155368,1,0,0:0:0:0:
256,192,155468,1,0,0:0:0:0:
256,192,155667,1,8,0:0:0:0:
256,192,155867,1,0,0:0:0:0:
256,192,156066,1,8,0:0:0:0:
256,192,156266,1,8,0:0:0:0:
256,192,156465,1,8,0:0:0:0:
256,192,156565,1,8,0:0:0:0:
256,192,156665,1,0,0:0:0:0:
256,192,156864,1,0,0:0:0:0:
256,192,156964,1,0,0:0:0:0:
256,192,157064,1,8,0:0:0:0:
256,192,157264,1,0,0:0:0:0:
256,192,157463,1,8,0:0:0:0:
256,192,157663,1,0,0:0:0:0:
256,192,157862,1,8,0:0:0:0:
256,192,158062,1,0,0:0:0:0:
256,192,158261,1,8,0:0:0:0:
256,192,158361,1,8,0:0:0:0:
256,192,158461,1,0,0:0:0:0:
256,192,158561,1,0,0:0:0:0:
256,192,158660,1,8,0:0:0:0:
256,192,158760,1,8,0:0:0:0:
256,192,158860,1,0,0:0:0:0:
256,192,158960,1,0,0:0:0:0:
256,192,159059,1,8,0:0:0:0:
256,192,159159,1,8,0:0:0:0:
256,192,159259,1,8,0:0:0:0:
256,192,159359,1,8,0:0:0:0:
256,192,159459,1,8,0:0:0:0:
256,192,159558,1,8,0:0:0:0:
256,192,159658,1,8,0:0:0:0:
256,192,159758,1,8,0:0:0:0:
256,192,159858,1,4,0:0:0:0:
256,192,160057,1,8,0:0:0:0:
256,192,160257,1,0,0:0:0:0:
256,192,160456,1,8,0:0:0:0:
256,192,160556,1,8,0:0:0:0:
256,192,160656,1,0,0:0:0:0:
256,192,160855,1,8,0:0:0:0:
256,192,161055,1,8,0:0:0:0:
256,192,161255,1,8,0:0:0:0:
256,192,161354,1,8,0:0:0:0:
256,192,161454,1,0,0:0:0:0:
256,192,161654,1,8,0:0:0:0:
256,192,161853,1,0,0:0:0:0:
256,192,162053,1,8,0:0:0:0:
256,192,162452,1,8,0:0:0:0:
256,192,162651,1,8,0:0:0:0:
256,192,162851,1,0,0:0:0:0:
256,192,162951,1,0,0:0:0:0:
256,192,163050,1,8,0:0:0:0:
256,192,163250,1,8,0:0:0:0:
256,192,163450,1,0,0:0:0:0:
256,192,163649,1,8,0:0:0:0:
256,192,163749,1,8,0:0:0:0:
256,192,163849,1,0,0:0:0:0:
256,192,164048,1,8,0:0:0:0:
256,192,164248,1,8,0:0:0:0:
256,192,164448,1,8,0:0:0:0:
256,192,164547,1,8,0:0:0:0:
256,192,164647,1,0,0:0:0:0:
256,192,164846,1,8,0:0:0:0:
256,192,165046,1,0,0:0:0:0:
256,192,165246,1,8,0:0:0:0:
256,192,165645,1,8,0:0:0:0:
256,192,165844,1,8,0:0:0:0:
256,192,166044,1,0,0:0:0:0:
256,192,166143,1,0,0:0:0:0:
256,192,166243,1,8,0:0:0:0:
256,192,166443,1,8,0:0:0:0:
256,192,166643,1,0,0:0:0:0:
256,192,166842,1,8,0:0:0:0:
256,192,167241,1,8,0:0:0:0:
256,192,167341,1,0,0:0:0:0:
256,192,167441,1,0,0:0:0:0:
256,192,167641,1,8,0:0:0:0:
256,192,167840,1,8,0:0:0:0:
256,192,168040,1,0,0:0:0:0:
256,192,168239,1,0,0:0:0:0:
256,192,168439,1,8,0:0:0:0:
256,192,168838,1,8,0:0:0:0:
256,192,169037,1,0,0:0:0:0:
256,192,169237,1,8,0:0:0:0:
256,192,169336,1,8,0:0:0:0:
256,192,169436,1,0,0:0:0:0:
256,192,169636,1,8,0:0:0:0:
256,192,169836,1,0,0:0:0:0:
256,192,170035,1,8,0:0:0:0:
256,192,170134,1,0,0:0:0:0:
256,192,170235,1,8,0:0:0:0:
256,192,170434,1,0,0:0:0:0:
256,192,170634,1,0,0:0:0:0:
256,192,170834,1,8,0:0:0:0:
256,192,171233,1,8,0:0:0:0:
256,192,171432,1,0,0:0:0:0:
256,192,171632,1,8,0:0:0:0:
256,192,172030,1,8,0:0:0:0:
256,192,172230,1,8,0:0:0:0:
256,192,172429,1,8,0:0:0:0:
256,192,172529,1,8,0:0:0:0:
256,192,172629,1,0,0:0:0:0:
256,192,172828,1,8,0:0:0:0:
256,192,173028,1,0,0:0:0:0:
256,192,173227,1,8,0:0:0:0:
256,192,173327,1,8,0:0:0:0:
256,192,173427,1,0,0:0:0:0:
256,192,173626,1,8,0:0:0:0:
256,192,173826,1,8,0:0:0:0:
256,192,174026,1,8,0:0:0:0:
256,192,174125,1,8,0:0:0:0:
256,192,174225,1,0,0:0:0:0:
256,192,174425,1,8,0:0:0:0:
256,192,174624,1,0,0:0:0:0:
256,192,174824,1,8,0:0:0:0:
256,192,175223,1,8,0:0:0:0:
256,192,175422,1,8,0:0:0:0:
256,192,175622,1,0,0:0:0:0:
256,192,175722,1,0,0:0:0:0:
256,192,175821,1,8,0:0:0:0:
256,192,176021,1,8,0:0:0:0:
256,192,176221,1,0,0:0:0:0:
256,192,176420,1,8,0:0:0:0:
256,192,176520,1,8,0:0:0:0:
256,192,176620,1,0,0:0:0:0:
256,192,176819,1,8,0:0:0:0:
256,192,177019,1,8,0:0:0:0:
256,192,177219,1,8,0:0:0:0:
256,192,177318,1,8,0:0:0:0:
256,192,177418,1,0,0:0:0:0:
256,192,177617,1,8,0:0:0:0:
256,192,177817,1,0,0:0:0:0:
256,192,178017,1,8,0:0:0:0:
256,192,178416,1,8,0:0:0:0:
256,192,178615,1,8,0:0:0:0:
256,192,178815,1,0,0:0:0:0:
256,192,178914,1,0,0:0:0:0:
256,192,179014,1,8,0:0:0:0:
256,192,179214,1,8,0:0:0:0:
256,192,179414,1,0,0:0:0:0:
256,192,179613,1,8,0:0:0:0:
256,192,180012,1,8,0:0:0:0:
256,192,180112,1,0,0:0:0:0:
256,192,180212,1,0,0:0:0:0:
256,192,180412,1,8,0:0:0:0:
256,192,180611,1,8,0:0:0:0:
256,192,180811,1,0,0:0:0:0:
256,192,181010,1,0,0:0:0:0:
256,192,181210,1,8,0:0:0:0:
256,192,181609,1,8,0:0:0:0:
256,192,181808,1,0,0:0:0:0:
256,192,182008,1,8,0:0:0:0:
256,192,182107,1,8,0:0:0:0:
256,192,182207,1,0,0:0:0:0:
256,192,182407,1,8,0:0:0:0:
256,192,182607,1,0,0:0:0:0:
256,192,182806,1,8,0:0:0:0:
256,192,182905,1,0,0:0:0:0:
256,192,183006,1,8,0:0:0:0:
256,192,183205,1,0,0:0:0:0:
256,192,183405,1,8,0:0:0:0:
256,192,183605,1,8,0:0:0:0:
256,192,183803,1,0,0:0:0:0:
256,192,184003,1,8,0:0:0:0:
256,192,184103,1,8,0:0:0:0:
256,192,184203,1,0,0:0:0:0:
256,192,184403,1,8,0:0:0:0:
256,192,184602,1,0,0:0:0:0:
256,192,184801,1,8,0:0:0:0:
256,192,185001,1,8,0:0:0:0:
256,192,185200,1,8,0:0:0:0:
256,192,185400,1,4,0:0:0:0:
256,192,185599,1,0,0:0:0:0:
256,192,185799,1,8,0:0:0:0:
256,192,185998,1,0,0:0:0:0:
256,192,186198,1,0,0:0:0:0:
256,192,186397,1,0,0:0:0:0:
256,192,186597,1,8,0:0:0:0:
256,192,186796,1,8,0:0:0:0:
256,192,186896,1,8,0:0:0:0:
256,192,186996,1,0,0:0:0:0:
256,192,187195,1,0,0:0:0:0:
256,192,187395,1,8,0:0:0:0:
256,192,187595,1,0,0:0:0:0:
256,192,187794,1,0,0:0:0:0:
256,192,187994,1,0,0:0:0:0:
256,192,188193,1,8,0:0:0:0:
256,192,188393,1,0,0:0:0:0:
256,192,188592,1,0,0:0:0:0:
256,192,188791,1,0,0:0:0:0:
256,192,188991,1,8,0:0:0:0:
256,192,189190,1,0,0:0:0:0:
256,192,189390,1,0,0:0:0:0:
256,192,189589,1,0,0:0:0:0:
256,192,189789,1,8,0:0:0:0:
256,192,189988,1,8,0:0:0:0:
256,192,190088,1,8,0:0:0:0:
256,192,190188,1,0,0:0:0:0:
256,192,190387,1,0,0:0:0:0:
256,192,190587,1,8,0:0:0:0:
256,192,190787,1,0,0:0:0:0:
256,192,190986,1,0,0:0:0:0:
256,192,191186,1,0,0:0:0:0:
256,192,191385,1,8,0:0:0:0:
256,192,191585,1,0,0:0:0:0:
256,192,191785,1,0,0:0:0:0:
256,192,191984,1,0,0:0:0:0:
256,192,192184,1,8,0:0:0:0:
256,192,192383,1,0,0:0:0:0:
256,192,192583,1,0,0:0:0:0:
256,192,192782,1,0,0:0:0:0:
256,192,192982,1,8,0:0:0:0:
256,192,193181,1,8,0:0:0:0:
256,192,193281,1,8,0:0:0:0:
256,192,193381,1,0,0:0:0:0:
256,192,193580,1,0,0:0:0:0:
256,192,193780,1,8,0:0:0:0:
256,192,193980,1,0,0:0:0:0:
256,192,194179,1,0,0:0:0:0:
256,192,194379,1,0,0:0:0:0:
256,192,194578,1,8,0:0:0:0:
256,192,194778,1,0,0:0:0:0:
256,192,194977,1,0,0:0:0:0:
256,192,195176,1,0,0:0:0:0:
256,192,195376,1,8,0:0:0:0:
256,192,195575,1,0,0:0:0:0:
256,192,195775,1,0,0:0:0:0:
256,192,195974,1,0,0:0:0:0:
256,192,196174,1,8,0:0:0:0:
256,192,196373,1,8,0:0:0:0:
256,192,196473,1,8,0:0:0:0:
256,192,196573,1,0,0:0:0:0:
256,192,196772,1,0,0:0:0:0:
256,192,196972,1,8,0:0:0:0:
256,192,197172,1,0,0:0:0:0:
256,192,197371,1,0,0:0:0:0:
256,192,197571,1,0,0:0:0:0:
256,192,197770,1,8,0:0:0:0:
256,192,197970,1,8,0:0:0:0:
256,192,198070,1,8,0:0:0:0:
