osu file format v14

[General]
AudioFilename: audio.mp3
AudioLeadIn: 0
PreviewTime: 66213
Countdown: 1
SampleSet: Soft
StackLeniency: 0.5
Mode: 0
LetterboxInBreaks: 0
WidescreenStoryboard: 1

[Editor]
DistanceSpacing: 1.3
BeatDivisor: 4
GridSize: 32
TimelineZoom: 2

[Metadata]
Title:Sunroad (feat. Audioscribe)
TitleUnicode:Sunroad (feat. Audioscribe)
Artist:Flite & BoxPlot
ArtistUnicode:Flite & BoxPlot
Creator:JayBone
Version:Hard
Source:
Tags:drum and n bass dnb liquicity records
BeatmapID:2033899
BeatmapSetID:940721

[Difficulty]
HPDrainRate:4
CircleSize:3.7
OverallDifficulty:6
ApproachRate:7.7
SliderMultiplier:1.3
SliderTickRate:1

[Events]
//Background and Video events
0,0,"bg thing for this song yes.jpg",0,0
//Break Periods
//Storyboard Layer 0 (Background)
//Storyboard Layer 1 (Fail)
//Storyboard Layer 2 (Pass)
//Storyboard Layer 3 (Foreground)
//Storyboard Sound Samples

[TimingPoints]
97,344.827586206897,4,2,1,40,1,0
97,-166.666666666667,4,2,1,40,0,0
11131,-111.111111111111,4,2,1,40,0,0
22165,-100,4,2,1,40,0,0
44234,-125,4,2,1,40,0,0
55269,-111.111111111111,4,2,1,40,0,0
60786,-111.111111111111,4,2,1,40,0,0
65614,-166.666666666666,4,2,1,40,0,0
66303,-90.9090909090909,4,2,1,40,0,1
109752,-142.857142857143,4,2,1,40,0,0
110441,-90.9090909090909,4,2,1,40,0,1
132510,-100,4,2,1,40,0,0

[Colours]
Combo1 : 89,255,89
Combo2 : 255,155,55
Combo3 : 138,255,255
Combo4 : 202,153,255

[HitObjects]
38,80,19407,6,0,P|91:57|144:77,1,116.999996429443
179,145,19924,1,0,0:0:0:0:
179,145,20097,2,0,P|201:197|181:250,1,116.999996429443
121,297,20614,1,0,0:0:0:0:
121,297,20786,2,0,L|237:286,1,116.999996429443
304,250,21303,1,0,0:0:0:0:
304,250,21476,2,0,L|293:133,1,116.999996429443
257,67,21993,1,0,0:0:0:0:
180,65,22165,6,0,P|149:72|123:91,1,65
51,135,22510,2,0,P|41:165|44:198,1,65
89,284,22855,2,0,P|150:299|190:350,1,130
282,384,23372,2,0,P|321:333|383:318,1,130
467,331,23890,1,0,0:0:0:0:
372,161,24234,2,0,B|308:149|308:149|246:171,1,130
238,256,24752,1,0,0:0:0:0:
319,281,24925,6,0,L|383:275,1,65
450,204,25269,2,0,L|444:139,1,65
406,49,25614,2,0,P|350:81|286:81,1,130
205,27,26131,2,0,L|140:33,1,65
75,87,26476,1,0,0:0:0:0:
75,87,26648,1,0,0:0:0:0:
244,184,26993,2,0,P|250:239|194:230,1,130
166,150,27510,1,0,0:0:0:0:
235,100,27683,6,0,P|266:101|295:115,1,65
354,177,28028,2,0,P|382:191|415:193,1,65
488,128,28372,2,0,L|499:257,1,130
426,322,28890,2,0,L|414:192,1,130
406,108,29407,1,0,0:0:0:0:
263,240,29752,2,0,B|199:252|199:252|137:230,1,130
57,202,30269,1,0,0:0:0:0:
41,119,30441,6,0,P|63:97|95:86,1,65
171,122,30786,2,0,P|201:111|224:89,1,65
182,0,31131,2,0,L|311:11,1,130
399,54,31648,2,0,P|421:77|431:107,1,65
415,191,31993,1,0,0:0:0:0:
415,191,32165,1,0,0:0:0:0:
238,106,32510,2,0,P|177:121|137:172,1,130
162,253,33028,1,0,0:0:0:0:
229,202,33200,6,0,L|293:195,1,65
358,141,33545,2,0,L|351:76,1,65
265,28,33890,2,0,P|225:78|163:94,1,130
83,38,34407,2,0,P|65:99|89:158,1,130
172,178,34924,1,0,0:0:0:0:
134,369,35269,2,0,B|70:381|70:381|8:359,1,130
0,274,35787,1,0,0:0:0:0:
81,249,35959,6,0,P|112:240|144:245,1,65
219,281,36303,2,0,P|250:289|282:284,1,65
371,243,36648,2,0,L|382:372,1,130
287,349,37165,2,0,L|281:284,1,65
297,201,37510,1,0,0:0:0:0:
297,201,37683,1,0,0:0:0:0:
120,283,38028,2,0,P|114:338|170:329,1,130
198,249,38545,1,0,0:0:0:0:
129,199,38717,6,0,L|64:194,1,65
12,126,39062,2,0,L|16:61,1,65
113,68,39407,2,0,L|242:78,1,130
299,158,39924,2,0,L|169:168,1,130
87,149,40441,1,0,0:0:0:0:
164,299,40786,2,0,B|226:318|226:318|290:304,1,130
373,286,41303,1,0,0:0:0:0:
399,205,41475,6,0,P|402:174|391:142,1,65
322,93,41821,2,0,P|291:89|259:100,1,65
275,196,42165,2,0,P|220:229|156:223,1,130
91,149,42683,2,0,L|96:84,1,65
138,10,43028,1,0,0:0:0:0:
138,10,43200,1,0,0:0:0:0:
10,157,43545,2,0,L|-1:286,1,130
49,354,44062,1,0,0:0:0:0:
132,343,44234,6,0,P|170:310|184:261,1,104
116,143,44924,2,0,P|129:93|168:60,1,104
300,91,45614,2,0,L|318:193,1,104
449,163,46303,2,0,L|430:265,1,104
336,363,46993,6,0,P|286:376|238:359,1,104
187,299,47510,1,0,0:0:0:0:
187,299,47683,2,0,P|173:249|190:201,1,104
251,150,48199,1,0,0:0:0:0:
251,150,48372,2,0,P|264:100|247:52,1,104
187,1,48890,1,0,0:0:0:0:
187,1,49062,2,0,P|137:-12|89:4,1,104
39,64,49579,1,0,0:0:0:0:
39,64,49752,6,0,L|57:166,1,104
191,180,50441,2,0,L|172:282,1,104
39,300,51131,1,0,0:0:0:0:
56,166,51476,2,0,P|62:140|63:114,2,52
163,247,52165,2,0,P|188:252|214:253,1,52
288,227,52510,6,0,L|391:236,1,104
456,191,53028,1,0,0:0:0:0:
456,191,53200,2,0,L|465:87,1,104
420,23,53718,1,0,0:0:0:0:
420,23,53890,2,0,L|316:13,1,104
252,59,54407,1,0,0:0:0:0:
252,59,54579,2,0,L|242:162,1,104
290,307,55269,5,0,0:0:0:0:
142,276,55614,2,0,B|115:225|115:225|120:166,2,116.999996429443
290,307,56648,1,0,0:0:0:0:
321,159,56993,2,0,P|321:129|317:100,1,58.4999982147217
272,38,57338,1,0,0:0:0:0:
138,111,57683,2,0,P|137:140|141:169,1,58.4999982147217
187,232,58028,2,0,P|237:260|294:257,1,116.999996429443
274,106,58717,2,0,P|223:77|166:80,1,116.999996429443
79,206,59407,2,0,P|129:234|186:231,1,116.999996429443
166,80,60097,2,0,P|115:51|58:54,1,116.999996429443
0,195,60786,6,0,L|10:311,1,116.999996429443
144,384,61476,1,0,0:0:0:0:
217,251,61821,2,0,L|211:192,1,58.4999982147217
270,144,62165,2,0,L|275:85,1,58.4999982147217
217,37,62510,1,0,0:0:0:0:
366,10,62855,1,0,0:0:0:0:
393,159,63200,2,0,P|388:187|379:215,1,58.4999982147217
320,263,63545,2,0,L|203:273,1,116.999996429443
63,214,64234,2,0,L|57:155,2,58.4999982147217
95,283,64752,1,0,0:0:0:0:
95,283,64924,2,0,P|124:283|153:279,1,58.4999982147217
201,220,65269,2,0,P|229:215|259:216,1,58.4999982147217
314,266,65614,6,0,B|360:257|391:264|391:264|383:235|395:211,1,116.999996429443
428,140,66303,5,0,0:0:0:0:
