osu file format v14

[General]
AudioFilename: audio.mp3
AudioLeadIn: 0
PreviewTime: 215606
Countdown: 0
SampleSet: Soft
StackLeniency: 0.6
Mode: 0
LetterboxInBreaks: 0
WidescreenStoryboard: 0

[Editor]
Bookmarks: 28871,29687,59075,117851,256626
DistanceSpacing: 4
BeatDivisor: 4
GridSize: 4
TimelineZoom: 3.199999

[Metadata]
Title:Zov mayaka
TitleUnicode:Зов маяка
Artist:Fleur
ArtistUnicode:Flëur
Creator:smozit
Version:Insane
Source:
Tags:Тысяча светлых ангелов russian rock piano starry night The Great Wave off Kanagawa Mirash schoolboy Komore Dystonia
BeatmapID:2230711
BeatmapSetID:1065266

[Difficulty]
HPDrainRate:6
CircleSize:4
OverallDifficulty:8.5
ApproachRate:9
SliderMultiplier:1.8
SliderTickRate:1

[Events]
//Background and Video events
0,0,"crin.jpg",0,0
//Break Periods
//Storyboard Layer 0 (Background)
//Storyboard Layer 1 (Fail)
//Storyboard Layer 2 (Pass)
//Storyboard Layer 3 (Foreground)
//Storyboard Layer 4 (Overlay)
//Storyboard Sound Samples

[TimingPoints]
51,408.163265306122,3,2,1,40,1,0
300,408.163265306122,3,2,1,40,1,0
300,-133.333333333333,3,2,1,40,0,0
10095,-133.333333333333,3,1,1,40,0,0
19891,-133.333333333333,3,1,1,40,0,0
28871,-133.333333333333,3,1,1,40,0,0
58259,-100,3,2,1,50,0,0
59075,-100,3,2,1,60,0,1
78667,-100,3,2,1,50,0,0
79891,-76.9230769230769,3,2,1,50,0,0
80708,-100,3,2,1,50,0,0
107238,-100,3,1,1,50,0,0
117034,-100,3,2,1,50,0,0
117851,-76.9230769230769,3,2,1,60,0,1
137238,-76.9230769230769,3,2,1,60,0,0
137442,-76.9230769230769,3,2,1,60,0,1
157034,-100,3,2,1,40,0,0
166014,-100,3,1,1,50,0,0
175810,-100,3,2,1,50,0,0
176626,-76.9230769230769,3,2,1,60,0,1
196218,-100,3,2,1,50,0,0
217034,-71.4285714285714,3,2,1,70,0,1
235402,612.244897959184,4,1,1,40,1,0
235402,-100,3,1,1,40,0,0
236014,-100,3,1,1,30,0,0
242136,-100,3,1,1,30,0,0
245197,-500,3,1,1,30,0,0
245350,-500,3,1,1,30,0,0
245810,-500,3,1,1,30,0,0
246422,-500,3,1,1,30,0,0
246728,-500,3,1,1,30,0,0
247034,-500,3,1,1,30,0,0
247340,-500,3,1,1,5,0,0
247646,-500,3,1,1,30,0,0
250095,-500,3,1,1,30,0,0
250708,-500,3,1,1,30,0,0
251320,-500,3,1,1,30,0,0
251626,-500,3,1,1,30,0,0
251932,-500,3,1,1,5,0,0
252238,-500,3,1,1,30,0,0
254993,-500,3,1,1,30,0,0
255606,-500,3,1,1,30,0,0
255912,-500,3,1,1,30,0,0
256218,-500,3,1,1,30,0,0
256524,-100,3,1,1,5,0,0
256626,-100,3,2,1,5,0,0

[Colours]
Combo1 : 186,255,117
Combo2 : 106,181,255
Combo3 : 151,151,170
Combo4 : 245,239,118

[HitObjects]
345,357,51,5,2,2:0:0:0:
399,300,300,2,0,P|390:236|381:146,1,135.000005149842,2|2,2:0|2:0,0:0:0:0:
396,89,912,1,2,2:0:0:0:
396,89,1320,5,2,2:0:0:0:
320,73,1524,1,2,2:0:0:0:
306,151,1728,1,2,2:0:0:0:
382,166,1932,1,2,2:0:0:0:
304,228,2136,6,0,B|265:231|239:207|251:199|205:169|168:188,1,135.000005149842,2|2,2:0|2:0,0:0:0:0:
93,163,2749,2,0,P|108:231|120:305,1,135.000005149842,2|2,2:0|2:0,0:0:0:0:
52,346,3361,1,0,0:0:0:0:
50,336,3565,1,0,0:0:0:0:
123,375,3769,1,0,0:0:0:0:
329,384,3973,6,0,P|326:344|340:239,1,135.000005149842,0|0,0:0|0:0,0:0:0:0:
382,176,4585,1,0,0:0:0:0:
376,104,4789,1,0,0:0:0:0:
370,33,4993,1,2,2:0:0:0:
479,226,5198,6,0,P|454:176|372:184,1,135.000005149842,2|0,2:0|0:0,0:0:0:0:
336,250,5810,2,0,P|268:237|200:221,1,135.000005149842,2|0,2:0|0:0,0:0:0:0:
99,298,6422,1,2,2:0:0:0:
113,207,6626,1,2,2:0:0:0:
203,222,6830,1,2,2:0:0:0:
189,312,7034,2,0,P|185:282|180:219,1,67.5000025749208,2|0,2:0|0:0,0:0:0:0:
277,201,7442,1,2,2:0:0:0:
389,285,7647,6,0,P|381:211|377:130,1,135.000005149842,2|2,2:0|2:0,0:0:0:0:
447,104,8259,1,0,0:0:0:0:
379,70,8463,1,0,0:0:0:0:
311,104,8667,1,0,0:0:0:0:
176,6,8871,6,0,P|188:71|200:138,1,135.000005149842,0|0,0:0|0:0,0:0:0:0:
167,214,9483,1,0,0:0:0:0:
118,147,9687,1,0,0:0:0:0:
200,138,9891,1,0,0:0:0:0:
36,325,10096,6,0,P|72:326|103:332,1,67.5000025749208,0|0,0:0|0:0,0:0:0:0:
191,365,10504,1,8,0:0:0:0:
323,283,10708,2,0,P|289:289|256:290,1,67.5000025749208,0|8,0:0|0:0,0:0:0:0:
400,348,11116,1,0,0:0:0:0:
501,208,11320,6,0,P|493:146|488:114,1,67.5000025749208,0|0,0:0|0:0,0:0:0:0:
428,66,11728,1,8,0:0:0:0:
340,182,11932,2,0,P|348:120|353:88,1,67.5000025749208,0|8,0:0|0:0,0:0:0:0:
270,40,12340,1,0,0:0:0:0:
78,202,12544,6,0,P|124:186|182:261,1,135.000005149842,0|8,0:0|0:0,0:0:0:0:
125,359,13157,1,0,0:0:0:0:
63,295,13361,1,8,0:0:0:0:
112,371,13565,1,0,0:0:0:0:
261,317,13769,6,0,P|326:311|411:303,1,135.000005149842,0|8,0:0|0:0,0:0:0:0:
487,248,14381,1,0,0:0:0:0:
455,158,14585,1,8,0:0:0:0:
469,258,14789,1,0,0:0:0:0:
487,41,14993,6,0,P|457:63|414:73,1,67.5000025749208,0|0,0:0|0:0,0:0:0:0:
355,20,15402,1,8,0:0:0:0:
252,72,15606,2,0,P|283:82|310:102,1,67.5000025749208,0|8,0:0|0:0,0:0:0:0:
186,9,16014,1,0,0:0:0:0:
66,157,16218,5,0,0:0:0:0:
80,247,16422,1,0,0:0:0:0:
170,233,16626,1,8,0:0:0:0:
156,143,16830,2,0,P|154:164|153:210,1,67.5000025749208,0|8,0:0|0:0,0:0:0:0:
209,310,17238,1,0,0:0:0:0:
444,354,17442,6,0,P|377:354|332:274,1,135.000005149842,0|8,0:0|0:0,0:0:0:0:
393,179,18055,1,0,0:0:0:0:
411,276,18259,1,8,0:0:0:0:
384,191,18463,1,0,0:0:0:0:
471,67,18667,6,0,P|380:45|326:37,1,135.000005149842,0|0,0:0|0:0,0:0:0:0:
269,103,19279,1,8,0:0:0:0:
189,63,19483,1,0,0:0:0:0:
44,153,19687,1,0,0:0:0:0:
80,361,19891,6,0,P|91:327|99:296,1,67.5000025749208,4|0,2:0|0:0,0:0:0:0:
198,279,20300,1,2,2:0:0:0:
211,282,20504,1,2,2:0:0:0:
224,285,20708,1,2,2:0:0:0:
288,345,20912,1,2,2:0:0:0:
430,171,21116,6,0,P|399:224|371:317,1,135.000005149842,2|2,2:0|2:0,0:0:0:0:
333,159,21728,1,2,2:0:0:0:
330,145,21932,1,2,2:0:0:0:
359,65,22136,1,2,2:0:0:0:
172,52,22340,6,0,P|240:34|271:105,1,135.000005149842,2|2,2:0|2:0,0:0:0:0:
204,144,22953,1,2,2:0:0:0:
103,108,23157,1,2,2:0:0:0:
0,202,23361,1,2,2:0:0:0:
119,384,23565,6,0,P|136:338|198:262,1,135.000005149842,2|2,2:0|2:0,0:0:0:0:
247,344,24177,1,2,2:0:0:0:
325,300,24381,1,2,2:0:0:0:
445,373,24585,1,2,2:0:0:0:
418,171,24789,6,0,P|384:176|347:183,1,67.5000025749208,2|0,2:0|2:0,0:0:0:0:
482,96,25198,1,2,2:0:0:0:
398,55,25402,1,2,2:0:0:0:
258,124,25606,1,2,2:0:0:0:
174,83,25810,1,2,2:0:0:0:
84,332,26014,6,0,P|72:262|65:235,1,67.5000025749208,2|0,2:0|2:0,0:0:0:0:
61,146,26422,1,2,2:0:0:0:
174,83,26626,1,2,2:0:0:0:
258,124,26830,1,2,2:0:0:0:
342,165,27034,1,2,2:0:0:0:
460,29,27238,6,0,P|432:35|391:39,1,67.5000025749208,2|0,2:0|2:0,0:0:0:0:
293,37,27647,1,2,2:0:0:0:
258,124,27851,1,2,2:0:0:0:
223,211,28055,1,2,2:0:0:0:
342,165,28259,1,2,2:0:0:0:
242,346,28463,6,0,P|202:342|158:341,1,67.5000025749208,2|0,2:0|2:0,0:0:0:0:
78,368,28871,1,8,0:0:0:0:
15,192,29075,1,0,0:0:0:0:
174,83,29279,1,8,0:0:0:0:
111,159,29483,5,2,0:2:0:0:
333,334,29687,5,0,0:0:0:0:
415,276,29891,2,0,P|398:177|393:130,1,135.000005149842,2|2,0:2|0:2,0:0:0:0:
481,101,30504,1,2,0:2:0:0:
430,34,30708,1,2,0:2:0:0:
347,41,30912,1,2,0:2:0:0:
308,115,31116,5,0,0:2:0:0:
269,189,31320,2,0,P|193:192|142:137,1,135.000005149842,8|2,0:0|0:2,0:0:0:0:
160,62,31932,1,8,0:0:0:0:
253,42,32136,5,0,0:0:0:0:
217,114,32340,2,0,P|134:94|62:123,1,135.000005149842,2|2,0:2|0:2,0:0:0:0:
30,182,32953,1,2,0:2:0:0:
71,261,33157,1,2,0:2:0:0:
6,370,33361,6,0,P|67:346|120:398,1,135.000005149842,2|8,0:2|0:0,0:0:0:0:
187,324,33973,1,0,0:0:0:0:
366,366,34177,1,8,0:0:0:0:
283,309,34381,1,2,0:2:0:0:
488,309,34585,5,0,0:0:0:0:
493,198,34789,2,0,B|460:185|423:204|434:217|402:245|356:239,1,135.000005149842,2|2,0:2|0:2,0:0:0:0:
300,186,35402,1,2,0:2:0:0:
281,111,35606,1,2,0:2:0:0:
335,56,35810,1,2,0:2:0:0:
410,74,36014,1,0,0:2:0:0:
355,130,36218,1,8,0:0:0:0:
281,111,36422,1,0,0:0:0:0:
261,37,36626,1,2,0:2:0:0:
186,7,36830,1,8,0:0:0:0:
122,57,37034,6,0,P|108:41|76:5,1,67.5000025749208,0|2,0:0|0:2,0:0:0:0:
8,72,37442,1,8,0:0:0:0:
0,148,37647,1,2,0:2:0:0:
22,218,37851,1,2,0:2:0:0:
82,273,38055,1,2,0:2:0:0:
55,355,38259,6,0,P|92:352|122:351,1,67.5000025749208,0|2,0:0|0:2,0:0:0:0:
212,384,38667,1,0,0:0:0:0:
329,337,38871,2,0,P|324:274|313:174,1,135.000005149842,8|2,0:0|0:2,0:0:0:0:
323,70,39483,6,0,P|388:46|427:102,1,135.000005149842,4|2,2:0|2:0,0:0:0:0:
464,185,40096,1,2,2:0:0:0:
464,185,40300,2,0,P|441:248|441:268,1,67.5000025749208,2|2,2:0|2:0,0:0:0:0:
422,361,40708,2,0,B|340:356|392:313|281:311,1,135.000005149842,2|2,2:0|2:0,0:0:0:0:
202,352,41320,1,2,2:0:0:0:
202,352,41524,2,0,P|191:296|183:273,1,67.5000025749208,2|2,2:0|2:0,0:0:0:0:
85,245,41932,6,0,P|96:200|116:98,1,135.000005149842,2|2,2:0|2:0,0:0:0:0:
106,39,42544,1,2,2:0:0:0:
186,13,42749,2,0,P|148:19|106:21,1,67.5000025749208,2|2,2:0|2:0,0:0:0:0:
218,97,43157,6,0,P|254:74|327:117,1,135.000005149842,2|2,2:0|2:0,0:0:0:0:
413,137,43769,1,2,2:0:0:0:
462,61,43973,2,0,P|448:39|436:-9,1,67.5000025749208,2|2,2:0|2:0,0:0:0:0:
490,200,44381,6,0,P|480:272|470:345,1,135.000005149842,6|2,2:0|2:0,0:0:0:0:
376,361,44993,1,2,2:0:0:0:
288,319,45198,2,0,L|205:324,1,67.5000025749208,2|2,2:0|2:0,0:0:0:0:
23,356,45606,6,0,P|72:344|107:252,1,135.000005149842,2|2,2:0|2:0,0:0:0:0:
74,196,46218,1,2,2:0:0:0:
100,110,46422,2,0,P|101:164|107:200,1,67.5000025749208,2|2,2:0|2:0,0:0:0:0:
161,13,46830,6,0,P|103:33|30:-7,1,135.000005149842,2|2,2:0|2:0,0:0:0:0:
100,110,47442,1,2,2:0:0:0:
185,137,47647,2,0,P|246:131|282:133,1,67.5000025749208,2|2,2:0|2:0,0:0:0:0:
413,77,48055,6,0,B|371:103|371:103|351:195,1,135.000005149842,2|0,2:0|0:0,0:0:0:0:
406,319,48667,1,0,0:0:0:0:
433,204,48871,1,8,0:0:0:0:
410,300,49075,1,0,0:0:0:0:
179,348,49279,6,0,P|251:330|301:374,1,135.000005149842,0|2,0:0|0:2,0:0:0:0:
295,363,49891,1,2,0:2:0:0:
61,373,50504,1,2,0:2:0:0:
111,297,50708,1,2,0:2:0:0:
5,134,50912,6,0,P|16:196|26:272,1,135.000005149842,8|2,0:0|0:2,0:0:0:0:
64,80,51524,1,8,0:0:0:0:
208,78,51728,6,0,P|150:60|98:121,1,135.000005149842,0|2,0:0|0:2,0:0:0:0:
280,128,52340,1,2,0:2:0:0:
328,54,52544,2,0,P|362:54|395:52,1,67.5000025749208,2|2,0:2|0:2,0:0:0:0:
500,14,52953,6,0,P|477:78|453:148,1,135.000005149842,2|8,0:2|0:0,0:0:0:0:
492,240,53565,1,0,0:0:0:0:
449,324,53769,2,0,P|414:317|374:328,1,67.5000025749208,8|2,0:0|0:2,0:0:0:0:
239,362,54177,5,0,0:0:0:0:
298,287,54381,1,2,0:2:0:0:
263,199,54585,1,2,0:2:0:0:
170,186,54789,2,0,P|155:259|135:341,1,135.000005149842,2|2,0:2|0:2,0:0:0:0:
33,366,55402,5,2,0:2:0:0:
44,279,55606,1,2,0:2:0:0:
52,184,55810,2,0,P|38:142|27:100,1,67.5000025749208,8|0,0:0|0:0,0:0:0:0:
68,30,56218,1,2,0:2:0:0:
156,72,56422,1,8,0:0:0:0:
294,15,56626,6,0,P|252:13|215:21,1,67.5000025749208,0|2,0:0|0:2,0:0:0:0:
336,97,57034,1,8,0:0:0:0:
445,126,57238,2,0,P|424:60|412:13,2,101.250003862381
490,207,58055,1,2,0:2:0:0:
451,295,58259,1,0,0:1:0:0:
273,345,58463,5,8,0:2:0:0:
348,173,58667,1,0,1:0:0:0:
451,295,58871,1,0,1:0:0:0:
451,295,58973,1,0,1:0:0:0:
451,295,59075,6,0,B|374:296|410:253|321:263,1,135,6|0,0:2|0:0,0:0:0:0:
310,271,59483,1,0,1:0:0:0:
158,361,59687,2,0,P|163:319|150:250,1,90,10|2,0:0|0:2,0:0:0:0:
87,189,60096,1,2,0:2:0:0:
231,10,60300,6,0,P|198:110|188:186,1,180,4|10,2:0|0:0,0:0:0:0:
296,95,60912,1,2,0:2:0:0:
137,56,61116,2,0,P|93:54|46:41,1,90,10|0,0:0|1:0,0:0:0:0:
231,10,61524,5,4,2:0:0:0:
296,95,61728,1,2,0:2:0:0:
404,104,61932,1,10,0:0:0:0:
476,24,62136,1,2,0:2:0:0:
378,0,62340,1,10,0:0:0:0:
510,127,62544,1,0,1:0:0:0:
492,379,62749,6,0,P|491:333|426:189,1,180,4|10,2:0|0:0,0:0:0:0:
364,294,63361,1,0,1:0:0:0:
260,244,63565,1,10,0:0:0:0:
117,330,63769,1,0,1:0:0:0:
172,140,63973,6,0,P|163:210|160:255,1,90,6|2,0:0|0:2,0:0:0:0:
35,95,64381,1,0,1:1:0:0:
35,95,64483,1,0,1:1:0:0:
35,95,64585,2,0,B|141:99|87:35|223:40,1,180,8|2,0:0|0:2,0:0:0:0:
289,76,65197,2,0,L|296:165,1,90,4|2,2:0|0:2,0:0:0:0:
339,369,65606,5,10,0:0:0:0:
362,275,65810,1,0,1:0:0:0:
351,365,66014,1,10,0:0:0:0:
374,271,66218,1,0,1:0:0:0:
436,353,66422,6,0,B|333:354|369:293|264:302,1,180,4|10,2:0|0:0,0:0:0:0:
111,332,67034,1,0,1:0:0:0:
196,352,67238,1,10,0:0:0:0:
70,245,67442,1,0,1:0:0:0:
14,380,67646,5,4,2:0:0:0:
176,191,67851,1,10,0:0:0:0:
44,81,68055,1,10,0:0:0:0:
82,158,68259,1,0,1:0:0:0:
193,15,68463,1,10,0:0:0:0:
103,4,68667,1,0,1:0:0:0:
258,150,68871,6,0,P|325:155|424:179,1,135,6|0,0:0|0:0,0:0:0:0:
413,189,69279,1,0,1:1:0:0:
413,189,69381,1,0,1:1:0:0:
413,189,69483,2,0,B|381:223|415:283|420:266|464:305|426:385,1,180,8|0,0:0|1:0,0:0:0:0:
277,327,70096,6,0,P|353:325|379:347,1,90,4|0,2:0|0:0,0:0:0:0:
178,348,70504,1,10,0:0:0:0:
208,248,70708,1,0,1:0:0:0:
75,371,70912,1,10,0:0:0:0:
45,271,71116,1,0,1:0:0:0:
236,160,71320,5,4,2:0:0:0:
295,231,71524,1,2,0:2:0:0:
118,144,71728,1,10,0:0:0:0:
151,48,71932,1,0,1:0:0:0:
208,248,72136,1,10,0:0:0:0:
6,136,72340,1,0,1:0:0:0:
271,67,72544,5,4,2:0:0:0:
236,160,72749,1,2,0:2:0:0:
48,58,72953,1,10,0:0:0:0:
151,48,73157,1,0,1:0:0:0:
208,248,73361,1,10,0:0:0:0:
105,258,73565,1,0,1:0:0:0:
349,382,73769,6,0,P|369:336|403:285,1,90,6|10,0:0|0:0,0:0:0:0:
445,255,74075,1,8,0:0:0:0:
452,241,74177,2,0,L|444:196,1,45,0|0,1:0|0:0,0:0:0:0:
432,114,74381,1,10,0:0:0:0:
499,59,74585,1,2,0:2:0:0:
512,146,74789,1,0,1:0:0:0:
407,24,74993,6,0,B|294:47|342:-19|191:18,1,180,4|10,2:0|0:0,0:0:0:0:
196,123,75606,1,0,1:0:0:0:
306,178,75810,2,0,P|296:133|281:91,1,90,10|0,0:0|1:0,0:0:0:0:
117,41,76218,5,4,2:0:0:0:
69,155,76422,1,2,0:2:0:0:
244,237,76626,1,10,0:0:0:0:
196,123,76830,1,0,1:0:0:0:
113,329,77034,1,10,0:0:0:0:
244,237,77238,1,0,1:0:0:0:
27,313,77442,6,0,P|77:312|140:309,1,90,4|2,2:0|0:2,0:0:0:0:
218,372,77851,1,0,1:0:0:0:
338,149,78055,1,10,0:0:0:0:
244,237,78259,1,0,1:0:0:0:
395,348,78463,1,0,1:0:0:0:
437,370,78565,1,0,1:0:0:0:
479,366,78667,6,0,L|492:280,1,45,6|0,0:0|0:0,0:0:0:0:
456,288,78871,2,0,L|441:207,1,45,2|0,0:2|0:0,0:0:0:0:
487,181,79075,2,0,L|499:137,1,45,2|0,0:2|0:0,0:0:0:0:
407,143,79279,2,0,L|389:56,1,45,10|0,0:0|0:0,0:0:0:0:
377,9,79483,2,0,P|349:3|306:17,1,45,2|0,0:2|0:0,0:0:0:0:
275,91,79687,2,0,P|245:97|216:91,1,45,2|0,0:2|0:0,0:0:0:0:
102,76,79891,6,0,B|80:43|121:7|178:44|180:127|109:94|130:213,1,233.999989288331,4|10,2:0|0:0,0:0:0:0:
128,204,80708,2,0,P|121:272|109:311,1,90,10|0,0:0|1:0,0:0:0:0:
15,319,81116,2,0,B|129:297|80:363|191:355,1,180,4|10,2:0|0:0,0:0:0:0:
266,299,81728,1,0,0:0:0:0:
350,372,81932,1,10,0:0:0:0:
446,321,82136,1,0,1:0:0:0:
405,168,82340,6,0,P|381:208|363:269,1,90,4|0,2:0|0:0,0:0:0:0:
480,204,82749,1,10,0:0:0:0:
512,107,82953,1,0,0:0:0:0:
404,30,83157,1,10,0:0:0:0:
276,91,83361,1,0,0:0:0:0:
73,68,83565,6,0,B|176:71|129:5|254:8,1,180,6|0,0:0|0:0,0:0:0:0:
276,91,84075,1,0,0:0:0:0:
276,91,84177,2,0,P|248:150|244:203,1,90,10|0,0:0|0:0,0:0:0:0:
261,273,84585,1,2,0:2:0:0:
417,171,84789,2,0,P|355:192|315:227,1,90,4|0,2:0|0:0,0:0:0:0:
495,219,85198,1,10,0:0:0:0:
439,85,85402,2,0,P|419:34|412:-14,1,90,2|10,0:2|0:0,0:0:0:0:
512,133,85810,1,0,1:0:0:0:
346,101,86014,6,0,B|246:93|287:55|161:51,1,180,4|10,2:0|0:0,0:0:0:0:
94,84,86626,1,0,1:0:0:0:
67,182,86830,2,0,P|60:137|38:81,1,90,10|0,0:0|1:0,0:0:0:0:
15,297,87238,6,0,P|67:289|95:288,1,45,0|0,1:0|0:0,0:0:0:0:
91,304,87442,2,0,P|120:306|150:312,1,45,2|0,0:2|0:0,0:0:0:0:
159,335,87647,2,0,P|187:345|214:358,1,45,0|0,1:0|0:0,0:0:0:0:
244,369,87851,2,0,P|291:361|331:328,1,90,10|0,0:0|1:0,0:0:0:0:
409,379,88157,1,0,1:0:0:0:
409,379,88259,1,0,1:0:0:0:
409,379,88361,1,0,1:0:0:0:
409,379,88463,6,0,P|416:333|466:189,1,180,6|0,0:0|1:0,0:0:0:0:
489,64,89075,2,0,B|494:138|395:175|347:91,1,180,10|0,0:0|1:0,0:0:0:0:
282,70,89687,2,0,P|240:61|192:59,1,90,4|0,2:0|0:0,0:0:0:0:
97,122,90096,1,10,0:0:0:0:
15,32,90300,2,0,P|61:78|74:108,1,90,2|10,0:2|0:0,0:0:0:0:
57,225,90708,1,0,1:0:0:0:
37,354,90912,6,0,P|86:326|182:384,1,180,4|10,2:0|0:0,0:0:0:0:
330,383,91524,2,0,P|393:326|475:354,1,180,0|0,1:0|1:1,0:0:0:0:
256,384,92136,2,0,B|224:292|284:292|255:204,1,180,4|10,2:0|0:0,0:0:0:0:
322,165,92749,2,0,P|253:132|178:201,1,180,0|0,1:0|1:0,0:0:0:0:
36,27,93361,6,0,L|113:32,1,45,6|0,0:0|0:0,0:0:0:0:
121,22,93565,2,0,L|180:18,1,45,2|0,0:2|0:0,0:0:0:0:
203,24,93769,1,0,1:0:0:0:
203,25,93871,1,0,1:0:0:0:
203,24,93973,2,0,L|262:27,1,45,10|0,0:0|0:0,0:0:0:0:
288,24,94177,1,0,0:0:0:0:
383,65,94381,1,0,1:0:0:0:
361,261,94585,6,0,P|360:218|324:150,1,90,4|0,2:0|0:0,0:0:0:0:
421,336,94993,1,10,0:0:0:0:
272,304,95198,2,0,B|181:306|207:227|97:244,1,180,0|0,1:0|1:0,0:0:0:0:
40,301,95810,1,4,2:0:0:0:
111,243,96014,1,2,0:2:0:0:
97,153,96218,1,10,0:0:0:0:
27,209,96422,1,0,1:0:0:0:
181,185,96626,1,10,0:0:0:0:
13,120,96830,1,0,1:0:0:0:
196,270,97034,6,0,P|231:267|264:259,1,45,4|0,2:0|0:0,0:0:0:0:
269,340,97238,2,0,P|295:343|326:350,1,45,2|0,0:2|0:0,0:0:0:0:
357,276,97442,2,0,P|385:268|415:272,1,45,0|0,1:0|0:0,0:0:0:0:
496,298,97647,2,0,P|487:272|486:228,1,45,6|0,0:0|0:0,0:0:0:0:
422,178,97851,2,0,P|431:152|432:108,1,45,2|0,0:2|0:0,0:0:0:0:
455,104,98055,1,2,0:2:0:0:
331,32,98259,6,0,P|269:24|221:150,1,180,6|2,0:0|0:2,0:0:0:0:
139,165,98871,1,2,0:2:0:0:
59,141,99075,1,2,0:2:0:0:
125,81,99279,1,2,0:2:0:0:
208,112,99483,6,0,P|217:203|218:303,1,180,2|2,0:2|0:2,0:0:0:0:
293,311,100096,1,2,0:2:0:0:
362,260,100300,1,2,0:2:0:0:
353,179,100504,1,2,0:2:0:0:
410,33,100708,6,0,P|464:46|487:162,1,180,2|2,0:2|0:2,0:0:0:0:
452,221,101320,1,2,0:2:0:0:
460,305,101524,1,2,0:2:0:0:
509,363,101728,1,2,0:2:0:0:
371,339,101932,6,0,B|288:316|288:316|196:363,1,180,2|2,0:2|0:2,0:0:0:0:
122,374,102544,1,2,0:2:0:0:
62,304,102749,1,2,0:2:0:0:
92,217,102953,1,2,0:2:0:0:
0,93,103157,6,0,P|47:86|193:69,1,180,6|2,0:2|0:2,0:0:0:0:
247,40,103769,1,2,0:2:0:0:
326,31,103973,1,2,0:2:0:0:
405,22,104177,1,2,0:2:0:0:
475,163,104381,6,0,B|470:230|470:230|472:259|472:259|466:354,1,180,2|2,0:2|0:2,0:0:0:0:
383,305,104993,1,2,0:2:0:0:
302,350,105198,1,2,0:2:0:0:
215,330,105402,1,2,0:2:0:0:
46,368,105606,6,0,P|57:306|51:176,1,180,2|2,0:2|0:2,0:0:0:0:
27,109,106218,1,2,0:2:0:0:
116,81,106422,1,2,0:2:0:0:
184,144,106626,1,2,0:2:0:0:
276,21,106830,6,0,L|410:16,1,135,2|0,0:2|0:0,0:0:0:0:
435,11,107238,1,8,1:0:0:0:
415,116,107442,1,0,1:0:0:0:
482,299,107647,5,8,1:0:0:0:
470,203,107851,1,0,0:0:0:0:
394,261,108055,6,0,B|299:264|322:331|233:330,1,180,4|2,2:0|0:2,0:0:0:0:
169,290,108667,1,2,0:2:0:0:
160,269,108871,1,2,0:2:0:0:
82,341,109075,2,0,P|70:252|53:164,1,180,2|2,0:2|0:2,0:0:0:0:
18,22,109687,1,8,1:0:0:0:
0,101,109891,1,0,1:0:0:0:
32,6,110096,1,2,0:2:0:0:
52,163,110300,1,8,0:0:0:0:
140,59,110504,5,0,0:0:0:0:
220,16,110708,2,0,P|292:14|417:12,1,180,2|2,0:2|0:2,0:0:0:0:
472,60,111320,2,0,P|484:104|465:177,1,90,2|2,0:2|0:2,0:0:0:0:
422,217,111728,1,2,0:2:0:0:
491,315,111932,2,0,P|429:256|394:256,1,90,6|8,0:2|0:0,0:0:0:0:
332,327,112340,1,0,0:0:0:0:
227,284,112544,1,8,0:0:0:0:
156,334,112749,1,2,0:2:0:0:
22,249,112953,5,4,2:0:0:0:
7,166,113157,1,2,0:2:0:0:
22,83,113361,2,0,P|145:68|206:59,1,180,2|2,0:2|0:2,0:0:0:0:
258,7,113973,1,2,0:2:0:0:
396,118,114177,6,0,P|402:162|413:236,1,90,2|2,0:2|0:2,0:0:0:0:
494,320,114585,1,8,0:0:0:0:
385,285,114789,1,0,0:0:0:0:
336,342,114993,1,0,0:2:0:0:
170,287,115198,1,8,0:0:0:0:
55,374,115402,6,0,P|52:327|42:279,1,90,4|2,2:0|0:2,0:0:0:0:
0,208,115810,1,8,0:0:0:0:
36,112,116014,2,0,P|130:90|180:94,2,135,0|0|4,0:0|0:0|2:0,0:0:0:0:
36,112,117034,5,0,1:0:0:0:
209,199,117238,1,10,0:0:0:0:
283,109,117442,1,0,1:0:0:0:
324,322,117647,1,0,1:0:0:0:
324,322,117749,1,0,1:0:0:0:
324,322,117851,6,0,P|353:235|400:153,1,175.499991966248,6|0,0:0|0:0,0:0:0:0:
419,170,118259,1,0,1:0:0:0:
426,261,118463,2,0,B|289:263|344:182|208:198,1,233.999989288331,10|0,0:0|1:0,0:0:0:0:
126,263,119075,2,0,P|120:317|111:379,1,116.999994644165,4|2,2:0|0:2,0:0:0:0:
27,220,119483,1,10,0:0:0:0:
23,119,119687,1,0,1:0:0:0:
171,11,119891,1,10,0:0:0:0:
167,112,120096,1,0,1:0:0:0:
0,29,120299,6,0,B|84:55|84:55|215:13,1,175.499991966248,4|0,2:0|0:0,0:0:0:0:
171,11,120708,1,10,0:0:0:0:
308,1,120912,1,0,1:0:0:0:
403,190,121116,1,10,0:0:0:0:
266,180,121320,1,0,1:0:0:0:
498,66,121524,6,0,P|488:130|464:281,1,175.499991966248,4|0,2:0|0:0,0:0:0:0:
481,265,121932,1,10,0:0:0:0:
391,360,122136,1,0,1:0:0:0:
278,288,122340,1,10,0:0:0:0:
204,342,122544,1,0,1:0:0:0:
3,292,122749,6,0,B|110:296|44:372|191:392,1,175.499991966248,6|0,0:0|0:0,0:0:0:0:
204,342,123157,1,0,1:0:0:0:
204,342,123259,1,0,1:0:0:0:
204,342,123361,2,0,P|196:281|182:105,1,233.999989288331,10|0,0:0|1:0,0:0:0:0:
255,18,123973,2,0,P|256:111|266:175,1,116.999994644165,4|2,2:0|0:2,0:0:0:0:
491,53,124381,5,10,0:0:0:0:
396,22,124585,1,0,1:0:0:0:
411,217,124789,1,10,0:0:0:0:
506,186,124993,1,0,1:0:0:0:
357,101,125197,6,0,L|135:111,1,175.499991966248,4|0,2:0|0:0,0:0:0:0:
160,91,125606,1,10,0:0:0:0:
84,297,125810,1,0,1:0:0:0:
221,235,126014,1,10,0:0:0:0:
151,186,126218,1,0,1:0:0:0:
221,359,126422,5,4,2:0:0:0:
375,273,126626,1,10,0:0:0:0:
357,101,126830,1,10,0:0:0:0:
325,183,127034,1,0,1:0:0:0:
512,144,127238,1,10,0:0:0:0:
480,62,127442,1,0,1:0:0:0:
482,375,127647,6,0,P|450:302|347:286,1,175.499991966248,4|0,2:0|0:0,0:0:0:0:
334,299,128055,1,0,1:0:0:0:
334,299,128157,1,0,1:0:0:0:
334,299,128259,2,0,P|330:249|324:182,1,116.999994644165,10|2,0:0|0:2,0:0:0:0:
349,102,128667,1,0,1:0:0:0:
185,14,128871,6,0,B|202:47|202:47|218:197,1,175.499991966248,4|0,2:0|0:0,0:0:0:0:
201,205,129279,1,10,0:0:0:0:
121,179,129483,1,0,1:0:0:0:
79,319,129687,1,10,0:0:0:0:
160,342,129891,1,0,1:0:0:0:
59,237,130096,5,4,2:0:0:0:
79,319,130300,1,2,0:2:0:0:
214,288,130504,1,10,0:0:0:0:
295,310,130708,1,0,1:0:0:0:
450,190,130912,1,10,0:0:0:0:
334,221,131116,1,0,1:0:0:0:
456,373,131320,5,4,2:0:0:0:
479,292,131524,1,2,0:2:0:0:
375,154,131728,1,10,0:0:0:0:
352,73,131932,1,0,1:0:0:0:
498,29,132136,1,10,0:0:0:0:
450,190,132340,1,0,1:0:0:0:
217,163,132544,6,0,P|192:86|82:74,1,175.499991966248,6|0,0:0|0:0,0:0:0:0:
89,101,132953,1,0,1:0:0:0:
89,101,133055,1,0,1:0:0:0:
89,101,133157,2,0,P|89:179|84:318,2,175.499991966248,10|0|4,0:0|0:0|2:0,0:0:0:0:
9,72,133973,1,2,0:2:0:0:
5,344,134177,5,10,0:0:0:0:
90,321,134381,1,0,1:0:0:0:
261,361,134585,1,10,0:0:0:0:
346,384,134789,1,0,1:0:0:0:
457,236,134993,5,4,2:0:0:0:
311,197,135198,1,2,0:2:0:0:
444,378,135402,1,10,0:0:0:0:
483,232,135606,1,0,1:0:0:0:
391,123,135810,1,10,0:0:0:0:
420,46,136014,1,0,1:0:0:0:
262,97,136218,6,0,B|129:88|198:23|38:30,1,233.999989288331,4|0,2:0|1:0,0:0:0:0:
10,106,136830,1,10,0:0:0:0:
52,180,137034,1,0,1:0:0:0:
7,358,137238,1,0,1:0:0:0:
7,358,137340,1,0,1:0:0:0:
7,358,137442,6,0,P|46:305|220:334,1,233.999989288331,6|0,0:0|1:1,0:0:0:0:
265,365,138055,1,10,0:0:0:0:
279,350,138259,1,0,1:1:0:0:
401,330,138463,1,2,0:2:0:0:
316,161,138667,6,0,L|251:268,1,116.999994644165,4|0,2:0|0:0,0:0:0:0:
416,146,139075,2,0,L|355:36,1,116.999994644165,10|0,0:0|0:0,0:0:0:0:
379,241,139483,2,0,L|504:243,1,116.999994644165,10|0,0:0|1:1,0:0:0:0:
316,161,139891,6,0,B|211:118|220:252|74:216,1,233.999989288331,4|10,2:0|0:0,0:0:0:0:
15,146,140504,1,0,1:1:0:0:
8,121,140708,1,10,0:0:0:0:
57,35,140912,1,0,1:1:0:0:
102,221,141116,6,0,P|83:301|26:321,1,116.999994644165,4|0,2:0|0:0,0:0:0:0:
112,381,141524,2,0,P|190:357|236:396,1,116.999994644165,10|0,0:0|1:1,0:0:0:0:
246,293,141932,2,0,P|186:236|197:177,1,116.999994644165,10|0,0:0|1:1,0:0:0:0:
312,380,142340,6,0,P|372:324|519:393,1,233.999989288331,6|0,0:0|1:1,0:0:0:0:
505,379,142851,1,0,1:1:0:0:
505,379,142953,1,10,0:0:0:0:
441,248,143157,1,0,1:0:0:0:
481,116,143361,1,0,1:0:0:0:
373,52,143565,6,0,P|313:80|300:150,1,116.999994644165,4|0,2:0|0:0,0:0:0:0:
222,90,143973,2,0,P|216:155|270:202,1,116.999994644165,10|0,0:0|1:1,0:0:0:0:
296,124,144381,1,10,0:0:0:0:
145,58,144585,1,0,1:1:0:0:
25,161,144789,1,4,2:0:0:0:
30,181,144993,1,0,0:0:0:0:
127,372,145198,5,10,0:0:0:0:
109,240,145402,1,0,1:1:0:0:
348,384,145606,1,10,0:0:0:0:
366,252,145810,1,0,1:1:0:0:
430,174,146014,6,0,P|465:247|435:318,1,116.999994644165,4|0,2:0|0:0,0:0:0:0:
331,157,146422,2,0,P|376:90|453:80,1,116.999994644165,10|0,0:0|1:1,0:0:0:0:
366,252,146830,2,0,P|285:245|238:184,1,116.999994644165,10|0,0:0|1:1,0:0:0:0:
147,84,147238,6,0,P|158:165|178:332,1,233.999989288331,6|0,0:0|1:1,0:0:0:0:
152,341,147749,1,0,1:1:0:0:
152,341,147851,1,10,0:0:0:0:
35,278,148055,1,2,0:2:0:0:
32,148,148259,1,2,0:2:0:0:
121,43,148463,6,0,L|286:70,1,116.999994644165,4|0,2:0|0:0,0:0:0:0:
317,0,148871,2,0,L|376:156,1,116.999994644165,10|0,0:0|0:0,0:0:0:0:
452,149,149279,2,0,L|346:278,1,116.999994644165,10|0,0:0|1:1,0:0:0:0:
391,341,149687,6,0,L|117:296,1,233.999989288331,4|10,2:0|0:0,0:0:0:0:
72,301,150300,1,0,1:1:0:0:
54,271,150504,1,10,0:0:0:0:
56,147,150708,1,2,0:2:0:0:
231,90,150912,6,0,P|243:149|206:204,1,116.999994644165,10|10,0:0|0:0,0:0:0:0:
80,71,151320,2,0,P|125:31|191:35,1,116.999994644165,10|0,0:0|1:1,0:0:0:0:
140,212,151728,2,0,P|82:192|53:133,1,116.999994644165,10|0,0:0|1:1,0:0:0:0:
231,90,152136,6,0,P|325:83|479:79,1,233.999989288331,6|0,0:0|1:1,0:0:0:0:
498,103,152647,1,0,1:1:0:0:
498,103,152749,1,10,0:0:0:0:
442,237,152953,1,2,0:2:0:0:
432,156,153157,1,0,1:1:0:0:
489,334,153361,6,0,B|432:317|432:317|373:332,1,116.999994644165,4|0,2:0|0:0,0:0:0:0:
324,247,153769,2,0,B|280:287|280:287|265:346,1,116.999994644165,10|0,0:0|0:0,0:0:0:0:
121,279,154177,2,0,B|134:336|134:336|177:379,1,116.999994644165,10|0,0:0|1:1,0:0:0:0:
202,221,154585,5,4,2:0:0:0:
202,221,154993,1,10,0:0:0:0:
57,171,155198,1,0,1:1:0:0:
257,23,155402,1,10,0:0:0:0:
112,73,155606,1,0,1:1:0:0:
319,147,155810,6,0,P|302:53|278:13,1,116.999994644165,6|0,0:0|0:0,0:0:0:0:
400,253,156218,1,0,1:1:0:0:
447,99,156422,1,10,0:0:0:0:
487,333,156626,2,0,P|427:287|363:290,1,116.999994644165,2|0,0:2|0:0,0:0:0:0:
179,333,157034,5,4,0:0:0:0:
171,317,157442,1,2,0:2:0:0:
117,265,157647,1,2,0:2:0:0:
44,280,157851,1,2,0:2:0:0:
21,351,158055,1,2,0:2:0:0:
100,377,158259,6,0,L|62:182,1,180,2|2,0:2|0:2,0:0:0:0:
67,125,158871,1,2,0:2:0:0:
98,51,159075,1,2,0:2:0:0:
177,41,159279,1,2,0:2:0:0:
225,104,159483,6,0,P|320:93|411:84,1,180,2|2,0:2|0:2,0:0:0:0:
476,118,160096,1,2,0:2:0:0:
469,199,160300,1,2,0:2:0:0:
462,280,160504,1,2,0:2:0:0:
455,361,160708,6,0,P|418:279|327:276,1,180,2|2,0:2|0:2,0:0:0:0:
277,335,161320,1,2,0:2:0:0:
180,303,161524,1,2,0:2:0:0:
88,352,161728,1,2,0:2:0:0:
88,352,161830,1,0,0:0:0:0:
88,352,161932,6,0,P|73:230|63:160,1,180,6|2,0:2|0:2,0:0:0:0:
0,87,162544,1,2,0:2:0:0:
92,52,162749,1,2,0:2:0:0:
183,106,162953,1,2,0:2:0:0:
276,71,163157,6,0,B|370:74|344:10|447:25,1,180,2|0,0:2|0:0,0:0:0:0:
484,150,163769,1,2,0:2:0:0:
401,137,163973,2,0,P|415:209|420:249,1,90,2|2,0:2|0:2,0:0:0:0:
341,373,164381,6,0,P|329:253|316:186,1,180,2|2,0:2|0:2,0:0:0:0:
241,149,164993,1,2,0:2:0:0:
150,134,165198,1,2,0:2:0:0:
134,226,165402,1,2,0:2:0:0:
224,241,165606,6,0,P|138:215|28:221,1,180,2|8,0:2|0:0,0:0:0:0:
17,290,166218,1,0,0:0:0:0:
24,123,166422,1,8,0:0:0:0:
43,303,166626,1,0,0:0:0:0:
150,134,166830,5,0,0:0:0:0:
71,37,167034,2,0,B|138:30|138:30|174:44|174:44|284:34,1,180,6|2,0:2|0:2,0:0:0:0:
338,0,167647,1,2,0:2:0:0:
413,55,167851,1,2,0:2:0:0:
355,167,168055,5,2,0:2:0:0:
451,283,168259,2,0,P|414:218|299:219,1,180,6|0,0:2|0:0,0:0:0:0:
277,276,168871,1,2,0:2:0:0:
141,344,169075,1,8,0:0:0:0:
14,260,169279,5,0,0:0:0:0:
55,186,169483,2,0,L|37:-7,1,180,6|2,0:2|0:2,0:0:0:0:
121,24,170096,1,2,0:2:0:0:
179,77,170300,1,2,0:2:0:0:
301,14,170504,5,2,0:2:0:0:
405,72,170708,2,0,P|421:140|427:202,1,90,6|8,0:2|0:0,0:0:0:0:
363,275,171116,1,0,0:0:0:0:
267,200,171320,1,8,0:0:0:0:
337,145,171524,1,2,0:2:0:0:
260,308,171728,6,0,P|222:267|105:273,1,180,0|2,0:0|0:2,0:0:0:0:
67,361,172340,2,0,P|51:270|30:181,1,180,2|2,0:2|0:2,0:0:0:0:
42,107,172953,1,2,0:2:0:0:
36,84,173157,1,2,0:2:0:0:
158,12,173361,1,8,0:0:0:0:
225,55,173565,1,0,0:0:0:0:
329,15,173769,1,2,0:2:0:0:
407,0,173973,1,8,0:0:0:0:
480,74,174177,6,0,P|480:141|474:193,1,90,0|2,0:0|0:2,0:0:0:0:
424,225,174585,1,8,0:0:0:0:
424,225,174789,1,2,0:2:0:0:
324,305,174993,2,0,P|391:298|431:367,1,120,2|0,0:2|0:0,0:0:0:0:
448,361,175402,2,0,P|477:362|506:353,2,60,8|0|0,0:0|0:0|0:0,0:0:0:0:
356,381,175810,1,0,1:0:0:0:
177,241,176014,5,8,0:0:0:0:
353,182,176218,1,8,0:0:0:0:
167,348,176422,1,8,0:0:0:0:
167,348,176524,1,8,0:0:0:0:
167,348,176626,6,0,P|144:187|133:130,1,175.499991966248,6|0,0:0|0:0,0:0:0:0:
120,148,177034,1,0,1:0:0:0:
202,23,177238,2,0,P|266:41|333:32,1,116.999994644165,10|2,0:0|0:2,0:0:0:0:
464,0,177647,1,0,1:0:0:0:
377,129,177851,6,0,P|370:231|369:374,1,233.999989288331,4|8,2:0|0:0,0:0:0:0:
456,290,178463,1,0,1:0:0:0:
262,232,178667,1,10,0:0:0:0:
132,348,178871,1,0,1:0:0:0:
51,255,179075,6,0,B|32:172|32:172|57:79,1,175.499991966248,4|0,2:0|0:0,0:0:0:0:
72,64,179483,1,10,0:0:0:0:
168,94,179687,1,0,1:0:0:0:
289,7,179891,1,10,0:0:0:0:
385,37,180096,1,0,1:0:0:0:
458,251,180300,6,0,P|392:235|355:116,1,175.499991966248,4|0,2:0|0:0,0:0:0:0:
369,121,180708,1,10,0:0:0:0:
500,167,180912,1,0,1:0:0:0:
355,325,181116,1,10,0:0:0:0:
273,288,181320,1,0,1:0:0:0:
141,375,181524,6,0,P|143:291|145:159,1,175.499991966248,6|0,0:0|0:0,0:0:0:0:
167,175,181932,1,0,1:0:0:0:
167,175,182034,1,0,1:0:0:0:
166,175,182136,2,0,P|138:95|-1:89,1,233.999989288331,10|0,0:0|1:0,0:0:0:0:
2,170,182749,2,0,L|18:307,1,116.999994644165,4|2,2:0|0:2,0:0:0:0:
167,175,183157,5,10,0:0:0:0:
300,127,183361,1,0,1:0:0:0:
388,279,183565,1,10,0:0:0:0:
255,231,183769,1,0,1:0:0:0:
460,214,183973,6,0,P|463:127|473:39,1,175.499991966248,4|0,2:0|0:0,0:0:0:0:
493,27,184381,1,10,0:0:0:0:
352,0,184585,1,0,1:0:0:0:
300,130,184789,1,10,0:0:0:0:
215,110,184993,1,0,1:0:0:0:
98,274,185198,5,4,2:0:0:0:
255,231,185402,1,10,0:0:0:0:
76,166,185606,1,10,0:0:0:0:
47,357,185810,1,0,1:0:0:0:
98,274,186014,1,10,0:0:0:0:
257,384,186218,1,0,1:0:0:0:
206,301,186422,6,0,P|279:294|360:287,1,116.999994644165,4|2,2:0|0:2,0:0:0:0:
471,356,186830,1,0,1:0:0:0:
471,356,186932,1,0,1:0:0:0:
471,356,187034,2,0,P|428:296|381:229,1,116.999994644165,10|2,0:0|0:2,0:0:0:0:
479,185,187442,1,0,1:0:0:0:
340,116,187647,6,0,B|239:110|289:31|169:39,1,175.499991966248,4|0,2:0|0:0,0:0:0:0:
161,48,188055,1,10,0:0:0:0:
102,213,188259,1,0,1:0:0:0:
175,161,188463,1,10,0:0:0:0:
45,73,188667,1,0,1:0:0:0:
42,315,188871,5,4,2:0:0:0:
182,267,189075,1,2,0:2:0:0:
10,221,189279,1,10,0:0:0:0:
102,213,189483,1,0,1:0:0:0:
45,73,189687,1,10,0:0:0:0:
175,161,189891,1,0,1:0:0:0:
215,14,190096,5,4,2:0:0:0:
235,97,190300,1,2,0:2:0:0:
348,8,190504,1,10,0:0:0:0:
333,180,190708,1,0,1:0:0:0:
504,65,190912,1,10,0:0:0:0:
418,232,191116,1,0,1:0:0:0:
506,376,191320,6,0,P|448:279|359:274,1,175.499991966248,6|10,0:0|0:0,0:0:0:0:
324,330,191728,1,0,1:0:0:0:
324,330,191830,1,0,1:0:0:0:
324,330,191932,2,0,P|251:319|66:312,1,233.999989288331,10|0,0:0|1:0,0:0:0:0:
28,372,192544,2,0,P|0:317|18:260,1,116.999994644165,4|2,2:0|0:2,0:0:0:0:
144,164,192953,5,10,0:0:0:0:
91,311,193157,1,0,1:0:0:0:
18,158,193361,1,10,0:0:0:0:
51,69,193565,1,0,1:0:0:0:
242,81,193769,5,4,2:0:0:0:
354,95,193973,1,2,0:2:0:0:
463,1,194177,1,0,1:0:0:0:
351,15,194381,1,10,0:0:0:0:
512,145,194585,1,2,0:2:0:0:
431,218,194789,1,0,1:0:0:0:
268,381,194993,6,0,P|255:300|242:170,1,175.499991966248,4|0,2:0|0:0,0:0:0:0:
283,214,195402,1,0,1:0:0:0:
283,214,195504,1,0,1:0:0:0:
283,214,195606,1,10,0:0:0:0:
96,166,195810,1,0,1:0:0:0:
28,320,196014,1,0,1:0:0:0:
28,320,196116,1,0,1:0:0:0:
28,320,196218,6,0,P|39:221|36:101,1,180,6|0,0:0|1:0,0:0:0:0:
24,49,196830,1,10,0:0:0:0:
46,32,197034,2,0,L|141:26,1,90,0|0,1:0|1:0,0:0:0:0:
250,5,197442,2,0,P|238:86|229:183,1,180,4|10,2:0|0:0,0:0:0:0:
300,242,198055,2,0,P|360:274|430:178,1,180,0|0,0:0|1:0,0:0:0:0:
362,141,198667,5,4,2:0:0:0:
344,154,198871,1,0,0:0:0:0:
231,297,199075,2,0,L|115:274,1,90,10|0,0:0|0:0,0:0:0:0:
98,363,199483,2,0,L|9:380,1,90,10|0,0:0|1:0,0:0:0:0:
17,275,199891,6,0,B|54:197|54:197|37:96,1,180,4|10,2:0|0:0,0:0:0:0:
2,44,200504,1,0,1:0:0:0:
78,6,200708,1,10,0:0:0:0:
159,121,200912,1,0,1:0:0:0:
296,19,201116,6,0,P|369:6|414:4,1,90,6|2,0:0|0:2,0:0:0:0:
496,65,201524,2,0,L|501:136,1,45,0|0,1:0|1:0,0:0:0:0:
471,183,201728,1,10,0:0:0:0:
505,306,201932,2,0,P|452:275|402:276,1,90,0|2,1:0|0:2,0:0:0:0:
322,319,202340,5,4,2:0:0:0:
240,342,202544,1,2,0:2:0:0:
86,262,202749,5,10,0:0:0:0:
173,292,202953,1,2,0:2:0:0:
0,384,203157,5,10,0:0:0:0:
19,305,203361,1,0,1:0:0:0:
69,164,203565,5,4,2:0:0:0:
50,85,203769,1,2,0:2:0:0:
168,0,203973,5,10,0:0:0:0:
149,79,204177,1,0,1:0:0:0:
268,148,204381,5,10,0:0:0:0:
249,69,204585,1,0,1:0:0:0:
371,0,204789,5,4,2:0:0:0:
352,79,204993,1,10,0:0:0:0:
477,222,205198,5,0,1:0:0:0:
512,84,205402,1,10,0:0:0:0:
416,289,205606,5,0,1:0:0:0:
402,278,205708,1,0,1:0:0:0:
377,292,205810,1,0,1:0:0:0:
363,281,205912,1,0,1:0:0:0:
341,293,206014,6,0,P|297:274|187:338,1,180,6|0,0:0|1:0,0:0:0:0:
107,310,206626,1,10,0:0:0:0:
26,384,206830,2,0,L|12:257,1,90,0|0,1:0|1:0,0:0:0:0:
71,209,207238,2,0,L|78:11,1,180,4|10,2:0|0:0,0:0:0:0:
179,82,207851,2,0,P|220:24|325:60,1,180,0|0,0:0|1:0,0:0:0:0:
408,117,208463,2,0,P|410:72|409:27,1,90,4|0,0:2|0:0,0:0:0:0:
484,184,208871,5,10,0:0:0:0:
475,281,209075,1,0,1:0:0:0:
370,365,209279,5,10,0:0:0:0:
361,268,209483,1,0,0:0:0:0:
222,194,209687,5,0,1:0:0:0:
206,351,209891,1,10,0:0:0:0:
353,273,210096,1,10,0:0:0:0:
260,270,210300,1,0,1:0:0:0:
210,361,210504,1,10,0:0:0:0:
108,368,210708,1,0,1:0:0:0:
0,274,210912,6,0,P|6:197|9:154,1,90,4|2,2:0|0:2,0:0:0:0:
63,48,211320,2,0,L|54:-27,1,45,0|0,1:0|1:0,0:0:0:0:
135,0,211524,1,10,0:0:0:0:
167,111,211728,6,0,P|260:141|280:132,1,90,0|2,1:0|0:2,0:0:0:0:
301,9,212136,1,4,2:0:0:0:
232,61,212340,1,2,0:2:0:0:
322,176,212544,1,10,0:0:0:0:
310,90,212749,1,2,0:2:0:0:
254,228,212953,1,10,0:0:0:0:
334,261,213157,1,0,1:0:0:0:
389,122,213361,1,4,2:0:0:0:
310,90,213565,1,2,0:2:0:0:
402,209,213769,5,0,1:0:0:0:
402,209,213871,1,0,0:0:0:0:
402,209,213973,1,10,0:0:0:0:
296,367,214177,2,0,P|273:329|194:313,1,90,0|2,1:0|0:2,0:0:0:0:
56,368,214585,6,0,P|100:367|153:306,1,90,4|2,2:0|0:2,0:0:0:0:
170,164,214993,1,0,1:0:0:0:
164,172,215096,1,0,1:0:0:0:
159,181,215198,1,0,1:0:0:0:
155,191,215300,1,0,1:0:0:0:
152,201,215402,1,0,1:0:0:0:
151,211,215504,1,0,1:0:0:0:
152,222,215606,1,0,1:0:0:0:
153,232,215708,1,0,1:0:0:0:
156,242,215810,5,0,1:0:0:0:
454,124,217034,6,0,P|396:100|329:155,1,125.999996154785,4|2,1:2|0:2,0:0:0:0:
348,282,217442,2,0,P|396:244|383:158,1,125.999996154785,10|2,0:0|0:2,0:0:0:0:
264,111,217851,2,0,P|272:172|353:203,1,125.999996154785,10|0,0:0|1:0,0:0:0:0:
343,126,218259,5,4,2:0:0:0:
319,48,218463,1,2,0:2:0:0:
170,90,218667,1,10,0:0:0:0:
193,11,218871,1,0,1:0:0:0:
55,149,219075,1,10,0:0:0:0:
32,70,219279,1,0,1:0:0:0:
1,304,219483,5,4,2:0:0:0:
132,239,219687,1,10,0:0:0:0:
181,310,219891,1,10,0:0:0:0:
119,373,220096,1,0,1:0:0:0:
42,229,220300,1,10,0:0:0:0:
218,230,220504,1,0,1:0:0:0:
316,365,220708,6,0,P|333:291|399:157,1,188.999994232178,6|0,0:0|0:0,0:0:0:0:
427,180,221116,1,0,1:0:0:0:
427,180,221218,1,0,1:0:0:0:
427,180,221320,2,0,P|421:112|409:15,1,125.999996154785,10|2,0:0|0:2,0:0:0:0:
313,19,221728,1,2,0:2:0:0:
238,110,221932,6,0,P|180:130|123:107,1,125.999996154785,4|2,2:0|0:2,0:0:0:0:
34,2,222340,1,10,0:0:0:0:
18,119,222544,1,2,0:2:0:0:
29,29,222749,1,10,0:0:0:0:
68,190,222953,1,0,1:0:0:0:
8,358,223157,6,0,B|54:359|68:326|68:326|103:350|103:350|126:310|191:310,1,188.999994232178,4|0,2:0|0:0,0:0:0:0:
187,327,223565,1,0,1:0:0:0:
290,368,223769,1,10,0:0:0:0:
370,240,223973,1,2,0:2:0:0:
267,281,224177,1,2,0:2:0:0:
452,364,224381,6,0,B|449:305|449:305|480:243,1,125.999996154785,4|2,2:0|0:2,0:0:0:0:
512,175,224789,1,0,1:0:0:0:
280,157,224993,2,0,B|332:183|332:183|370:242,1,125.999996154785,10|0,0:0|0:0,0:0:0:0:
146,379,225402,1,0,1:0:0:0:
146,379,225504,1,0,1:0:0:0:
146,379,225606,6,0,B|96:283|189:274|136:183,1,188.999994232178,6|0,0:0|0:0,0:0:0:0:
120,185,226014,1,0,1:0:0:0:
0,56,226218,2,0,P|-1:118|42:169,1,125.999996154785,10|2,0:0|0:2,0:0:0:0:
104,0,226626,1,2,0:2:0:0:
204,75,226830,6,0,B|256:30|321:65|293:149|440:160|382:7|321:79,1,251.999992309571,4|0,2:0|1:0,0:0:0:0:
244,219,227442,1,10,0:0:0:0:
322,246,227647,1,2,0:2:0:0:
388,198,227851,1,0,1:0:0:0:
247,322,228055,5,4,0:0:0:0:
395,344,228259,1,2,0:2:0:0:
322,246,228463,1,10,0:0:0:0:
174,268,228667,1,2,0:2:0:0:
14,360,228871,1,10,0:0:0:0:
105,375,229075,1,0,1:0:0:0:
26,251,229279,5,6,0:0:0:0:
0,146,229483,1,2,0:2:0:0:
159,50,229687,1,10,0:0:0:0:
133,155,229891,1,0,1:0:0:0:
0,33,230096,1,10,0:0:0:0:
85,12,230300,1,0,1:0:0:0:
232,138,230504,6,0,P|331:160|405:59,1,188.999994232178,6|0,0:0|0:0,0:0:0:0:
361,35,230912,1,0,1:0:0:0:
361,35,231014,1,0,1:0:0:0:
361,35,231116,2,0,P|378:112|391:190,1,125.999996154785,10|2,0:0|0:2,0:0:0:0:
457,228,231524,1,0,0:0:0:0:
324,365,231728,2,0,P|335:303|349:241,1,125.999996154785,4|2,0:0|0:2,0:0:0:0:
420,347,232136,5,10,0:0:0:0:
244,299,232340,1,2,0:2:0:0:
201,215,232544,1,10,0:0:0:0:
25,263,232749,1,0,1:0:0:0:
97,384,232953,5,4,2:0:0:0:
152,291,233157,1,10,0:0:0:0:
63,154,233361,1,10,0:0:0:0:
118,61,233565,1,0,1:0:0:0:
226,62,233769,1,10,0:0:0:0:
279,156,233973,1,0,1:0:0:0:
495,27,234177,6,0,P|472:136|453:297,1,251.999992309571,4|0,0:0|1:0,0:0:0:0:
485,371,234789,1,10,0:0:0:0:
345,289,234993,1,2,0:2:0:0:
210,359,235198,1,2,0:2:0:0:
49,214,235402,5,6,2:0:0:0:
49,214,236014,5,8,0:0:0:0:
49,214,236626,5,8,0:0:0:0:
49,214,237238,5,8,0:0:0:0:
49,214,237851,5,8,0:0:0:0:
49,214,238463,5,8,0:0:0:0:
410,287,239075,5,8,0:0:0:0:
410,287,239687,5,8,0:0:0:0:
410,287,240300,5,8,0:0:0:0:
410,287,240912,5,8,0:0:0:0:
410,287,241524,5,8,0:0:0:0:
410,287,242136,6,0,P|418:228|432:153,1,135.000005149842,8|0,0:0|2:0,0:0:0:0:
476,86,242749,5,8,0:0:0:0:
408,32,242953,5,0,0:0:0:0:
332,71,243157,5,0,0:0:0:0:
261,31,243361,6,0,B|191:45|212:8|126:23,1,135.000005149842,8|0,0:0|2:0,0:0:0:0:
33,125,243973,5,8,0:0:0:0:
21,168,244177,5,0,0:0:0:0:
65,157,244381,5,8,0:0:0:0:
0,264,244585,5,8,0:0:0:0:
9,307,244789,5,0,0:0:0:0:
43,277,244993,5,8,0:0:0:0:
195,168,245197,6,0,P|219:108|256:132,1,126,8|0,2:0|2:0,0:0:0:0:
256,130,247646,6,0,B|280:162|287:200|267:239|211:225|235:319|279:343|320:324,1,252,0|0,2:0|2:0,0:0:0:0:
316,325,252238,6,0,P|354:300|252:272,1,252,0|0,2:0|2:0,0:0:0:0:
