osu file format v14

[General]
AudioFilename: audio.mp3
AudioLeadIn: 0
PreviewTime: 48892
Countdown: 0
SampleSet: Normal
StackLeniency: 0.7
Mode: 0
LetterboxInBreaks: 0
WidescreenStoryboard: 1
SamplesMatchPlaybackRate: 1

[Editor]
Bookmarks: 16506,65597,73778,122869,155597
DistanceSpacing: 1
BeatDivisor: 4
GridSize: 16
TimelineZoom: 1.5

[Metadata]
Title:Formalin
TitleUnicode:Формалин
Artist:Fleur
ArtistUnicode:Fleur
Creator:Dunkelnacht
Version:Hard
Source:
Tags:fleur russian cardiowave флёр формалин
BeatmapID:1067243
BeatmapSetID:501500

[Difficulty]
HPDrainRate:6
CircleSize:4.5
OverallDifficulty:6
ApproachRate:7.5
SliderMultiplier:1
SliderTickRate:1

[Events]
//Background and Video events
0,0,"289292.jpg",0,0
//Break Periods
2,121024,121819
2,155797,167842
//Storyboard Layer 0 (Background)
//Storyboard Layer 1 (Fail)
//Storyboard Layer 2 (Pass)
//Storyboard Layer 3 (Foreground)
//Storyboard Sound Samples

[TimingPoints]
142.522752808494,340.909090909091,3,1,1,70,1,0
49233,-100,4,1,1,90,0,1
65597,-100,4,1,1,70,0,0
90142,-100,4,1,1,90,0,1
106506,-100,4,1,1,70,0,0
139233,-100,4,1,1,90,0,1
155597,-100,4,1,1,70,0,0
171960,-100,4,1,1,90,0,1
188324,-100,4,1,1,70,0,0

[HitObjects]
96,208,16506,5,0,0:0:0:0:
96,208,16847,1,0,0:0:0:0:
224,272,17358,1,0,0:0:0:0:
224,272,17443,1,0,0:0:0:0:
224,272,17528,2,0,P|256:272|272:256,2,50
368,144,18210,2,0,P|352:112|336:96,1,50
304,64,18551,2,0,L|256:96,1,50
208,112,18892,1,0,0:0:0:0:
64,240,19574,6,0,L|96:288,1,50
112,320,19915,1,0,0:0:0:0:
320,320,20597,2,4,P|384:320|416:288,1,100,0|0,0:0|0:0,0:0:0:0:
448,160,21449,5,0,0:0:0:0:
464,112,21619,2,0,P|464:80|448:64,2,50
368,144,22301,2,0,L|336:96,1,50
320,144,22642,2,0,P|288:128|272:128,1,50
224,128,22983,1,0,0:0:0:0:
176,320,23665,6,0,P|144:336|128:320,1,50
96,288,24006,1,0,0:0:0:0:
96,288,24347,1,0,0:0:0:0:
192,256,24687,2,0,P|128:224|112:192,1,100
416,208,25710,6,0,P|448:176|448:160,2,50
352,128,26392,2,0,P|336:96|320:80,1,50
288,112,26733,2,0,P|240:112|176:144,1,100
128,320,27756,2,0,L|96:256,1,50
144,256,28097,1,0,0:0:0:0:
144,256,28437,1,0,0:0:0:0:
240,304,28778,2,0,P|320:304|352:288,1,100
336,160,29631,5,0,0:0:0:0:
336,160,29716,1,0,0:0:0:0:
336,160,29801,2,0,P|320:128|288:112,2,50
240,112,30483,1,0,0:0:0:0:
208,144,30653,1,0,0:0:0:0:
176,192,30824,2,0,P|160:256|192:288,1,100,4|0,0:0|0:0,0:0:0:0:
368,240,32869,5,4,0:0:0:0:
432,304,33210,1,0,0:0:0:0:
400,112,33892,2,0,P|368:80|304:64,1,100
224,96,34574,1,0,0:0:0:0:
144,144,34915,2,0,P|112:160|80:224,1,100
112,304,35597,5,0,0:0:0:0:
176,160,35937,1,0,0:0:0:0:
240,304,36278,1,0,0:0:0:0:
432,256,36960,1,0,0:0:0:0:
416,160,37301,1,0,0:0:0:0:
224,192,37983,6,0,P|176:128|144:112,1,100
80,144,39006,2,0,P|64:176|64:192,1,50
64,240,39347,1,0,0:0:0:0:
64,240,39687,1,0,0:0:0:0:
224,304,40028,1,4,0:0:0:0:
384,96,41051,5,4,0:0:0:0:
304,160,41392,1,0,0:0:0:0:
112,80,42074,1,0,0:0:0:0:
64,224,42415,1,0,0:0:0:0:
176,128,42756,1,0,0:0:0:0:
160,272,43097,2,0,P|160:320|208:336,1,100
304,320,43778,1,0,0:0:0:0:
384,256,44119,6,0,P|416:208|416:160,1,100
384,80,44801,1,0,0:0:0:0:
288,64,45142,1,0,0:0:0:0:
288,64,45483,1,0,0:0:0:0:
192,64,45824,1,0,0:0:0:0:
96,96,46165,6,0,L|48:128,2,50
128,128,46676,2,0,L|128:192,2,50
128,176,47187,1,0,0:0:0:0:
128,272,47528,1,0,0:0:0:0:
448,112,48210,1,4,0:0:0:0:
400,80,48551,1,0,0:0:0:0:
352,64,48892,1,0,0:0:0:0:
256,64,49233,6,0,P|208:64|192:80,1,50,4|0,0:0|0:0,0:0:0:0:
160,96,49574,1,0,0:0:0:0:
112,176,49915,1,0,0:0:0:0:
128,272,50256,2,0,P|192:304|224:304,2,100
224,224,51278,2,0,L|256:192,2,25,4|0|0,0:0|0:0|0:0,0:0:0:0:
272,208,51619,2,0,P|352:192|368:160,1,100
352,80,52301,5,4,0:0:0:0:
320,64,52472,1,0,0:0:0:0:
288,64,52642,1,0,0:0:0:0:
256,64,52812,1,0,0:0:0:0:
224,64,52983,1,4,0:0:0:0:
128,112,53324,2,0,P|96:176|96:224,1,100,4|0,0:0|0:0,0:0:0:0:
272,288,54347,6,0,P|320:288|368:256,1,100
320,240,54858,2,0,P|320:176|352:144,1,100
384,128,55369,2,0,L|368:96,4,25,4|0|0|0|0,0:0|0:0|0:0|0:0|0:0,0:0:0:0:
304,80,55881,2,0,P|256:48|192:48,1,100
176,80,56392,1,0,0:0:0:0:
128,112,56562,2,0,L|80:144,2,50
144,160,57074,2,0,P|144:208|160:224,1,50
128,256,57415,6,0,P|176:288|240:288,1,100,4|0,0:0|0:0,0:0:0:0:
272,288,57926,1,0,0:0:0:0:
336,288,58097,1,0,0:0:0:0:
400,224,58437,2,0,P|416:160|400:128,2,100
320,160,59460,2,0,L|304:128,4,25,4|0|0|0|0,0:0|0:0|0:0|0:0|0:0,0:0:0:0:
224,144,60142,1,0,0:0:0:0:
224,144,60312,2,0,P|192:112|144:80,1,100
128,128,60824,2,0,P|96:176|96:224,1,100
112,256,61335,1,0,0:0:0:0:
144,288,61506,2,0,P|192:320|240:320,1,100,4|0,0:0|0:0,0:0:0:0:
336,288,62187,5,0,0:0:0:0:
384,272,62358,2,0,L|416:224,2,50
352,240,62869,2,0,L|320:192,2,50
352,144,63551,1,4,0:0:0:0:
352,144,63722,1,0,0:0:0:0:
352,144,63892,2,4,P|336:80|288:64,1,100,0|0,0:0|0:0,0:0:0:0:
208,80,64574,5,0,0:0:0:0:
160,112,64744,1,0,0:0:0:0:
112,144,64915,1,0,0:0:0:0:
160,112,65085,1,0,0:0:0:0:
112,144,65256,2,0,P|112:192|128:208,2,50,0|0|4,0:0|0:0|0:0,0:0:0:0:
352,272,66449,5,0,0:0:0:0:
368,256,66534,1,0,0:0:0:0:
384,240,66619,2,0,P|400:192|400:176,2,50
336,144,67301,2,0,P|304:128|288:96,2,50,0|0|4,0:0|0:0|0:0,0:0:0:0:
96,64,68665,6,0,P|80:112|96:160,1,100
128,240,69347,1,0,0:0:0:0:
208,288,69687,2,4,P|288:304|320:288,1,100,4|0,0:0|0:0,0:0:0:0:
384,176,70540,5,0,0:0:0:0:
368,160,70625,1,0,0:0:0:0:
352,144,70710,2,0,P|336:128|304:112,2,50
256,192,71392,1,0,0:0:0:0:
256,192,71562,1,0,0:0:0:0:
256,192,71733,12,0,72756,0:0:0:0:
240,288,73778,6,0,P|304:288|352:272,1,100,4|0,0:0|0:0,0:0:0:0:
432,96,74801,1,0,0:0:0:0:
432,96,75142,1,0,0:0:0:0:
240,96,75824,1,0,0:0:0:0:
240,96,76165,1,0,0:0:0:0:
208,288,76847,5,0,0:0:0:0:
304,320,77187,2,0,P|368:304|384:272,1,100
416,192,77869,1,0,0:0:0:0:
416,192,78210,1,0,0:0:0:0:
256,80,78892,5,0,0:0:0:0:
176,144,79233,2,0,L|256:80,1,100
336,144,79915,1,0,0:0:0:0:
448,240,80256,1,0,0:0:0:0:
320,320,80597,1,0,0:0:0:0:
224,336,80937,2,0,P|160:320|128:288,1,100,4|0,0:0|0:0,0:0:0:0:
112,208,81619,5,0,0:0:0:0:
112,160,81790,1,0,0:0:0:0:
128,112,81960,1,4,0:0:0:0:
256,48,82301,1,0,0:0:0:0:
400,160,82983,1,0,0:0:0:0:
400,256,83324,1,0,0:0:0:0:
224,320,84006,1,0,0:0:0:0:
224,224,84347,1,0,0:0:0:0:
352,80,85028,5,0,0:0:0:0:
256,80,85369,1,0,0:0:0:0:
400,80,85710,1,0,0:0:0:0:
256,80,86051,2,4,P|192:128|192:160,1,100,0|4,0:0|0:0,0:0:0:0:
340,288,87074,5,0,0:0:0:0:
240,288,87415,2,0,L|352:288,1,100
144,272,88097,2,0,L|112:224,1,50
144,192,88437,2,0,L|192:160,1,50
208,112,88778,2,0,L|176:64,1,50
224,48,89119,2,0,P|304:48|336:64,1,100,4|0,0:0|0:0,0:0:0:0:
384,128,89801,5,0,0:0:0:0:
416,224,90142,2,0,P|400:288|352:304,1,100,4|0,0:0|0:0,0:0:0:0:
272,288,90824,1,0,0:0:0:0:
272,288,90994,1,0,0:0:0:0:
272,288,91165,2,0,P|240:288|224:272,2,50
176,240,91847,2,0,P|144:224|128:192,1,50
128,160,92187,2,0,L|128:128,2,25,4|0|0,0:0|0:0|0:0,0:0:0:0:
144,112,92528,2,0,P|192:80|240:80,1,100
384,48,93210,5,0,0:0:0:0:
432,192,93551,1,0,0:0:0:0:
336,80,93892,1,0,0:0:0:0:
368,224,94233,2,0,P|384:272|368:320,1,100,4|0,0:0|0:0,0:0:0:0:
272,304,94915,5,0,0:0:0:0:
272,304,95085,1,0,0:0:0:0:
272,304,95256,2,0,L|208:288,1,50
176,256,95597,2,0,L|144:208,1,50
144,160,95937,2,0,L|160:112,1,50
208,96,96278,2,0,L|208:64,2,25,4|0|0,0:0|0:0|0:0,0:0:0:0:
224,48,96619,2,0,P|304:48|336:64,1,100
368,144,97301,5,0,0:0:0:0:
336,192,97472,2,0,L|304:240,2,50
368,224,97983,2,0,L|384:272,1,50
368,320,98324,2,0,P|288:336|256:336,1,100,4|0,0:0|0:0,0:0:0:0:
192,288,99006,5,0,0:0:0:0:
192,288,99176,2,0,P|160:272|144:240,2,50
176,240,99687,2,0,P|144:176|144:128,1,100
224,96,100369,2,0,L|256:80,2,25,4|0|0,0:0|0:0|0:0,0:0:0:0:
272,80,100710,2,0,P|352:80|368:96,1,100
368,192,101392,6,0,L|336:240,2,50
320,192,101903,2,0,L|272:208,2,50
304,144,102415,2,0,P|224:144|208:160,1,100,4|0,0:0|0:0,0:0:0:0:
128,208,103097,5,0,0:0:0:0:
96,256,103267,1,0,0:0:0:0:
96,304,103437,2,0,P|160:336|192:336,1,100
240,320,103949,2,0,P|304:288|336:256,1,100
368,240,104460,1,4,0:0:0:0:
368,240,104886,1,0,0:0:0:0:
160,96,105653,5,0,0:0:0:0:
128,128,105824,2,0,L|80:176,1,50
128,192,106165,2,0,L|80:240,1,50
128,256,106506,2,0,P|96:288|144:320,1,100
272,320,107187,5,0,0:0:0:0:
272,320,107528,2,0,P|352:304|384:288,1,100,4|0,0:0|0:0,0:0:0:0:
432,192,108210,1,0,0:0:0:0:
432,192,108551,2,0,P|416:128|384:112,1,100,4|0,0:0|0:0,0:0:0:0:
288,64,109233,1,0,0:0:0:0:
176,80,109574,1,4,0:0:0:0:
96,176,109915,5,0,0:0:0:0:
64,224,110085,1,0,0:0:0:0:
128,224,110256,1,0,0:0:0:0:
208,320,110597,2,0,P|288:336|320:336,1,100,4|0,0:0|0:0,0:0:0:0:
336,224,111278,2,0,P|336:192|320:160,1,50
384,208,111619,2,0,P|432:144|368:48,1,200,4|0,0:0|0:0,0:0:0:0:
304,144,112642,6,0,L|272:128,4,25,4|0|0|0|0,0:0|0:0|0:0|0:0|0:0,0:0:0:0:
208,80,113324,1,0,0:0:0:0:
160,96,113665,1,0,0:0:0:0:
128,128,114006,1,0,0:0:0:0:
112,176,114347,1,0,0:0:0:0:
128,288,114687,1,4,0:0:0:0:
224,224,115028,6,0,L|272:192,1,50
288,256,115369,2,0,L|352:272,1,50
400,272,115710,2,0,P|448:240|432:144,1,150,4|0,0:0|0:0,0:0:0:0:
416,112,116392,1,0,0:0:0:0:
416,112,116562,1,0,0:0:0:0:
384,64,116733,2,0,P|336:48|288:64,1,100,4|0,0:0|0:0,0:0:0:0:
176,112,117415,1,0,0:0:0:0:
96,208,117756,2,0,P|64:256|80:320,1,125,4|0,0:0|0:0,0:0:0:0:
176,256,118437,6,0,P|208:272|224:272,1,50
272,288,118778,2,0,P|336:288|368:256,2,100,4|0|0,0:0|0:0|0:0,0:0:0:0:
368,208,119801,2,0,P|400:160|448:144,2,100,4|0|0,0:0|0:0|0:0,0:0:0:0:
256,192,120824,1,4,0:0:0:0:
112,160,122869,5,4,0:0:0:0:
112,160,123210,1,0,0:0:0:0:
304,96,123892,1,0,0:0:0:0:
416,192,124233,1,0,0:0:0:0:
272,224,124574,1,0,0:0:0:0:
336,304,124915,2,0,B|288:336|240:320,1,100
80,208,125937,5,0,0:0:0:0:
144,64,126278,1,0,0:0:0:0:
176,208,126619,1,0,0:0:0:0:
208,64,126960,2,0,L|320:64,1,100
240,272,127983,6,0,P|176:288|144:256,1,100
96,192,128665,1,0,0:0:0:0:
112,96,129006,2,0,P|176:64|224:64,1,100
304,64,129687,1,0,0:0:0:0:
368,144,130028,2,0,P|400:224|320:304,1,200,4|0,0:0|0:0,0:0:0:0:
240,288,131051,5,4,0:0:0:0:
240,288,131392,1,0,0:0:0:0:
96,144,132074,1,0,0:0:0:0:
240,192,132415,1,0,0:0:0:0:
384,144,133097,1,0,0:0:0:0:
240,192,133437,1,0,0:0:0:0:
144,304,134119,5,0,0:0:0:0:
240,304,134460,2,0,P|304:304|336:288,1,100
384,208,135142,1,0,0:0:0:0:
384,208,135483,1,0,0:0:0:0:
240,80,136165,1,0,0:0:0:0:
144,128,136506,1,0,0:0:0:0:
208,208,136847,1,0,0:0:0:0:
128,272,137187,5,0,0:0:0:0:
160,304,137358,1,0,0:0:0:0:
192,320,137528,1,0,0:0:0:0:
224,320,137699,1,0,0:0:0:0:
256,320,137869,1,0,0:0:0:0:
336,256,138210,2,0,P|368:192|368:144,1,100,4|0,0:0|0:0,0:0:0:0:
192,80,139233,5,4,0:0:0:0:
160,112,139403,2,0,P|128:144|128:160,2,50
192,160,139915,2,0,P|192:208|176:224,1,50
144,240,140256,2,0,P|144:304|256:304,1,200
352,288,141278,6,0,P|384:256|384:192,1,100,4|0,0:0|0:0,0:0:0:0:
368,160,141790,1,0,0:0:0:0:
336,128,141960,1,0,0:0:0:0:
432,160,142301,2,0,P|416:112|368:64,1,100
336,48,142812,1,0,0:0:0:0:
288,48,142983,1,0,0:0:0:0:
176,64,143324,6,0,P|144:80|128:96,1,50,4|0,0:0|0:0,0:0:0:0:
96,128,143665,2,0,P|80:176|80:192,3,50
112,224,144347,2,0,P|144:272|192:304,1,100
208,256,144858,2,0,P|176:192|176:160,1,100
224,144,145369,2,0,P|288:192|416:192,1,200,4|0,0:0|0:0,0:0:0:0:
432,288,146392,5,4,0:0:0:0:
384,320,146562,2,0,L|336:288,1,50
288,288,146903,2,0,L|240:304,1,50
208,272,147244,1,0,0:0:0:0:
208,272,147415,2,0,P|160:208|160:80,1,200,4|0,0:0|0:0,0:0:0:0:
192,64,148267,5,0,0:0:0:0:
192,64,148437,2,0,P|304:48|384:96,1,200
400,192,149460,6,0,P|416:224|416:240,1,50,4|0,0:0|0:0,0:0:0:0:
384,272,149801,1,0,0:0:0:0:
384,272,149972,2,0,P|368:320|320:336,1,100
272,320,150483,2,0,P|208:304|176:272,1,100
144,240,150994,2,0,P|112:192|128:144,1,100,0|4,0:0|0:0,0:0:0:0:
144,112,151506,1,0,0:0:0:0:
144,112,151676,1,0,0:0:0:0:
224,64,152017,6,0,P|256:48|288:48,2,50
256,96,152528,2,0,P|336:128|352:144,1,100
304,176,153040,2,0,P|272:224|304:240,1,100
336,256,153551,2,0,P|304:320|176:320,1,200,4|0,0:0|0:0,0:0:0:0:
176,224,154574,5,0,0:0:0:0:
128,224,154744,2,0,P|96:192|96:176,2,50
128,176,155256,2,0,L|160:112,1,50
176,96,155597,1,4,0:0:0:0:
256,192,168892,12,4,170937,0:0:0:0:
352,288,171619,5,0,0:0:0:0:
384,256,171960,2,0,P|400:208|400:176,1,75,4|0,0:0|0:0,0:0:0:0:
384,160,172301,2,0,L|336:128,1,50
368,96,172642,2,0,L|320:64,1,50
272,64,172983,2,0,P|224:64|96:144,1,200
96,240,174006,6,0,P|128:304|160:320,1,100,4|0,0:0|0:0,0:0:0:0:
176,272,174517,1,0,0:0:0:0:
208,304,174687,1,0,0:0:0:0:
304,304,175028,2,0,P|368:272|368:240,1,100
320,240,175540,1,0,0:0:0:0:
336,192,175710,1,0,0:0:0:0:
320,240,175881,1,0,0:0:0:0:
336,192,176051,2,0,P|336:128|208:96,1,200,4|0,0:0|0:0,0:0:0:0:
128,112,177074,6,0,P|96:160|112:208,1,100
144,224,177585,2,0,P|192:240|192:304,1,100
160,320,178097,2,0,L|192:320,2,25,4|0|0,0:0|0:0|0:0,0:0:0:0:
208,320,178437,2,0,P|256:320|320:288,1,100
448,240,179119,1,4,0:0:0:0:
416,192,179290,6,0,L|368:176,2,50
432,144,179801,2,0,L|432:80,1,50
384,80,180142,1,4,0:0:0:0:
336,80,180483,1,0,0:0:0:0:
336,80,180653,1,0,0:0:0:0:
336,80,180824,2,0,P|304:80|288:96,1,50
240,96,181165,2,0,P|208:112|192:128,1,50
160,160,181506,2,0,P|144:192|144:224,2,50
208,320,182017,5,0,0:0:0:0:
208,320,182102,1,0,0:0:0:0:
208,320,182187,2,0,P|272:320|320:288,1,100,4|0,0:0|0:0,0:0:0:0:
288,256,182699,2,0,P|320:240|336:224,1,50
384,224,183040,2,0,P|416:176|416:128,1,100
368,112,183551,1,0,0:0:0:0:
320,112,183722,1,0,0:0:0:0:
272,128,183892,1,0,0:0:0:0:
336,48,184233,6,0,P|240:64|192:96,1,150,4|0,0:0|0:0,0:0:0:0:
96,160,184915,1,0,0:0:0:0:
96,208,185085,1,0,0:0:0:0:
96,256,185256,2,0,L|96:320,2,50
144,256,185767,2,0,L|192:288,2,50
160,208,186278,2,0,P|208:144|336:112,1,200,4|0,0:0|0:0,0:0:0:0:
432,208,187301,5,0,0:0:0:0:
416,256,187472,2,0,P|400:288|384:304,2,50
368,240,187983,2,0,L|320:256,1,50
304,304,188324,2,0,P|240:320|192:320,1,100,4|0,0:0|0:0,0:0:0:0:
112,272,189006,1,0,0:0:0:0:
96,176,189347,2,0,P|128:128|176:96,1,100,4|0,0:0|0:0,0:0:0:0:
256,64,190028,5,0,0:0:0:0:
352,48,190369,2,0,L|368:80,4,25,4|0|0|0|0,0:0|0:0|0:0|0:0|0:0,0:0:0:0:
400,144,191051,1,0,0:0:0:0:
416,240,191392,2,0,P|368:304|336:320,1,100,4|0,0:0|0:0,0:0:0:0:
256,304,192074,5,0,0:0:0:0:
112,256,192415,1,4,0:0:0:0:
400,208,193097,1,0,0:0:0:0:
256,160,193437,1,4,0:0:0:0:
288,80,193778,5,0,0:0:0:0:
336,96,194119,1,0,0:0:0:0:
384,128,194460,2,0,L|400:160,4,25
384,224,195142,1,0,0:0:0:0:
352,304,195483,1,0,0:0:0:0:
272,256,195824,1,0,0:0:0:0:
208,320,196165,1,0,0:0:0:0:
144,192,196506,5,4,0:0:0:0:
192,112,196847,2,0,L|224:64,1,50
272,80,197187,2,0,L|320:96,1,50
368,64,197528,2,0,P|416:128|416:160,1,100,4|0,0:0|0:0,0:0:0:0:
416,192,198040,2,0,L|400:256,2,50
368,208,198551,2,0,P|320:256|288:272,1,100,4|0,0:0|0:0,0:0:0:0:
192,272,199233,2,0,L|144:320,1,50
160,256,199574,2,0,P|112:208|96:160,1,100,4|0,0:0|0:0,0:0:0:0:
128,128,200085,6,0,L|128:96,2,25
272,96,200597,1,4,0:0:0:0:
416,128,200937,1,0,0:0:0:0:
272,176,201278,1,0,0:0:0:0:
416,208,201619,5,4,0:0:0:0:
352,288,201960,1,0,0:0:0:0:
256,320,202301,1,0,0:0:0:0:
160,288,202642,2,0,P|112:224|112:96,1,200,4|0,0:0|0:0,0:0:0:0:
208,80,203665,1,0,0:0:0:0:
208,80,204006,2,0,P|240:80|256:96,2,50
352,144,204687,6,0,P|384:224|384:256,1,100,4|0,0:0|0:0,0:0:0:0:
304,304,205369,1,0,0:0:0:0:
208,304,205710,2,0,P|144:272|128:240,1,100,4|0,0:0|0:0,0:0:0:0:
112,144,206392,5,0,0:0:0:0:
192,96,206733,2,0,P|256:80|304:96,1,100,4|0,0:0|0:0,0:0:0:0:
336,112,207244,1,0,0:0:0:0:
384,144,207415,1,0,0:0:0:0:
400,240,207756,2,0,P|384:304|336:320,1,100,4|0,0:0|0:0,0:0:0:0:
256,320,208437,5,0,0:0:0:0:
224,224,208778,2,0,L|256:336,1,100,4|0,0:0|0:0,0:0:0:0:
144,320,209460,1,0,0:0:0:0:
112,224,209801,2,0,L|144:336,1,100,4|0,0:0|0:0,0:0:0:0:
240,320,210483,1,0,0:0:0:0:
240,320,210824,2,0,P|336:320|416:256,1,200,4|0,0:0|0:0,0:0:0:0:
400,160,211847,1,0,0:0:0:0:
400,160,212187,2,0,P|384:128|368:112,2,50
288,64,212869,5,4,0:0:0:0:
240,64,213040,2,0,L|176:48,2,50
208,96,213551,2,0,L|160:128,1,50
128,160,213892,2,0,P|96:224|96:256,1,100,4|0,0:0|0:0,0:0:0:0:
128,288,214403,2,0,L|192:272,2,50
176,320,214915,6,0,P|240:336|288:320,1,100,4|0,0:0|0:0,0:0:0:0:
320,304,215426,1,0,0:0:0:0:
352,272,215597,1,0,0:0:0:0:
400,192,215937,2,0,P|320:208|288:192,1,100,4|0,0:0|0:0,0:0:0:0:
256,176,216449,1,0,0:0:0:0:
208,144,216619,1,0,0:0:0:0:
160,64,216960,6,0,P|112:128|112:144,2,100,4|0|0,0:0|0:0|0:0,0:0:0:0:
176,160,217983,2,0,P|176:224|144:256,2,100,4|0|0,0:0|0:0|0:0,0:0:0:0:
240,80,219006,2,0,P|320:64|416:144,1,200,4|0,0:0|0:0,0:0:0:0:
352,208,220028,5,0,0:0:0:0:
432,272,220369,1,0,0:0:0:0:
336,256,220710,1,0,0:0:0:0:
256,304,221051,6,0,P|208:304|176:288,1,75,4|0,0:0|0:0,0:0:0:0:
160,272,221392,2,0,P|128:224|128:208,1,75
128,176,221733,2,0,P|144:128|160:112,1,75
176,96,222074,1,4,0:0:0:0:
240,176,222415,1,0,0:0:0:0:
336,224,222756,1,0,0:0:0:0:
432,192,223097,6,0,L|448:160,8,25,4|0|0|0|0|0|0|0|0,0:0|0:0|0:0|0:0|0:0|0:0|0:0|0:0|0:0,0:0:0:0:
384,112,224119,1,0,0:0:0:0:
288,112,224460,1,0,0:0:0:0:
192,112,224801,1,0,0:0:0:0:
128,192,225142,6,0,P|112:240|128:288,1,100,4|0,0:0|0:0,0:0:0:0:
176,288,225653,2,0,L|224:240,2,50
224,304,226165,2,0,P|272:304|336:288,2,100,4|0|0,0:0|0:0|0:0,0:0:0:0:
320,192,227187,2,0,P|320:128|208:80,1,200,4|0,0:0|0:0,0:0:0:0:
144,160,228210,6,0,P|128:224|160:256,2,100
208,160,229233,5,4,0:0:0:0:
272,160,229574,1,0,0:0:0:0:
336,160,229915,1,0,0:0:0:0:
336,224,230256,5,4,0:0:0:0:
400,224,230597,1,0,0:0:0:0:
464,224,230937,1,0,0:0:0:0:
256,192,231278,12,0,233324,0:0:0:0:
160,112,233665,5,0,0:0:0:0:
160,112,234006,1,4,0:0:0:0:
160,208,234347,5,4,0:0:0:0:
256,208,234687,1,0,0:0:0:0:
256,208,235028,1,4,0:0:0:0:
256,192,235369,12,0,238437,0:0:0:0:
