osu file format v14

[General]
AudioFilename: audio.mp3
AudioLeadIn: 0
PreviewTime: 48892
Countdown: 0
SampleSet: Normal
StackLeniency: 0.7
Mode: 0
LetterboxInBreaks: 0
WidescreenStoryboard: 1

[Editor]
Bookmarks: 16506,65597,73778,106506,122869,155597
DistanceSpacing: 0.8
BeatDivisor: 3
GridSize: 16
TimelineZoom: 1

[Metadata]
Title:Formalin
TitleUnicode:Формалин
Artist:Fleur
ArtistUnicode:Fleur
Creator:Dunkelnacht
Version:Easy
Source:
Tags:fleur russian cardiowave флёр формалин
BeatmapID:1067242
BeatmapSetID:501500

[Difficulty]
HPDrainRate:4
CircleSize:3.5
OverallDifficulty:4
ApproachRate:4
SliderMultiplier:0.7
SliderTickRate:1

[Events]
//Background and Video events
0,0,"289292.jpg",0,0
//Break Periods
2,64773,68367
//Storyboard Layer 0 (Background)
//Storyboard Layer 1 (Fail)
//Storyboard Layer 2 (Pass)
//Storyboard Layer 3 (Foreground)
//Storyboard Sound Samples

[TimingPoints]
142.522752808494,340.909090909091,3,1,1,90,1,0

[HitObjects]
192,240,16506,5,0,0:0:0:0:
352,288,17528,2,0,P|368:240|368:208,1,70
368,160,18210,2,0,P|352:112|336:96,1,70
176,96,19574,5,0,0:0:0:0:
272,224,20597,1,0,0:0:0:0:
112,224,21619,6,0,P|144:272|160:288,2,70
96,176,22642,1,0,0:0:0:0:
240,256,23665,1,0,0:0:0:0:
352,128,24687,1,0,0:0:0:0:
192,64,25710,6,0,P|160:96|160:128,1,70
128,160,26392,2,0,P|144:224|160:240,1,70
272,112,27756,1,0,0:0:0:0:
384,224,28778,1,0,0:0:0:0:
224,240,29801,6,0,P|272:272|288:272,2,70
256,192,30824,1,0,0:0:0:0:
160,256,32869,6,0,P|208:288|240:288,1,70
336,272,33892,2,0,L|368:208,2,70
288,240,34915,1,0,0:0:0:0:
192,96,35937,6,0,L|160:160,2,70
240,128,36960,1,0,0:0:0:0:
112,240,37983,6,0,P|144:272|176:288,1,70
224,288,38665,1,0,0:0:0:0:
272,272,39006,2,0,P|320:256|336:224,1,70
368,144,40028,1,0,0:0:0:0:
208,160,41051,6,0,L|256:96,1,70
352,160,42074,2,0,P|384:224|368:288,1,140
320,304,43097,1,0,0:0:0:0:
160,272,44119,6,0,P|128:224|128:208,2,70
208,240,45142,1,0,0:0:0:0:
240,80,46165,6,0,P|304:64|320:64,2,70
192,112,47187,1,0,0:0:0:0:
336,192,48210,1,0,0:0:0:0:
192,272,49233,6,0,P|256:304|336:288,1,140
368,272,50256,2,0,P|400:240|416:208,2,70
336,224,51278,2,0,P|336:144|288:96,1,140
240,96,52301,6,0,L|192:32,2,70
192,128,53324,2,0,P|128:192|112:256,1,140
144,288,54347,5,0,0:0:0:0:
288,208,55369,1,0,0:0:0:0:
144,128,56392,1,0,0:0:0:0:
240,80,57415,6,0,P|336:80|384:112,1,140
384,160,58437,2,0,P|384:224|320:288,1,140
288,320,59460,2,0,P|192:288|160:256,1,140
128,224,60483,6,0,L|64:176,2,70
176,208,61506,2,0,P|272:192|304:160,1,140
288,112,62528,2,0,L|224:80,2,70
336,96,63551,2,0,P|416:160|384:272,1,210
256,192,69687,12,0,71733,0:0:0:0:
208,288,73778,6,0,P|256:288|288:272,1,70
368,208,74801,2,0,P|368:160|304:96,1,140
256,96,75824,1,0,0:0:0:0:
96,160,76847,6,0,L|128:224,1,70
176,208,77528,2,0,L|208:272,1,70
368,288,78892,6,0,P|416:224|400:160,1,140
368,128,79915,1,0,0:0:0:0:
208,128,80937,1,0,0:0:0:0:
144,288,81960,6,0,L|144:208,1,70
224,288,82983,2,0,P|320:288|368:272,1,140
368,224,84006,1,0,0:0:0:0:
224,144,85028,6,0,P|272:96|288:96,2,70
224,192,86051,1,0,0:0:0:0:
80,272,87074,6,0,P|128:304|160:304,2,70
80,208,88097,1,0,0:0:0:0:
208,112,89119,1,0,0:0:0:0:
368,176,90142,6,0,P|400:224|352:288,1,140
304,304,91165,2,0,P|240:304|208:240,1,140
224,192,92187,2,0,P|272:128|336:144,1,140
384,128,93210,6,0,L|352:64,2,70
416,176,94233,2,0,L|416:320,1,140
368,320,95256,6,0,P|288:320|224:304,1,140
192,272,96278,1,0,0:0:0:0:
336,192,97301,1,0,0:0:0:0:
208,80,98324,6,0,P|128:112|112:176,1,140
128,208,99347,2,0,L|96:272,2,70
176,240,100369,2,0,P|256:288|320:288,1,140
336,256,101392,6,0,L|400:304,2,70
368,208,102415,2,0,P|384:128|352:64,1,140
304,80,103437,6,0,L|224:80,1,70
192,112,104119,1,0,0:0:0:0:
160,160,104460,2,0,L|160:240,1,70
