osu file format v14

[General]
AudioFilename: The Hypocrisy.mp3
AudioLeadIn: 0
PreviewTime: 11557
Countdown: 0
SampleSet: Drum
StackLeniency: 0.7
Mode: 3
LetterboxInBreaks: 0
SpecialStyle: 0
WidescreenStoryboard: 0

[Editor]
DistanceSpacing: 1.7
BeatDivisor: 4
GridSize: 8
TimelineZoom: 2.3

[Metadata]
Title:The Hypocrisy
TitleUnicode:The Hypocrisy
Artist:Fleshgod Apocalypse
ArtistUnicode:Fleshgod Apocalypse
Creator:Phil
Version:Torment
Source:
Tags:marathon technical death metal rock english agony xay xayphon collaboration
BeatmapID:865148
BeatmapSetID:397784

[Difficulty]
HPDrainRate:8.5
CircleSize:4
OverallDifficulty:9
ApproachRate:5
SliderMultiplier:1.4
SliderTickRate:1

[Events]
//Background and Video events
0,0,"apocalypse.jpg",0,0
//Break Periods
//Storyboard Layer 0 (Background)
//Storyboard Layer 1 (Fail)
//Storyboard Layer 2 (Pass)
//Storyboard Layer 3 (Foreground)
//Storyboard Layer 4 (Overlay)
//Storyboard Sound Samples

[TimingPoints]
37,240,3,3,1,50,1,0
90757,-100,3,3,1,50,0,1
113797,-100,3,3,1,50,0,0
262117,-100,3,3,1,50,0,1
285157,-100,3,3,1,50,0,0

[HitObjects]
64,192,37,5,0,0:0:0:0:
320,192,37,1,0,0:0:0:0:
448,192,37,1,0,0:0:0:0:
320,192,277,1,0,0:0:0:0:
192,192,337,1,0,0:0:0:0:
320,192,397,1,0,0:0:0:0:
448,192,517,1,0,0:0:0:0:
448,192,637,1,0,0:0:0:0:
64,192,757,1,0,0:0:0:0:
192,192,757,1,0,0:0:0:0:
448,192,997,1,0,0:0:0:0:
192,192,1237,1,0,0:0:0:0:
64,192,1297,1,0,0:0:0:0:
320,192,1357,1,0,0:0:0:0:
192,192,1417,1,0,0:0:0:0:
320,192,1477,1,0,0:0:0:0:
448,192,1477,1,0,0:0:0:0:
320,192,1957,1,0,0:0:0:0:
448,192,2017,1,0,0:0:0:0:
320,192,2077,1,0,0:0:0:0:
192,192,2137,1,0,0:0:0:0:
64,192,2197,1,0,0:0:0:0:
448,192,2197,1,0,0:0:0:0:
64,192,2437,1,0,0:0:0:0:
448,192,2437,1,0,0:0:0:0:
64,192,2677,1,0,0:0:0:0:
448,192,2677,1,0,0:0:0:0:
64,192,2917,1,0,0:0:0:0:
320,192,2917,1,0,0:0:0:0:
448,192,2917,1,0,0:0:0:0:
192,192,3277,1,0,0:0:0:0:
320,192,3637,1,0,0:0:0:0:
448,192,3637,1,0,0:0:0:0:
64,192,3877,1,0,0:0:0:0:
192,192,3937,1,0,0:0:0:0:
448,192,3997,1,0,0:0:0:0:
320,192,4057,1,0,0:0:0:0:
192,192,4117,1,0,0:0:0:0:
64,192,4177,1,0,0:0:0:0:
448,192,4237,1,0,0:0:0:0:
320,192,4297,1,0,0:0:0:0:
64,192,4357,1,0,0:0:0:0:
192,192,4357,128,0,4477:0:0:0:0:
320,192,4597,1,0,0:0:0:0:
64,192,4597,128,0,4717:0:0:0:0:
448,192,4837,1,0,0:0:0:0:
320,192,5077,1,0,0:0:0:0:
192,192,5137,1,0,0:0:0:0:
320,192,5197,1,0,0:0:0:0:
192,192,5257,1,0,0:0:0:0:
64,192,5317,1,0,0:0:0:0:
320,192,5317,128,0,5437:0:0:0:0:
448,192,5317,1,0,0:0:0:0:
64,192,5557,128,0,5677:0:0:0:0:
192,192,5557,1,0,0:0:0:0:
320,192,5557,1,0,0:0:0:0:
64,192,5797,1,0,0:0:0:0:
192,192,5797,1,0,0:0:0:0:
448,192,5797,128,0,5917:0:0:0:0:
192,192,6157,1,0,0:0:0:0:
64,192,6517,1,0,0:0:0:0:
448,192,6517,1,0,0:0:0:0:
192,192,6577,1,0,0:0:0:0:
320,192,6637,1,0,0:0:0:0:
448,192,6697,1,0,0:0:0:0:
192,192,6757,1,0,0:0:0:0:
320,192,6817,1,0,0:0:0:0:
64,192,6877,1,0,0:0:0:0:
192,192,6937,1,0,0:0:0:0:
320,192,6997,1,0,0:0:0:0:
448,192,7057,1,0,0:0:0:0:
192,192,7117,1,0,0:0:0:0:
320,192,7177,1,0,0:0:0:0:
192,192,7237,1,0,0:0:0:0:
64,192,7237,1,0,0:0:0:0:
448,192,7237,1,0,0:0:0:0:
64,192,7477,1,0,0:0:0:0:
320,192,7537,1,0,0:0:0:0:
64,192,7597,1,0,0:0:0:0:
320,192,7657,1,0,0:0:0:0:
64,192,7717,1,0,0:0:0:0:
320,192,7837,1,0,0:0:0:0:
64,192,7957,1,0,0:0:0:0:
320,192,7957,1,0,0:0:0:0:
320,192,8077,1,0,0:0:0:0:
192,192,8197,1,0,0:0:0:0:
320,192,8197,1,0,0:0:0:0:
64,192,8317,1,0,0:0:0:0:
320,192,8317,1,0,0:0:0:0:
320,192,8437,1,0,0:0:0:0:
448,192,8437,1,0,0:0:0:0:
192,192,8557,1,0,0:0:0:0:
64,192,8557,1,0,0:0:0:0:
64,192,8677,1,0,0:0:0:0:
448,192,8677,1,0,0:0:0:0:
320,192,8677,1,0,0:0:0:0:
64,192,8917,1,0,0:0:0:0:
448,192,8917,1,0,0:0:0:0:
192,192,8977,1,0,0:0:0:0:
320,192,9037,1,0,0:0:0:0:
448,192,9097,1,0,0:0:0:0:
192,192,9157,1,0,0:0:0:0:
320,192,9217,1,0,0:0:0:0:
64,192,9277,1,0,0:0:0:0:
320,192,9337,1,0,0:0:0:0:
192,192,9397,1,0,0:0:0:0:
448,192,9457,1,0,0:0:0:0:
320,192,9517,1,0,0:0:0:0:
64,192,9577,1,0,0:0:0:0:
192,192,9637,1,0,0:0:0:0:
320,192,9637,1,0,0:0:0:0:
64,192,9697,1,0,0:0:0:0:
448,192,9757,1,0,0:0:0:0:
320,192,9757,1,0,0:0:0:0:
448,192,9877,1,0,0:0:0:0:
320,192,9877,1,0,0:0:0:0:
192,192,9997,1,0,0:0:0:0:
64,192,9997,1,0,0:0:0:0:
64,192,10117,1,0,0:0:0:0:
448,192,10117,1,0,0:0:0:0:
192,192,10237,1,0,0:0:0:0:
320,192,10237,1,0,0:0:0:0:
448,192,10237,1,0,0:0:0:0:
320,192,10357,1,0,0:0:0:0:
448,192,10837,1,0,0:0:0:0:
64,192,10837,128,0,10957:0:0:0:0:
192,192,10837,1,0,0:0:0:0:
192,192,10957,128,0,11077:0:0:0:0:
448,192,11197,1,0,0:0:0:0:
192,192,11197,128,0,11317:0:0:0:0:
320,192,11197,1,0,0:0:0:0:
320,192,11317,128,0,11437:0:0:0:0:
64,192,11557,1,0,0:0:0:0:
448,0,11557,128,0,11917:0:0:0:0:
192,192,11557,1,0,0:0:0:0:
64,192,11917,1,0,0:0:0:0:
192,192,11977,1,0,0:0:0:0:
320,192,12037,1,0,0:0:0:0:
448,192,12097,1,0,0:0:0:0:
64,192,12157,1,0,0:0:0:0:
320,192,12217,1,0,0:0:0:0:
192,192,12277,1,0,0:0:0:0:
448,192,12277,1,0,0:0:0:0:
64,192,12337,1,0,0:0:0:0:
320,192,12397,1,0,0:0:0:0:
448,192,12457,1,0,0:0:0:0:
320,192,12517,1,0,0:0:0:0:
192,192,12577,1,0,0:0:0:0:
64,192,12637,1,0,0:0:0:0:
448,192,12697,1,0,0:0:0:0:
192,192,12757,1,0,0:0:0:0:
320,192,12817,1,0,0:0:0:0:
192,192,12877,1,0,0:0:0:0:
448,192,12937,1,0,0:0:0:0:
64,192,12997,1,0,0:0:0:0:
192,192,12997,1,0,0:0:0:0:
448,192,13057,1,0,0:0:0:0:
320,192,13117,1,0,0:0:0:0:
192,192,13177,1,0,0:0:0:0:
448,192,13237,1,0,0:0:0:0:
64,192,13297,1,0,0:0:0:0:
192,192,13357,1,0,0:0:0:0:
320,192,13417,1,0,0:0:0:0:
448,192,13477,1,0,0:0:0:0:
64,192,13537,1,0,0:0:0:0:
320,192,13597,1,0,0:0:0:0:
192,192,13657,1,0,0:0:0:0:
64,192,13717,1,0,0:0:0:0:
448,192,13717,1,0,0:0:0:0:
320,192,13777,1,0,0:0:0:0:
448,192,13837,1,0,0:0:0:0:
64,192,13897,1,0,0:0:0:0:
192,192,13957,1,0,0:0:0:0:
320,192,13957,1,0,0:0:0:0:
448,192,14017,1,0,0:0:0:0:
64,192,14077,1,0,0:0:0:0:
192,192,14137,1,0,0:0:0:0:
320,192,14197,1,0,0:0:0:0:
448,192,14197,1,0,0:0:0:0:
64,192,14257,1,0,0:0:0:0:
192,192,14317,1,0,0:0:0:0:
320,192,14377,1,0,0:0:0:0:
64,192,14437,1,0,0:0:0:0:
448,192,14437,1,0,0:0:0:0:
192,192,14497,1,0,0:0:0:0:
320,192,14557,1,0,0:0:0:0:
448,192,14617,1,0,0:0:0:0:
64,192,14677,1,0,0:0:0:0:
192,192,14737,1,0,0:0:0:0:
448,192,14797,1,0,0:0:0:0:
320,192,14857,1,0,0:0:0:0:
192,192,14917,1,0,0:0:0:0:
64,192,14977,1,0,0:0:0:0:
320,192,15037,1,0,0:0:0:0:
192,192,15097,1,0,0:0:0:0:
320,192,15157,1,0,0:0:0:0:
448,192,15157,1,0,0:0:0:0:
64,192,15217,1,0,0:0:0:0:
192,192,15277,1,0,0:0:0:0:
448,192,15337,1,0,0:0:0:0:
64,192,15397,1,0,0:0:0:0:
448,192,15457,1,0,0:0:0:0:
320,192,15517,1,0,0:0:0:0:
192,192,15577,1,0,0:0:0:0:
448,192,15637,1,0,0:0:0:0:
64,192,15697,1,0,0:0:0:0:
192,192,15757,1,0,0:0:0:0:
320,192,15817,1,0,0:0:0:0:
64,192,15877,1,0,0:0:0:0:
192,192,15877,1,0,0:0:0:0:
448,192,15937,1,0,0:0:0:0:
320,192,15997,1,0,0:0:0:0:
192,192,16057,1,0,0:0:0:0:
64,192,16117,1,0,0:0:0:0:
448,192,16117,1,0,0:0:0:0:
320,192,16177,1,0,0:0:0:0:
192,192,16237,1,0,0:0:0:0:
64,192,16297,1,0,0:0:0:0:
448,192,16357,1,0,0:0:0:0:
320,192,16417,1,0,0:0:0:0:
448,192,16477,1,0,0:0:0:0:
192,192,16537,1,0,0:0:0:0:
64,192,16597,1,0,0:0:0:0:
320,192,16657,1,0,0:0:0:0:
192,192,16717,1,0,0:0:0:0:
320,192,16777,1,0,0:0:0:0:
64,192,16837,1,0,0:0:0:0:
448,192,16837,1,0,0:0:0:0:
192,192,16897,1,0,0:0:0:0:
320,192,16957,1,0,0:0:0:0:
448,192,17017,1,0,0:0:0:0:
64,192,17077,1,0,0:0:0:0:
192,192,17077,1,0,0:0:0:0:
320,192,17137,1,0,0:0:0:0:
448,192,17197,1,0,0:0:0:0:
64,192,17257,1,0,0:0:0:0:
192,192,17317,1,0,0:0:0:0:
320,192,17317,1,0,0:0:0:0:
448,192,17377,1,0,0:0:0:0:
64,192,17437,1,0,0:0:0:0:
192,192,17497,1,0,0:0:0:0:
320,192,17557,1,0,0:0:0:0:
192,192,17617,1,0,0:0:0:0:
64,192,17677,1,0,0:0:0:0:
320,192,17737,1,0,0:0:0:0:
448,192,17797,1,0,0:0:0:0:
192,192,17857,1,0,0:0:0:0:
320,192,17917,1,0,0:0:0:0:
192,192,17977,1,0,0:0:0:0:
64,192,18037,1,0,0:0:0:0:
448,192,18037,1,0,0:0:0:0:
320,192,18097,1,0,0:0:0:0:
192,192,18157,1,0,0:0:0:0:
64,192,18217,1,0,0:0:0:0:
448,192,18277,1,0,0:0:0:0:
192,192,18337,1,0,0:0:0:0:
320,192,18397,1,0,0:0:0:0:
64,192,18457,1,0,0:0:0:0:
448,192,18517,1,0,0:0:0:0:
320,192,18577,1,0,0:0:0:0:
192,192,18637,1,0,0:0:0:0:
64,192,18697,1,0,0:0:0:0:
192,192,18757,1,0,0:0:0:0:
448,192,18757,1,0,0:0:0:0:
320,192,18817,1,0,0:0:0:0:
192,192,18877,1,0,0:0:0:0:
448,192,18937,1,0,0:0:0:0:
320,192,18997,1,0,0:0:0:0:
64,192,19057,1,0,0:0:0:0:
192,192,19117,1,0,0:0:0:0:
448,192,19177,1,0,0:0:0:0:
320,192,19237,1,0,0:0:0:0:
192,192,19297,1,0,0:0:0:0:
64,192,19357,1,0,0:0:0:0:
320,192,19417,1,0,0:0:0:0:
64,192,19477,1,0,0:0:0:0:
448,192,19477,1,0,0:0:0:0:
320,192,19537,1,0,0:0:0:0:
192,192,19597,1,0,0:0:0:0:
64,192,19657,1,0,0:0:0:0:
320,192,19717,1,0,0:0:0:0:
448,192,19717,1,0,0:0:0:0:
192,192,19777,1,0,0:0:0:0:
64,192,19837,1,0,0:0:0:0:
448,192,19897,1,0,0:0:0:0:
192,192,19957,1,0,0:0:0:0:
320,192,19957,1,0,0:0:0:0:
64,192,20017,1,0,0:0:0:0:
448,192,20077,1,0,0:0:0:0:
320,192,20137,1,0,0:0:0:0:
64,192,20197,1,0,0:0:0:0:
192,192,20197,1,0,0:0:0:0:
448,192,20257,1,0,0:0:0:0:
320,192,20317,1,0,0:0:0:0:
64,192,20377,1,0,0:0:0:0:
448,192,20437,1,0,0:0:0:0:
192,192,20497,1,0,0:0:0:0:
64,192,20557,1,0,0:0:0:0:
192,192,20617,1,0,0:0:0:0:
320,192,20677,1,0,0:0:0:0:
448,192,20737,1,0,0:0:0:0:
320,192,20797,1,0,0:0:0:0:
192,192,20857,1,0,0:0:0:0:
64,192,20917,1,0,0:0:0:0:
448,192,20917,1,0,0:0:0:0:
320,192,20977,1,0,0:0:0:0:
192,192,21037,1,0,0:0:0:0:
64,192,21097,1,0,0:0:0:0:
320,192,21157,1,0,0:0:0:0:
192,192,21217,1,0,0:0:0:0:
64,192,21277,1,0,0:0:0:0:
320,192,21277,1,0,0:0:0:0:
448,192,21277,1,0,0:0:0:0:
320,192,21397,1,0,0:0:0:0:
448,192,21397,1,0,0:0:0:0:
320,192,21517,1,0,0:0:0:0:
448,192,21517,1,0,0:0:0:0:
320,192,21637,1,0,0:0:0:0:
448,192,21637,1,0,0:0:0:0:
64,192,21757,1,0,0:0:0:0:
192,192,21757,1,0,0:0:0:0:
448,192,21757,1,0,0:0:0:0:
192,192,21877,1,0,0:0:0:0:
448,192,21877,1,0,0:0:0:0:
320,192,21997,1,0,0:0:0:0:
192,192,22057,1,0,0:0:0:0:
64,192,22117,1,0,0:0:0:0:
448,192,22177,1,0,0:0:0:0:
320,192,22237,1,0,0:0:0:0:
192,192,22297,1,0,0:0:0:0:
64,192,22357,1,0,0:0:0:0:
320,192,22357,1,0,0:0:0:0:
448,192,22357,1,0,0:0:0:0:
320,192,22477,1,0,0:0:0:0:
448,192,22477,1,0,0:0:0:0:
64,192,22717,1,0,0:0:0:0:
192,192,22717,1,0,0:0:0:0:
448,192,22717,1,0,0:0:0:0:
192,192,22837,1,0,0:0:0:0:
448,192,22837,1,0,0:0:0:0:
64,192,23077,1,0,0:0:0:0:
192,192,23077,1,0,0:0:0:0:
448,192,23077,1,0,0:0:0:0:
192,192,23437,1,0,0:0:0:0:
448,192,23497,1,0,0:0:0:0:
192,192,23557,1,0,0:0:0:0:
320,192,23617,1,0,0:0:0:0:
64,192,23677,1,0,0:0:0:0:
192,192,23737,1,0,0:0:0:0:
64,192,23797,1,0,0:0:0:0:
448,192,23797,1,0,0:0:0:0:
320,192,23857,1,0,0:0:0:0:
192,192,23917,1,0,0:0:0:0:
64,192,23977,1,0,0:0:0:0:
448,192,24037,1,0,0:0:0:0:
320,192,24097,1,0,0:0:0:0:
448,192,24157,1,0,0:0:0:0:
192,192,24217,1,0,0:0:0:0:
320,192,24277,1,0,0:0:0:0:
192,192,24337,1,0,0:0:0:0:
64,192,24397,1,0,0:0:0:0:
320,192,24457,1,0,0:0:0:0:
192,192,24517,1,0,0:0:0:0:
448,192,24517,1,0,0:0:0:0:
64,192,24577,1,0,0:0:0:0:
320,192,24637,1,0,0:0:0:0:
192,192,24697,1,0,0:0:0:0:
448,192,24757,1,0,0:0:0:0:
320,192,24817,1,0,0:0:0:0:
192,192,24877,1,0,0:0:0:0:
64,192,24937,1,0,0:0:0:0:
320,192,24997,1,0,0:0:0:0:
448,192,25057,1,0,0:0:0:0:
192,192,25117,1,0,0:0:0:0:
320,192,25177,1,0,0:0:0:0:
64,192,25237,1,0,0:0:0:0:
448,192,25237,1,0,0:0:0:0:
192,192,25297,1,0,0:0:0:0:
320,192,25357,1,0,0:0:0:0:
448,192,25417,1,0,0:0:0:0:
64,192,25477,1,0,0:0:0:0:
192,192,25477,1,0,0:0:0:0:
320,192,25537,1,0,0:0:0:0:
448,192,25597,1,0,0:0:0:0:
64,192,25657,1,0,0:0:0:0:
192,192,25717,1,0,0:0:0:0:
320,192,25717,1,0,0:0:0:0:
448,192,25777,1,0,0:0:0:0:
64,192,25837,1,0,0:0:0:0:
192,192,25897,1,0,0:0:0:0:
320,192,25957,1,0,0:0:0:0:
448,192,25957,1,0,0:0:0:0:
64,192,26017,1,0,0:0:0:0:
192,192,26077,1,0,0:0:0:0:
448,192,26137,1,0,0:0:0:0:
320,192,26197,1,0,0:0:0:0:
448,192,26257,1,0,0:0:0:0:
192,192,26317,1,0,0:0:0:0:
320,192,26377,1,0,0:0:0:0:
64,192,26437,1,0,0:0:0:0:
192,192,26497,1,0,0:0:0:0:
448,192,26557,1,0,0:0:0:0:
320,192,26617,1,0,0:0:0:0:
64,192,26677,1,0,0:0:0:0:
192,192,26677,1,0,0:0:0:0:
448,192,26737,1,0,0:0:0:0:
320,192,26797,1,0,0:0:0:0:
192,192,26857,1,0,0:0:0:0:
64,192,26917,1,0,0:0:0:0:
192,192,26977,1,0,0:0:0:0:
320,192,27037,1,0,0:0:0:0:
448,192,27097,1,0,0:0:0:0:
64,192,27157,1,0,0:0:0:0:
192,192,27217,1,0,0:0:0:0:
320,192,27277,1,0,0:0:0:0:
192,192,27337,1,0,0:0:0:0:
64,192,27397,1,0,0:0:0:0:
448,192,27397,1,0,0:0:0:0:
320,192,27397,128,0,27517:0:0:0:0:
64,192,27637,1,0,0:0:0:0:
192,192,27637,128,0,27757:0:0:0:0:
448,192,27637,1,0,0:0:0:0:
192,192,27877,1,0,0:0:0:0:
320,192,27937,1,0,0:0:0:0:
448,192,27997,1,0,0:0:0:0:
192,192,28057,1,0,0:0:0:0:
64,192,28117,1,0,0:0:0:0:
320,192,28117,1,0,0:0:0:0:
448,192,28117,128,0,28237:0:0:0:0:
320,192,28357,1,0,0:0:0:0:
192,192,28357,128,0,28477:0:0:0:0:
64,192,28357,1,0,0:0:0:0:
64,192,28597,1,0,0:0:0:0:
192,192,28657,1,0,0:0:0:0:
320,192,28717,1,0,0:0:0:0:
448,192,28777,1,0,0:0:0:0:
320,192,28837,1,0,0:0:0:0:
192,192,28837,1,0,0:0:0:0:
64,192,28837,128,0,28957:0:0:0:0:
192,192,29077,1,0,0:0:0:0:
448,192,29077,1,0,0:0:0:0:
320,192,29077,128,0,29197:0:0:0:0:
448,192,29317,1,0,0:0:0:0:
64,192,29317,1,0,0:0:0:0:
192,192,29317,128,0,29437:0:0:0:0:
320,192,29557,1,0,0:0:0:0:
64,192,29557,1,0,0:0:0:0:
448,192,29557,128,0,29677:0:0:0:0:
448,192,29917,1,0,0:0:0:0:
320,192,29977,1,0,0:0:0:0:
192,192,30037,1,0,0:0:0:0:
320,192,30097,1,0,0:0:0:0:
64,192,30157,1,0,0:0:0:0:
448,192,30157,1,0,0:0:0:0:
192,192,30217,1,0,0:0:0:0:
320,192,30277,1,0,0:0:0:0:
448,192,30277,1,0,0:0:0:0:
64,192,30337,1,0,0:0:0:0:
192,192,30397,1,0,0:0:0:0:
320,192,30457,1,0,0:0:0:0:
448,192,30517,1,0,0:0:0:0:
64,192,30577,1,0,0:0:0:0:
320,192,30637,1,0,0:0:0:0:
192,192,30697,1,0,0:0:0:0:
64,192,30757,1,0,0:0:0:0:
320,192,30817,1,0,0:0:0:0:
448,192,30877,1,0,0:0:0:0:
192,192,30937,1,0,0:0:0:0:
320,192,30997,1,0,0:0:0:0:
448,192,30997,1,0,0:0:0:0:
192,192,31057,1,0,0:0:0:0:
64,192,31117,1,0,0:0:0:0:
448,192,31117,1,0,0:0:0:0:
320,192,31177,1,0,0:0:0:0:
192,192,31237,1,0,0:0:0:0:
320,192,31297,1,0,0:0:0:0:
192,192,31357,1,0,0:0:0:0:
448,192,31357,1,0,0:0:0:0:
64,192,31417,1,0,0:0:0:0:
192,192,31477,1,0,0:0:0:0:
320,192,31477,1,0,0:0:0:0:
448,192,31537,1,0,0:0:0:0:
320,192,31597,1,0,0:0:0:0:
192,192,31657,1,0,0:0:0:0:
64,192,31717,1,0,0:0:0:0:
448,192,31717,1,0,0:0:0:0:
320,192,31957,1,0,0:0:0:0:
192,192,32017,1,0,0:0:0:0:
64,192,32077,1,0,0:0:0:0:
320,192,32077,1,0,0:0:0:0:
448,192,32077,1,0,0:0:0:0:
320,192,32437,1,0,0:0:0:0:
448,192,32437,1,0,0:0:0:0:
192,192,32497,1,0,0:0:0:0:
64,192,32557,1,0,0:0:0:0:
448,192,32617,1,0,0:0:0:0:
320,192,32677,1,0,0:0:0:0:
192,192,32737,1,0,0:0:0:0:
64,192,32797,1,0,0:0:0:0:
192,192,32857,1,0,0:0:0:0:
320,192,32917,1,0,0:0:0:0:
448,192,32917,1,0,0:0:0:0:
64,192,32977,1,0,0:0:0:0:
192,192,33037,1,0,0:0:0:0:
320,192,33097,1,0,0:0:0:0:
64,192,33157,1,0,0:0:0:0:
448,192,33157,1,0,0:0:0:0:
192,192,33217,1,0,0:0:0:0:
320,192,33277,1,0,0:0:0:0:
192,192,33337,1,0,0:0:0:0:
64,192,33397,1,0,0:0:0:0:
320,192,33397,1,0,0:0:0:0:
192,192,33517,1,0,0:0:0:0:
448,192,33517,1,0,0:0:0:0:
448,192,33637,1,0,0:0:0:0:
64,192,33637,1,0,0:0:0:0:
320,192,33757,1,0,0:0:0:0:
192,192,33757,1,0,0:0:0:0:
64,192,33877,1,0,0:0:0:0:
192,192,33877,1,0,0:0:0:0:
448,192,33877,1,0,0:0:0:0:
64,192,33997,1,0,0:0:0:0:
320,192,33997,1,0,0:0:0:0:
192,192,34117,1,0,0:0:0:0:
448,192,34117,1,0,0:0:0:0:
192,192,34237,1,0,0:0:0:0:
320,192,34237,1,0,0:0:0:0:
448,192,34357,1,0,0:0:0:0:
64,192,34477,1,0,0:0:0:0:
320,192,34597,1,0,0:0:0:0:
448,192,34597,1,0,0:0:0:0:
64,192,34717,1,0,0:0:0:0:
320,192,34717,1,0,0:0:0:0:
320,192,34837,1,0,0:0:0:0:
192,192,34837,1,0,0:0:0:0:
448,192,34957,1,0,0:0:0:0:
320,192,34957,1,0,0:0:0:0:
64,192,35317,1,0,0:0:0:0:
192,192,35317,1,0,0:0:0:0:
448,192,35437,1,0,0:0:0:0:
64,192,35437,1,0,0:0:0:0:
320,192,35557,1,0,0:0:0:0:
64,192,35557,1,0,0:0:0:0:
192,192,35677,1,0,0:0:0:0:
64,192,35677,1,0,0:0:0:0:
320,192,36037,1,0,0:0:0:0:
64,192,36037,1,0,0:0:0:0:
320,192,36157,1,0,0:0:0:0:
192,192,36157,1,0,0:0:0:0:
320,192,36277,1,0,0:0:0:0:
448,192,36277,1,0,0:0:0:0:
320,192,36397,1,0,0:0:0:0:
64,192,36397,1,0,0:0:0:0:
320,192,36757,1,0,0:0:0:0:
448,192,36757,1,0,0:0:0:0:
64,192,36877,1,0,0:0:0:0:
448,192,36877,1,0,0:0:0:0:
192,192,36997,1,0,0:0:0:0:
448,192,36997,1,0,0:0:0:0:
320,192,37117,1,0,0:0:0:0:
448,192,37117,1,0,0:0:0:0:
64,192,37277,1,0,0:0:0:0:
64,192,37397,1,0,0:0:0:0:
320,192,37477,1,0,0:0:0:0:
448,192,37477,1,0,0:0:0:0:
192,192,37597,1,0,0:0:0:0:
448,192,37597,1,0,0:0:0:0:
64,192,37717,1,0,0:0:0:0:
192,192,37717,1,0,0:0:0:0:
448,192,37837,1,0,0:0:0:0:
64,192,37837,1,0,0:0:0:0:
320,192,38197,1,0,0:0:0:0:
448,192,38197,1,0,0:0:0:0:
64,192,38317,1,0,0:0:0:0:
448,192,38317,1,0,0:0:0:0:
320,192,38437,1,0,0:0:0:0:
64,192,38437,1,0,0:0:0:0:
192,192,38557,1,0,0:0:0:0:
320,192,38557,1,0,0:0:0:0:
448,192,38677,1,0,0:0:0:0:
192,192,38677,1,0,0:0:0:0:
448,192,38797,1,0,0:0:0:0:
64,192,38797,1,0,0:0:0:0:
192,192,38917,1,0,0:0:0:0:
448,192,38917,1,0,0:0:0:0:
320,192,38917,1,0,0:0:0:0:
64,192,38977,1,0,0:0:0:0:
192,192,39037,1,0,0:0:0:0:
320,192,39097,1,0,0:0:0:0:
448,192,39157,1,0,0:0:0:0:
64,192,39217,1,0,0:0:0:0:
192,192,39277,1,0,0:0:0:0:
320,192,39337,1,0,0:0:0:0:
192,192,39397,1,0,0:0:0:0:
448,192,39457,1,0,0:0:0:0:
64,192,39517,1,0,0:0:0:0:
320,192,39577,1,0,0:0:0:0:
64,192,39637,1,0,0:0:0:0:
192,192,39637,1,0,0:0:0:0:
448,192,39637,1,0,0:0:0:0:
192,192,39757,1,0,0:0:0:0:
320,192,39757,1,0,0:0:0:0:
320,192,39997,1,0,0:0:0:0:
448,192,39997,1,0,0:0:0:0:
64,192,39997,1,0,0:0:0:0:
192,192,40117,1,0,0:0:0:0:
320,192,40117,1,0,0:0:0:0:
448,192,40357,1,0,0:0:0:0:
192,192,40357,1,0,0:0:0:0:
448,192,40477,1,0,0:0:0:0:
64,192,40477,1,0,0:0:0:0:
448,192,40597,1,0,0:0:0:0:
192,192,40597,1,0,0:0:0:0:
64,192,40717,1,0,0:0:0:0:
448,192,40717,1,0,0:0:0:0:
192,192,40837,1,0,0:0:0:0:
320,192,40957,1,0,0:0:0:0:
64,192,41077,1,0,0:0:0:0:
448,192,41077,1,0,0:0:0:0:
64,192,41197,1,0,0:0:0:0:
192,192,41197,1,0,0:0:0:0:
64,192,41317,1,0,0:0:0:0:
448,192,41317,1,0,0:0:0:0:
64,192,41437,1,0,0:0:0:0:
320,192,41437,1,0,0:0:0:0:
192,192,41557,1,0,0:0:0:0:
320,192,41677,1,0,0:0:0:0:
64,192,41797,1,0,0:0:0:0:
448,192,41797,1,0,0:0:0:0:
192,192,41917,1,0,0:0:0:0:
64,192,41917,1,0,0:0:0:0:
320,192,42037,1,0,0:0:0:0:
448,192,42037,1,0,0:0:0:0:
320,192,42157,1,0,0:0:0:0:
64,192,42157,1,0,0:0:0:0:
192,192,42277,1,0,0:0:0:0:
192,192,42397,1,0,0:0:0:0:
64,192,42517,1,0,0:0:0:0:
320,192,42517,1,0,0:0:0:0:
64,192,42637,1,0,0:0:0:0:
448,192,42637,1,0,0:0:0:0:
64,192,42757,1,0,0:0:0:0:
320,192,42757,1,0,0:0:0:0:
64,192,42877,1,0,0:0:0:0:
448,192,42877,1,0,0:0:0:0:
320,192,42997,1,0,0:0:0:0:
320,192,43117,1,0,0:0:0:0:
448,192,43237,1,0,0:0:0:0:
192,192,43237,1,0,0:0:0:0:
64,192,43357,1,0,0:0:0:0:
448,192,43357,1,0,0:0:0:0:
64,192,43477,1,0,0:0:0:0:
320,192,43477,1,0,0:0:0:0:
192,192,43597,1,0,0:0:0:0:
320,192,43597,1,0,0:0:0:0:
448,192,43717,1,0,0:0:0:0:
192,192,43717,1,0,0:0:0:0:
64,192,43837,1,0,0:0:0:0:
448,192,43837,1,0,0:0:0:0:
192,192,43957,1,0,0:0:0:0:
320,192,43957,1,0,0:0:0:0:
448,192,43957,1,0,0:0:0:0:
192,192,44077,1,0,0:0:0:0:
320,192,44077,1,0,0:0:0:0:
64,192,44317,1,0,0:0:0:0:
448,192,44317,1,0,0:0:0:0:
192,192,44317,1,0,0:0:0:0:
64,192,44437,1,0,0:0:0:0:
320,192,44437,1,0,0:0:0:0:
448,192,44677,1,0,0:0:0:0:
320,192,44737,1,0,0:0:0:0:
192,192,44797,1,0,0:0:0:0:
64,192,44857,1,0,0:0:0:0:
448,192,44917,1,0,0:0:0:0:
320,192,44977,1,0,0:0:0:0:
64,192,45037,1,0,0:0:0:0:
192,192,45097,1,0,0:0:0:0:
448,192,45157,1,0,0:0:0:0:
320,192,45217,1,0,0:0:0:0:
192,192,45277,1,0,0:0:0:0:
64,192,45337,1,0,0:0:0:0:
320,192,45397,1,0,0:0:0:0:
448,192,45397,1,0,0:0:0:0:
192,192,45457,1,0,0:0:0:0:
64,192,45517,1,0,0:0:0:0:
448,192,45577,1,0,0:0:0:0:
64,192,45637,1,0,0:0:0:0:
320,192,45637,1,0,0:0:0:0:
192,192,45697,1,0,0:0:0:0:
320,192,45757,1,0,0:0:0:0:
448,192,45817,1,0,0:0:0:0:
192,192,45877,1,0,0:0:0:0:
64,192,45877,1,0,0:0:0:0:
64,192,46117,1,0,0:0:0:0:
320,192,46117,1,0,0:0:0:0:
448,192,46117,1,0,0:0:0:0:
192,192,46177,1,0,0:0:0:0:
320,192,46237,1,0,0:0:0:0:
64,192,46297,1,0,0:0:0:0:
192,192,46357,1,0,0:0:0:0:
448,192,46417,1,0,0:0:0:0:
320,192,46477,1,0,0:0:0:0:
64,192,46537,1,0,0:0:0:0:
448,192,46597,1,0,0:0:0:0:
64,192,46657,1,0,0:0:0:0:
320,192,46717,1,0,0:0:0:0:
448,192,46777,1,0,0:0:0:0:
64,192,46837,1,0,0:0:0:0:
192,192,46837,1,0,0:0:0:0:
320,192,46897,1,0,0:0:0:0:
192,192,46957,1,0,0:0:0:0:
320,192,47017,1,0,0:0:0:0:
64,192,47077,1,0,0:0:0:0:
448,192,47137,1,0,0:0:0:0:
192,192,47197,1,0,0:0:0:0:
448,192,47257,1,0,0:0:0:0:
320,192,47317,1,0,0:0:0:0:
64,192,47377,1,0,0:0:0:0:
192,192,47437,1,0,0:0:0:0:
320,192,47497,1,0,0:0:0:0:
64,192,47557,1,0,0:0:0:0:
448,192,47557,1,0,0:0:0:0:
192,192,47617,1,0,0:0:0:0:
320,192,47677,1,0,0:0:0:0:
64,192,47737,1,0,0:0:0:0:
448,192,47797,1,0,0:0:0:0:
320,192,47857,1,0,0:0:0:0:
448,192,47917,1,0,0:0:0:0:
64,192,47977,1,0,0:0:0:0:
320,192,48037,1,0,0:0:0:0:
192,192,48097,1,0,0:0:0:0:
64,192,48157,1,0,0:0:0:0:
448,192,48217,1,0,0:0:0:0:
64,192,48277,1,0,0:0:0:0:
192,192,48277,1,0,0:0:0:0:
320,192,48337,1,0,0:0:0:0:
448,192,48397,1,0,0:0:0:0:
64,192,48457,1,0,0:0:0:0:
192,192,48517,1,0,0:0:0:0:
320,192,48517,1,0,0:0:0:0:
448,192,48577,1,0,0:0:0:0:
64,192,48637,1,0,0:0:0:0:
192,192,48697,1,0,0:0:0:0:
320,192,48757,1,0,0:0:0:0:
448,192,48757,1,0,0:0:0:0:
64,192,48817,1,0,0:0:0:0:
192,192,48877,1,0,0:0:0:0:
320,192,48937,1,0,0:0:0:0:
64,192,48997,1,0,0:0:0:0:
448,192,48997,1,0,0:0:0:0:
320,192,49057,1,0,0:0:0:0:
192,192,49117,1,0,0:0:0:0:
448,192,49177,1,0,0:0:0:0:
320,192,49237,1,0,0:0:0:0:
192,192,49297,1,0,0:0:0:0:
64,192,49357,1,0,0:0:0:0:
448,192,49417,1,0,0:0:0:0:
192,192,49477,1,0,0:0:0:0:
320,192,49537,1,0,0:0:0:0:
192,192,49597,1,0,0:0:0:0:
320,192,49657,1,0,0:0:0:0:
64,192,49717,1,0,0:0:0:0:
448,192,49717,1,0,0:0:0:0:
192,192,49777,1,0,0:0:0:0:
320,192,49837,1,0,0:0:0:0:
64,192,49897,1,0,0:0:0:0:
448,192,49957,1,0,0:0:0:0:
320,192,50017,1,0,0:0:0:0:
192,192,50077,1,0,0:0:0:0:
64,192,50137,1,0,0:0:0:0:
320,192,50197,1,0,0:0:0:0:
64,192,50257,1,0,0:0:0:0:
448,192,50317,1,0,0:0:0:0:
320,192,50377,1,0,0:0:0:0:
64,192,50437,1,0,0:0:0:0:
192,192,50437,1,0,0:0:0:0:
320,192,50497,1,0,0:0:0:0:
448,192,50557,1,0,0:0:0:0:
64,192,50617,1,0,0:0:0:0:
448,192,50677,1,0,0:0:0:0:
64,192,50737,1,0,0:0:0:0:
192,192,50797,1,0,0:0:0:0:
320,192,50857,1,0,0:0:0:0:
448,192,50917,1,0,0:0:0:0:
320,192,50977,1,0,0:0:0:0:
192,192,51037,1,0,0:0:0:0:
64,192,51097,1,0,0:0:0:0:
320,192,51157,1,0,0:0:0:0:
448,192,51157,1,0,0:0:0:0:
192,192,51217,1,0,0:0:0:0:
64,192,51277,1,0,0:0:0:0:
320,192,51277,1,0,0:0:0:0:
192,192,51337,1,0,0:0:0:0:
320,192,51397,1,0,0:0:0:0:
448,192,51457,1,0,0:0:0:0:
64,192,51517,1,0,0:0:0:0:
192,192,51517,1,0,0:0:0:0:
320,192,51577,1,0,0:0:0:0:
192,192,51637,1,0,0:0:0:0:
448,192,51637,1,0,0:0:0:0:
320,192,51697,1,0,0:0:0:0:
192,192,51757,1,0,0:0:0:0:
64,192,51817,1,0,0:0:0:0:
320,192,51877,1,0,0:0:0:0:
448,192,51877,1,0,0:0:0:0:
192,192,51877,1,0,0:0:0:0:
320,192,52117,1,0,0:0:0:0:
64,192,52177,1,0,0:0:0:0:
448,192,52237,1,0,0:0:0:0:
320,192,52297,1,0,0:0:0:0:
192,192,52357,1,0,0:0:0:0:
448,192,52417,1,0,0:0:0:0:
64,192,52477,1,0,0:0:0:0:
320,192,52537,1,0,0:0:0:0:
192,192,52597,1,0,0:0:0:0:
448,192,52597,1,0,0:0:0:0:
64,192,52657,1,0,0:0:0:0:
320,192,52717,1,0,0:0:0:0:
192,192,52777,1,0,0:0:0:0:
64,192,52837,1,0,0:0:0:0:
192,192,52897,1,0,0:0:0:0:
448,192,52957,1,0,0:0:0:0:
320,192,53017,1,0,0:0:0:0:
64,192,53077,1,0,0:0:0:0:
192,192,53137,1,0,0:0:0:0:
320,192,53197,1,0,0:0:0:0:
448,192,53257,1,0,0:0:0:0:
64,192,53317,1,0,0:0:0:0:
320,192,53317,1,0,0:0:0:0:
192,192,53377,1,0,0:0:0:0:
64,192,53437,1,0,0:0:0:0:
448,192,53497,1,0,0:0:0:0:
192,192,53557,1,0,0:0:0:0:
448,192,53617,1,0,0:0:0:0:
64,192,53677,1,0,0:0:0:0:
320,192,53737,1,0,0:0:0:0:
192,192,53797,1,0,0:0:0:0:
64,192,53857,1,0,0:0:0:0:
192,192,53917,1,0,0:0:0:0:
320,192,53977,1,0,0:0:0:0:
64,192,54037,1,0,0:0:0:0:
448,192,54037,1,0,0:0:0:0:
320,192,54097,1,0,0:0:0:0:
192,192,54157,1,0,0:0:0:0:
64,192,54217,1,0,0:0:0:0:
320,192,54277,1,0,0:0:0:0:
448,192,54277,1,0,0:0:0:0:
192,192,54337,1,0,0:0:0:0:
64,192,54397,1,0,0:0:0:0:
448,192,54457,1,0,0:0:0:0:
192,192,54517,1,0,0:0:0:0:
320,192,54517,1,0,0:0:0:0:
64,192,54577,1,0,0:0:0:0:
448,192,54637,1,0,0:0:0:0:
320,192,54697,1,0,0:0:0:0:
64,192,54757,1,0,0:0:0:0:
192,192,54757,1,0,0:0:0:0:
448,192,54817,1,0,0:0:0:0:
64,192,54877,1,0,0:0:0:0:
320,192,54937,1,0,0:0:0:0:
64,192,54997,1,0,0:0:0:0:
448,192,55057,1,0,0:0:0:0:
320,192,55117,1,0,0:0:0:0:
192,192,55177,1,0,0:0:0:0:
64,192,55237,1,0,0:0:0:0:
192,192,55297,1,0,0:0:0:0:
320,192,55357,1,0,0:0:0:0:
448,192,55417,1,0,0:0:0:0:
192,192,55477,1,0,0:0:0:0:
320,192,55477,1,0,0:0:0:0:
64,192,55537,1,0,0:0:0:0:
448,192,55597,1,0,0:0:0:0:
320,192,55657,1,0,0:0:0:0:
64,192,55717,1,0,0:0:0:0:
192,192,55777,1,0,0:0:0:0:
64,192,55837,1,0,0:0:0:0:
448,192,55897,1,0,0:0:0:0:
320,192,55957,1,0,0:0:0:0:
192,192,56017,1,0,0:0:0:0:
320,192,56077,1,0,0:0:0:0:
448,192,56137,1,0,0:0:0:0:
64,192,56197,1,0,0:0:0:0:
192,192,56197,1,0,0:0:0:0:
320,192,56197,1,0,0:0:0:0:
192,192,56317,1,0,0:0:0:0:
320,192,56317,1,0,0:0:0:0:
64,192,56557,1,0,0:0:0:0:
192,192,56557,1,0,0:0:0:0:
448,192,56557,1,0,0:0:0:0:
320,192,56677,1,0,0:0:0:0:
448,192,56677,1,0,0:0:0:0:
64,192,56917,1,0,0:0:0:0:
448,192,56917,1,0,0:0:0:0:
320,192,56977,1,0,0:0:0:0:
192,192,57037,1,0,0:0:0:0:
64,192,57097,1,0,0:0:0:0:
320,192,57157,1,0,0:0:0:0:
448,192,57157,1,0,0:0:0:0:
192,192,57217,1,0,0:0:0:0:
64,192,57277,1,0,0:0:0:0:
448,192,57337,1,0,0:0:0:0:
192,192,57397,1,0,0:0:0:0:
320,192,57397,1,0,0:0:0:0:
64,192,57457,1,0,0:0:0:0:
448,192,57517,1,0,0:0:0:0:
320,192,57577,1,0,0:0:0:0:
192,192,57637,1,0,0:0:0:0:
448,192,57637,1,0,0:0:0:0:
64,192,57637,1,0,0:0:0:0:
320,192,57877,1,0,0:0:0:0:
64,192,57937,1,0,0:0:0:0:
320,192,57997,1,0,0:0:0:0:
448,192,57997,1,0,0:0:0:0:
192,192,58057,1,0,0:0:0:0:
320,192,58117,1,0,0:0:0:0:
448,192,58117,1,0,0:0:0:0:
192,192,58177,1,0,0:0:0:0:
320,192,58237,1,0,0:0:0:0:
448,192,58237,1,0,0:0:0:0:
192,192,58297,1,0,0:0:0:0:
64,192,58357,1,0,0:0:0:0:
448,192,58357,1,0,0:0:0:0:
320,192,58417,1,0,0:0:0:0:
192,192,58477,1,0,0:0:0:0:
64,192,58537,1,0,0:0:0:0:
192,192,58597,1,0,0:0:0:0:
320,192,58657,1,0,0:0:0:0:
448,192,58717,1,0,0:0:0:0:
64,192,58777,1,0,0:0:0:0:
448,192,58837,1,0,0:0:0:0:
320,192,58897,1,0,0:0:0:0:
192,192,58957,1,0,0:0:0:0:
64,192,59017,1,0,0:0:0:0:
448,192,59077,1,0,0:0:0:0:
192,192,59077,1,0,0:0:0:0:
320,192,59137,1,0,0:0:0:0:
448,192,59197,1,0,0:0:0:0:
64,192,59257,1,0,0:0:0:0:
192,192,59317,1,0,0:0:0:0:
64,192,59377,1,0,0:0:0:0:
448,192,59437,1,0,0:0:0:0:
320,192,59497,1,0,0:0:0:0:
192,192,59557,1,0,0:0:0:0:
64,192,59617,1,0,0:0:0:0:
320,192,59677,1,0,0:0:0:0:
448,192,59677,1,0,0:0:0:0:
192,192,59737,1,0,0:0:0:0:
64,192,59797,1,0,0:0:0:0:
448,192,59797,1,0,0:0:0:0:
320,192,59857,1,0,0:0:0:0:
192,192,59917,1,0,0:0:0:0:
448,192,59977,1,0,0:0:0:0:
64,192,60037,1,0,0:0:0:0:
320,192,60037,1,0,0:0:0:0:
192,192,60097,1,0,0:0:0:0:
64,192,60157,1,0,0:0:0:0:
448,192,60217,1,0,0:0:0:0:
192,192,60277,1,0,0:0:0:0:
320,192,60277,1,0,0:0:0:0:
64,192,60337,1,0,0:0:0:0:
448,192,60397,1,0,0:0:0:0:
192,192,60457,1,0,0:0:0:0:
64,192,60517,1,0,0:0:0:0:
320,192,60517,1,0,0:0:0:0:
448,192,60577,1,0,0:0:0:0:
64,192,60637,1,0,0:0:0:0:
192,192,60697,1,0,0:0:0:0:
320,192,60757,1,0,0:0:0:0:
448,192,60817,1,0,0:0:0:0:
64,192,60877,1,0,0:0:0:0:
192,192,60877,1,0,0:0:0:0:
448,192,60937,1,0,0:0:0:0:
64,192,60997,1,0,0:0:0:0:
192,192,60997,1,0,0:0:0:0:
320,192,61057,1,0,0:0:0:0:
64,192,61117,1,0,0:0:0:0:
192,192,61117,1,0,0:0:0:0:
320,192,61177,1,0,0:0:0:0:
192,192,61237,1,0,0:0:0:0:
448,192,61237,1,0,0:0:0:0:
320,192,61297,1,0,0:0:0:0:
64,192,61357,1,0,0:0:0:0:
192,192,61417,1,0,0:0:0:0:
448,192,61477,1,0,0:0:0:0:
64,192,61537,1,0,0:0:0:0:
320,192,61597,1,0,0:0:0:0:
192,192,61657,1,0,0:0:0:0:
448,192,61717,1,0,0:0:0:0:
320,192,61777,1,0,0:0:0:0:
192,192,61837,1,0,0:0:0:0:
64,192,61897,1,0,0:0:0:0:
320,192,61957,1,0,0:0:0:0:
448,192,61957,1,0,0:0:0:0:
64,192,62017,1,0,0:0:0:0:
192,192,62077,1,0,0:0:0:0:
320,192,62137,1,0,0:0:0:0:
448,192,62197,1,0,0:0:0:0:
64,192,62257,1,0,0:0:0:0:
448,192,62317,1,0,0:0:0:0:
192,192,62377,1,0,0:0:0:0:
64,192,62437,1,0,0:0:0:0:
192,192,62497,1,0,0:0:0:0:
320,192,62557,1,0,0:0:0:0:
64,192,62617,1,0,0:0:0:0:
320,192,62677,1,0,0:0:0:0:
448,192,62677,1,0,0:0:0:0:
192,192,62737,1,0,0:0:0:0:
64,192,62797,1,0,0:0:0:0:
320,192,62797,1,0,0:0:0:0:
192,192,62857,1,0,0:0:0:0:
320,192,62917,1,0,0:0:0:0:
448,192,62977,1,0,0:0:0:0:
64,192,63037,1,0,0:0:0:0:
192,192,63037,1,0,0:0:0:0:
320,192,63097,1,0,0:0:0:0:
192,192,63157,1,0,0:0:0:0:
448,192,63157,1,0,0:0:0:0:
320,192,63217,1,0,0:0:0:0:
64,192,63277,1,0,0:0:0:0:
192,192,63337,1,0,0:0:0:0:
64,192,63397,1,0,0:0:0:0:
448,192,63397,1,0,0:0:0:0:
320,192,63397,1,0,0:0:0:0:
320,192,63637,1,0,0:0:0:0:
448,192,63697,1,0,0:0:0:0:
64,192,63757,1,0,0:0:0:0:
192,192,63757,1,0,0:0:0:0:
320,192,63817,1,0,0:0:0:0:
64,192,63877,1,0,0:0:0:0:
192,192,63877,1,0,0:0:0:0:
320,192,63937,1,0,0:0:0:0:
64,192,63997,1,0,0:0:0:0:
192,192,63997,1,0,0:0:0:0:
320,192,64057,1,0,0:0:0:0:
64,192,64117,1,0,0:0:0:0:
448,192,64117,1,0,0:0:0:0:
192,192,64177,1,0,0:0:0:0:
320,192,64237,1,0,0:0:0:0:
192,192,64297,1,0,0:0:0:0:
64,192,64357,1,0,0:0:0:0:
320,192,64357,1,0,0:0:0:0:
448,192,64417,1,0,0:0:0:0:
320,192,64477,1,0,0:0:0:0:
192,192,64537,1,0,0:0:0:0:
64,192,64597,1,0,0:0:0:0:
192,192,64657,1,0,0:0:0:0:
320,192,64717,1,0,0:0:0:0:
64,192,64777,1,0,0:0:0:0:
192,192,64837,1,0,0:0:0:0:
448,192,64837,1,0,0:0:0:0:
320,192,64897,1,0,0:0:0:0:
192,192,64957,1,0,0:0:0:0:
64,192,65017,1,0,0:0:0:0:
448,192,65077,1,0,0:0:0:0:
192,192,65137,1,0,0:0:0:0:
320,192,65197,1,0,0:0:0:0:
192,192,65257,1,0,0:0:0:0:
448,192,65317,1,0,0:0:0:0:
320,192,65377,1,0,0:0:0:0:
192,192,65437,1,0,0:0:0:0:
64,192,65497,1,0,0:0:0:0:
448,192,65557,1,0,0:0:0:0:
192,192,65557,1,0,0:0:0:0:
320,192,65617,1,0,0:0:0:0:
64,192,65677,1,0,0:0:0:0:
448,192,65737,1,0,0:0:0:0:
192,192,65797,1,0,0:0:0:0:
320,192,65797,1,0,0:0:0:0:
64,192,65857,1,0,0:0:0:0:
448,192,65917,1,0,0:0:0:0:
320,192,65977,1,0,0:0:0:0:
192,192,66037,1,0,0:0:0:0:
448,192,66037,1,0,0:0:0:0:
64,192,66097,1,0,0:0:0:0:
320,192,66157,1,0,0:0:0:0:
192,192,66217,1,0,0:0:0:0:
64,192,66277,1,0,0:0:0:0:
448,192,66277,1,0,0:0:0:0:
192,192,66337,1,0,0:0:0:0:
320,192,66397,1,0,0:0:0:0:
448,192,66457,1,0,0:0:0:0:
64,192,66517,1,0,0:0:0:0:
192,192,66577,1,0,0:0:0:0:
320,192,66637,1,0,0:0:0:0:
448,192,66637,1,0,0:0:0:0:
192,192,66697,1,0,0:0:0:0:
320,192,66757,1,0,0:0:0:0:
448,192,66757,1,0,0:0:0:0:
192,192,66817,1,0,0:0:0:0:
320,192,66877,1,0,0:0:0:0:
448,192,66877,1,0,0:0:0:0:
192,192,66937,1,0,0:0:0:0:
64,192,66997,1,0,0:0:0:0:
448,192,66997,1,0,0:0:0:0:
320,192,67057,1,0,0:0:0:0:
192,192,67117,1,0,0:0:0:0:
64,192,67177,1,0,0:0:0:0:
320,192,67237,1,0,0:0:0:0:
448,192,67297,1,0,0:0:0:0:
64,192,67357,1,0,0:0:0:0:
192,192,67357,1,0,0:0:0:0:
320,192,67417,1,0,0:0:0:0:
448,192,67477,1,0,0:0:0:0:
320,192,67537,1,0,0:0:0:0:
192,192,67597,1,0,0:0:0:0:
64,192,67657,1,0,0:0:0:0:
192,192,67717,1,0,0:0:0:0:
320,192,67717,1,0,0:0:0:0:
448,192,67717,1,0,0:0:0:0:
320,192,67837,1,0,0:0:0:0:
448,192,67837,1,0,0:0:0:0:
64,192,68077,1,0,0:0:0:0:
192,192,68077,1,0,0:0:0:0:
448,192,68077,1,0,0:0:0:0:
64,192,68197,1,0,0:0:0:0:
320,192,68197,1,0,0:0:0:0:
64,192,68437,1,0,0:0:0:0:
192,192,68437,1,0,0:0:0:0:
448,192,68437,1,0,0:0:0:0:
320,192,68497,1,0,0:0:0:0:
448,192,68557,1,0,0:0:0:0:
64,192,68617,1,0,0:0:0:0:
192,192,68677,1,0,0:0:0:0:
320,192,68737,1,0,0:0:0:0:
64,192,68797,1,0,0:0:0:0:
448,192,68797,1,0,0:0:0:0:
192,192,68857,1,0,0:0:0:0:
320,192,68917,1,0,0:0:0:0:
448,192,68977,1,0,0:0:0:0:
64,192,69037,1,0,0:0:0:0:
320,192,69097,1,0,0:0:0:0:
448,192,69157,1,0,0:0:0:0:
192,192,69157,1,0,0:0:0:0:
64,192,69217,1,0,0:0:0:0:
192,192,69277,1,0,0:0:0:0:
320,192,69337,1,0,0:0:0:0:
448,192,69397,1,0,0:0:0:0:
192,192,69457,1,0,0:0:0:0:
448,192,69517,1,0,0:0:0:0:
64,192,69517,1,0,0:0:0:0:
320,192,69577,1,0,0:0:0:0:
64,192,69637,1,0,0:0:0:0:
192,192,69697,1,0,0:0:0:0:
320,192,69757,1,0,0:0:0:0:
448,192,69817,1,0,0:0:0:0:
64,192,69877,1,0,0:0:0:0:
192,192,69877,1,0,0:0:0:0:
320,192,69937,1,0,0:0:0:0:
448,192,69997,1,0,0:0:0:0:
192,192,70057,1,0,0:0:0:0:
64,192,70117,1,0,0:0:0:0:
320,192,70177,1,0,0:0:0:0:
448,192,70237,1,0,0:0:0:0:
192,192,70237,1,0,0:0:0:0:
64,192,70297,1,0,0:0:0:0:
320,192,70357,1,0,0:0:0:0:
448,192,70417,1,0,0:0:0:0:
320,192,70477,1,0,0:0:0:0:
192,192,70537,1,0,0:0:0:0:
64,192,70597,1,0,0:0:0:0:
448,192,70597,1,0,0:0:0:0:
320,192,70657,1,0,0:0:0:0:
192,192,70717,1,0,0:0:0:0:
64,192,70777,1,0,0:0:0:0:
448,192,70837,1,0,0:0:0:0:
192,192,70897,1,0,0:0:0:0:
64,192,70957,1,0,0:0:0:0:
320,192,70957,1,0,0:0:0:0:
448,192,71017,1,0,0:0:0:0:
192,192,71077,1,0,0:0:0:0:
320,192,71137,1,0,0:0:0:0:
64,192,71197,1,0,0:0:0:0:
448,192,71257,1,0,0:0:0:0:
320,192,71317,1,0,0:0:0:0:
64,192,71317,1,0,0:0:0:0:
192,192,71377,1,0,0:0:0:0:
448,192,71437,1,0,0:0:0:0:
320,192,71497,1,0,0:0:0:0:
192,192,71557,1,0,0:0:0:0:
64,192,71617,1,0,0:0:0:0:
192,192,71677,1,0,0:0:0:0:
320,192,71677,1,0,0:0:0:0:
448,192,71737,1,0,0:0:0:0:
64,192,71797,1,0,0:0:0:0:
192,192,71857,1,0,0:0:0:0:
448,192,71917,1,0,0:0:0:0:
192,192,71977,1,0,0:0:0:0:
64,192,72037,1,0,0:0:0:0:
320,192,72037,1,0,0:0:0:0:
448,192,72097,1,0,0:0:0:0:
192,192,72157,1,0,0:0:0:0:
64,192,72217,1,0,0:0:0:0:
192,192,72277,1,0,0:0:0:0:
320,192,72337,1,0,0:0:0:0:
64,192,72397,1,0,0:0:0:0:
448,192,72397,1,0,0:0:0:0:
192,192,72457,1,0,0:0:0:0:
320,192,72517,1,0,0:0:0:0:
448,192,72577,1,0,0:0:0:0:
192,192,72637,1,0,0:0:0:0:
320,192,72697,1,0,0:0:0:0:
192,192,72757,1,0,0:0:0:0:
448,192,72757,1,0,0:0:0:0:
64,192,72757,1,0,0:0:0:0:
320,192,72817,1,0,0:0:0:0:
448,192,72877,1,0,0:0:0:0:
64,192,72937,1,0,0:0:0:0:
192,192,72997,1,0,0:0:0:0:
320,192,72997,1,0,0:0:0:0:
448,192,73057,1,0,0:0:0:0:
64,192,73117,1,0,0:0:0:0:
192,192,73177,1,0,0:0:0:0:
320,192,73237,1,0,0:0:0:0:
448,192,73237,1,0,0:0:0:0:
64,192,73297,1,0,0:0:0:0:
192,192,73357,1,0,0:0:0:0:
320,192,73417,1,0,0:0:0:0:
64,192,73477,1,0,0:0:0:0:
448,192,73477,1,0,0:0:0:0:
192,192,73537,1,0,0:0:0:0:
320,192,73597,1,0,0:0:0:0:
448,192,73657,1,0,0:0:0:0:
64,192,73717,1,0,0:0:0:0:
320,192,73717,1,0,0:0:0:0:
192,192,73777,1,0,0:0:0:0:
320,192,73837,1,0,0:0:0:0:
448,192,73897,1,0,0:0:0:0:
192,192,73957,1,0,0:0:0:0:
64,192,74017,1,0,0:0:0:0:
320,192,74077,1,0,0:0:0:0:
192,192,74137,1,0,0:0:0:0:
320,192,74197,1,0,0:0:0:0:
64,192,74197,1,0,0:0:0:0:
192,192,74257,1,0,0:0:0:0:
448,192,74317,1,0,0:0:0:0:
320,192,74377,1,0,0:0:0:0:
192,192,74437,1,0,0:0:0:0:
448,192,74497,1,0,0:0:0:0:
64,192,74557,1,0,0:0:0:0:
320,192,74557,1,0,0:0:0:0:
192,192,74617,1,0,0:0:0:0:
320,192,74677,1,0,0:0:0:0:
448,192,74737,1,0,0:0:0:0:
192,192,74797,1,0,0:0:0:0:
64,192,74857,1,0,0:0:0:0:
320,192,74917,1,0,0:0:0:0:
448,192,74917,1,0,0:0:0:0:
192,192,74977,1,0,0:0:0:0:
448,192,75037,1,0,0:0:0:0:
64,192,75097,1,0,0:0:0:0:
192,192,75157,1,0,0:0:0:0:
320,192,75217,1,0,0:0:0:0:
64,192,75277,1,0,0:0:0:0:
448,192,75277,1,0,0:0:0:0:
192,192,75337,1,0,0:0:0:0:
448,192,75397,1,0,0:0:0:0:
320,192,75457,1,0,0:0:0:0:
192,192,75517,1,0,0:0:0:0:
448,192,75577,1,0,0:0:0:0:
64,192,75637,1,0,0:0:0:0:
320,192,75637,1,0,0:0:0:0:
192,192,75697,1,0,0:0:0:0:
448,192,75757,1,0,0:0:0:0:
320,192,75817,1,0,0:0:0:0:
64,192,75877,1,0,0:0:0:0:
192,192,75937,1,0,0:0:0:0:
448,192,75997,1,0,0:0:0:0:
320,192,75997,1,0,0:0:0:0:
64,192,76057,1,0,0:0:0:0:
192,192,76117,1,0,0:0:0:0:
448,192,76177,1,0,0:0:0:0:
320,192,76237,1,0,0:0:0:0:
192,192,76297,1,0,0:0:0:0:
64,192,76357,1,0,0:0:0:0:
448,192,76357,1,0,0:0:0:0:
192,192,76417,1,0,0:0:0:0:
320,192,76477,1,0,0:0:0:0:
448,192,76537,1,0,0:0:0:0:
64,192,76597,1,0,0:0:0:0:
448,192,76657,1,0,0:0:0:0:
192,192,76717,1,0,0:0:0:0:
320,192,76717,1,0,0:0:0:0:
64,192,76777,1,0,0:0:0:0:
448,192,76837,1,0,0:0:0:0:
320,192,76897,1,0,0:0:0:0:
192,192,76957,1,0,0:0:0:0:
448,192,77017,1,0,0:0:0:0:
64,192,77077,1,0,0:0:0:0:
320,192,77077,1,0,0:0:0:0:
192,192,77137,1,0,0:0:0:0:
64,192,77197,1,0,0:0:0:0:
320,192,77257,1,0,0:0:0:0:
448,192,77317,1,0,0:0:0:0:
64,192,77377,1,0,0:0:0:0:
448,192,77437,1,0,0:0:0:0:
192,192,77437,1,0,0:0:0:0:
320,192,77497,1,0,0:0:0:0:
64,192,77557,1,0,0:0:0:0:
448,192,77617,1,0,0:0:0:0:
192,192,77677,1,0,0:0:0:0:
320,192,77737,1,0,0:0:0:0:
448,192,77797,1,0,0:0:0:0:
192,192,77797,1,0,0:0:0:0:
64,192,77857,1,0,0:0:0:0:
192,192,77917,1,0,0:0:0:0:
448,192,77977,1,0,0:0:0:0:
320,192,78037,1,0,0:0:0:0:
192,192,78097,1,0,0:0:0:0:
320,192,78157,1,0,0:0:0:0:
448,192,78157,1,0,0:0:0:0:
64,192,78217,1,0,0:0:0:0:
192,192,78277,1,0,0:0:0:0:
448,192,78337,1,0,0:0:0:0:
320,192,78397,1,0,0:0:0:0:
192,192,78457,1,0,0:0:0:0:
320,192,78517,1,0,0:0:0:0:
448,192,78517,1,0,0:0:0:0:
64,192,78517,128,0,78757:0:0:0:0:
192,192,78757,1,0,0:0:0:0:
448,192,78757,1,0,0:0:0:0:
320,192,78757,128,0,78997:0:0:0:0:
64,192,78997,1,0,0:0:0:0:
192,192,78997,128,0,79237:0:0:0:0:
320,192,79237,1,0,0:0:0:0:
448,192,79237,1,0,0:0:0:0:
64,192,79237,1,0,0:0:0:0:
192,192,79297,1,0,0:0:0:0:
320,192,79357,1,0,0:0:0:0:
448,192,79417,1,0,0:0:0:0:
64,192,79477,1,0,0:0:0:0:
192,192,79537,1,0,0:0:0:0:
320,192,79597,1,0,0:0:0:0:
448,192,79597,1,0,0:0:0:0:
192,192,79657,1,0,0:0:0:0:
64,192,79717,1,0,0:0:0:0:
448,192,79777,1,0,0:0:0:0:
192,192,79837,1,0,0:0:0:0:
320,192,79897,1,0,0:0:0:0:
64,192,79957,1,0,0:0:0:0:
448,192,79957,1,0,0:0:0:0:
192,192,80017,1,0,0:0:0:0:
64,192,80077,1,0,0:0:0:0:
448,192,80137,1,0,0:0:0:0:
320,192,80197,1,0,0:0:0:0:
192,192,80257,1,0,0:0:0:0:
320,192,80317,1,0,0:0:0:0:
448,192,80317,1,0,0:0:0:0:
64,192,80317,1,0,0:0:0:0:
192,192,80377,1,0,0:0:0:0:
448,192,80437,1,0,0:0:0:0:
320,192,80497,1,0,0:0:0:0:
64,192,80557,1,0,0:0:0:0:
192,192,80617,1,0,0:0:0:0:
320,192,80677,1,0,0:0:0:0:
448,192,80677,1,0,0:0:0:0:
64,192,80737,1,0,0:0:0:0:
192,192,80797,1,0,0:0:0:0:
320,192,80857,1,0,0:0:0:0:
448,192,80917,1,0,0:0:0:0:
320,192,80977,1,0,0:0:0:0:
64,192,81037,1,0,0:0:0:0:
192,192,81037,1,0,0:0:0:0:
448,192,81097,1,0,0:0:0:0:
320,192,81157,1,0,0:0:0:0:
192,192,81217,1,0,0:0:0:0:
320,192,81277,1,0,0:0:0:0:
64,192,81337,1,0,0:0:0:0:
192,192,81397,1,0,0:0:0:0:
448,192,81397,1,0,0:0:0:0:
320,192,81457,1,0,0:0:0:0:
192,192,81517,1,0,0:0:0:0:
64,192,81577,1,0,0:0:0:0:
448,192,81637,1,0,0:0:0:0:
320,192,81697,1,0,0:0:0:0:
64,192,81757,1,0,0:0:0:0:
192,192,81757,1,0,0:0:0:0:
448,192,81757,1,0,0:0:0:0:
320,192,81817,1,0,0:0:0:0:
192,192,81877,1,0,0:0:0:0:
64,192,81937,1,0,0:0:0:0:
320,192,81997,1,0,0:0:0:0:
192,192,82057,1,0,0:0:0:0:
320,192,82117,1,0,0:0:0:0:
448,192,82117,1,0,0:0:0:0:
64,192,82177,1,0,0:0:0:0:
192,192,82237,1,0,0:0:0:0:
320,192,82297,1,0,0:0:0:0:
448,192,82357,1,0,0:0:0:0:
192,192,82417,1,0,0:0:0:0:
64,192,82477,1,0,0:0:0:0:
448,192,82477,1,0,0:0:0:0:
320,192,82537,1,0,0:0:0:0:
192,192,82597,1,0,0:0:0:0:
64,192,82657,1,0,0:0:0:0:
320,192,82717,1,0,0:0:0:0:
192,192,82777,1,0,0:0:0:0:
64,192,82837,1,0,0:0:0:0:
448,192,82837,1,0,0:0:0:0:
320,192,82837,1,0,0:0:0:0:
192,192,82897,1,0,0:0:0:0:
64,192,82957,1,0,0:0:0:0:
448,192,83017,1,0,0:0:0:0:
320,192,83077,1,0,0:0:0:0:
192,192,83137,1,0,0:0:0:0:
320,192,83197,1,0,0:0:0:0:
448,192,83197,1,0,0:0:0:0:
192,192,83257,1,0,0:0:0:0:
64,192,83317,1,0,0:0:0:0:
448,192,83377,1,0,0:0:0:0:
192,192,83437,1,0,0:0:0:0:
320,192,83497,1,0,0:0:0:0:
64,192,83557,1,0,0:0:0:0:
192,192,83557,1,0,0:0:0:0:
448,192,83557,1,0,0:0:0:0:
320,192,83617,1,0,0:0:0:0:
64,192,83677,1,0,0:0:0:0:
448,192,83737,1,0,0:0:0:0:
192,192,83797,1,0,0:0:0:0:
64,192,83857,1,0,0:0:0:0:
320,192,83917,1,0,0:0:0:0:
192,192,83977,1,0,0:0:0:0:
448,192,84037,1,0,0:0:0:0:
64,192,84037,1,0,0:0:0:0:
192,192,84097,1,0,0:0:0:0:
448,192,84157,1,0,0:0:0:0:
320,192,84217,1,0,0:0:0:0:
64,192,84277,1,0,0:0:0:0:
448,192,84337,1,0,0:0:0:0:
320,192,84397,1,0,0:0:0:0:
192,192,84457,1,0,0:0:0:0:
64,192,84517,1,0,0:0:0:0:
448,192,84517,1,0,0:0:0:0:
192,192,84577,1,0,0:0:0:0:
320,192,84637,1,0,0:0:0:0:
64,192,84697,1,0,0:0:0:0:
320,192,84757,1,0,0:0:0:0:
448,192,84817,1,0,0:0:0:0:
192,192,84877,1,0,0:0:0:0:
320,192,84937,1,0,0:0:0:0:
64,192,84997,1,0,0:0:0:0:
192,192,84997,1,0,0:0:0:0:
448,192,84997,1,0,0:0:0:0:
320,192,85057,1,0,0:0:0:0:
64,192,85117,1,0,0:0:0:0:
192,192,85177,1,0,0:0:0:0:
448,192,85237,1,0,0:0:0:0:
320,192,85297,1,0,0:0:0:0:
64,192,85357,1,0,0:0:0:0:
448,192,85357,1,0,0:0:0:0:
192,192,85417,1,0,0:0:0:0:
320,192,85477,1,0,0:0:0:0:
448,192,85537,1,0,0:0:0:0:
192,192,85597,1,0,0:0:0:0:
320,192,85657,1,0,0:0:0:0:
64,192,85717,1,0,0:0:0:0:
192,192,85717,1,0,0:0:0:0:
448,192,85777,1,0,0:0:0:0:
320,192,85837,1,0,0:0:0:0:
192,192,85897,1,0,0:0:0:0:
64,192,85957,1,0,0:0:0:0:
448,192,86017,1,0,0:0:0:0:
192,192,86077,1,0,0:0:0:0:
320,192,86077,1,0,0:0:0:0:
64,192,86137,1,0,0:0:0:0:
320,192,86197,1,0,0:0:0:0:
192,192,86257,1,0,0:0:0:0:
448,192,86317,1,0,0:0:0:0:
320,192,86377,1,0,0:0:0:0:
64,192,86437,1,0,0:0:0:0:
192,192,86437,1,0,0:0:0:0:
320,192,86497,1,0,0:0:0:0:
448,192,86557,1,0,0:0:0:0:
192,192,86617,1,0,0:0:0:0:
64,192,86677,1,0,0:0:0:0:
320,192,86737,1,0,0:0:0:0:
192,192,86797,1,0,0:0:0:0:
448,192,86797,1,0,0:0:0:0:
64,192,86857,1,0,0:0:0:0:
320,192,86917,1,0,0:0:0:0:
448,192,86977,1,0,0:0:0:0:
320,192,87037,1,0,0:0:0:0:
64,192,87097,1,0,0:0:0:0:
192,192,87157,1,0,0:0:0:0:
320,192,87157,1,0,0:0:0:0:
64,192,87217,1,0,0:0:0:0:
448,192,87277,1,0,0:0:0:0:
192,192,87337,1,0,0:0:0:0:
448,192,87397,1,0,0:0:0:0:
320,192,87457,1,0,0:0:0:0:
64,192,87517,1,0,0:0:0:0:
192,192,87517,1,0,0:0:0:0:
448,192,87577,1,0,0:0:0:0:
320,192,87637,1,0,0:0:0:0:
192,192,87697,1,0,0:0:0:0:
320,192,87757,1,0,0:0:0:0:
192,192,87817,1,0,0:0:0:0:
448,192,87877,1,0,0:0:0:0:
64,192,87877,1,0,0:0:0:0:
192,192,87937,1,0,0:0:0:0:
448,192,87997,1,0,0:0:0:0:
320,192,88057,1,0,0:0:0:0:
192,192,88117,1,0,0:0:0:0:
64,192,88177,1,0,0:0:0:0:
192,192,88237,1,0,0:0:0:0:
448,192,88237,1,0,0:0:0:0:
320,192,88297,1,0,0:0:0:0:
448,192,88357,1,0,0:0:0:0:
64,192,88417,1,0,0:0:0:0:
320,192,88477,1,0,0:0:0:0:
192,192,88537,1,0,0:0:0:0:
64,192,88597,1,0,0:0:0:0:
448,192,88597,1,0,0:0:0:0:
192,192,88657,1,0,0:0:0:0:
320,192,88717,1,0,0:0:0:0:
448,192,88777,1,0,0:0:0:0:
64,192,88837,1,0,0:0:0:0:
320,192,88897,1,0,0:0:0:0:
448,192,88957,1,0,0:0:0:0:
64,192,88997,1,0,0:0:0:0:
192,192,88997,1,0,0:0:0:0:
64,192,89117,1,0,0:0:0:0:
192,192,89117,1,0,0:0:0:0:
192,192,89237,1,0,0:0:0:0:
64,192,89237,1,0,0:0:0:0:
448,0,89317,128,0,89557:0:0:0:0:
320,192,89317,1,0,0:0:0:0:
192,192,89557,1,0,0:0:0:0:
64,0,89557,128,0,89797:0:0:0:0:
192,192,89797,1,0,0:0:0:0:
320,192,89797,1,0,0:0:0:0:
448,0,89797,128,0,90037:0:0:0:0:
64,192,90037,1,0,0:0:0:0:
320,192,90037,1,0,0:0:0:0:
192,0,90037,128,0,90277:0:0:0:0:
64,192,90277,1,0,0:0:0:0:
448,192,90277,1,0,0:0:0:0:
320,0,90277,128,0,90517:0:0:0:0:
64,192,90517,1,0,0:0:0:0:
448,192,90517,1,0,0:0:0:0:
64,192,90757,1,0,0:0:0:0:
448,192,90757,1,0,0:0:0:0:
192,192,90757,128,0,90997:0:0:0:0:
320,192,90757,1,0,0:0:0:0:
320,192,90997,1,0,0:0:0:0:
448,192,91057,1,0,0:0:0:0:
192,192,91117,1,0,0:0:0:0:
320,192,91177,1,0,0:0:0:0:
64,192,91237,1,0,0:0:0:0:
448,192,91297,1,0,0:0:0:0:
64,192,91357,1,0,0:0:0:0:
320,192,91417,1,0,0:0:0:0:
192,192,91477,1,0,0:0:0:0:
448,192,91537,1,0,0:0:0:0:
192,192,91597,1,0,0:0:0:0:
320,192,91657,1,0,0:0:0:0:
64,192,91717,1,0,0:0:0:0:
448,192,91777,1,0,0:0:0:0:
320,192,91837,1,0,0:0:0:0:
64,192,91897,1,0,0:0:0:0:
448,192,91957,1,0,0:0:0:0:
64,192,92017,1,0,0:0:0:0:
320,192,92077,1,0,0:0:0:0:
192,192,92137,1,0,0:0:0:0:
320,192,92197,1,0,0:0:0:0:
64,192,92257,1,0,0:0:0:0:
448,192,92317,1,0,0:0:0:0:
64,192,92377,1,0,0:0:0:0:
320,192,92437,1,0,0:0:0:0:
192,192,92497,1,0,0:0:0:0:
448,192,92557,1,0,0:0:0:0:
320,192,92617,1,0,0:0:0:0:
192,192,92677,1,0,0:0:0:0:
64,192,92737,1,0,0:0:0:0:
448,192,92797,1,0,0:0:0:0:
192,192,92857,1,0,0:0:0:0:
320,192,92917,1,0,0:0:0:0:
64,192,92977,1,0,0:0:0:0:
192,192,93037,1,0,0:0:0:0:
320,192,93097,1,0,0:0:0:0:
448,192,93157,1,0,0:0:0:0:
192,192,93217,1,0,0:0:0:0:
320,192,93277,1,0,0:0:0:0:
64,192,93337,1,0,0:0:0:0:
192,192,93397,1,0,0:0:0:0:
448,192,93457,1,0,0:0:0:0:
320,192,93517,1,0,0:0:0:0:
192,192,93577,1,0,0:0:0:0:
64,192,93637,1,0,0:0:0:0:
448,192,93637,1,0,0:0:0:0:
320,192,93697,1,0,0:0:0:0:
192,192,93757,1,0,0:0:0:0:
320,192,93817,1,0,0:0:0:0:
192,192,93877,1,0,0:0:0:0:
448,192,93937,1,0,0:0:0:0:
64,192,93997,1,0,0:0:0:0:
320,192,94057,1,0,0:0:0:0:
448,192,94117,1,0,0:0:0:0:
192,192,94177,1,0,0:0:0:0:
64,192,94237,1,0,0:0:0:0:
320,192,94297,1,0,0:0:0:0:
192,192,94357,1,0,0:0:0:0:
320,192,94417,1,0,0:0:0:0:
448,192,94477,1,0,0:0:0:0:
192,192,94537,1,0,0:0:0:0:
64,192,94597,1,0,0:0:0:0:
192,192,94657,1,0,0:0:0:0:
320,192,94717,1,0,0:0:0:0:
448,192,94777,1,0,0:0:0:0:
64,192,94837,1,0,0:0:0:0:
320,192,94897,1,0,0:0:0:0:
192,192,94957,1,0,0:0:0:0:
448,192,95017,1,0,0:0:0:0:
64,192,95077,1,0,0:0:0:0:
192,192,95077,1,0,0:0:0:0:
320,192,95137,1,0,0:0:0:0:
448,192,95197,1,0,0:0:0:0:
320,192,95257,1,0,0:0:0:0:
192,192,95317,1,0,0:0:0:0:
448,192,95377,1,0,0:0:0:0:
64,192,95437,1,0,0:0:0:0:
192,192,95497,1,0,0:0:0:0:
64,192,95557,1,0,0:0:0:0:
320,192,95557,1,0,0:0:0:0:
448,192,95617,1,0,0:0:0:0:
320,192,95677,1,0,0:0:0:0:
64,192,95737,1,0,0:0:0:0:
448,192,95797,1,0,0:0:0:0:
64,192,95857,1,0,0:0:0:0:
320,192,95917,1,0,0:0:0:0:
192,192,95977,1,0,0:0:0:0:
320,192,96037,1,0,0:0:0:0:
448,192,96037,1,0,0:0:0:0:
64,192,96097,1,0,0:0:0:0:
320,192,96157,1,0,0:0:0:0:
64,192,96217,1,0,0:0:0:0:
448,192,96277,1,0,0:0:0:0:
192,192,96337,1,0,0:0:0:0:
320,192,96397,1,0,0:0:0:0:
192,192,96457,1,0,0:0:0:0:
64,192,96517,1,0,0:0:0:0:
448,192,96517,1,0,0:0:0:0:
320,192,96577,1,0,0:0:0:0:
192,192,96637,1,0,0:0:0:0:
448,192,96697,1,0,0:0:0:0:
192,192,96757,1,0,0:0:0:0:
320,192,96817,1,0,0:0:0:0:
64,192,96877,1,0,0:0:0:0:
448,192,96937,1,0,0:0:0:0:
64,192,96997,1,0,0:0:0:0:
320,192,97057,1,0,0:0:0:0:
192,192,97117,1,0,0:0:0:0:
448,192,97177,1,0,0:0:0:0:
320,192,97237,1,0,0:0:0:0:
448,192,97297,1,0,0:0:0:0:
64,192,97357,1,0,0:0:0:0:
192,192,97417,1,0,0:0:0:0:
320,192,97477,1,0,0:0:0:0:
448,192,97537,1,0,0:0:0:0:
64,192,97597,1,0,0:0:0:0:
192,192,97597,1,0,0:0:0:0:
320,192,97657,1,0,0:0:0:0:
192,192,97717,1,0,0:0:0:0:
64,192,97777,1,0,0:0:0:0:
192,192,97837,1,0,0:0:0:0:
320,192,97837,1,0,0:0:0:0:
448,192,97897,1,0,0:0:0:0:
320,192,97957,1,0,0:0:0:0:
192,192,98017,1,0,0:0:0:0:
64,192,98077,1,0,0:0:0:0:
448,192,98077,1,0,0:0:0:0:
320,192,98137,1,0,0:0:0:0:
192,192,98197,1,0,0:0:0:0:
64,192,98257,1,0,0:0:0:0:
448,192,98317,1,0,0:0:0:0:
192,192,98377,1,0,0:0:0:0:
448,192,98437,1,0,0:0:0:0:
64,192,98497,1,0,0:0:0:0:
320,192,98557,1,0,0:0:0:0:
64,192,98617,1,0,0:0:0:0:
448,192,98677,1,0,0:0:0:0:
192,192,98737,1,0,0:0:0:0:
320,192,98797,1,0,0:0:0:0:
192,192,98857,1,0,0:0:0:0:
448,192,98917,1,0,0:0:0:0:
64,192,98977,1,0,0:0:0:0:
320,192,99037,1,0,0:0:0:0:
64,192,99097,1,0,0:0:0:0:
192,192,99157,1,0,0:0:0:0:
320,192,99217,1,0,0:0:0:0:
448,192,99277,1,0,0:0:0:0:
192,192,99337,1,0,0:0:0:0:
64,192,99397,1,0,0:0:0:0:
448,192,99457,1,0,0:0:0:0:
320,192,99517,1,0,0:0:0:0:
448,192,99577,1,0,0:0:0:0:
64,192,99637,1,0,0:0:0:0:
320,192,99697,1,0,0:0:0:0:
192,192,99757,1,0,0:0:0:0:
448,192,99817,1,0,0:0:0:0:
320,192,99877,1,0,0:0:0:0:
192,192,99937,1,0,0:0:0:0:
64,192,99997,1,0,0:0:0:0:
448,192,100057,1,0,0:0:0:0:
320,192,100117,1,0,0:0:0:0:
64,192,100177,1,0,0:0:0:0:
192,192,100237,1,0,0:0:0:0:
448,192,100297,1,0,0:0:0:0:
64,192,100357,1,0,0:0:0:0:
320,192,100417,1,0,0:0:0:0:
192,192,100477,1,0,0:0:0:0:
320,192,100537,1,0,0:0:0:0:
448,192,100597,1,0,0:0:0:0:
64,192,100657,1,0,0:0:0:0:
192,192,100717,1,0,0:0:0:0:
320,192,100777,1,0,0:0:0:0:
64,192,100837,1,0,0:0:0:0:
448,192,100837,1,0,0:0:0:0:
320,192,100897,1,0,0:0:0:0:
192,192,100957,1,0,0:0:0:0:
64,192,101017,1,0,0:0:0:0:
448,192,101077,1,0,0:0:0:0:
320,192,101137,1,0,0:0:0:0:
64,192,101197,1,0,0:0:0:0:
192,192,101257,1,0,0:0:0:0:
448,192,101317,1,0,0:0:0:0:
320,192,101317,1,0,0:0:0:0:
192,192,101377,1,0,0:0:0:0:
64,192,101437,1,0,0:0:0:0:
448,192,101497,1,0,0:0:0:0:
320,192,101557,1,0,0:0:0:0:
192,192,101617,1,0,0:0:0:0:
64,192,101677,1,0,0:0:0:0:
320,192,101737,1,0,0:0:0:0:
64,192,101797,1,0,0:0:0:0:
192,192,101797,1,0,0:0:0:0:
448,192,101797,1,0,0:0:0:0:
192,192,101917,1,0,0:0:0:0:
192,192,102037,1,0,0:0:0:0:
192,192,102157,1,0,0:0:0:0:
448,192,102157,1,0,0:0:0:0:
320,192,102217,1,0,0:0:0:0:
192,192,102277,1,0,0:0:0:0:
320,192,102517,1,0,0:0:0:0:
192,192,102577,1,0,0:0:0:0:
448,192,102637,1,0,0:0:0:0:
64,192,102697,1,0,0:0:0:0:
448,192,102757,1,0,0:0:0:0:
192,192,102817,1,0,0:0:0:0:
320,192,102877,1,0,0:0:0:0:
64,192,102937,1,0,0:0:0:0:
320,192,102997,1,0,0:0:0:0:
192,192,103057,1,0,0:0:0:0:
448,192,103117,1,0,0:0:0:0:
64,192,103177,1,0,0:0:0:0:
448,192,103237,1,0,0:0:0:0:
192,192,103297,1,0,0:0:0:0:
64,192,103357,1,0,0:0:0:0:
320,192,103417,1,0,0:0:0:0:
192,192,103477,1,0,0:0:0:0:
448,192,103537,1,0,0:0:0:0:
320,192,103597,1,0,0:0:0:0:
192,192,103657,1,0,0:0:0:0:
64,192,103717,1,0,0:0:0:0:
192,192,103777,1,0,0:0:0:0:
320,192,103837,1,0,0:0:0:0:
448,192,103897,1,0,0:0:0:0:
64,192,103957,1,0,0:0:0:0:
448,192,104017,1,0,0:0:0:0:
192,192,104077,1,0,0:0:0:0:
320,192,104137,1,0,0:0:0:0:
192,192,104197,1,0,0:0:0:0:
448,192,104257,1,0,0:0:0:0:
64,192,104317,1,0,0:0:0:0:
320,192,104377,1,0,0:0:0:0:
64,192,104437,1,0,0:0:0:0:
448,192,104437,1,0,0:0:0:0:
192,192,104497,1,0,0:0:0:0:
320,192,104557,1,0,0:0:0:0:
64,192,104617,1,0,0:0:0:0:
320,192,104677,1,0,0:0:0:0:
192,192,104737,1,0,0:0:0:0:
448,192,104797,1,0,0:0:0:0:
64,192,104857,1,0,0:0:0:0:
448,192,104917,1,0,0:0:0:0:
320,192,104977,1,0,0:0:0:0:
192,192,105037,1,0,0:0:0:0:
448,192,105097,1,0,0:0:0:0:
64,192,105157,1,0,0:0:0:0:
192,192,105217,1,0,0:0:0:0:
320,192,105277,1,0,0:0:0:0:
448,192,105337,1,0,0:0:0:0:
64,192,105397,1,0,0:0:0:0:
192,192,105397,1,0,0:0:0:0:
320,192,105457,1,0,0:0:0:0:
448,192,105517,1,0,0:0:0:0:
64,192,105577,1,0,0:0:0:0:
448,192,105637,1,0,0:0:0:0:
192,192,105697,1,0,0:0:0:0:
320,192,105757,1,0,0:0:0:0:
64,192,105817,1,0,0:0:0:0:
192,192,105877,1,0,0:0:0:0:
448,192,105937,1,0,0:0:0:0:
320,192,105997,1,0,0:0:0:0:
192,192,106057,1,0,0:0:0:0:
64,192,106117,1,0,0:0:0:0:
448,192,106177,1,0,0:0:0:0:
192,192,106237,1,0,0:0:0:0:
320,192,106297,1,0,0:0:0:0:
448,192,106357,1,0,0:0:0:0:
64,192,106417,1,0,0:0:0:0:
192,192,106477,1,0,0:0:0:0:
320,192,106537,1,0,0:0:0:0:
448,192,106597,1,0,0:0:0:0:
192,192,106657,1,0,0:0:0:0:
64,192,106717,1,0,0:0:0:0:
192,192,106777,1,0,0:0:0:0:
448,192,106837,1,0,0:0:0:0:
64,192,106897,1,0,0:0:0:0:
448,192,106957,1,0,0:0:0:0:
192,192,107017,1,0,0:0:0:0:
320,192,107077,1,0,0:0:0:0:
192,192,107137,1,0,0:0:0:0:
448,192,107197,1,0,0:0:0:0:
64,192,107257,1,0,0:0:0:0:
320,192,107317,1,0,0:0:0:0:
448,192,107317,1,0,0:0:0:0:
192,192,107377,1,0,0:0:0:0:
64,192,107437,1,0,0:0:0:0:
320,192,107497,1,0,0:0:0:0:
192,192,107557,1,0,0:0:0:0:
448,192,107617,1,0,0:0:0:0:
320,192,107677,1,0,0:0:0:0:
448,192,107737,1,0,0:0:0:0:
64,192,107797,1,0,0:0:0:0:
192,192,107857,1,0,0:0:0:0:
320,192,107917,1,0,0:0:0:0:
192,192,107977,1,0,0:0:0:0:
64,192,108037,1,0,0:0:0:0:
320,192,108037,1,0,0:0:0:0:
448,192,108097,1,0,0:0:0:0:
192,192,108157,1,0,0:0:0:0:
320,192,108217,1,0,0:0:0:0:
448,192,108277,1,0,0:0:0:0:
64,192,108337,1,0,0:0:0:0:
448,192,108397,1,0,0:0:0:0:
192,192,108457,1,0,0:0:0:0:
320,192,108517,1,0,0:0:0:0:
192,192,108577,1,0,0:0:0:0:
64,192,108637,1,0,0:0:0:0:
448,192,108697,1,0,0:0:0:0:
320,192,108757,1,0,0:0:0:0:
192,192,108817,1,0,0:0:0:0:
320,192,108877,1,0,0:0:0:0:
448,192,108937,1,0,0:0:0:0:
64,192,108997,1,0,0:0:0:0:
192,192,109057,1,0,0:0:0:0:
320,192,109117,1,0,0:0:0:0:
192,192,109177,1,0,0:0:0:0:
448,192,109237,1,0,0:0:0:0:
320,192,109297,1,0,0:0:0:0:
192,192,109357,1,0,0:0:0:0:
64,192,109417,1,0,0:0:0:0:
448,192,109477,1,0,0:0:0:0:
320,192,109537,1,0,0:0:0:0:
448,192,109597,1,0,0:0:0:0:
192,192,109657,1,0,0:0:0:0:
320,192,109717,1,0,0:0:0:0:
64,192,109777,1,0,0:0:0:0:
320,192,109837,1,0,0:0:0:0:
192,192,109897,1,0,0:0:0:0:
64,192,109957,1,0,0:0:0:0:
320,192,110017,1,0,0:0:0:0:
448,192,110077,1,0,0:0:0:0:
192,192,110137,1,0,0:0:0:0:
320,192,110197,1,0,0:0:0:0:
64,192,110257,1,0,0:0:0:0:
448,192,110317,1,0,0:0:0:0:
192,192,110377,1,0,0:0:0:0:
320,192,110437,1,0,0:0:0:0:
448,192,110497,1,0,0:0:0:0:
320,192,110557,1,0,0:0:0:0:
192,192,110617,1,0,0:0:0:0:
64,192,110677,1,0,0:0:0:0:
192,192,110737,1,0,0:0:0:0:
448,192,110797,1,0,0:0:0:0:
320,192,110857,1,0,0:0:0:0:
64,192,110917,1,0,0:0:0:0:
192,192,110917,1,0,0:0:0:0:
448,192,110917,1,0,0:0:0:0:
64,192,111157,1,0,0:0:0:0:
448,192,111157,1,0,0:0:0:0:
320,192,111217,1,0,0:0:0:0:
192,192,111277,1,0,0:0:0:0:
64,192,111337,1,0,0:0:0:0:
320,192,111397,1,0,0:0:0:0:
192,192,111457,1,0,0:0:0:0:
448,192,111517,1,0,0:0:0:0:
320,192,111577,1,0,0:0:0:0:
64,192,111637,1,0,0:0:0:0:
192,192,111637,1,0,0:0:0:0:
448,192,111697,1,0,0:0:0:0:
320,192,111757,1,0,0:0:0:0:
192,192,111817,1,0,0:0:0:0:
448,192,111877,1,0,0:0:0:0:
320,192,111877,1,0,0:0:0:0:
64,192,111937,1,0,0:0:0:0:
192,192,111997,1,0,0:0:0:0:
448,192,112057,1,0,0:0:0:0:
320,192,112117,1,0,0:0:0:0:
64,192,112177,1,0,0:0:0:0:
448,192,112237,1,0,0:0:0:0:
192,192,112297,1,0,0:0:0:0:
64,192,112357,1,0,0:0:0:0:
448,192,112357,1,0,0:0:0:0:
320,192,112417,1,0,0:0:0:0:
192,192,112477,1,0,0:0:0:0:
192,192,112597,1,0,0:0:0:0:
320,192,112657,1,0,0:0:0:0:
192,192,112717,1,0,0:0:0:0:
192,192,112837,1,0,0:0:0:0:
448,192,112837,1,0,0:0:0:0:
448,192,112957,1,0,0:0:0:0:
64,192,112957,1,0,0:0:0:0:
320,192,113077,1,0,0:0:0:0:
64,192,113077,1,0,0:0:0:0:
320,192,113197,1,0,0:0:0:0:
192,192,113197,1,0,0:0:0:0:
320,192,113317,1,0,0:0:0:0:
448,192,113317,1,0,0:0:0:0:
192,192,113437,1,0,0:0:0:0:
64,192,113437,1,0,0:0:0:0:
320,192,113557,1,0,0:0:0:0:
64,192,113557,1,0,0:0:0:0:
64,192,113677,1,0,0:0:0:0:
320,192,113677,1,0,0:0:0:0:
64,192,113797,1,0,0:0:0:0:
320,192,113797,1,0,0:0:0:0:
448,192,113797,1,0,0:0:0:0:
192,192,114157,1,0,0:0:0:0:
320,192,114217,1,0,0:0:0:0:
64,192,114277,1,0,0:0:0:0:
448,192,114337,1,0,0:0:0:0:
192,192,114397,1,0,0:0:0:0:
320,192,114457,1,0,0:0:0:0:
64,192,114517,1,0,0:0:0:0:
192,192,114517,1,0,0:0:0:0:
448,192,114577,1,0,0:0:0:0:
320,192,114637,1,0,0:0:0:0:
192,192,114697,1,0,0:0:0:0:
320,192,114757,1,0,0:0:0:0:
192,192,114817,1,0,0:0:0:0:
64,192,114877,1,0,0:0:0:0:
448,192,114937,1,0,0:0:0:0:
320,192,114997,1,0,0:0:0:0:
192,192,115057,1,0,0:0:0:0:
64,192,115117,1,0,0:0:0:0:
192,192,115177,1,0,0:0:0:0:
320,192,115237,1,0,0:0:0:0:
448,192,115237,1,0,0:0:0:0:
64,192,115297,1,0,0:0:0:0:
192,192,115357,1,0,0:0:0:0:
320,192,115417,1,0,0:0:0:0:
192,192,115477,1,0,0:0:0:0:
64,192,115537,1,0,0:0:0:0:
448,192,115597,1,0,0:0:0:0:
320,192,115657,1,0,0:0:0:0:
448,192,115717,1,0,0:0:0:0:
64,192,115777,1,0,0:0:0:0:
192,192,115837,1,0,0:0:0:0:
320,192,115897,1,0,0:0:0:0:
64,192,115957,1,0,0:0:0:0:
448,192,115957,1,0,0:0:0:0:
320,192,116017,1,0,0:0:0:0:
192,192,116077,1,0,0:0:0:0:
448,192,116137,1,0,0:0:0:0:
64,192,116197,1,0,0:0:0:0:
192,192,116197,1,0,0:0:0:0:
320,192,116257,1,0,0:0:0:0:
192,192,116317,1,0,0:0:0:0:
64,192,116377,1,0,0:0:0:0:
320,192,116437,1,0,0:0:0:0:
448,192,116437,1,0,0:0:0:0:
192,192,116497,1,0,0:0:0:0:
448,192,116557,1,0,0:0:0:0:
64,192,116617,1,0,0:0:0:0:
192,192,116677,1,0,0:0:0:0:
320,192,116677,1,0,0:0:0:0:
448,192,116737,1,0,0:0:0:0:
64,192,116797,1,0,0:0:0:0:
320,192,116857,1,0,0:0:0:0:
192,192,116917,1,0,0:0:0:0:
448,192,116977,1,0,0:0:0:0:
320,192,117037,1,0,0:0:0:0:
192,192,117097,1,0,0:0:0:0:
64,192,117157,1,0,0:0:0:0:
192,192,117217,1,0,0:0:0:0:
320,192,117277,1,0,0:0:0:0:
192,192,117337,1,0,0:0:0:0:
320,192,117397,1,0,0:0:0:0:
448,192,117397,1,0,0:0:0:0:
64,192,117457,1,0,0:0:0:0:
192,192,117517,1,0,0:0:0:0:
64,192,117577,1,0,0:0:0:0:
448,192,117637,1,0,0:0:0:0:
320,192,117697,1,0,0:0:0:0:
192,192,117757,1,0,0:0:0:0:
64,192,117817,1,0,0:0:0:0:
320,192,117877,1,0,0:0:0:0:
448,192,117937,1,0,0:0:0:0:
192,192,117997,1,0,0:0:0:0:
320,192,118057,1,0,0:0:0:0:
64,192,118117,1,0,0:0:0:0:
192,192,118117,1,0,0:0:0:0:
448,192,118177,1,0,0:0:0:0:
64,192,118237,1,0,0:0:0:0:
192,192,118297,1,0,0:0:0:0:
320,192,118357,1,0,0:0:0:0:
448,192,118357,1,0,0:0:0:0:
64,192,118417,1,0,0:0:0:0:
192,192,118477,1,0,0:0:0:0:
448,192,118537,1,0,0:0:0:0:
320,192,118597,1,0,0:0:0:0:
192,192,118657,1,0,0:0:0:0:
64,192,118717,1,0,0:0:0:0:
448,192,118777,1,0,0:0:0:0:
192,192,118837,1,0,0:0:0:0:
320,192,118897,1,0,0:0:0:0:
64,192,118957,1,0,0:0:0:0:
448,192,119017,1,0,0:0:0:0:
192,192,119077,1,0,0:0:0:0:
320,192,119077,1,0,0:0:0:0:
64,192,119137,1,0,0:0:0:0:
448,192,119197,1,0,0:0:0:0:
320,192,119257,1,0,0:0:0:0:
64,192,119317,1,0,0:0:0:0:
192,192,119317,1,0,0:0:0:0:
448,192,119377,1,0,0:0:0:0:
192,192,119437,1,0,0:0:0:0:
320,192,119497,1,0,0:0:0:0:
64,192,119557,1,0,0:0:0:0:
448,192,119557,1,0,0:0:0:0:
192,192,119617,1,0,0:0:0:0:
320,192,119677,1,0,0:0:0:0:
448,192,119737,1,0,0:0:0:0:
64,192,119797,1,0,0:0:0:0:
192,192,119857,1,0,0:0:0:0:
448,192,119917,1,0,0:0:0:0:
320,192,119977,1,0,0:0:0:0:
192,192,120037,1,0,0:0:0:0:
64,192,120097,1,0,0:0:0:0:
448,192,120157,1,0,0:0:0:0:
320,192,120217,1,0,0:0:0:0:
192,192,120277,1,0,0:0:0:0:
448,192,120277,1,0,0:0:0:0:
320,192,120337,1,0,0:0:0:0:
192,192,120397,1,0,0:0:0:0:
64,192,120457,1,0,0:0:0:0:
448,192,120517,1,0,0:0:0:0:
320,192,120577,1,0,0:0:0:0:
192,192,120637,1,0,0:0:0:0:
320,192,120697,1,0,0:0:0:0:
448,192,120757,1,0,0:0:0:0:
192,192,120817,1,0,0:0:0:0:
320,192,120877,1,0,0:0:0:0:
64,192,120937,1,0,0:0:0:0:
192,192,120997,1,0,0:0:0:0:
320,192,120997,1,0,0:0:0:0:
448,192,121057,1,0,0:0:0:0:
64,192,121117,1,0,0:0:0:0:
192,192,121177,1,0,0:0:0:0:
448,192,121237,1,0,0:0:0:0:
320,192,121297,1,0,0:0:0:0:
192,192,121357,1,0,0:0:0:0:
448,192,121417,1,0,0:0:0:0:
64,192,121477,1,0,0:0:0:0:
448,192,121537,1,0,0:0:0:0:
320,192,121597,1,0,0:0:0:0:
64,192,121657,1,0,0:0:0:0:
192,192,121717,1,0,0:0:0:0:
320,192,121717,1,0,0:0:0:0:
64,192,121777,1,0,0:0:0:0:
448,192,121837,1,0,0:0:0:0:
192,192,121897,1,0,0:0:0:0:
64,192,121957,1,0,0:0:0:0:
320,192,121957,1,0,0:0:0:0:
448,192,122017,1,0,0:0:0:0:
192,192,122077,1,0,0:0:0:0:
320,192,122137,1,0,0:0:0:0:
64,192,122197,1,0,0:0:0:0:
448,192,122197,1,0,0:0:0:0:
320,192,122257,1,0,0:0:0:0:
192,192,122317,1,0,0:0:0:0:
64,192,122377,1,0,0:0:0:0:
320,192,122437,1,0,0:0:0:0:
448,192,122437,1,0,0:0:0:0:
192,192,122497,1,0,0:0:0:0:
320,192,122557,1,0,0:0:0:0:
448,192,122617,1,0,0:0:0:0:
64,192,122677,1,0,0:0:0:0:
192,192,122737,1,0,0:0:0:0:
64,192,122797,1,0,0:0:0:0:
448,192,122857,1,0,0:0:0:0:
320,192,122917,1,0,0:0:0:0:
64,192,122977,1,0,0:0:0:0:
192,192,123037,1,0,0:0:0:0:
320,192,123097,1,0,0:0:0:0:
64,192,123157,1,0,0:0:0:0:
448,192,123157,1,0,0:0:0:0:
320,192,123217,1,0,0:0:0:0:
192,192,123277,1,0,0:0:0:0:
64,192,123337,1,0,0:0:0:0:
320,192,123397,1,0,0:0:0:0:
192,192,123457,1,0,0:0:0:0:
64,192,123517,1,0,0:0:0:0:
320,192,123517,1,0,0:0:0:0:
448,192,123517,1,0,0:0:0:0:
64,192,123637,1,0,0:0:0:0:
320,192,123637,1,0,0:0:0:0:
64,192,123757,1,0,0:0:0:0:
320,192,123757,1,0,0:0:0:0:
64,192,123877,1,0,0:0:0:0:
320,192,123877,1,0,0:0:0:0:
64,192,123997,1,0,0:0:0:0:
320,192,123997,1,0,0:0:0:0:
448,192,123997,1,0,0:0:0:0:
320,192,124117,1,0,0:0:0:0:
448,192,124117,1,0,0:0:0:0:
64,192,124237,1,0,0:0:0:0:
192,192,124297,1,0,0:0:0:0:
448,192,124357,1,0,0:0:0:0:
320,192,124417,1,0,0:0:0:0:
192,192,124477,1,0,0:0:0:0:
64,192,124537,1,0,0:0:0:0:
192,192,124597,1,0,0:0:0:0:
320,192,124597,1,0,0:0:0:0:
448,192,124597,1,0,0:0:0:0:
320,192,124717,1,0,0:0:0:0:
448,192,124717,1,0,0:0:0:0:
64,192,124957,1,0,0:0:0:0:
192,192,124957,1,0,0:0:0:0:
448,192,124957,1,0,0:0:0:0:
64,192,125077,1,0,0:0:0:0:
448,192,125077,1,0,0:0:0:0:
64,192,125317,1,0,0:0:0:0:
320,192,125317,1,0,0:0:0:0:
448,192,125317,1,0,0:0:0:0:
192,192,125677,1,0,0:0:0:0:
320,192,125737,1,0,0:0:0:0:
448,192,125797,1,0,0:0:0:0:
64,192,125857,1,0,0:0:0:0:
192,192,125917,1,0,0:0:0:0:
320,192,125977,1,0,0:0:0:0:
64,192,126037,1,0,0:0:0:0:
448,192,126037,1,0,0:0:0:0:
192,192,126097,1,0,0:0:0:0:
64,192,126157,1,0,0:0:0:0:
320,192,126217,1,0,0:0:0:0:
448,192,126277,1,0,0:0:0:0:
320,192,126337,1,0,0:0:0:0:
192,192,126397,1,0,0:0:0:0:
64,192,126457,1,0,0:0:0:0:
448,192,126517,1,0,0:0:0:0:
64,192,126577,1,0,0:0:0:0:
192,192,126637,1,0,0:0:0:0:
320,192,126697,1,0,0:0:0:0:
192,192,126757,1,0,0:0:0:0:
448,192,126757,1,0,0:0:0:0:
64,192,126817,1,0,0:0:0:0:
320,192,126877,1,0,0:0:0:0:
192,192,126937,1,0,0:0:0:0:
448,192,126997,1,0,0:0:0:0:
320,192,127057,1,0,0:0:0:0:
192,192,127117,1,0,0:0:0:0:
64,192,127177,1,0,0:0:0:0:
448,192,127237,1,0,0:0:0:0:
192,192,127297,1,0,0:0:0:0:
448,192,127357,1,0,0:0:0:0:
320,192,127417,1,0,0:0:0:0:
64,192,127477,1,0,0:0:0:0:
192,192,127477,1,0,0:0:0:0:
448,192,127537,1,0,0:0:0:0:
320,192,127597,1,0,0:0:0:0:
192,192,127657,1,0,0:0:0:0:
64,192,127717,1,0,0:0:0:0:
448,192,127717,1,0,0:0:0:0:
320,192,127777,1,0,0:0:0:0:
448,192,127837,1,0,0:0:0:0:
64,192,127897,1,0,0:0:0:0:
192,192,127957,1,0,0:0:0:0:
320,192,127957,1,0,0:0:0:0:
448,192,128017,1,0,0:0:0:0:
64,192,128077,1,0,0:0:0:0:
192,192,128137,1,0,0:0:0:0:
320,192,128197,1,0,0:0:0:0:
448,192,128197,1,0,0:0:0:0:
64,192,128257,1,0,0:0:0:0:
192,192,128317,1,0,0:0:0:0:
448,192,128377,1,0,0:0:0:0:
320,192,128437,1,0,0:0:0:0:
192,192,128497,1,0,0:0:0:0:
64,192,128557,1,0,0:0:0:0:
448,192,128617,1,0,0:0:0:0:
192,192,128677,1,0,0:0:0:0:
448,192,128737,1,0,0:0:0:0:
64,192,128797,1,0,0:0:0:0:
192,192,128857,1,0,0:0:0:0:
64,192,128917,1,0,0:0:0:0:
320,192,128917,1,0,0:0:0:0:
448,192,128977,1,0,0:0:0:0:
192,192,129037,1,0,0:0:0:0:
320,192,129097,1,0,0:0:0:0:
64,192,129157,1,0,0:0:0:0:
192,192,129217,1,0,0:0:0:0:
448,192,129277,1,0,0:0:0:0:
320,192,129337,1,0,0:0:0:0:
192,192,129397,1,0,0:0:0:0:
64,192,129457,1,0,0:0:0:0:
192,192,129517,1,0,0:0:0:0:
320,192,129577,1,0,0:0:0:0:
64,192,129637,1,0,0:0:0:0:
192,192,129637,1,0,0:0:0:0:
448,192,129637,128,0,129757:0:0:0:0:
192,192,129877,1,0,0:0:0:0:
448,192,129877,1,0,0:0:0:0:
320,192,129877,128,0,129997:0:0:0:0:
448,192,130117,1,0,0:0:0:0:
320,192,130177,1,0,0:0:0:0:
192,192,130237,1,0,0:0:0:0:
64,192,130297,1,0,0:0:0:0:
320,192,130357,1,0,0:0:0:0:
448,192,130357,1,0,0:0:0:0:
192,192,130357,128,0,130477:0:0:0:0:
320,192,130597,1,0,0:0:0:0:
448,192,130597,1,0,0:0:0:0:
64,192,130597,128,0,130717:0:0:0:0:
448,192,130837,1,0,0:0:0:0:
320,192,130897,1,0,0:0:0:0:
192,192,130957,1,0,0:0:0:0:
320,192,131017,1,0,0:0:0:0:
64,192,131077,1,0,0:0:0:0:
448,192,131077,1,0,0:0:0:0:
192,192,131077,128,0,131197:0:0:0:0:
320,192,131317,1,0,0:0:0:0:
448,192,131317,1,0,0:0:0:0:
64,192,131317,128,0,131437:0:0:0:0:
192,192,131557,1,0,0:0:0:0:
448,192,131557,1,0,0:0:0:0:
320,192,131557,128,0,131677:0:0:0:0:
64,192,131797,1,0,0:0:0:0:
192,192,131797,1,0,0:0:0:0:
448,192,131797,128,0,131917:0:0:0:0:
320,192,132157,1,0,0:0:0:0:
192,192,132217,1,0,0:0:0:0:
448,192,132277,1,0,0:0:0:0:
192,192,132337,1,0,0:0:0:0:
64,192,132397,1,0,0:0:0:0:
320,192,132457,1,0,0:0:0:0:
192,192,132517,1,0,0:0:0:0:
448,192,132517,1,0,0:0:0:0:
64,192,132577,1,0,0:0:0:0:
320,192,132637,1,0,0:0:0:0:
192,192,132697,1,0,0:0:0:0:
448,192,132757,1,0,0:0:0:0:
64,192,132817,1,0,0:0:0:0:
448,192,132877,1,0,0:0:0:0:
192,192,132937,1,0,0:0:0:0:
320,192,132997,1,0,0:0:0:0:
448,192,133057,1,0,0:0:0:0:
64,192,133117,1,0,0:0:0:0:
192,192,133177,1,0,0:0:0:0:
64,192,133237,1,0,0:0:0:0:
448,192,133237,1,0,0:0:0:0:
320,192,133297,1,0,0:0:0:0:
192,192,133357,1,0,0:0:0:0:
320,192,133417,1,0,0:0:0:0:
64,192,133477,1,0,0:0:0:0:
192,192,133477,1,0,0:0:0:0:
448,192,133537,1,0,0:0:0:0:
320,192,133597,1,0,0:0:0:0:
192,192,133657,1,0,0:0:0:0:
64,192,133717,1,0,0:0:0:0:
448,192,133777,1,0,0:0:0:0:
320,192,133837,1,0,0:0:0:0:
192,192,133897,1,0,0:0:0:0:
64,192,133957,1,0,0:0:0:0:
448,192,133957,128,0,134677:0:0:0:0:
192,192,134197,1,0,0:0:0:0:
320,192,134257,1,0,0:0:0:0:
64,192,134317,128,0,134677:0:0:0:0:
192,192,134317,1,0,0:0:0:0:
192,192,134677,1,0,0:0:0:0:
320,192,134737,1,0,0:0:0:0:
448,192,134797,1,0,0:0:0:0:
192,192,134857,1,0,0:0:0:0:
64,192,134917,1,0,0:0:0:0:
192,192,134977,1,0,0:0:0:0:
448,192,135037,1,0,0:0:0:0:
320,192,135097,1,0,0:0:0:0:
64,192,135157,1,0,0:0:0:0:
192,192,135157,1,0,0:0:0:0:
448,192,135217,1,0,0:0:0:0:
320,192,135277,1,0,0:0:0:0:
192,192,135337,1,0,0:0:0:0:
64,192,135397,1,0,0:0:0:0:
448,192,135397,1,0,0:0:0:0:
192,192,135457,1,0,0:0:0:0:
448,192,135517,1,0,0:0:0:0:
320,192,135517,1,0,0:0:0:0:
192,192,135577,1,0,0:0:0:0:
64,192,135637,1,0,0:0:0:0:
320,192,135637,1,0,0:0:0:0:
192,192,135757,1,0,0:0:0:0:
448,192,135757,1,0,0:0:0:0:
64,192,135877,1,0,0:0:0:0:
192,192,135877,1,0,0:0:0:0:
320,192,135997,1,0,0:0:0:0:
448,192,135997,1,0,0:0:0:0:
64,192,136117,1,0,0:0:0:0:
192,192,136117,1,0,0:0:0:0:
448,192,136117,1,0,0:0:0:0:
320,192,136237,1,0,0:0:0:0:
64,192,136237,1,0,0:0:0:0:
192,192,136357,1,0,0:0:0:0:
448,192,136357,1,0,0:0:0:0:
64,192,136477,1,0,0:0:0:0:
192,192,136477,1,0,0:0:0:0:
448,192,136597,1,0,0:0:0:0:
320,192,136717,1,0,0:0:0:0:
64,192,136837,1,0,0:0:0:0:
192,192,136837,1,0,0:0:0:0:
192,192,136957,1,0,0:0:0:0:
320,192,136957,1,0,0:0:0:0:
192,192,137077,1,0,0:0:0:0:
448,192,137077,1,0,0:0:0:0:
64,192,137197,1,0,0:0:0:0:
192,192,137197,1,0,0:0:0:0:
320,192,137557,1,0,0:0:0:0:
64,192,137557,1,0,0:0:0:0:
448,192,137677,1,0,0:0:0:0:
320,192,137677,1,0,0:0:0:0:
320,192,137797,1,0,0:0:0:0:
192,192,137797,1,0,0:0:0:0:
64,192,137917,1,0,0:0:0:0:
320,192,137917,1,0,0:0:0:0:
64,192,138277,1,0,0:0:0:0:
320,192,138277,1,0,0:0:0:0:
64,192,138397,1,0,0:0:0:0:
192,192,138397,1,0,0:0:0:0:
64,192,138517,1,0,0:0:0:0:
320,192,138517,1,0,0:0:0:0:
64,192,138637,1,0,0:0:0:0:
448,192,138637,1,0,0:0:0:0:
192,192,138757,128,0,138877:0:0:0:0:
192,192,138997,1,0,0:0:0:0:
448,192,138997,1,0,0:0:0:0:
448,192,139117,1,0,0:0:0:0:
64,192,139117,1,0,0:0:0:0:
192,192,139237,1,0,0:0:0:0:
448,192,139237,1,0,0:0:0:0:
448,192,139357,1,0,0:0:0:0:
64,192,139357,1,0,0:0:0:0:
320,192,139477,128,0,139597:0:0:0:0:
192,192,139717,1,0,0:0:0:0:
448,192,139717,128,0,139837:0:0:0:0:
64,192,139837,1,0,0:0:0:0:
192,192,139837,1,0,0:0:0:0:
448,192,139957,1,0,0:0:0:0:
64,192,139957,128,0,140077:0:0:0:0:
448,192,140077,1,0,0:0:0:0:
320,192,140077,1,0,0:0:0:0:
64,192,140437,1,0,0:0:0:0:
192,192,140437,1,0,0:0:0:0:
320,192,140557,1,0,0:0:0:0:
64,192,140557,1,0,0:0:0:0:
448,192,140677,1,0,0:0:0:0:
192,192,140677,1,0,0:0:0:0:
192,192,140797,1,0,0:0:0:0:
320,192,140797,1,0,0:0:0:0:
64,192,140917,1,0,0:0:0:0:
320,192,140917,1,0,0:0:0:0:
64,192,141037,1,0,0:0:0:0:
192,192,141037,1,0,0:0:0:0:
320,192,141157,1,0,0:0:0:0:
448,192,141157,1,0,0:0:0:0:
192,192,141217,1,0,0:0:0:0:
64,192,141277,1,0,0:0:0:0:
448,192,141337,1,0,0:0:0:0:
320,192,141397,1,0,0:0:0:0:
192,192,141457,1,0,0:0:0:0:
64,192,141517,1,0,0:0:0:0:
320,192,141577,1,0,0:0:0:0:
192,192,141637,1,0,0:0:0:0:
448,192,141697,1,0,0:0:0:0:
320,192,141757,1,0,0:0:0:0:
192,192,141817,1,0,0:0:0:0:
64,192,141877,1,0,0:0:0:0:
320,192,141877,1,0,0:0:0:0:
448,192,141877,1,0,0:0:0:0:
64,192,141997,1,0,0:0:0:0:
320,192,141997,1,0,0:0:0:0:
192,192,142237,1,0,0:0:0:0:
320,192,142237,1,0,0:0:0:0:
448,192,142237,1,0,0:0:0:0:
192,192,142357,1,0,0:0:0:0:
320,192,142357,1,0,0:0:0:0:
64,192,142597,1,0,0:0:0:0:
448,192,142597,1,0,0:0:0:0:
64,192,142717,1,0,0:0:0:0:
448,192,142717,1,0,0:0:0:0:
64,192,142837,1,0,0:0:0:0:
448,192,142837,1,0,0:0:0:0:
64,192,142957,1,0,0:0:0:0:
448,192,142957,1,0,0:0:0:0:
192,192,143077,1,0,0:0:0:0:
320,192,143197,1,0,0:0:0:0:
64,192,143317,1,0,0:0:0:0:
448,192,143317,1,0,0:0:0:0:
64,192,143437,1,0,0:0:0:0:
448,192,143437,1,0,0:0:0:0:
64,192,143557,1,0,0:0:0:0:
448,192,143557,1,0,0:0:0:0:
64,192,143677,1,0,0:0:0:0:
448,192,143677,1,0,0:0:0:0:
192,192,143797,1,0,0:0:0:0:
320,192,143917,1,0,0:0:0:0:
192,192,144037,1,0,0:0:0:0:
448,192,144037,1,0,0:0:0:0:
192,192,144157,1,0,0:0:0:0:
448,192,144157,1,0,0:0:0:0:
192,192,144277,1,0,0:0:0:0:
448,192,144277,1,0,0:0:0:0:
192,192,144397,1,0,0:0:0:0:
448,192,144397,1,0,0:0:0:0:
64,192,144517,1,0,0:0:0:0:
448,192,144637,1,0,0:0:0:0:
64,192,144757,1,0,0:0:0:0:
320,192,144757,1,0,0:0:0:0:
64,192,144877,1,0,0:0:0:0:
320,192,144877,1,0,0:0:0:0:
64,192,144997,1,0,0:0:0:0:
320,192,144997,1,0,0:0:0:0:
64,192,145117,1,0,0:0:0:0:
320,192,145117,1,0,0:0:0:0:
192,192,145237,1,0,0:0:0:0:
320,192,145357,1,0,0:0:0:0:
64,192,145477,1,0,0:0:0:0:
448,192,145477,1,0,0:0:0:0:
64,192,145597,1,0,0:0:0:0:
448,192,145597,1,0,0:0:0:0:
64,192,145717,1,0,0:0:0:0:
448,192,145717,1,0,0:0:0:0:
64,192,145837,1,0,0:0:0:0:
448,192,145837,1,0,0:0:0:0:
448,192,145957,1,0,0:0:0:0:
192,192,145957,1,0,0:0:0:0:
320,192,146077,1,0,0:0:0:0:
448,192,146077,1,0,0:0:0:0:
64,192,146197,1,0,0:0:0:0:
192,192,146197,1,0,0:0:0:0:
320,192,146197,1,0,0:0:0:0:
64,192,146317,1,0,0:0:0:0:
320,192,146317,1,0,0:0:0:0:
64,192,146557,1,0,0:0:0:0:
192,192,146557,1,0,0:0:0:0:
448,192,146557,1,0,0:0:0:0:
64,192,146677,1,0,0:0:0:0:
192,192,146677,1,0,0:0:0:0:
64,192,146917,1,0,0:0:0:0:
448,192,146917,1,0,0:0:0:0:
320,192,146977,1,0,0:0:0:0:
192,192,147037,1,0,0:0:0:0:
64,192,147097,1,0,0:0:0:0:
448,192,147157,1,0,0:0:0:0:
320,192,147217,1,0,0:0:0:0:
64,192,147277,1,0,0:0:0:0:
192,192,147337,1,0,0:0:0:0:
448,192,147397,1,0,0:0:0:0:
320,192,147457,1,0,0:0:0:0:
192,192,147517,1,0,0:0:0:0:
64,192,147577,1,0,0:0:0:0:
448,192,147637,1,0,0:0:0:0:
320,0,147637,128,0,148357:0:0:0:0:
192,192,148357,1,0,0:0:0:0:
64,192,148357,1,0,0:0:0:0:
448,192,148357,1,0,0:0:0:0:
64,192,148597,1,0,0:0:0:0:
448,192,148657,1,0,0:0:0:0:
64,192,148717,1,0,0:0:0:0:
448,192,148777,1,0,0:0:0:0:
192,192,148837,1,0,0:0:0:0:
320,192,148897,1,0,0:0:0:0:
448,192,148957,1,0,0:0:0:0:
320,192,149017,1,0,0:0:0:0:
64,192,149077,1,0,0:0:0:0:
192,192,149077,1,0,0:0:0:0:
448,192,149137,1,0,0:0:0:0:
320,192,149197,1,0,0:0:0:0:
192,192,149257,1,0,0:0:0:0:
64,192,149317,1,0,0:0:0:0:
192,192,149377,1,0,0:0:0:0:
320,192,149437,1,0,0:0:0:0:
448,192,149497,1,0,0:0:0:0:
64,192,149557,1,0,0:0:0:0:
192,192,149617,1,0,0:0:0:0:
448,192,149677,1,0,0:0:0:0:
320,192,149737,1,0,0:0:0:0:
192,192,149797,1,0,0:0:0:0:
448,192,149797,1,0,0:0:0:0:
64,192,149857,1,0,0:0:0:0:
320,192,149917,1,0,0:0:0:0:
192,192,149977,1,0,0:0:0:0:
448,192,150037,1,0,0:0:0:0:
320,192,150097,1,0,0:0:0:0:
64,192,150157,1,0,0:0:0:0:
448,192,150217,1,0,0:0:0:0:
64,192,150277,1,0,0:0:0:0:
320,192,150337,1,0,0:0:0:0:
192,192,150397,1,0,0:0:0:0:
320,192,150457,1,0,0:0:0:0:
64,192,150517,1,0,0:0:0:0:
448,192,150517,1,0,0:0:0:0:
192,192,150577,1,0,0:0:0:0:
320,192,150637,1,0,0:0:0:0:
448,192,150697,1,0,0:0:0:0:
64,192,150757,1,0,0:0:0:0:
320,192,150757,1,0,0:0:0:0:
192,192,150817,1,0,0:0:0:0:
448,192,150877,1,0,0:0:0:0:
64,192,150937,1,0,0:0:0:0:
192,192,150997,1,0,0:0:0:0:
448,192,150997,1,0,0:0:0:0:
320,192,151057,1,0,0:0:0:0:
192,192,151117,1,0,0:0:0:0:
448,192,151177,1,0,0:0:0:0:
64,192,151237,1,0,0:0:0:0:
320,192,151237,1,0,0:0:0:0:
192,192,151297,1,0,0:0:0:0:
64,192,151357,1,0,0:0:0:0:
448,192,151417,1,0,0:0:0:0:
320,192,151477,1,0,0:0:0:0:
192,192,151537,1,0,0:0:0:0:
448,192,151597,1,0,0:0:0:0:
64,192,151657,1,0,0:0:0:0:
448,192,151717,1,0,0:0:0:0:
192,192,151777,1,0,0:0:0:0:
320,192,151837,1,0,0:0:0:0:
192,192,151897,1,0,0:0:0:0:
64,192,151957,1,0,0:0:0:0:
320,192,151957,1,0,0:0:0:0:
448,192,152017,1,0,0:0:0:0:
320,192,152077,1,0,0:0:0:0:
192,192,152137,1,0,0:0:0:0:
64,192,152197,1,0,0:0:0:0:
448,192,152257,1,0,0:0:0:0:
192,192,152317,1,0,0:0:0:0:
448,192,152377,1,0,0:0:0:0:
64,192,152437,1,0,0:0:0:0:
192,192,152497,1,0,0:0:0:0:
64,192,152557,1,0,0:0:0:0:
320,192,152617,1,0,0:0:0:0:
192,192,152677,1,0,0:0:0:0:
448,192,152677,1,0,0:0:0:0:
64,192,152737,1,0,0:0:0:0:
320,192,152797,1,0,0:0:0:0:
192,192,152857,1,0,0:0:0:0:
320,192,152917,1,0,0:0:0:0:
448,192,152977,1,0,0:0:0:0:
192,192,153037,1,0,0:0:0:0:
320,192,153097,1,0,0:0:0:0:
64,192,153157,1,0,0:0:0:0:
448,192,153217,1,0,0:0:0:0:
320,192,153277,1,0,0:0:0:0:
448,192,153337,1,0,0:0:0:0:
64,192,153397,1,0,0:0:0:0:
192,192,153397,1,0,0:0:0:0:
320,192,153457,1,0,0:0:0:0:
64,192,153517,1,0,0:0:0:0:
448,192,153517,1,0,0:0:0:0:
192,192,153577,1,0,0:0:0:0:
320,192,153637,1,0,0:0:0:0:
448,192,153697,1,0,0:0:0:0:
64,192,153757,1,0,0:0:0:0:
192,192,153757,1,0,0:0:0:0:
320,192,153817,1,0,0:0:0:0:
192,192,153877,1,0,0:0:0:0:
448,192,153877,1,0,0:0:0:0:
64,192,153937,1,0,0:0:0:0:
320,192,153997,1,0,0:0:0:0:
192,192,154057,1,0,0:0:0:0:
448,192,154117,1,0,0:0:0:0:
320,192,154117,1,0,0:0:0:0:
64,192,154117,1,0,0:0:0:0:
320,192,154357,1,0,0:0:0:0:
64,192,154417,1,0,0:0:0:0:
320,192,154477,1,0,0:0:0:0:
192,192,154537,1,0,0:0:0:0:
448,192,154597,1,0,0:0:0:0:
64,192,154657,1,0,0:0:0:0:
320,192,154717,1,0,0:0:0:0:
192,192,154777,1,0,0:0:0:0:
64,192,154837,1,0,0:0:0:0:
448,192,154837,1,0,0:0:0:0:
320,192,154897,1,0,0:0:0:0:
192,192,154957,1,0,0:0:0:0:
64,192,155017,1,0,0:0:0:0:
448,192,155077,1,0,0:0:0:0:
320,192,155137,1,0,0:0:0:0:
448,192,155197,1,0,0:0:0:0:
64,192,155257,1,0,0:0:0:0:
320,192,155317,1,0,0:0:0:0:
64,192,155377,1,0,0:0:0:0:
192,192,155437,1,0,0:0:0:0:
320,192,155497,1,0,0:0:0:0:
192,192,155557,1,0,0:0:0:0:
448,192,155557,1,0,0:0:0:0:
64,192,155617,1,0,0:0:0:0:
320,192,155677,1,0,0:0:0:0:
448,192,155737,1,0,0:0:0:0:
320,192,155797,1,0,0:0:0:0:
64,192,155857,1,0,0:0:0:0:
448,192,155917,1,0,0:0:0:0:
64,192,155977,1,0,0:0:0:0:
320,192,156037,1,0,0:0:0:0:
192,192,156097,1,0,0:0:0:0:
448,192,156157,1,0,0:0:0:0:
64,192,156217,1,0,0:0:0:0:
320,192,156277,1,0,0:0:0:0:
448,192,156277,1,0,0:0:0:0:
192,192,156337,1,0,0:0:0:0:
64,192,156397,1,0,0:0:0:0:
448,192,156457,1,0,0:0:0:0:
192,192,156517,1,0,0:0:0:0:
320,192,156517,1,0,0:0:0:0:
64,192,156577,1,0,0:0:0:0:
448,192,156637,1,0,0:0:0:0:
320,192,156697,1,0,0:0:0:0:
64,192,156757,1,0,0:0:0:0:
192,192,156757,1,0,0:0:0:0:
448,192,156817,1,0,0:0:0:0:
320,192,156877,1,0,0:0:0:0:
192,192,156937,1,0,0:0:0:0:
64,192,156997,1,0,0:0:0:0:
448,192,156997,1,0,0:0:0:0:
320,192,157057,1,0,0:0:0:0:
192,192,157117,1,0,0:0:0:0:
320,192,157177,1,0,0:0:0:0:
64,192,157237,1,0,0:0:0:0:
192,192,157297,1,0,0:0:0:0:
320,192,157357,1,0,0:0:0:0:
448,192,157417,1,0,0:0:0:0:
64,192,157477,1,0,0:0:0:0:
320,192,157537,1,0,0:0:0:0:
64,192,157597,1,0,0:0:0:0:
192,192,157657,1,0,0:0:0:0:
320,192,157717,1,0,0:0:0:0:
448,192,157717,1,0,0:0:0:0:
64,192,157777,1,0,0:0:0:0:
192,192,157837,1,0,0:0:0:0:
320,192,157897,1,0,0:0:0:0:
448,192,157957,1,0,0:0:0:0:
320,192,158017,1,0,0:0:0:0:
192,192,158077,1,0,0:0:0:0:
64,192,158137,1,0,0:0:0:0:
448,192,158197,1,0,0:0:0:0:
320,192,158257,1,0,0:0:0:0:
192,192,158317,1,0,0:0:0:0:
320,192,158377,1,0,0:0:0:0:
64,192,158437,1,0,0:0:0:0:
192,192,158437,1,0,0:0:0:0:
448,192,158437,1,0,0:0:0:0:
192,192,158557,1,0,0:0:0:0:
448,192,158557,1,0,0:0:0:0:
64,192,158797,1,0,0:0:0:0:
192,192,158797,1,0,0:0:0:0:
320,192,158797,1,0,0:0:0:0:
64,192,158917,1,0,0:0:0:0:
192,192,158917,1,0,0:0:0:0:
64,192,159157,1,0,0:0:0:0:
448,192,159157,1,0,0:0:0:0:
320,192,159217,1,0,0:0:0:0:
192,192,159277,1,0,0:0:0:0:
448,192,159337,1,0,0:0:0:0:
64,192,159397,1,0,0:0:0:0:
320,192,159397,1,0,0:0:0:0:
192,192,159457,1,0,0:0:0:0:
64,192,159517,1,0,0:0:0:0:
320,192,159577,1,0,0:0:0:0:
192,192,159637,1,0,0:0:0:0:
448,192,159637,1,0,0:0:0:0:
64,192,159697,1,0,0:0:0:0:
320,192,159757,1,0,0:0:0:0:
192,192,159817,1,0,0:0:0:0:
64,192,159877,1,0,0:0:0:0:
320,192,159877,1,0,0:0:0:0:
448,192,159877,1,0,0:0:0:0:
192,192,160117,1,0,0:0:0:0:
64,192,160177,1,0,0:0:0:0:
320,192,160237,1,0,0:0:0:0:
448,192,160237,1,0,0:0:0:0:
192,192,160297,1,0,0:0:0:0:
320,192,160357,1,0,0:0:0:0:
448,192,160357,1,0,0:0:0:0:
192,192,160417,1,0,0:0:0:0:
320,192,160477,1,0,0:0:0:0:
448,192,160477,1,0,0:0:0:0:
192,192,160537,1,0,0:0:0:0:
64,192,160597,1,0,0:0:0:0:
320,192,160597,1,0,0:0:0:0:
448,192,160657,1,0,0:0:0:0:
192,192,160717,1,0,0:0:0:0:
64,192,160777,1,0,0:0:0:0:
320,192,160837,1,0,0:0:0:0:
192,192,160897,1,0,0:0:0:0:
320,192,160957,1,0,0:0:0:0:
448,192,161017,1,0,0:0:0:0:
64,192,161077,1,0,0:0:0:0:
192,192,161137,1,0,0:0:0:0:
320,192,161197,1,0,0:0:0:0:
192,192,161257,1,0,0:0:0:0:
64,192,161317,1,0,0:0:0:0:
448,192,161317,1,0,0:0:0:0:
320,192,161377,1,0,0:0:0:0:
192,192,161437,1,0,0:0:0:0:
320,192,161497,1,0,0:0:0:0:
64,192,161557,1,0,0:0:0:0:
192,192,161617,1,0,0:0:0:0:
448,192,161677,1,0,0:0:0:0:
320,192,161737,1,0,0:0:0:0:
192,192,161797,1,0,0:0:0:0:
448,192,161857,1,0,0:0:0:0:
64,192,161917,1,0,0:0:0:0:
320,192,161977,1,0,0:0:0:0:
64,192,162037,1,0,0:0:0:0:
448,192,162037,1,0,0:0:0:0:
192,192,162097,1,0,0:0:0:0:
320,192,162157,1,0,0:0:0:0:
192,192,162217,1,0,0:0:0:0:
64,192,162277,1,0,0:0:0:0:
448,192,162277,1,0,0:0:0:0:
320,192,162337,1,0,0:0:0:0:
192,192,162397,1,0,0:0:0:0:
448,192,162457,1,0,0:0:0:0:
64,192,162517,1,0,0:0:0:0:
192,192,162517,1,0,0:0:0:0:
320,192,162577,1,0,0:0:0:0:
448,192,162637,1,0,0:0:0:0:
192,192,162697,1,0,0:0:0:0:
320,192,162757,1,0,0:0:0:0:
448,192,162757,1,0,0:0:0:0:
192,192,162817,1,0,0:0:0:0:
320,192,162877,1,0,0:0:0:0:
64,192,162937,1,0,0:0:0:0:
448,192,162997,1,0,0:0:0:0:
320,192,163057,1,0,0:0:0:0:
64,192,163117,1,0,0:0:0:0:
192,192,163117,1,0,0:0:0:0:
320,192,163177,1,0,0:0:0:0:
64,192,163237,1,0,0:0:0:0:
192,192,163237,1,0,0:0:0:0:
320,192,163297,1,0,0:0:0:0:
64,192,163357,1,0,0:0:0:0:
192,192,163357,1,0,0:0:0:0:
320,192,163417,1,0,0:0:0:0:
192,192,163477,1,0,0:0:0:0:
448,192,163477,1,0,0:0:0:0:
64,192,163537,1,0,0:0:0:0:
320,192,163597,1,0,0:0:0:0:
192,192,163657,1,0,0:0:0:0:
448,192,163717,1,0,0:0:0:0:
320,192,163777,1,0,0:0:0:0:
192,192,163837,1,0,0:0:0:0:
64,192,163897,1,0,0:0:0:0:
192,192,163957,1,0,0:0:0:0:
320,192,164017,1,0,0:0:0:0:
448,192,164077,1,0,0:0:0:0:
320,192,164137,1,0,0:0:0:0:
64,192,164197,1,0,0:0:0:0:
192,192,164197,1,0,0:0:0:0:
448,192,164257,1,0,0:0:0:0:
64,192,164317,1,0,0:0:0:0:
192,192,164377,1,0,0:0:0:0:
320,192,164437,1,0,0:0:0:0:
448,192,164437,1,0,0:0:0:0:
64,192,164497,1,0,0:0:0:0:
192,192,164557,1,0,0:0:0:0:
448,192,164617,1,0,0:0:0:0:
320,192,164677,1,0,0:0:0:0:
64,192,164737,1,0,0:0:0:0:
320,192,164797,1,0,0:0:0:0:
192,192,164857,1,0,0:0:0:0:
64,192,164917,1,0,0:0:0:0:
448,192,164917,1,0,0:0:0:0:
320,192,164977,1,0,0:0:0:0:
192,192,165037,1,0,0:0:0:0:
320,192,165097,1,0,0:0:0:0:
64,192,165157,1,0,0:0:0:0:
192,192,165157,1,0,0:0:0:0:
448,192,165217,1,0,0:0:0:0:
64,192,165277,1,0,0:0:0:0:
320,192,165277,1,0,0:0:0:0:
192,192,165337,1,0,0:0:0:0:
320,192,165397,1,0,0:0:0:0:
448,192,165397,1,0,0:0:0:0:
64,192,165457,1,0,0:0:0:0:
192,192,165517,1,0,0:0:0:0:
320,192,165517,1,0,0:0:0:0:
448,192,165577,1,0,0:0:0:0:
320,192,165637,1,0,0:0:0:0:
192,192,165637,1,0,0:0:0:0:
64,192,165637,1,0,0:0:0:0:
448,192,165877,1,0,0:0:0:0:
192,192,165937,1,0,0:0:0:0:
64,192,165997,1,0,0:0:0:0:
320,192,165997,1,0,0:0:0:0:
448,192,166057,1,0,0:0:0:0:
192,192,166117,1,0,0:0:0:0:
320,192,166117,1,0,0:0:0:0:
64,192,166177,1,0,0:0:0:0:
320,192,166237,1,0,0:0:0:0:
448,192,166237,1,0,0:0:0:0:
192,192,166297,1,0,0:0:0:0:
64,192,166357,1,0,0:0:0:0:
448,192,166357,1,0,0:0:0:0:
320,192,166417,1,0,0:0:0:0:
192,192,166477,1,0,0:0:0:0:
448,192,166537,1,0,0:0:0:0:
192,192,166597,1,0,0:0:0:0:
320,192,166597,1,0,0:0:0:0:
64,192,166657,1,0,0:0:0:0:
448,192,166717,1,0,0:0:0:0:
320,192,166777,1,0,0:0:0:0:
192,192,166837,1,0,0:0:0:0:
64,192,166897,1,0,0:0:0:0:
192,192,166957,1,0,0:0:0:0:
320,192,167017,1,0,0:0:0:0:
64,192,167077,1,0,0:0:0:0:
448,192,167077,1,0,0:0:0:0:
192,192,167137,1,0,0:0:0:0:
320,192,167197,1,0,0:0:0:0:
64,192,167257,1,0,0:0:0:0:
448,192,167317,1,0,0:0:0:0:
320,192,167377,1,0,0:0:0:0:
448,192,167437,1,0,0:0:0:0:
64,192,167497,1,0,0:0:0:0:
192,192,167557,1,0,0:0:0:0:
320,192,167617,1,0,0:0:0:0:
448,192,167677,1,0,0:0:0:0:
64,192,167737,1,0,0:0:0:0:
192,192,167797,1,0,0:0:0:0:
320,192,167797,1,0,0:0:0:0:
64,192,167857,1,0,0:0:0:0:
448,192,167917,1,0,0:0:0:0:
320,192,167977,1,0,0:0:0:0:
192,192,168037,1,0,0:0:0:0:
448,192,168037,1,0,0:0:0:0:
64,192,168097,1,0,0:0:0:0:
192,192,168157,1,0,0:0:0:0:
320,192,168217,1,0,0:0:0:0:
64,192,168277,1,0,0:0:0:0:
448,192,168277,1,0,0:0:0:0:
192,192,168337,1,0,0:0:0:0:
320,192,168397,1,0,0:0:0:0:
448,192,168457,1,0,0:0:0:0:
64,192,168517,1,0,0:0:0:0:
192,192,168517,1,0,0:0:0:0:
320,192,168577,1,0,0:0:0:0:
192,192,168637,1,0,0:0:0:0:
448,192,168697,1,0,0:0:0:0:
320,192,168757,1,0,0:0:0:0:
192,192,168817,1,0,0:0:0:0:
64,192,168877,1,0,0:0:0:0:
320,192,168877,1,0,0:0:0:0:
448,192,168937,1,0,0:0:0:0:
192,192,168997,1,0,0:0:0:0:
320,192,168997,1,0,0:0:0:0:
64,192,169057,1,0,0:0:0:0:
192,192,169117,1,0,0:0:0:0:
448,192,169117,1,0,0:0:0:0:
320,192,169177,1,0,0:0:0:0:
64,192,169237,1,0,0:0:0:0:
448,192,169237,1,0,0:0:0:0:
192,192,169297,1,0,0:0:0:0:
320,192,169357,1,0,0:0:0:0:
192,192,169417,1,0,0:0:0:0:
448,192,169477,1,0,0:0:0:0:
320,192,169537,1,0,0:0:0:0:
192,192,169597,1,0,0:0:0:0:
64,192,169657,1,0,0:0:0:0:
320,192,169717,1,0,0:0:0:0:
192,192,169777,1,0,0:0:0:0:
448,192,169837,1,0,0:0:0:0:
320,192,169897,1,0,0:0:0:0:
64,192,169957,1,0,0:0:0:0:
192,192,169957,1,0,0:0:0:0:
448,192,169957,1,0,0:0:0:0:
192,192,170077,1,0,0:0:0:0:
448,192,170077,1,0,0:0:0:0:
64,192,170317,1,0,0:0:0:0:
192,192,170317,1,0,0:0:0:0:
320,192,170317,1,0,0:0:0:0:
64,192,170437,1,0,0:0:0:0:
192,192,170437,1,0,0:0:0:0:
64,192,170677,1,0,0:0:0:0:
448,192,170677,1,0,0:0:0:0:
192,192,170737,1,0,0:0:0:0:
320,192,170797,1,0,0:0:0:0:
448,192,170857,1,0,0:0:0:0:
64,192,170917,1,0,0:0:0:0:
192,192,170977,1,0,0:0:0:0:
320,192,171037,1,0,0:0:0:0:
448,192,171037,1,0,0:0:0:0:
64,192,171097,1,0,0:0:0:0:
192,192,171157,1,0,0:0:0:0:
320,192,171217,1,0,0:0:0:0:
448,192,171277,1,0,0:0:0:0:
64,192,171337,1,0,0:0:0:0:
192,192,171397,1,0,0:0:0:0:
320,192,171397,1,0,0:0:0:0:
448,192,171457,1,0,0:0:0:0:
64,192,171517,1,0,0:0:0:0:
192,192,171577,1,0,0:0:0:0:
320,192,171637,1,0,0:0:0:0:
448,192,171697,1,0,0:0:0:0:
64,192,171757,1,0,0:0:0:0:
192,192,171757,1,0,0:0:0:0:
320,192,171817,1,0,0:0:0:0:
448,192,171877,1,0,0:0:0:0:
320,192,171937,1,0,0:0:0:0:
64,192,171997,1,0,0:0:0:0:
192,192,172057,1,0,0:0:0:0:
320,192,172117,1,0,0:0:0:0:
448,192,172177,1,0,0:0:0:0:
64,192,172177,1,0,0:0:0:0:
320,192,172237,1,0,0:0:0:0:
192,192,172297,1,0,0:0:0:0:
64,192,172357,1,0,0:0:0:0:
448,192,172417,1,0,0:0:0:0:
192,192,172477,1,0,0:0:0:0:
320,192,172477,1,0,0:0:0:0:
64,192,172537,1,0,0:0:0:0:
448,192,172597,1,0,0:0:0:0:
320,192,172657,1,0,0:0:0:0:
192,192,172717,1,0,0:0:0:0:
64,192,172777,1,0,0:0:0:0:
320,192,172837,1,0,0:0:0:0:
448,192,172837,1,0,0:0:0:0:
192,192,172897,1,0,0:0:0:0:
64,192,172957,1,0,0:0:0:0:
448,192,173017,1,0,0:0:0:0:
320,192,173077,1,0,0:0:0:0:
192,192,173137,1,0,0:0:0:0:
64,192,173197,1,0,0:0:0:0:
448,192,173197,1,0,0:0:0:0:
320,192,173257,1,0,0:0:0:0:
192,192,173317,1,0,0:0:0:0:
64,192,173377,1,0,0:0:0:0:
192,192,173437,1,0,0:0:0:0:
320,192,173497,1,0,0:0:0:0:
64,192,173557,1,0,0:0:0:0:
448,192,173557,1,0,0:0:0:0:
192,192,173617,1,0,0:0:0:0:
320,192,173677,1,0,0:0:0:0:
448,192,173737,1,0,0:0:0:0:
64,192,173797,1,0,0:0:0:0:
192,192,173857,1,0,0:0:0:0:
320,192,173917,1,0,0:0:0:0:
448,192,173917,1,0,0:0:0:0:
64,192,173977,1,0,0:0:0:0:
192,192,174037,1,0,0:0:0:0:
320,192,174097,1,0,0:0:0:0:
448,192,174157,1,0,0:0:0:0:
64,192,174217,1,0,0:0:0:0:
192,192,174277,1,0,0:0:0:0:
320,192,174277,1,0,0:0:0:0:
448,192,174337,1,0,0:0:0:0:
64,192,174397,1,0,0:0:0:0:
192,192,174457,1,0,0:0:0:0:
320,192,174517,1,0,0:0:0:0:
448,192,174577,1,0,0:0:0:0:
64,192,174637,1,0,0:0:0:0:
192,192,174637,1,0,0:0:0:0:
320,192,174697,1,0,0:0:0:0:
448,192,174757,1,0,0:0:0:0:
64,192,174817,1,0,0:0:0:0:
192,192,174877,1,0,0:0:0:0:
320,192,174937,1,0,0:0:0:0:
192,192,174997,1,0,0:0:0:0:
448,192,174997,1,0,0:0:0:0:
64,192,174997,1,0,0:0:0:0:
320,192,175057,1,0,0:0:0:0:
192,192,175117,1,0,0:0:0:0:
448,192,175177,1,0,0:0:0:0:
64,192,175237,1,0,0:0:0:0:
320,192,175237,1,0,0:0:0:0:
192,192,175297,1,0,0:0:0:0:
448,192,175357,1,0,0:0:0:0:
320,192,175417,1,0,0:0:0:0:
64,192,175477,1,0,0:0:0:0:
192,192,175477,1,0,0:0:0:0:
448,192,175537,1,0,0:0:0:0:
320,192,175597,1,0,0:0:0:0:
192,192,175657,1,0,0:0:0:0:
64,192,175717,1,0,0:0:0:0:
448,192,175717,1,0,0:0:0:0:
320,192,175777,1,0,0:0:0:0:
192,192,175837,1,0,0:0:0:0:
64,192,175897,1,0,0:0:0:0:
320,192,175957,1,0,0:0:0:0:
448,192,175957,1,0,0:0:0:0:
448,192,176197,1,0,0:0:0:0:
64,192,176257,1,0,0:0:0:0:
320,192,176317,1,0,0:0:0:0:
192,192,176377,1,0,0:0:0:0:
64,192,176437,1,0,0:0:0:0:
320,192,176437,1,0,0:0:0:0:
448,192,176437,1,0,0:0:0:0:
192,192,176497,1,0,0:0:0:0:
320,192,176557,1,0,0:0:0:0:
64,192,176617,1,0,0:0:0:0:
192,192,176677,1,0,0:0:0:0:
320,192,176737,1,0,0:0:0:0:
64,192,176797,1,0,0:0:0:0:
448,192,176797,1,0,0:0:0:0:
192,192,176857,1,0,0:0:0:0:
320,192,176917,1,0,0:0:0:0:
448,192,176977,1,0,0:0:0:0:
64,192,177037,1,0,0:0:0:0:
192,192,177097,1,0,0:0:0:0:
320,192,177157,1,0,0:0:0:0:
448,192,177157,1,0,0:0:0:0:
64,192,177217,1,0,0:0:0:0:
192,192,177277,1,0,0:0:0:0:
320,192,177337,1,0,0:0:0:0:
448,192,177397,1,0,0:0:0:0:
64,192,177457,1,0,0:0:0:0:
192,192,177517,1,0,0:0:0:0:
320,192,177517,1,0,0:0:0:0:
448,192,177577,1,0,0:0:0:0:
320,192,177637,1,0,0:0:0:0:
64,192,177697,1,0,0:0:0:0:
192,192,177757,1,0,0:0:0:0:
320,192,177817,1,0,0:0:0:0:
64,192,177877,1,0,0:0:0:0:
448,192,177877,1,0,0:0:0:0:
192,192,177937,1,0,0:0:0:0:
320,192,177997,1,0,0:0:0:0:
192,192,178057,1,0,0:0:0:0:
448,192,178117,1,0,0:0:0:0:
320,192,178177,1,0,0:0:0:0:
64,192,178237,1,0,0:0:0:0:
192,192,178237,1,0,0:0:0:0:
448,192,178297,1,0,0:0:0:0:
320,192,178357,1,0,0:0:0:0:
192,192,178417,1,0,0:0:0:0:
64,192,178477,1,0,0:0:0:0:
448,192,178537,1,0,0:0:0:0:
192,192,178597,1,0,0:0:0:0:
320,192,178597,1,0,0:0:0:0:
64,192,178657,1,0,0:0:0:0:
448,192,178717,1,0,0:0:0:0:
320,192,178777,1,0,0:0:0:0:
192,192,178837,1,0,0:0:0:0:
64,192,178897,1,0,0:0:0:0:
320,192,178957,1,0,0:0:0:0:
448,192,178957,1,0,0:0:0:0:
192,192,179017,1,0,0:0:0:0:
64,192,179077,1,0,0:0:0:0:
192,192,179137,1,0,0:0:0:0:
448,192,179197,1,0,0:0:0:0:
320,192,179257,1,0,0:0:0:0:
64,192,179317,1,0,0:0:0:0:
192,192,179317,1,0,0:0:0:0:
448,192,179317,1,0,0:0:0:0:
320,192,179377,1,0,0:0:0:0:
192,192,179437,1,0,0:0:0:0:
64,192,179497,1,0,0:0:0:0:
448,192,179557,1,0,0:0:0:0:
320,192,179617,1,0,0:0:0:0:
64,192,179677,1,0,0:0:0:0:
192,192,179677,1,0,0:0:0:0:
448,192,179737,1,0,0:0:0:0:
320,192,179797,1,0,0:0:0:0:
192,192,179857,1,0,0:0:0:0:
64,192,179917,1,0,0:0:0:0:
448,192,179977,1,0,0:0:0:0:
192,192,180037,1,0,0:0:0:0:
320,192,180037,1,0,0:0:0:0:
64,192,180097,1,0,0:0:0:0:
448,192,180157,1,0,0:0:0:0:
320,192,180217,1,0,0:0:0:0:
192,192,180277,1,0,0:0:0:0:
64,192,180337,1,0,0:0:0:0:
320,192,180397,1,0,0:0:0:0:
448,192,180397,1,0,0:0:0:0:
192,192,180457,1,0,0:0:0:0:
64,192,180517,1,0,0:0:0:0:
448,192,180577,1,0,0:0:0:0:
192,192,180637,1,0,0:0:0:0:
320,192,180697,1,0,0:0:0:0:
64,192,180757,1,0,0:0:0:0:
448,192,180757,1,0,0:0:0:0:
192,192,180757,128,0,180997:0:0:0:0:
64,192,180997,1,0,0:0:0:0:
320,192,180997,1,0,0:0:0:0:
448,192,180997,128,0,181237:0:0:0:0:
192,192,181237,1,0,0:0:0:0:
64,192,181237,128,0,181477:0:0:0:0:
192,192,181477,1,0,0:0:0:0:
448,192,181477,1,0,0:0:0:0:
320,192,181537,1,0,0:0:0:0:
192,192,181597,1,0,0:0:0:0:
64,192,181657,1,0,0:0:0:0:
448,192,181717,1,0,0:0:0:0:
320,192,181777,1,0,0:0:0:0:
64,192,181837,1,0,0:0:0:0:
192,192,181837,1,0,0:0:0:0:
448,192,181897,1,0,0:0:0:0:
64,192,181957,1,0,0:0:0:0:
448,192,182017,1,0,0:0:0:0:
320,192,182077,1,0,0:0:0:0:
64,192,182137,1,0,0:0:0:0:
192,192,182197,1,0,0:0:0:0:
448,192,182197,1,0,0:0:0:0:
320,192,182257,1,0,0:0:0:0:
192,192,182317,1,0,0:0:0:0:
64,192,182377,1,0,0:0:0:0:
448,192,182437,1,0,0:0:0:0:
192,192,182497,1,0,0:0:0:0:
64,192,182557,1,0,0:0:0:0:
320,192,182557,1,0,0:0:0:0:
448,192,182557,1,0,0:0:0:0:
192,192,182617,1,0,0:0:0:0:
320,192,182677,1,0,0:0:0:0:
448,192,182737,1,0,0:0:0:0:
192,192,182797,1,0,0:0:0:0:
320,192,182857,1,0,0:0:0:0:
64,192,182917,1,0,0:0:0:0:
192,192,182917,1,0,0:0:0:0:
448,192,182977,1,0,0:0:0:0:
320,192,183037,1,0,0:0:0:0:
64,192,183097,1,0,0:0:0:0:
448,192,183157,1,0,0:0:0:0:
192,192,183217,1,0,0:0:0:0:
320,192,183277,1,0,0:0:0:0:
448,192,183277,1,0,0:0:0:0:
64,192,183337,1,0,0:0:0:0:
320,192,183397,1,0,0:0:0:0:
192,192,183457,1,0,0:0:0:0:
448,192,183517,1,0,0:0:0:0:
64,192,183577,1,0,0:0:0:0:
192,192,183637,1,0,0:0:0:0:
320,192,183637,1,0,0:0:0:0:
448,192,183697,1,0,0:0:0:0:
192,192,183757,1,0,0:0:0:0:
64,192,183817,1,0,0:0:0:0:
320,192,183877,1,0,0:0:0:0:
192,192,183937,1,0,0:0:0:0:
320,192,183997,1,0,0:0:0:0:
448,192,183997,1,0,0:0:0:0:
64,192,183997,1,0,0:0:0:0:
192,192,184057,1,0,0:0:0:0:
448,192,184117,1,0,0:0:0:0:
64,192,184177,1,0,0:0:0:0:
320,192,184237,1,0,0:0:0:0:
448,192,184297,1,0,0:0:0:0:
64,192,184357,1,0,0:0:0:0:
320,192,184357,1,0,0:0:0:0:
192,192,184417,1,0,0:0:0:0:
64,192,184477,1,0,0:0:0:0:
192,192,184537,1,0,0:0:0:0:
320,192,184597,1,0,0:0:0:0:
448,192,184657,1,0,0:0:0:0:
192,192,184717,1,0,0:0:0:0:
320,192,184717,1,0,0:0:0:0:
64,192,184777,1,0,0:0:0:0:
448,192,184837,1,0,0:0:0:0:
192,192,184897,1,0,0:0:0:0:
448,192,184957,1,0,0:0:0:0:
320,192,185017,1,0,0:0:0:0:
64,192,185077,1,0,0:0:0:0:
192,192,185077,1,0,0:0:0:0:
448,192,185077,1,0,0:0:0:0:
320,192,185137,1,0,0:0:0:0:
192,192,185197,1,0,0:0:0:0:
64,192,185257,1,0,0:0:0:0:
192,192,185317,1,0,0:0:0:0:
320,192,185377,1,0,0:0:0:0:
64,192,185437,1,0,0:0:0:0:
448,192,185437,1,0,0:0:0:0:
192,192,185497,1,0,0:0:0:0:
320,192,185557,1,0,0:0:0:0:
448,192,185617,1,0,0:0:0:0:
192,192,185677,1,0,0:0:0:0:
320,192,185737,1,0,0:0:0:0:
64,192,185797,1,0,0:0:0:0:
448,192,185797,1,0,0:0:0:0:
192,192,185857,1,0,0:0:0:0:
320,192,185917,1,0,0:0:0:0:
448,192,185977,1,0,0:0:0:0:
64,192,186037,1,0,0:0:0:0:
192,192,186037,1,0,0:0:0:0:
320,192,186097,1,0,0:0:0:0:
448,192,186157,1,0,0:0:0:0:
64,192,186217,1,0,0:0:0:0:
192,192,186277,1,0,0:0:0:0:
320,192,186277,1,0,0:0:0:0:
448,192,186337,1,0,0:0:0:0:
64,192,186397,1,0,0:0:0:0:
192,192,186457,1,0,0:0:0:0:
448,192,186517,1,0,0:0:0:0:
320,192,186517,1,0,0:0:0:0:
64,192,186577,1,0,0:0:0:0:
192,192,186637,1,0,0:0:0:0:
320,192,186697,1,0,0:0:0:0:
64,192,186757,1,0,0:0:0:0:
448,192,186757,1,0,0:0:0:0:
448,192,186997,1,0,0:0:0:0:
320,192,187057,1,0,0:0:0:0:
192,192,187117,1,0,0:0:0:0:
320,192,187177,1,0,0:0:0:0:
64,192,187237,1,0,0:0:0:0:
192,192,187237,1,0,0:0:0:0:
448,192,187297,1,0,0:0:0:0:
64,192,187357,1,0,0:0:0:0:
320,192,187417,1,0,0:0:0:0:
192,192,187477,1,0,0:0:0:0:
448,192,187537,1,0,0:0:0:0:
64,192,187597,1,0,0:0:0:0:
320,192,187597,1,0,0:0:0:0:
192,192,187657,1,0,0:0:0:0:
448,192,187717,1,0,0:0:0:0:
320,192,187777,1,0,0:0:0:0:
192,192,187837,1,0,0:0:0:0:
320,192,187897,1,0,0:0:0:0:
64,192,187957,1,0,0:0:0:0:
448,192,187957,1,0,0:0:0:0:
192,192,188017,1,0,0:0:0:0:
320,192,188077,1,0,0:0:0:0:
192,192,188137,1,0,0:0:0:0:
64,192,188197,1,0,0:0:0:0:
192,192,188257,1,0,0:0:0:0:
320,192,188317,1,0,0:0:0:0:
448,192,188317,1,0,0:0:0:0:
64,192,188377,1,0,0:0:0:0:
192,192,188437,1,0,0:0:0:0:
320,192,188497,1,0,0:0:0:0:
448,192,188557,1,0,0:0:0:0:
192,192,188617,1,0,0:0:0:0:
64,192,188677,1,0,0:0:0:0:
448,192,188677,1,0,0:0:0:0:
320,192,188737,1,0,0:0:0:0:
192,192,188797,1,0,0:0:0:0:
64,192,188857,1,0,0:0:0:0:
320,192,188917,1,0,0:0:0:0:
192,192,188977,1,0,0:0:0:0:
64,192,189037,1,0,0:0:0:0:
448,192,189037,1,0,0:0:0:0:
192,192,189097,1,0,0:0:0:0:
320,192,189157,1,0,0:0:0:0:
448,192,189217,1,0,0:0:0:0:
64,192,189277,1,0,0:0:0:0:
192,192,189337,1,0,0:0:0:0:
320,192,189397,1,0,0:0:0:0:
448,192,189397,1,0,0:0:0:0:
64,192,189457,1,0,0:0:0:0:
192,192,189517,1,0,0:0:0:0:
64,192,189577,1,0,0:0:0:0:
448,192,189637,1,0,0:0:0:0:
320,192,189697,1,0,0:0:0:0:
64,192,189757,1,0,0:0:0:0:
192,192,189757,1,0,0:0:0:0:
448,192,189817,1,0,0:0:0:0:
192,192,189877,1,0,0:0:0:0:
448,192,189937,1,0,0:0:0:0:
320,192,189997,1,0,0:0:0:0:
192,192,190057,1,0,0:0:0:0:
64,192,190117,1,0,0:0:0:0:
448,192,190117,1,0,0:0:0:0:
320,192,190177,1,0,0:0:0:0:
192,192,190237,1,0,0:0:0:0:
448,192,190297,1,0,0:0:0:0:
192,192,190357,1,0,0:0:0:0:
320,192,190417,1,0,0:0:0:0:
64,192,190477,1,0,0:0:0:0:
448,192,190477,1,0,0:0:0:0:
192,192,190537,1,0,0:0:0:0:
320,192,190597,1,0,0:0:0:0:
448,192,190657,1,0,0:0:0:0:
192,192,190717,1,0,0:0:0:0:
320,192,190777,1,0,0:0:0:0:
64,192,190837,1,0,0:0:0:0:
192,192,190837,1,0,0:0:0:0:
448,192,190897,1,0,0:0:0:0:
320,192,190957,1,0,0:0:0:0:
64,192,191017,1,0,0:0:0:0:
192,192,191077,1,0,0:0:0:0:
320,192,191137,1,0,0:0:0:0:
448,192,191197,1,0,0:0:0:0:
64,192,191237,1,0,0:0:0:0:
192,192,191237,1,0,0:0:0:0:
64,192,191357,1,0,0:0:0:0:
192,192,191357,1,0,0:0:0:0:
64,192,191477,1,0,0:0:0:0:
192,192,191477,1,0,0:0:0:0:
448,192,191557,1,0,0:0:0:0:
320,0,191557,128,0,191797:0:0:0:0:
192,192,191797,1,0,0:0:0:0:
448,192,191797,1,0,0:0:0:0:
64,0,191797,128,0,192037:0:0:0:0:
192,192,192037,1,0,0:0:0:0:
448,192,192037,1,0,0:0:0:0:
320,0,192037,128,0,192277:0:0:0:0:
64,192,192277,1,0,0:0:0:0:
192,192,192277,1,0,0:0:0:0:
448,0,192277,128,0,192517:0:0:0:0:
64,192,192517,1,0,0:0:0:0:
320,192,192517,1,0,0:0:0:0:
192,0,192517,128,0,192757:0:0:0:0:
320,192,192757,1,0,0:0:0:0:
448,192,192757,1,0,0:0:0:0:
64,192,192997,1,0,0:0:0:0:
192,192,192997,1,0,0:0:0:0:
448,192,192997,1,0,0:0:0:0:
64,192,193117,1,0,0:0:0:0:
448,192,193117,1,0,0:0:0:0:
64,192,193237,1,0,0:0:0:0:
448,192,193237,1,0,0:0:0:0:
64,192,193357,1,0,0:0:0:0:
448,192,193357,1,0,0:0:0:0:
448,192,193477,1,0,0:0:0:0:
448,192,193597,1,0,0:0:0:0:
64,192,193717,1,0,0:0:0:0:
192,192,193717,1,0,0:0:0:0:
448,192,193717,1,0,0:0:0:0:
192,192,193837,1,0,0:0:0:0:
448,192,193837,1,0,0:0:0:0:
192,192,193957,1,0,0:0:0:0:
448,192,193957,1,0,0:0:0:0:
192,192,194077,1,0,0:0:0:0:
448,192,194077,1,0,0:0:0:0:
192,192,194197,1,0,0:0:0:0:
192,192,194317,1,0,0:0:0:0:
192,192,194437,1,0,0:0:0:0:
320,192,194437,1,0,0:0:0:0:
192,192,194557,1,0,0:0:0:0:
320,192,194557,1,0,0:0:0:0:
192,192,194677,1,0,0:0:0:0:
320,192,194677,1,0,0:0:0:0:
192,192,194797,1,0,0:0:0:0:
320,192,194797,1,0,0:0:0:0:
320,192,194917,1,0,0:0:0:0:
320,192,195037,1,0,0:0:0:0:
64,192,195157,1,0,0:0:0:0:
320,192,195157,1,0,0:0:0:0:
448,192,195157,1,0,0:0:0:0:
64,192,195277,1,0,0:0:0:0:
320,192,195277,1,0,0:0:0:0:
64,192,195397,1,0,0:0:0:0:
320,192,195397,1,0,0:0:0:0:
64,192,195517,1,0,0:0:0:0:
320,192,195517,1,0,0:0:0:0:
64,192,195637,1,0,0:0:0:0:
64,192,195757,1,0,0:0:0:0:
64,192,195877,1,0,0:0:0:0:
448,192,195877,1,0,0:0:0:0:
64,192,195997,1,0,0:0:0:0:
448,192,195997,1,0,0:0:0:0:
64,192,196117,1,0,0:0:0:0:
448,192,196117,1,0,0:0:0:0:
64,192,196237,1,0,0:0:0:0:
448,192,196237,1,0,0:0:0:0:
448,192,196357,1,0,0:0:0:0:
448,192,196477,1,0,0:0:0:0:
192,192,196597,1,0,0:0:0:0:
320,192,196597,1,0,0:0:0:0:
448,192,196597,1,0,0:0:0:0:
320,192,196717,1,0,0:0:0:0:
448,192,196717,1,0,0:0:0:0:
320,192,196837,1,0,0:0:0:0:
448,192,196837,1,0,0:0:0:0:
320,192,196957,1,0,0:0:0:0:
448,192,196957,1,0,0:0:0:0:
320,192,197077,1,0,0:0:0:0:
320,192,197197,1,0,0:0:0:0:
320,192,197317,1,0,0:0:0:0:
320,192,197437,1,0,0:0:0:0:
64,192,197437,1,0,0:0:0:0:
192,192,197557,1,0,0:0:0:0:
320,192,197557,1,0,0:0:0:0:
192,192,197677,1,0,0:0:0:0:
448,192,197677,1,0,0:0:0:0:
192,192,197797,1,0,0:0:0:0:
192,192,197917,1,0,0:0:0:0:
64,192,198037,1,0,0:0:0:0:
192,192,198037,1,0,0:0:0:0:
448,192,198037,1,0,0:0:0:0:
64,192,198157,1,0,0:0:0:0:
192,192,198157,1,0,0:0:0:0:
64,192,198277,1,0,0:0:0:0:
192,192,198277,1,0,0:0:0:0:
64,192,198397,1,0,0:0:0:0:
192,192,198397,1,0,0:0:0:0:
192,192,198517,1,0,0:0:0:0:
320,192,198637,1,0,0:0:0:0:
64,192,198757,1,0,0:0:0:0:
192,192,198757,1,0,0:0:0:0:
448,192,198757,1,0,0:0:0:0:
320,192,198757,1,0,0:0:0:0:
192,192,198877,1,0,0:0:0:0:
448,192,198877,1,0,0:0:0:0:
192,192,198997,1,0,0:0:0:0:
448,192,198997,1,0,0:0:0:0:
192,192,199117,1,0,0:0:0:0:
448,192,199117,1,0,0:0:0:0:
192,192,199237,1,0,0:0:0:0:
192,192,199357,1,0,0:0:0:0:
192,192,199477,1,0,0:0:0:0:
320,192,199477,1,0,0:0:0:0:
448,192,199477,1,0,0:0:0:0:
192,192,199597,1,0,0:0:0:0:
320,192,199597,1,0,0:0:0:0:
192,192,199717,1,0,0:0:0:0:
320,192,199717,1,0,0:0:0:0:
192,192,199837,1,0,0:0:0:0:
320,192,199837,1,0,0:0:0:0:
320,192,199957,1,0,0:0:0:0:
320,192,200077,1,0,0:0:0:0:
64,192,200197,1,0,0:0:0:0:
320,192,200197,1,0,0:0:0:0:
64,192,200317,1,0,0:0:0:0:
320,192,200317,1,0,0:0:0:0:
64,192,200437,1,0,0:0:0:0:
320,192,200437,1,0,0:0:0:0:
64,192,200557,1,0,0:0:0:0:
320,192,200557,1,0,0:0:0:0:
64,192,200677,1,0,0:0:0:0:
64,192,200797,1,0,0:0:0:0:
64,192,200917,1,0,0:0:0:0:
320,192,200917,1,0,0:0:0:0:
448,192,200917,1,0,0:0:0:0:
64,192,201037,1,0,0:0:0:0:
448,192,201037,1,0,0:0:0:0:
64,192,201157,1,0,0:0:0:0:
448,192,201157,1,0,0:0:0:0:
64,192,201277,1,0,0:0:0:0:
448,192,201277,1,0,0:0:0:0:
192,192,201337,1,0,0:0:0:0:
320,192,201397,1,0,0:0:0:0:
448,192,201457,1,0,0:0:0:0:
64,192,201517,1,0,0:0:0:0:
192,192,201637,1,0,0:0:0:0:
320,192,201637,1,0,0:0:0:0:
64,192,201757,1,0,0:0:0:0:
448,192,201757,1,0,0:0:0:0:
192,192,201877,1,0,0:0:0:0:
448,192,201877,1,0,0:0:0:0:
192,192,201997,1,0,0:0:0:0:
448,192,201997,1,0,0:0:0:0:
192,192,202117,1,0,0:0:0:0:
192,192,202237,1,0,0:0:0:0:
192,192,202357,1,0,0:0:0:0:
320,192,202357,1,0,0:0:0:0:
448,192,202357,1,0,0:0:0:0:
192,192,202477,1,0,0:0:0:0:
320,192,202477,1,0,0:0:0:0:
192,192,202597,1,0,0:0:0:0:
320,192,202597,1,0,0:0:0:0:
192,192,202717,1,0,0:0:0:0:
320,192,202717,1,0,0:0:0:0:
320,192,202837,1,0,0:0:0:0:
320,192,202957,1,0,0:0:0:0:
320,192,203077,1,0,0:0:0:0:
64,192,203197,1,0,0:0:0:0:
320,192,203197,1,0,0:0:0:0:
64,192,203317,1,0,0:0:0:0:
320,192,203317,1,0,0:0:0:0:
64,192,203437,1,0,0:0:0:0:
320,192,203437,1,0,0:0:0:0:
64,192,203557,1,0,0:0:0:0:
64,192,203677,1,0,0:0:0:0:
448,192,203797,1,0,0:0:0:0:
320,192,203857,1,0,0:0:0:0:
192,192,203917,1,0,0:0:0:0:
64,192,203977,1,0,0:0:0:0:
320,192,204037,1,0,0:0:0:0:
192,192,204097,1,0,0:0:0:0:
448,192,204157,1,0,0:0:0:0:
320,192,204217,1,0,0:0:0:0:
192,192,204277,1,0,0:0:0:0:
64,192,204337,1,0,0:0:0:0:
320,192,204397,1,0,0:0:0:0:
192,192,204457,1,0,0:0:0:0:
448,192,204517,1,0,0:0:0:0:
64,192,204517,1,0,0:0:0:0:
192,192,204577,1,0,0:0:0:0:
320,192,204637,1,0,0:0:0:0:
448,192,204637,1,0,0:0:0:0:
192,192,204697,1,0,0:0:0:0:
320,192,204757,1,0,0:0:0:0:
448,192,204757,1,0,0:0:0:0:
192,192,204817,1,0,0:0:0:0:
320,192,204877,1,0,0:0:0:0:
448,192,204877,1,0,0:0:0:0:
192,192,204937,1,0,0:0:0:0:
64,192,204997,1,0,0:0:0:0:
448,192,205057,1,0,0:0:0:0:
320,192,205117,1,0,0:0:0:0:
192,192,205177,1,0,0:0:0:0:
64,192,205237,1,0,0:0:0:0:
448,192,205237,1,0,0:0:0:0:
320,192,205297,1,0,0:0:0:0:
64,192,205357,1,0,0:0:0:0:
192,192,205357,1,0,0:0:0:0:
320,192,205417,1,0,0:0:0:0:
64,192,205477,1,0,0:0:0:0:
192,192,205477,1,0,0:0:0:0:
320,192,205537,1,0,0:0:0:0:
64,192,205597,1,0,0:0:0:0:
192,192,205597,1,0,0:0:0:0:
448,192,205657,1,0,0:0:0:0:
320,192,205717,1,0,0:0:0:0:
64,192,205777,1,0,0:0:0:0:
448,192,205837,1,0,0:0:0:0:
192,192,205897,1,0,0:0:0:0:
320,192,205957,1,0,0:0:0:0:
448,192,205957,1,0,0:0:0:0:
64,192,205957,1,0,0:0:0:0:
192,192,206017,1,0,0:0:0:0:
320,192,206077,1,0,0:0:0:0:
448,192,206077,1,0,0:0:0:0:
192,192,206137,1,0,0:0:0:0:
320,192,206197,1,0,0:0:0:0:
448,192,206197,1,0,0:0:0:0:
192,192,206257,1,0,0:0:0:0:
320,192,206317,1,0,0:0:0:0:
448,192,206317,1,0,0:0:0:0:
64,192,206377,1,0,0:0:0:0:
192,192,206437,1,0,0:0:0:0:
448,192,206497,1,0,0:0:0:0:
320,192,206557,1,0,0:0:0:0:
64,192,206617,1,0,0:0:0:0:
320,192,206677,1,0,0:0:0:0:
448,192,206677,1,0,0:0:0:0:
64,192,206737,1,0,0:0:0:0:
192,192,206797,1,0,0:0:0:0:
320,192,206797,1,0,0:0:0:0:
448,192,206857,1,0,0:0:0:0:
64,192,206917,1,0,0:0:0:0:
192,192,206917,1,0,0:0:0:0:
320,192,206977,1,0,0:0:0:0:
64,192,207037,1,0,0:0:0:0:
448,192,207037,1,0,0:0:0:0:
192,192,207097,1,0,0:0:0:0:
448,192,207157,1,0,0:0:0:0:
64,192,207217,1,0,0:0:0:0:
192,192,207277,1,0,0:0:0:0:
320,192,207337,1,0,0:0:0:0:
64,192,207397,1,0,0:0:0:0:
448,192,207397,1,0,0:0:0:0:
320,192,207457,1,0,0:0:0:0:
64,192,207517,1,0,0:0:0:0:
192,192,207517,1,0,0:0:0:0:
320,192,207577,1,0,0:0:0:0:
64,192,207637,1,0,0:0:0:0:
192,192,207637,1,0,0:0:0:0:
320,192,207697,1,0,0:0:0:0:
64,192,207757,1,0,0:0:0:0:
192,192,207757,1,0,0:0:0:0:
448,192,207817,1,0,0:0:0:0:
320,192,207877,1,0,0:0:0:0:
192,192,207937,1,0,0:0:0:0:
64,192,207997,1,0,0:0:0:0:
320,192,208057,1,0,0:0:0:0:
448,192,208117,1,0,0:0:0:0:
64,192,208117,1,0,0:0:0:0:
192,192,208177,1,0,0:0:0:0:
320,192,208237,1,0,0:0:0:0:
448,192,208237,1,0,0:0:0:0:
192,192,208297,1,0,0:0:0:0:
320,192,208357,1,0,0:0:0:0:
448,192,208357,1,0,0:0:0:0:
192,192,208417,1,0,0:0:0:0:
320,192,208477,1,0,0:0:0:0:
448,192,208477,1,0,0:0:0:0:
64,192,208537,1,0,0:0:0:0:
192,192,208597,1,0,0:0:0:0:
320,192,208657,1,0,0:0:0:0:
448,192,208717,1,0,0:0:0:0:
320,192,208777,1,0,0:0:0:0:
64,192,208837,1,0,0:0:0:0:
192,192,208837,1,0,0:0:0:0:
448,192,208837,1,0,0:0:0:0:
320,192,208897,1,0,0:0:0:0:
64,192,208957,1,0,0:0:0:0:
192,192,208957,1,0,0:0:0:0:
320,192,209017,1,0,0:0:0:0:
64,192,209077,1,0,0:0:0:0:
192,192,209077,1,0,0:0:0:0:
320,192,209137,1,0,0:0:0:0:
64,192,209197,1,0,0:0:0:0:
192,192,209197,1,0,0:0:0:0:
448,192,209257,1,0,0:0:0:0:
320,192,209317,1,0,0:0:0:0:
192,192,209377,1,0,0:0:0:0:
320,192,209437,1,0,0:0:0:0:
448,192,209497,1,0,0:0:0:0:
64,192,209557,1,0,0:0:0:0:
192,192,209557,1,0,0:0:0:0:
320,192,209617,1,0,0:0:0:0:
64,192,209677,1,0,0:0:0:0:
192,192,209677,1,0,0:0:0:0:
320,192,209737,1,0,0:0:0:0:
64,192,209797,1,0,0:0:0:0:
192,192,209797,1,0,0:0:0:0:
320,192,209857,1,0,0:0:0:0:
64,192,209917,1,0,0:0:0:0:
192,192,209917,1,0,0:0:0:0:
320,192,209977,1,0,0:0:0:0:
448,192,210037,1,0,0:0:0:0:
192,192,210097,1,0,0:0:0:0:
320,192,210157,1,0,0:0:0:0:
192,192,210217,1,0,0:0:0:0:
64,192,210277,1,0,0:0:0:0:
320,192,210277,1,0,0:0:0:0:
448,192,210277,1,0,0:0:0:0:
192,192,210337,1,0,0:0:0:0:
320,192,210397,1,0,0:0:0:0:
448,192,210397,1,0,0:0:0:0:
64,192,210457,1,0,0:0:0:0:
192,192,210517,1,0,0:0:0:0:
320,192,210517,1,0,0:0:0:0:
448,192,210577,1,0,0:0:0:0:
64,192,210637,1,0,0:0:0:0:
192,192,210637,1,0,0:0:0:0:
320,192,210697,1,0,0:0:0:0:
448,192,210757,1,0,0:0:0:0:
192,192,210817,1,0,0:0:0:0:
320,192,210877,1,0,0:0:0:0:
192,192,210937,1,0,0:0:0:0:
320,192,210997,1,0,0:0:0:0:
448,192,210997,1,0,0:0:0:0:
64,192,211057,1,0,0:0:0:0:
192,192,211117,1,0,0:0:0:0:
320,192,211117,1,0,0:0:0:0:
448,192,211177,1,0,0:0:0:0:
64,192,211237,1,0,0:0:0:0:
192,192,211237,1,0,0:0:0:0:
320,192,211297,1,0,0:0:0:0:
192,192,211357,1,0,0:0:0:0:
448,192,211357,1,0,0:0:0:0:
64,192,211417,1,0,0:0:0:0:
320,192,211477,1,0,0:0:0:0:
192,192,211537,1,0,0:0:0:0:
64,192,211597,1,0,0:0:0:0:
320,192,211657,1,0,0:0:0:0:
192,192,211717,1,0,0:0:0:0:
448,192,211717,1,0,0:0:0:0:
64,192,211717,1,0,0:0:0:0:
320,192,211777,1,0,0:0:0:0:
192,192,211837,1,0,0:0:0:0:
448,192,211837,1,0,0:0:0:0:
64,192,211897,1,0,0:0:0:0:
320,192,211957,1,0,0:0:0:0:
448,192,211957,1,0,0:0:0:0:
192,192,212017,1,0,0:0:0:0:
64,192,212077,1,0,0:0:0:0:
320,192,212077,1,0,0:0:0:0:
448,192,212137,1,0,0:0:0:0:
192,192,212197,1,0,0:0:0:0:
320,192,212257,1,0,0:0:0:0:
192,192,212317,1,0,0:0:0:0:
64,192,212377,1,0,0:0:0:0:
320,192,212437,1,0,0:0:0:0:
448,192,212437,1,0,0:0:0:0:
64,192,212497,1,0,0:0:0:0:
192,192,212557,1,0,0:0:0:0:
320,192,212557,1,0,0:0:0:0:
448,192,212617,1,0,0:0:0:0:
64,192,212677,1,0,0:0:0:0:
192,192,212677,1,0,0:0:0:0:
320,192,212737,1,0,0:0:0:0:
64,192,212797,1,0,0:0:0:0:
448,192,212797,1,0,0:0:0:0:
192,192,212857,1,0,0:0:0:0:
320,192,212917,1,0,0:0:0:0:
64,192,212977,1,0,0:0:0:0:
192,192,213037,1,0,0:0:0:0:
320,192,213097,1,0,0:0:0:0:
64,192,213157,1,0,0:0:0:0:
448,192,213157,1,0,0:0:0:0:
320,192,213217,1,0,0:0:0:0:
64,192,213277,1,0,0:0:0:0:
192,192,213277,1,0,0:0:0:0:
448,192,213337,1,0,0:0:0:0:
192,192,213397,1,0,0:0:0:0:
320,192,213397,1,0,0:0:0:0:
64,192,213457,1,0,0:0:0:0:
320,192,213517,1,0,0:0:0:0:
448,192,213517,1,0,0:0:0:0:
192,192,213577,1,0,0:0:0:0:
64,192,213637,1,0,0:0:0:0:
448,192,213697,1,0,0:0:0:0:
320,192,213757,1,0,0:0:0:0:
192,192,213817,1,0,0:0:0:0:
320,192,213877,1,0,0:0:0:0:
448,192,213877,1,0,0:0:0:0:
64,192,213937,1,0,0:0:0:0:
192,192,213997,1,0,0:0:0:0:
320,192,213997,1,0,0:0:0:0:
448,192,214057,1,0,0:0:0:0:
64,192,214117,1,0,0:0:0:0:
192,192,214117,1,0,0:0:0:0:
320,192,214177,1,0,0:0:0:0:
64,192,214237,1,0,0:0:0:0:
448,192,214237,1,0,0:0:0:0:
192,192,214297,1,0,0:0:0:0:
320,192,214357,1,0,0:0:0:0:
448,192,214417,1,0,0:0:0:0:
320,192,214477,1,0,0:0:0:0:
192,192,214537,1,0,0:0:0:0:
64,192,214597,1,0,0:0:0:0:
320,192,214597,1,0,0:0:0:0:
448,192,214597,1,0,0:0:0:0:
192,192,214657,1,0,0:0:0:0:
320,192,214717,1,0,0:0:0:0:
448,192,214717,1,0,0:0:0:0:
64,192,214777,1,0,0:0:0:0:
192,192,214837,1,0,0:0:0:0:
320,192,214837,1,0,0:0:0:0:
448,192,214897,1,0,0:0:0:0:
64,192,214957,1,0,0:0:0:0:
192,192,214957,1,0,0:0:0:0:
320,192,215017,1,0,0:0:0:0:
192,192,215077,1,0,0:0:0:0:
448,192,215137,1,0,0:0:0:0:
320,192,215197,1,0,0:0:0:0:
192,192,215257,1,0,0:0:0:0:
320,192,215317,1,0,0:0:0:0:
448,192,215317,1,0,0:0:0:0:
64,192,215377,1,0,0:0:0:0:
192,192,215377,1,0,0:0:0:0:
320,192,215437,1,0,0:0:0:0:
448,192,215437,1,0,0:0:0:0:
192,192,215557,1,0,0:0:0:0:
320,0,215557,128,0,215677:0:0:0:0:
64,192,215677,1,0,0:0:0:0:
192,192,215677,1,0,0:0:0:0:
192,0,215797,128,0,215917:0:0:0:0:
320,192,215797,1,0,0:0:0:0:
320,192,215917,1,0,0:0:0:0:
448,192,215917,1,0,0:0:0:0:
64,0,216037,128,0,217237:0:0:0:0:
448,192,216037,1,0,0:0:0:0:
192,192,216037,1,0,0:0:0:0:
448,192,216277,1,0,0:0:0:0:
448,192,216517,1,0,0:0:0:0:
320,192,216757,1,0,0:0:0:0:
448,192,216757,1,0,0:0:0:0:
448,192,216997,1,0,0:0:0:0:
192,192,217237,1,0,0:0:0:0:
320,192,217237,128,0,217297:0:0:0:0:
448,192,217297,128,0,217477:0:0:0:0:
320,192,217477,1,0,0:0:0:0:
448,192,217597,1,0,0:0:0:0:
192,192,217717,1,0,0:0:0:0:
320,192,217837,1,0,0:0:0:0:
64,192,217957,1,0,0:0:0:0:
192,192,218077,1,0,0:0:0:0:
320,192,218197,1,0,0:0:0:0:
448,192,218197,1,0,0:0:0:0:
64,192,218317,1,0,0:0:0:0:
320,192,218437,1,0,0:0:0:0:
192,192,218557,1,0,0:0:0:0:
448,192,218677,1,0,0:0:0:0:
320,192,218797,1,0,0:0:0:0:
64,192,218917,1,0,0:0:0:0:
192,192,218917,1,0,0:0:0:0:
448,192,218917,1,0,0:0:0:0:
320,192,219037,1,0,0:0:0:0:
192,192,219097,1,0,0:0:0:0:
448,192,219157,1,0,0:0:0:0:
64,192,219237,1,0,0:0:0:0:
192,192,219317,1,0,0:0:0:0:
448,192,219397,1,0,0:0:0:0:
320,192,219477,1,0,0:0:0:0:
192,192,219557,1,0,0:0:0:0:
320,192,219637,1,0,0:0:0:0:
448,192,219637,1,0,0:0:0:0:
192,192,219717,1,0,0:0:0:0:
64,192,219797,1,0,0:0:0:0:
448,192,219877,1,0,0:0:0:0:
192,192,219997,1,0,0:0:0:0:
64,192,220117,1,0,0:0:0:0:
192,192,220237,1,0,0:0:0:0:
320,192,220357,1,0,0:0:0:0:
320,192,220477,1,0,0:0:0:0:
448,192,220597,1,0,0:0:0:0:
192,192,220717,1,0,0:0:0:0:
320,192,220837,1,0,0:0:0:0:
64,192,220957,1,0,0:0:0:0:
320,192,221077,1,0,0:0:0:0:
448,192,221077,1,0,0:0:0:0:
64,192,221197,1,0,0:0:0:0:
192,192,221197,1,0,0:0:0:0:
64,192,221317,1,0,0:0:0:0:
320,192,221437,1,0,0:0:0:0:
448,192,221437,1,0,0:0:0:0:
64,192,221557,1,0,0:0:0:0:
192,192,221557,1,0,0:0:0:0:
192,192,221677,1,0,0:0:0:0:
320,192,221797,1,0,0:0:0:0:
448,192,221797,1,0,0:0:0:0:
64,192,221877,1,0,0:0:0:0:
192,192,221957,1,0,0:0:0:0:
320,192,222037,1,0,0:0:0:0:
448,192,222117,1,0,0:0:0:0:
64,192,222197,1,0,0:0:0:0:
192,192,222277,1,0,0:0:0:0:
320,192,222357,1,0,0:0:0:0:
192,192,222437,1,0,0:0:0:0:
64,192,222517,1,0,0:0:0:0:
448,192,222517,1,0,0:0:0:0:
320,192,222597,1,0,0:0:0:0:
192,192,222677,1,0,0:0:0:0:
64,192,222757,1,0,0:0:0:0:
192,192,222837,1,0,0:0:0:0:
320,192,222917,1,0,0:0:0:0:
448,192,222997,1,0,0:0:0:0:
64,192,223077,1,0,0:0:0:0:
192,192,223157,1,0,0:0:0:0:
448,192,223237,1,0,0:0:0:0:
320,192,223317,1,0,0:0:0:0:
192,192,223397,1,0,0:0:0:0:
64,192,223477,1,0,0:0:0:0:
192,192,223557,1,0,0:0:0:0:
320,192,223637,1,0,0:0:0:0:
448,192,223717,1,0,0:0:0:0:
64,192,223797,1,0,0:0:0:0:
320,192,223877,1,0,0:0:0:0:
64,192,223957,1,0,0:0:0:0:
192,192,223957,1,0,0:0:0:0:
448,192,224037,1,0,0:0:0:0:
320,192,224117,1,0,0:0:0:0:
192,192,224197,1,0,0:0:0:0:
64,192,224277,1,0,0:0:0:0:
192,192,224357,1,0,0:0:0:0:
320,192,224437,1,0,0:0:0:0:
192,192,224517,1,0,0:0:0:0:
320,192,224597,1,0,0:0:0:0:
192,192,224677,1,0,0:0:0:0:
448,192,224677,1,0,0:0:0:0:
64,0,224677,128,0,224917:0:0:0:0:
192,0,224917,128,0,225037:0:0:0:0:
192,0,225157,128,0,225877:0:0:0:0:
320,192,225397,1,0,0:0:0:0:
448,192,225397,1,0,0:0:0:0:
448,192,225637,1,0,0:0:0:0:
64,192,225637,1,0,0:0:0:0:
320,0,225877,128,0,226117:0:0:0:0:
64,192,226117,1,0,0:0:0:0:
192,192,226117,1,0,0:0:0:0:
320,192,226177,1,0,0:0:0:0:
448,192,226177,1,0,0:0:0:0:
192,192,226237,1,0,0:0:0:0:
64,192,226237,1,0,0:0:0:0:
448,192,226357,128,0,226477:0:0:0:0:
192,192,226477,1,0,0:0:0:0:
64,192,226597,1,0,0:0:0:0:
448,192,226597,128,0,227557:0:0:0:0:
64,192,226717,1,0,0:0:0:0:
192,192,226717,1,0,0:0:0:0:
64,192,226837,1,0,0:0:0:0:
192,192,226837,1,0,0:0:0:0:
64,192,226957,1,0,0:0:0:0:
192,192,226957,1,0,0:0:0:0:
192,192,227077,1,0,0:0:0:0:
320,192,227197,1,0,0:0:0:0:
64,192,227317,1,0,0:0:0:0:
192,192,227317,1,0,0:0:0:0:
64,192,227437,1,0,0:0:0:0:
192,192,227437,1,0,0:0:0:0:
64,192,227557,1,0,0:0:0:0:
320,192,227557,1,0,0:0:0:0:
192,192,227557,1,0,0:0:0:0:
320,192,227677,1,0,0:0:0:0:
64,192,227677,1,0,0:0:0:0:
320,192,227917,1,0,0:0:0:0:
64,192,227917,1,0,0:0:0:0:
320,192,228157,1,0,0:0:0:0:
64,192,228157,1,0,0:0:0:0:
64,192,228277,1,0,0:0:0:0:
448,192,228277,1,0,0:0:0:0:
192,192,228277,1,0,0:0:0:0:
320,192,228397,1,0,0:0:0:0:
192,192,228517,1,0,0:0:0:0:
64,192,228637,1,0,0:0:0:0:
192,192,228757,1,0,0:0:0:0:
320,192,228877,1,0,0:0:0:0:
448,0,228997,128,0,229837:0:0:0:0:
64,192,229237,1,0,0:0:0:0:
64,192,229477,1,0,0:0:0:0:
64,192,229717,1,0,0:0:0:0:
192,192,229717,1,0,0:0:0:0:
448,0,229957,128,0,230077:0:0:0:0:
448,0,230197,128,0,230317:0:0:0:0:
64,192,230437,1,0,0:0:0:0:
320,192,230437,1,0,0:0:0:0:
448,0,230437,128,0,230557:0:0:0:0:
320,0,230677,128,0,230857:0:0:0:0:
448,0,230917,128,0,231097:0:0:0:0:
64,192,231157,1,0,0:0:0:0:
448,0,231157,128,0,231337:0:0:0:0:
192,0,231397,128,0,231577:0:0:0:0:
320,0,231637,128,0,231817:0:0:0:0:
320,0,231877,128,0,232057:0:0:0:0:
64,0,232117,128,0,232297:0:0:0:0:
192,0,232357,128,0,232537:0:0:0:0:
448,192,232597,1,0,0:0:0:0:
192,0,232597,128,0,232777:0:0:0:0:
320,192,232717,1,0,0:0:0:0:
448,192,232717,1,0,0:0:0:0:
64,0,232837,128,0,233017:0:0:0:0:
320,192,232957,1,0,0:0:0:0:
448,192,233077,1,0,0:0:0:0:
64,0,233077,128,0,233257:0:0:0:0:
320,192,233197,1,0,0:0:0:0:
448,192,233197,1,0,0:0:0:0:
64,192,233317,1,0,0:0:0:0:
448,192,233317,1,0,0:0:0:0:
320,0,233317,128,0,234397:0:0:0:0:
64,192,233557,1,0,0:0:0:0:
64,192,233797,1,0,0:0:0:0:
64,192,234037,1,0,0:0:0:0:
448,192,234037,1,0,0:0:0:0:
64,192,234277,1,0,0:0:0:0:
64,192,234517,1,0,0:0:0:0:
192,0,234757,128,0,234877:0:0:0:0:
64,192,234997,1,0,0:0:0:0:
320,192,235257,128,0,235377:0:0:0:0:
64,192,235477,1,0,0:0:0:0:
192,192,235477,1,0,0:0:0:0:
448,0,235657,128,0,235777:0:0:0:0:
64,192,235957,1,0,0:0:0:0:
448,0,236077,128,0,237157:0:0:0:0:
64,192,236197,1,0,0:0:0:0:
192,192,236197,1,0,0:0:0:0:
64,192,236437,1,0,0:0:0:0:
64,192,236677,1,0,0:0:0:0:
64,192,236917,1,0,0:0:0:0:
320,192,236917,1,0,0:0:0:0:
64,192,237157,1,0,0:0:0:0:
320,192,237277,128,0,237397:0:0:0:0:
448,192,237397,128,0,237477:0:0:0:0:
192,192,237477,128,0,237557:0:0:0:0:
64,0,237637,128,0,238357:0:0:0:0:
320,192,237637,1,0,0:0:0:0:
448,192,237637,1,0,0:0:0:0:
192,192,237697,1,0,0:0:0:0:
320,192,237757,1,0,0:0:0:0:
448,192,237757,1,0,0:0:0:0:
192,192,237817,1,0,0:0:0:0:
320,192,237877,1,0,0:0:0:0:
448,192,237877,1,0,0:0:0:0:
320,192,237997,1,0,0:0:0:0:
448,192,237997,1,0,0:0:0:0:
320,192,238117,1,0,0:0:0:0:
448,192,238117,1,0,0:0:0:0:
320,192,238237,1,0,0:0:0:0:
448,192,238237,1,0,0:0:0:0:
192,192,238357,1,0,0:0:0:0:
320,0,238357,128,0,238957:0:0:0:0:
448,0,238357,128,0,238957:0:0:0:0:
64,192,238477,1,0,0:0:0:0:
192,192,238477,1,0,0:0:0:0:
64,192,238597,1,0,0:0:0:0:
192,192,238597,1,0,0:0:0:0:
64,192,238717,1,0,0:0:0:0:
192,192,238717,1,0,0:0:0:0:
64,192,238837,1,0,0:0:0:0:
192,192,238837,1,0,0:0:0:0:
64,192,238957,1,0,0:0:0:0:
192,192,238957,1,0,0:0:0:0:
64,192,239077,1,0,0:0:0:0:
320,192,239077,1,0,0:0:0:0:
448,192,239077,1,0,0:0:0:0:
192,192,239137,1,0,0:0:0:0:
320,192,239197,1,0,0:0:0:0:
192,192,239257,1,0,0:0:0:0:
64,192,239317,1,0,0:0:0:0:
448,192,239317,1,0,0:0:0:0:
320,192,239377,1,0,0:0:0:0:
192,192,239437,1,0,0:0:0:0:
64,192,239497,1,0,0:0:0:0:
192,192,239557,1,0,0:0:0:0:
448,192,239557,1,0,0:0:0:0:
320,192,239617,1,0,0:0:0:0:
192,192,239677,1,0,0:0:0:0:
320,192,239737,1,0,0:0:0:0:
64,192,239797,1,0,0:0:0:0:
192,192,239797,1,0,0:0:0:0:
448,192,239857,1,0,0:0:0:0:
320,192,239917,1,0,0:0:0:0:
192,192,239977,1,0,0:0:0:0:
64,192,240037,1,0,0:0:0:0:
448,192,240037,1,0,0:0:0:0:
320,192,240097,1,0,0:0:0:0:
192,192,240157,1,0,0:0:0:0:
448,192,240217,1,0,0:0:0:0:
192,192,240277,1,0,0:0:0:0:
320,192,240277,1,0,0:0:0:0:
64,192,240337,1,0,0:0:0:0:
448,192,240397,1,0,0:0:0:0:
320,192,240457,1,0,0:0:0:0:
64,192,240517,1,0,0:0:0:0:
192,192,240517,1,0,0:0:0:0:
448,192,240577,1,0,0:0:0:0:
192,192,240637,1,0,0:0:0:0:
320,192,240697,1,0,0:0:0:0:
64,192,240757,1,0,0:0:0:0:
192,192,240817,1,0,0:0:0:0:
320,192,240877,1,0,0:0:0:0:
448,192,240877,1,0,0:0:0:0:
192,192,240937,1,0,0:0:0:0:
64,192,240997,1,0,0:0:0:0:
320,192,241057,1,0,0:0:0:0:
192,192,241117,1,0,0:0:0:0:
320,192,241177,1,0,0:0:0:0:
64,192,241237,1,0,0:0:0:0:
448,192,241237,1,0,0:0:0:0:
192,192,241297,1,0,0:0:0:0:
64,192,241357,1,0,0:0:0:0:
320,192,241417,1,0,0:0:0:0:
192,192,241477,1,0,0:0:0:0:
448,192,241537,1,0,0:0:0:0:
64,192,241597,1,0,0:0:0:0:
320,192,241597,1,0,0:0:0:0:
192,192,241657,1,0,0:0:0:0:
320,192,241717,1,0,0:0:0:0:
448,192,241777,1,0,0:0:0:0:
64,192,241837,1,0,0:0:0:0:
192,192,241897,1,0,0:0:0:0:
320,192,241957,1,0,0:0:0:0:
448,192,241957,1,0,0:0:0:0:
64,192,242017,1,0,0:0:0:0:
192,192,242077,1,0,0:0:0:0:
320,192,242137,1,0,0:0:0:0:
192,192,242197,1,0,0:0:0:0:
448,192,242257,1,0,0:0:0:0:
64,192,242317,1,0,0:0:0:0:
320,192,242317,1,0,0:0:0:0:
192,192,242377,1,0,0:0:0:0:
448,192,242437,1,0,0:0:0:0:
320,192,242497,1,0,0:0:0:0:
448,192,242557,1,0,0:0:0:0:
64,192,242617,1,0,0:0:0:0:
192,192,242677,1,0,0:0:0:0:
320,192,242677,1,0,0:0:0:0:
448,192,242737,1,0,0:0:0:0:
64,192,242797,1,0,0:0:0:0:
192,192,242857,1,0,0:0:0:0:
320,192,242917,1,0,0:0:0:0:
192,192,242977,1,0,0:0:0:0:
320,192,243037,1,0,0:0:0:0:
448,192,243037,1,0,0:0:0:0:
64,192,243097,1,0,0:0:0:0:
192,192,243157,1,0,0:0:0:0:
320,192,243217,1,0,0:0:0:0:
64,192,243277,1,0,0:0:0:0:
320,192,243337,1,0,0:0:0:0:
192,192,243397,1,0,0:0:0:0:
448,192,243397,1,0,0:0:0:0:
320,192,243457,1,0,0:0:0:0:
192,192,243517,1,0,0:0:0:0:
64,192,243577,1,0,0:0:0:0:
448,192,243637,1,0,0:0:0:0:
320,192,243697,1,0,0:0:0:0:
64,192,243757,1,0,0:0:0:0:
448,192,243757,1,0,0:0:0:0:
192,192,243817,1,0,0:0:0:0:
320,192,243877,1,0,0:0:0:0:
192,192,243937,1,0,0:0:0:0:
448,192,243997,1,0,0:0:0:0:
64,192,244057,1,0,0:0:0:0:
192,192,244117,1,0,0:0:0:0:
320,192,244117,1,0,0:0:0:0:
64,192,244177,1,0,0:0:0:0:
448,192,244237,1,0,0:0:0:0:
192,192,244297,1,0,0:0:0:0:
448,192,244357,1,0,0:0:0:0:
320,192,244417,1,0,0:0:0:0:
64,192,244477,1,0,0:0:0:0:
192,192,244477,1,0,0:0:0:0:
448,192,244537,1,0,0:0:0:0:
64,192,244597,1,0,0:0:0:0:
192,192,244657,1,0,0:0:0:0:
448,192,244717,1,0,0:0:0:0:
192,192,244777,1,0,0:0:0:0:
64,192,244837,1,0,0:0:0:0:
448,192,244837,1,0,0:0:0:0:
320,192,244837,1,0,0:0:0:0:
192,192,244897,1,0,0:0:0:0:
320,192,244957,1,0,0:0:0:0:
64,192,245017,1,0,0:0:0:0:
192,192,245077,1,0,0:0:0:0:
320,192,245137,1,0,0:0:0:0:
64,192,245197,1,0,0:0:0:0:
448,192,245197,1,0,0:0:0:0:
192,192,245257,1,0,0:0:0:0:
320,192,245317,1,0,0:0:0:0:
448,192,245377,1,0,0:0:0:0:
64,192,245377,1,0,0:0:0:0:
192,192,245437,1,0,0:0:0:0:
64,192,245497,1,0,0:0:0:0:
320,192,245557,1,0,0:0:0:0:
448,192,245557,1,0,0:0:0:0:
64,192,245617,1,0,0:0:0:0:
192,192,245677,1,0,0:0:0:0:
320,192,245737,1,0,0:0:0:0:
64,192,245797,1,0,0:0:0:0:
448,192,245797,1,0,0:0:0:0:
320,192,245857,1,0,0:0:0:0:
192,192,245917,1,0,0:0:0:0:
64,192,245977,1,0,0:0:0:0:
192,192,246037,1,0,0:0:0:0:
448,192,246037,1,0,0:0:0:0:
320,192,246097,1,0,0:0:0:0:
448,192,246157,1,0,0:0:0:0:
64,192,246217,1,0,0:0:0:0:
192,192,246277,1,0,0:0:0:0:
320,192,246277,1,0,0:0:0:0:
448,192,246337,1,0,0:0:0:0:
64,192,246397,1,0,0:0:0:0:
192,192,246457,1,0,0:0:0:0:
320,192,246517,1,0,0:0:0:0:
448,192,246517,1,0,0:0:0:0:
64,192,246577,1,0,0:0:0:0:
448,192,246637,1,0,0:0:0:0:
64,192,246697,1,0,0:0:0:0:
192,192,246757,1,0,0:0:0:0:
320,192,246757,1,0,0:0:0:0:
448,192,246817,1,0,0:0:0:0:
320,192,246877,1,0,0:0:0:0:
192,192,246937,1,0,0:0:0:0:
64,192,246997,1,0,0:0:0:0:
448,192,246997,1,0,0:0:0:0:
320,192,247057,1,0,0:0:0:0:
64,192,247117,1,0,0:0:0:0:
192,192,247177,1,0,0:0:0:0:
320,192,247237,1,0,0:0:0:0:
448,192,247237,1,0,0:0:0:0:
64,192,247297,1,0,0:0:0:0:
320,192,247357,1,0,0:0:0:0:
192,192,247417,1,0,0:0:0:0:
64,192,247477,1,0,0:0:0:0:
448,192,247477,1,0,0:0:0:0:
320,192,247537,1,0,0:0:0:0:
448,192,247597,1,0,0:0:0:0:
320,192,247657,1,0,0:0:0:0:
64,192,247717,1,0,0:0:0:0:
192,192,247717,1,0,0:0:0:0:
448,192,247777,1,0,0:0:0:0:
320,192,247837,1,0,0:0:0:0:
192,192,247897,1,0,0:0:0:0:
320,192,247957,1,0,0:0:0:0:
64,192,248017,1,0,0:0:0:0:
320,192,248077,1,0,0:0:0:0:
448,192,248077,1,0,0:0:0:0:
192,192,248137,1,0,0:0:0:0:
64,192,248197,1,0,0:0:0:0:
448,192,248257,1,0,0:0:0:0:
192,192,248317,1,0,0:0:0:0:
448,192,248377,1,0,0:0:0:0:
192,192,248437,1,0,0:0:0:0:
320,192,248437,1,0,0:0:0:0:
64,192,248497,1,0,0:0:0:0:
448,192,248557,1,0,0:0:0:0:
320,192,248617,1,0,0:0:0:0:
192,192,248677,1,0,0:0:0:0:
64,192,248737,1,0,0:0:0:0:
320,192,248797,1,0,0:0:0:0:
448,192,248797,1,0,0:0:0:0:
192,192,248857,1,0,0:0:0:0:
320,192,248917,1,0,0:0:0:0:
64,192,248977,1,0,0:0:0:0:
192,192,249037,1,0,0:0:0:0:
320,192,249097,1,0,0:0:0:0:
64,192,249157,1,0,0:0:0:0:
448,192,249157,1,0,0:0:0:0:
192,192,249217,1,0,0:0:0:0:
320,192,249277,1,0,0:0:0:0:
448,192,249277,1,0,0:0:0:0:
192,192,249337,1,0,0:0:0:0:
320,192,249397,1,0,0:0:0:0:
448,192,249397,1,0,0:0:0:0:
192,192,249457,1,0,0:0:0:0:
448,192,249517,1,0,0:0:0:0:
320,192,249517,1,0,0:0:0:0:
192,192,249577,1,0,0:0:0:0:
64,192,249637,1,0,0:0:0:0:
320,192,249697,1,0,0:0:0:0:
192,192,249757,1,0,0:0:0:0:
320,192,249817,1,0,0:0:0:0:
64,192,249877,1,0,0:0:0:0:
448,192,249877,1,0,0:0:0:0:
192,192,249937,1,0,0:0:0:0:
320,192,249997,1,0,0:0:0:0:
448,192,250057,1,0,0:0:0:0:
64,192,250117,1,0,0:0:0:0:
192,192,250117,1,0,0:0:0:0:
320,192,250177,1,0,0:0:0:0:
448,192,250237,1,0,0:0:0:0:
64,192,250297,1,0,0:0:0:0:
192,192,250357,1,0,0:0:0:0:
320,192,250357,1,0,0:0:0:0:
448,192,250417,1,0,0:0:0:0:
64,192,250477,1,0,0:0:0:0:
192,192,250537,1,0,0:0:0:0:
320,192,250597,1,0,0:0:0:0:
448,192,250597,1,0,0:0:0:0:
64,192,250597,1,0,0:0:0:0:
192,192,250657,1,0,0:0:0:0:
320,192,250717,1,0,0:0:0:0:
448,192,250777,1,0,0:0:0:0:
320,192,250837,1,0,0:0:0:0:
192,192,250897,1,0,0:0:0:0:
64,192,250957,1,0,0:0:0:0:
448,192,250957,1,0,0:0:0:0:
192,192,251017,1,0,0:0:0:0:
320,192,251077,1,0,0:0:0:0:
448,192,251137,1,0,0:0:0:0:
192,192,251197,1,0,0:0:0:0:
320,192,251257,1,0,0:0:0:0:
64,192,251317,1,0,0:0:0:0:
192,192,251317,1,0,0:0:0:0:
448,192,251377,1,0,0:0:0:0:
320,192,251437,1,0,0:0:0:0:
448,192,251497,1,0,0:0:0:0:
192,192,251557,1,0,0:0:0:0:
320,192,251617,1,0,0:0:0:0:
64,192,251677,1,0,0:0:0:0:
448,192,251677,1,0,0:0:0:0:
192,192,251737,1,0,0:0:0:0:
320,192,251797,1,0,0:0:0:0:
64,192,251857,1,0,0:0:0:0:
320,192,251917,1,0,0:0:0:0:
448,192,251977,1,0,0:0:0:0:
64,192,252037,1,0,0:0:0:0:
320,192,252037,1,0,0:0:0:0:
192,192,252097,1,0,0:0:0:0:
64,192,252157,1,0,0:0:0:0:
448,192,252217,1,0,0:0:0:0:
192,192,252277,1,0,0:0:0:0:
320,192,252277,1,0,0:0:0:0:
64,192,252337,1,0,0:0:0:0:
448,192,252397,1,0,0:0:0:0:
320,192,252457,1,0,0:0:0:0:
64,192,252517,1,0,0:0:0:0:
192,192,252517,1,0,0:0:0:0:
320,192,252577,1,0,0:0:0:0:
448,192,252637,1,0,0:0:0:0:
192,192,252697,1,0,0:0:0:0:
64,192,252757,1,0,0:0:0:0:
320,192,252757,1,0,0:0:0:0:
448,192,252817,1,0,0:0:0:0:
192,192,252877,1,0,0:0:0:0:
320,192,252937,1,0,0:0:0:0:
64,192,252997,1,0,0:0:0:0:
448,192,252997,1,0,0:0:0:0:
192,192,253057,1,0,0:0:0:0:
320,192,253117,1,0,0:0:0:0:
448,192,253177,1,0,0:0:0:0:
192,192,253237,1,0,0:0:0:0:
64,192,253237,1,0,0:0:0:0:
320,192,253297,1,0,0:0:0:0:
64,192,253357,1,0,0:0:0:0:
448,192,253417,1,0,0:0:0:0:
320,192,253477,1,0,0:0:0:0:
192,192,253537,1,0,0:0:0:0:
320,192,253597,1,0,0:0:0:0:
448,192,253597,1,0,0:0:0:0:
64,192,253657,1,0,0:0:0:0:
192,192,253657,1,0,0:0:0:0:
320,192,253717,1,0,0:0:0:0:
448,192,253717,1,0,0:0:0:0:
320,192,253837,1,0,0:0:0:0:
192,192,253957,1,0,0:0:0:0:
64,192,254077,1,0,0:0:0:0:
448,192,254197,1,0,0:0:0:0:
64,192,254317,1,0,0:0:0:0:
192,192,254317,1,0,0:0:0:0:
320,192,254317,1,0,0:0:0:0:
192,192,254437,1,0,0:0:0:0:
448,192,254437,1,0,0:0:0:0:
192,192,254557,1,0,0:0:0:0:
320,192,254557,1,0,0:0:0:0:
320,192,254677,1,0,0:0:0:0:
448,192,254677,1,0,0:0:0:0:
64,192,254797,1,0,0:0:0:0:
192,192,254797,1,0,0:0:0:0:
192,192,254917,1,0,0:0:0:0:
320,192,254917,1,0,0:0:0:0:
448,192,255037,1,0,0:0:0:0:
320,192,255157,1,0,0:0:0:0:
192,192,255277,1,0,0:0:0:0:
64,192,255397,1,0,0:0:0:0:
320,192,255397,1,0,0:0:0:0:
448,192,255397,1,0,0:0:0:0:
192,192,255517,1,0,0:0:0:0:
448,192,255517,1,0,0:0:0:0:
64,192,255637,1,0,0:0:0:0:
192,192,255637,1,0,0:0:0:0:
320,192,255697,1,0,0:0:0:0:
448,192,255697,1,0,0:0:0:0:
64,192,255757,1,0,0:0:0:0:
192,192,255757,1,0,0:0:0:0:
192,192,255877,1,0,0:0:0:0:
320,192,255877,1,0,0:0:0:0:
320,192,255997,1,0,0:0:0:0:
448,192,255997,1,0,0:0:0:0:
64,192,256117,1,0,0:0:0:0:
320,192,256117,1,0,0:0:0:0:
64,192,256237,1,0,0:0:0:0:
192,192,256237,1,0,0:0:0:0:
64,192,256357,1,0,0:0:0:0:
320,192,256357,1,0,0:0:0:0:
448,192,256357,1,0,0:0:0:0:
192,192,256417,1,0,0:0:0:0:
320,192,256477,1,0,0:0:0:0:
192,192,256537,1,0,0:0:0:0:
448,192,256597,1,0,0:0:0:0:
64,192,256657,1,0,0:0:0:0:
192,192,256717,1,0,0:0:0:0:
320,192,256717,1,0,0:0:0:0:
448,192,256777,1,0,0:0:0:0:
64,192,256837,1,0,0:0:0:0:
192,192,256897,1,0,0:0:0:0:
320,192,256957,1,0,0:0:0:0:
448,192,257017,1,0,0:0:0:0:
64,192,257077,1,0,0:0:0:0:
192,192,257077,1,0,0:0:0:0:
320,192,257137,1,0,0:0:0:0:
448,192,257197,1,0,0:0:0:0:
320,192,257257,1,0,0:0:0:0:
192,192,257317,1,0,0:0:0:0:
64,192,257377,1,0,0:0:0:0:
320,192,257437,1,0,0:0:0:0:
448,192,257437,1,0,0:0:0:0:
192,192,257497,1,0,0:0:0:0:
320,192,257557,1,0,0:0:0:0:
64,192,257617,1,0,0:0:0:0:
448,192,257677,1,0,0:0:0:0:
192,192,257737,1,0,0:0:0:0:
64,192,257797,1,0,0:0:0:0:
448,192,257797,1,0,0:0:0:0:
320,192,257857,1,0,0:0:0:0:
192,192,257917,1,0,0:0:0:0:
320,192,257977,1,0,0:0:0:0:
448,192,258037,1,0,0:0:0:0:
64,192,258097,1,0,0:0:0:0:
192,192,258157,1,0,0:0:0:0:
320,192,258157,1,0,0:0:0:0:
448,192,258217,1,0,0:0:0:0:
64,192,258277,1,0,0:0:0:0:
448,192,258337,1,0,0:0:0:0:
320,192,258397,1,0,0:0:0:0:
192,192,258457,1,0,0:0:0:0:
64,192,258517,1,0,0:0:0:0:
320,192,258517,1,0,0:0:0:0:
192,192,258577,1,0,0:0:0:0:
320,192,258637,1,0,0:0:0:0:
64,192,258697,1,0,0:0:0:0:
448,192,258757,1,0,0:0:0:0:
320,192,258817,1,0,0:0:0:0:
192,192,258877,1,0,0:0:0:0:
448,192,258877,1,0,0:0:0:0:
64,192,258937,1,0,0:0:0:0:
320,192,258997,1,0,0:0:0:0:
192,192,259057,1,0,0:0:0:0:
448,192,259117,1,0,0:0:0:0:
320,192,259177,1,0,0:0:0:0:
64,192,259237,1,0,0:0:0:0:
192,192,259237,1,0,0:0:0:0:
320,192,259297,1,0,0:0:0:0:
448,192,259357,1,0,0:0:0:0:
192,192,259417,1,0,0:0:0:0:
320,192,259477,1,0,0:0:0:0:
64,192,259537,1,0,0:0:0:0:
192,192,259597,1,0,0:0:0:0:
448,192,259597,1,0,0:0:0:0:
320,192,259657,1,0,0:0:0:0:
192,192,259717,1,0,0:0:0:0:
320,192,259777,1,0,0:0:0:0:
192,192,259837,1,0,0:0:0:0:
320,192,259897,1,0,0:0:0:0:
64,192,259957,1,0,0:0:0:0:
192,192,259957,1,0,0:0:0:0:
64,192,260077,1,0,0:0:0:0:
192,192,260077,1,0,0:0:0:0:
64,192,260197,1,0,0:0:0:0:
192,192,260197,1,0,0:0:0:0:
64,192,260317,1,0,0:0:0:0:
192,192,260317,1,0,0:0:0:0:
320,192,260437,1,0,0:0:0:0:
448,192,260437,1,0,0:0:0:0:
192,192,260557,1,0,0:0:0:0:
320,192,260557,1,0,0:0:0:0:
64,192,260677,1,0,0:0:0:0:
320,192,260677,1,0,0:0:0:0:
192,192,260737,1,0,0:0:0:0:
64,192,260797,1,0,0:0:0:0:
448,192,260797,1,0,0:0:0:0:
320,192,261157,128,0,261397:0:0:0:0:
192,192,261397,128,0,261637:0:0:0:0:
320,192,261637,128,0,261877:0:0:0:0:
192,192,261877,128,0,262117:0:0:0:0:
64,192,262117,1,0,0:0:0:0:
320,192,262117,1,0,0:0:0:0:
448,192,262117,1,0,0:0:0:0:
320,192,262357,1,0,0:0:0:0:
192,192,262417,1,0,0:0:0:0:
448,192,262477,1,0,0:0:0:0:
64,192,262537,1,0,0:0:0:0:
448,192,262597,1,0,0:0:0:0:
192,192,262657,1,0,0:0:0:0:
320,192,262717,1,0,0:0:0:0:
64,192,262777,1,0,0:0:0:0:
320,192,262837,1,0,0:0:0:0:
192,192,262897,1,0,0:0:0:0:
448,192,262957,1,0,0:0:0:0:
64,192,263017,1,0,0:0:0:0:
448,192,263077,1,0,0:0:0:0:
192,192,263137,1,0,0:0:0:0:
320,192,263197,1,0,0:0:0:0:
64,192,263257,1,0,0:0:0:0:
320,192,263317,1,0,0:0:0:0:
448,192,263377,1,0,0:0:0:0:
64,192,263437,1,0,0:0:0:0:
448,192,263497,1,0,0:0:0:0:
192,192,263557,1,0,0:0:0:0:
320,192,263617,1,0,0:0:0:0:
192,192,263677,1,0,0:0:0:0:
448,192,263737,1,0,0:0:0:0:
320,192,263797,1,0,0:0:0:0:
448,192,263857,1,0,0:0:0:0:
64,192,263917,1,0,0:0:0:0:
320,192,263977,1,0,0:0:0:0:
64,192,264037,1,0,0:0:0:0:
192,192,264097,1,0,0:0:0:0:
320,192,264157,1,0,0:0:0:0:
448,192,264217,1,0,0:0:0:0:
192,192,264277,1,0,0:0:0:0:
320,192,264337,1,0,0:0:0:0:
192,192,264397,1,0,0:0:0:0:
448,192,264457,1,0,0:0:0:0:
64,192,264517,1,0,0:0:0:0:
448,192,264577,1,0,0:0:0:0:
320,192,264637,1,0,0:0:0:0:
192,192,264697,1,0,0:0:0:0:
320,192,264757,1,0,0:0:0:0:
64,192,264817,1,0,0:0:0:0:
320,192,264877,1,0,0:0:0:0:
192,192,264937,1,0,0:0:0:0:
64,192,264997,1,0,0:0:0:0:
448,192,264997,1,0,0:0:0:0:
320,192,265057,1,0,0:0:0:0:
192,192,265117,1,0,0:0:0:0:
320,192,265177,1,0,0:0:0:0:
64,192,265237,1,0,0:0:0:0:
448,192,265297,1,0,0:0:0:0:
64,192,265357,1,0,0:0:0:0:
192,192,265417,1,0,0:0:0:0:
448,192,265477,1,0,0:0:0:0:
320,192,265537,1,0,0:0:0:0:
64,192,265597,1,0,0:0:0:0:
448,192,265657,1,0,0:0:0:0:
64,192,265717,1,0,0:0:0:0:
320,192,265777,1,0,0:0:0:0:
192,192,265837,1,0,0:0:0:0:
320,192,265897,1,0,0:0:0:0:
64,192,265957,1,0,0:0:0:0:
448,192,266017,1,0,0:0:0:0:
64,192,266077,1,0,0:0:0:0:
320,192,266137,1,0,0:0:0:0:
192,192,266197,1,0,0:0:0:0:
64,192,266257,1,0,0:0:0:0:
448,192,266317,1,0,0:0:0:0:
320,192,266377,1,0,0:0:0:0:
64,192,266437,1,0,0:0:0:0:
192,192,266437,1,0,0:0:0:0:
448,192,266497,1,0,0:0:0:0:
320,192,266557,1,0,0:0:0:0:
192,192,266617,1,0,0:0:0:0:
64,192,266677,1,0,0:0:0:0:
192,192,266737,1,0,0:0:0:0:
448,192,266797,1,0,0:0:0:0:
64,192,266857,1,0,0:0:0:0:
192,192,266917,1,0,0:0:0:0:
320,192,266917,1,0,0:0:0:0:
448,192,266977,1,0,0:0:0:0:
320,192,267037,1,0,0:0:0:0:
64,192,267097,1,0,0:0:0:0:
192,192,267157,1,0,0:0:0:0:
320,192,267217,1,0,0:0:0:0:
448,192,267277,1,0,0:0:0:0:
64,192,267337,1,0,0:0:0:0:
192,192,267397,1,0,0:0:0:0:
448,192,267397,1,0,0:0:0:0:
320,192,267457,1,0,0:0:0:0:
192,192,267517,1,0,0:0:0:0:
64,192,267577,1,0,0:0:0:0:
448,192,267637,1,0,0:0:0:0:
320,192,267697,1,0,0:0:0:0:
192,192,267757,1,0,0:0:0:0:
64,192,267817,1,0,0:0:0:0:
320,192,267877,1,0,0:0:0:0:
448,192,267877,1,0,0:0:0:0:
192,192,267937,1,0,0:0:0:0:
64,192,267997,1,0,0:0:0:0:
320,192,268057,1,0,0:0:0:0:
64,192,268117,1,0,0:0:0:0:
448,192,268177,1,0,0:0:0:0:
192,192,268237,1,0,0:0:0:0:
448,192,268297,1,0,0:0:0:0:
320,192,268357,1,0,0:0:0:0:
192,192,268417,1,0,0:0:0:0:
320,192,268477,1,0,0:0:0:0:
64,192,268537,1,0,0:0:0:0:
192,192,268597,1,0,0:0:0:0:
320,192,268657,1,0,0:0:0:0:
192,192,268717,1,0,0:0:0:0:
448,192,268777,1,0,0:0:0:0:
320,192,268837,1,0,0:0:0:0:
192,192,268897,1,0,0:0:0:0:
64,192,268957,1,0,0:0:0:0:
448,192,268957,1,0,0:0:0:0:
192,192,269017,1,0,0:0:0:0:
320,192,269077,1,0,0:0:0:0:
448,192,269137,1,0,0:0:0:0:
64,192,269197,1,0,0:0:0:0:
192,192,269197,1,0,0:0:0:0:
320,192,269257,1,0,0:0:0:0:
448,192,269317,1,0,0:0:0:0:
64,192,269377,1,0,0:0:0:0:
192,192,269437,1,0,0:0:0:0:
320,192,269437,1,0,0:0:0:0:
448,192,269497,1,0,0:0:0:0:
64,192,269557,1,0,0:0:0:0:
448,192,269617,1,0,0:0:0:0:
192,192,269677,1,0,0:0:0:0:
320,192,269737,1,0,0:0:0:0:
192,192,269797,1,0,0:0:0:0:
448,192,269857,1,0,0:0:0:0:
320,192,269917,1,0,0:0:0:0:
192,192,269977,1,0,0:0:0:0:
64,192,270037,1,0,0:0:0:0:
448,192,270097,1,0,0:0:0:0:
192,192,270157,1,0,0:0:0:0:
320,192,270217,1,0,0:0:0:0:
192,192,270277,1,0,0:0:0:0:
448,192,270337,1,0,0:0:0:0:
64,192,270397,1,0,0:0:0:0:
448,192,270457,1,0,0:0:0:0:
320,192,270517,1,0,0:0:0:0:
192,192,270577,1,0,0:0:0:0:
320,192,270637,1,0,0:0:0:0:
64,192,270697,1,0,0:0:0:0:
192,192,270757,1,0,0:0:0:0:
320,192,270817,1,0,0:0:0:0:
448,192,270877,1,0,0:0:0:0:
64,192,270937,1,0,0:0:0:0:
192,192,270997,1,0,0:0:0:0:
448,192,271057,1,0,0:0:0:0:
64,192,271117,1,0,0:0:0:0:
448,192,271177,1,0,0:0:0:0:
192,192,271237,1,0,0:0:0:0:
320,192,271297,1,0,0:0:0:0:
192,192,271357,1,0,0:0:0:0:
64,192,271417,1,0,0:0:0:0:
448,192,271477,1,0,0:0:0:0:
64,192,271537,1,0,0:0:0:0:
320,192,271597,1,0,0:0:0:0:
192,192,271657,1,0,0:0:0:0:
320,192,271717,1,0,0:0:0:0:
448,192,271777,1,0,0:0:0:0:
192,192,271837,1,0,0:0:0:0:
448,192,271897,1,0,0:0:0:0:
320,192,271957,1,0,0:0:0:0:
64,192,272017,1,0,0:0:0:0:
320,192,272077,1,0,0:0:0:0:
192,192,272137,1,0,0:0:0:0:
64,192,272197,1,0,0:0:0:0:
448,192,272197,1,0,0:0:0:0:
320,192,272257,1,0,0:0:0:0:
192,192,272317,1,0,0:0:0:0:
64,192,272377,1,0,0:0:0:0:
320,192,272437,1,0,0:0:0:0:
192,192,272497,1,0,0:0:0:0:
448,192,272557,1,0,0:0:0:0:
320,192,272617,1,0,0:0:0:0:
64,192,272677,1,0,0:0:0:0:
192,192,272677,1,0,0:0:0:0:
448,192,272737,1,0,0:0:0:0:
320,192,272797,1,0,0:0:0:0:
192,192,272857,1,0,0:0:0:0:
64,192,272917,1,0,0:0:0:0:
320,192,272977,1,0,0:0:0:0:
192,192,273037,1,0,0:0:0:0:
448,192,273097,1,0,0:0:0:0:
64,192,273157,1,0,0:0:0:0:
192,192,273157,1,0,0:0:0:0:
320,192,273157,1,0,0:0:0:0:
320,192,273277,1,0,0:0:0:0:
320,192,273397,1,0,0:0:0:0:
64,192,273517,1,0,0:0:0:0:
320,192,273517,1,0,0:0:0:0:
192,192,273577,1,0,0:0:0:0:
320,192,273637,1,0,0:0:0:0:
64,192,273877,1,0,0:0:0:0:
320,192,273937,1,0,0:0:0:0:
64,192,273997,1,0,0:0:0:0:
448,192,274057,1,0,0:0:0:0:
192,192,274117,1,0,0:0:0:0:
448,192,274177,1,0,0:0:0:0:
64,192,274237,1,0,0:0:0:0:
320,192,274297,1,0,0:0:0:0:
64,192,274357,1,0,0:0:0:0:
448,192,274417,1,0,0:0:0:0:
192,192,274477,1,0,0:0:0:0:
448,192,274537,1,0,0:0:0:0:
64,192,274597,1,0,0:0:0:0:
320,192,274657,1,0,0:0:0:0:
64,192,274717,1,0,0:0:0:0:
448,192,274777,1,0,0:0:0:0:
320,192,274837,1,0,0:0:0:0:
192,192,274897,1,0,0:0:0:0:
64,192,274957,1,0,0:0:0:0:
448,192,275017,1,0,0:0:0:0:
320,192,275077,1,0,0:0:0:0:
192,192,275137,1,0,0:0:0:0:
320,192,275197,1,0,0:0:0:0:
64,192,275257,1,0,0:0:0:0:
448,192,275317,1,0,0:0:0:0:
64,192,275377,1,0,0:0:0:0:
320,192,275437,1,0,0:0:0:0:
192,192,275497,1,0,0:0:0:0:
320,192,275557,1,0,0:0:0:0:
64,192,275617,1,0,0:0:0:0:
192,192,275677,1,0,0:0:0:0:
64,192,275737,1,0,0:0:0:0:
320,192,275797,1,0,0:0:0:0:
448,192,275797,1,0,0:0:0:0:
192,192,275857,1,0,0:0:0:0:
320,192,275917,1,0,0:0:0:0:
448,192,275977,1,0,0:0:0:0:
64,192,276037,1,0,0:0:0:0:
192,192,276097,1,0,0:0:0:0:
64,192,276157,1,0,0:0:0:0:
448,192,276217,1,0,0:0:0:0:
320,192,276277,1,0,0:0:0:0:
192,192,276337,1,0,0:0:0:0:
64,192,276397,1,0,0:0:0:0:
192,192,276457,1,0,0:0:0:0:
320,192,276517,1,0,0:0:0:0:
448,192,276577,1,0,0:0:0:0:
64,192,276637,1,0,0:0:0:0:
192,192,276697,1,0,0:0:0:0:
64,192,276757,1,0,0:0:0:0:
320,192,276757,1,0,0:0:0:0:
448,192,276817,1,0,0:0:0:0:
192,192,276877,1,0,0:0:0:0:
320,192,276937,1,0,0:0:0:0:
192,192,276997,1,0,0:0:0:0:
448,192,277057,1,0,0:0:0:0:
64,192,277117,1,0,0:0:0:0:
320,192,277177,1,0,0:0:0:0:
192,192,277237,1,0,0:0:0:0:
448,192,277297,1,0,0:0:0:0:
320,192,277357,1,0,0:0:0:0:
192,192,277417,1,0,0:0:0:0:
64,192,277477,1,0,0:0:0:0:
448,192,277537,1,0,0:0:0:0:
192,192,277597,1,0,0:0:0:0:
448,192,277657,1,0,0:0:0:0:
64,192,277717,1,0,0:0:0:0:
192,192,277777,1,0,0:0:0:0:
320,192,277837,1,0,0:0:0:0:
192,192,277897,1,0,0:0:0:0:
448,192,277957,1,0,0:0:0:0:
64,192,278017,1,0,0:0:0:0:
448,192,278077,1,0,0:0:0:0:
192,192,278137,1,0,0:0:0:0:
320,192,278197,1,0,0:0:0:0:
192,192,278257,1,0,0:0:0:0:
448,192,278317,1,0,0:0:0:0:
320,192,278377,1,0,0:0:0:0:
192,192,278437,1,0,0:0:0:0:
64,192,278497,1,0,0:0:0:0:
320,192,278557,1,0,0:0:0:0:
448,192,278617,1,0,0:0:0:0:
64,192,278677,1,0,0:0:0:0:
192,192,278677,1,0,0:0:0:0:
320,192,278737,1,0,0:0:0:0:
192,192,278797,1,0,0:0:0:0:
448,192,278857,1,0,0:0:0:0:
64,192,278917,1,0,0:0:0:0:
448,192,278977,1,0,0:0:0:0:
192,192,279037,1,0,0:0:0:0:
320,192,279097,1,0,0:0:0:0:
64,192,279157,1,0,0:0:0:0:
448,192,279217,1,0,0:0:0:0:
320,192,279277,1,0,0:0:0:0:
192,192,279337,1,0,0:0:0:0:
64,192,279397,1,0,0:0:0:0:
448,192,279397,1,0,0:0:0:0:
320,192,279457,1,0,0:0:0:0:
448,192,279517,1,0,0:0:0:0:
64,192,279577,1,0,0:0:0:0:
192,192,279637,1,0,0:0:0:0:
320,192,279697,1,0,0:0:0:0:
448,192,279757,1,0,0:0:0:0:
192,192,279817,1,0,0:0:0:0:
320,192,279877,1,0,0:0:0:0:
192,192,279937,1,0,0:0:0:0:
448,192,279997,1,0,0:0:0:0:
64,192,280057,1,0,0:0:0:0:
448,192,280117,1,0,0:0:0:0:
192,192,280177,1,0,0:0:0:0:
320,192,280237,1,0,0:0:0:0:
64,192,280297,1,0,0:0:0:0:
448,192,280357,1,0,0:0:0:0:
192,192,280417,1,0,0:0:0:0:
320,192,280477,1,0,0:0:0:0:
64,192,280537,1,0,0:0:0:0:
192,192,280597,1,0,0:0:0:0:
320,192,280657,1,0,0:0:0:0:
64,192,280717,1,0,0:0:0:0:
448,192,280777,1,0,0:0:0:0:
64,192,280837,1,0,0:0:0:0:
320,192,280897,1,0,0:0:0:0:
192,192,280957,1,0,0:0:0:0:
448,192,281017,1,0,0:0:0:0:
320,192,281077,1,0,0:0:0:0:
192,192,281137,1,0,0:0:0:0:
64,192,281197,1,0,0:0:0:0:
192,192,281257,1,0,0:0:0:0:
320,192,281317,1,0,0:0:0:0:
448,192,281377,1,0,0:0:0:0:
64,192,281437,1,0,0:0:0:0:
320,192,281497,1,0,0:0:0:0:
64,192,281557,1,0,0:0:0:0:
448,192,281617,1,0,0:0:0:0:
320,192,281677,1,0,0:0:0:0:
192,192,281737,1,0,0:0:0:0:
320,192,281797,1,0,0:0:0:0:
64,192,281857,1,0,0:0:0:0:
448,192,281917,1,0,0:0:0:0:
320,192,281977,1,0,0:0:0:0:
192,192,282037,1,0,0:0:0:0:
64,192,282097,1,0,0:0:0:0:
320,192,282157,1,0,0:0:0:0:
192,192,282217,1,0,0:0:0:0:
64,192,282277,1,0,0:0:0:0:
448,192,282277,1,0,0:0:0:0:
320,192,282277,1,0,0:0:0:0:
64,192,282517,1,0,0:0:0:0:
448,192,282517,1,0,0:0:0:0:
192,192,282577,1,0,0:0:0:0:
320,192,282637,1,0,0:0:0:0:
448,192,282697,1,0,0:0:0:0:
192,192,282757,1,0,0:0:0:0:
64,192,282817,1,0,0:0:0:0:
448,192,282877,1,0,0:0:0:0:
320,192,282937,1,0,0:0:0:0:
64,192,282997,1,0,0:0:0:0:
192,192,282997,1,0,0:0:0:0:
448,192,283057,1,0,0:0:0:0:
192,192,283117,1,0,0:0:0:0:
64,192,283177,1,0,0:0:0:0:
320,192,283237,1,0,0:0:0:0:
448,192,283237,1,0,0:0:0:0:
192,192,283297,1,0,0:0:0:0:
448,192,283357,1,0,0:0:0:0:
320,192,283417,1,0,0:0:0:0:
64,192,283477,1,0,0:0:0:0:
192,192,283537,1,0,0:0:0:0:
320,192,283597,1,0,0:0:0:0:
192,192,283657,1,0,0:0:0:0:
64,192,283717,1,0,0:0:0:0:
448,192,283717,1,0,0:0:0:0:
320,192,283957,1,0,0:0:0:0:
448,192,283957,1,0,0:0:0:0:
64,192,284017,1,0,0:0:0:0:
192,192,284017,1,0,0:0:0:0:
320,192,284077,1,0,0:0:0:0:
448,192,284077,1,0,0:0:0:0:
320,192,284197,1,0,0:0:0:0:
448,192,284197,1,0,0:0:0:0:
320,192,284317,1,0,0:0:0:0:
448,192,284317,1,0,0:0:0:0:
320,192,284437,1,0,0:0:0:0:
448,192,284437,1,0,0:0:0:0:
320,192,284557,1,0,0:0:0:0:
448,192,284557,1,0,0:0:0:0:
192,192,284677,1,0,0:0:0:0:
320,192,284677,1,0,0:0:0:0:
64,192,284797,1,0,0:0:0:0:
320,192,284797,1,0,0:0:0:0:
192,192,284857,1,0,0:0:0:0:
320,192,284917,1,0,0:0:0:0:
64,192,284977,1,0,0:0:0:0:
192,192,285037,1,0,0:0:0:0:
320,192,285097,1,0,0:0:0:0:
448,192,285157,1,0,0:0:0:0:
64,192,285157,1,0,0:0:0:0:
192,192,285157,128,0,286957:0:0:0:0:
320,192,285397,1,0,0:0:0:0:
448,192,285517,1,0,0:0:0:0:
64,192,285517,1,0,0:0:0:0:
320,192,285637,1,0,0:0:0:0:
320,192,285757,1,0,0:0:0:0:
448,192,285757,1,0,0:0:0:0:
64,192,285877,1,0,0:0:0:0:
320,192,285997,1,0,0:0:0:0:
448,192,285997,1,0,0:0:0:0:
448,192,286117,1,0,0:0:0:0:
320,192,286237,1,0,0:0:0:0:
64,192,286237,1,0,0:0:0:0:
64,192,286357,1,0,0:0:0:0:
320,192,286477,1,0,0:0:0:0:
448,192,286477,1,0,0:0:0:0:
64,192,286597,1,0,0:0:0:0:
448,192,286717,1,0,0:0:0:0:
320,192,286717,1,0,0:0:0:0:
320,192,286837,1,0,0:0:0:0:
448,192,286957,1,0,0:0:0:0:
64,192,286957,1,0,0:0:0:0:
448,192,287077,1,0,0:0:0:0:
320,192,287197,1,0,0:0:0:0:
64,192,287197,1,0,0:0:0:0:
192,192,287317,128,0,287617:0:0:0:0:
448,192,287317,1,0,0:0:0:0:
64,192,287437,1,0,0:0:0:0:
448,192,287437,1,0,0:0:0:0:
320,192,287617,128,0,287917:0:0:0:0:
448,192,287677,1,0,0:0:0:0:
64,192,287677,1,0,0:0:0:0:
64,192,287797,1,0,0:0:0:0:
192,192,287917,1,0,0:0:0:0:
448,192,287917,1,0,0:0:0:0:
320,192,288037,128,0,288397:0:0:0:0:
64,192,288157,1,0,0:0:0:0:
448,192,288157,1,0,0:0:0:0:
448,192,288277,1,0,0:0:0:0:
192,192,288397,1,0,0:0:0:0:
64,192,288397,1,0,0:0:0:0:
448,192,288397,128,0,289237:0:0:0:0:
320,192,288517,1,0,0:0:0:0:
64,192,288637,1,0,0:0:0:0:
192,192,288637,1,0,0:0:0:0:
320,192,288757,1,0,0:0:0:0:
64,192,288877,1,0,0:0:0:0:
192,192,288877,1,0,0:0:0:0:
64,192,288997,1,0,0:0:0:0:
320,192,289117,1,0,0:0:0:0:
192,192,289117,1,0,0:0:0:0:
64,192,289237,1,0,0:0:0:0:
320,192,289357,1,0,0:0:0:0:
448,192,289357,1,0,0:0:0:0:
64,192,289477,128,0,289597:0:0:0:0:
192,192,289597,1,0,0:0:0:0:
448,192,289597,1,0,0:0:0:0:
320,192,289717,1,0,0:0:0:0:
64,192,289837,1,0,0:0:0:0:
192,192,289837,1,0,0:0:0:0:
320,192,289957,128,0,290077:0:0:0:0:
192,192,290077,1,0,0:0:0:0:
64,192,290077,1,0,0:0:0:0:
448,192,290197,1,0,0:0:0:0:
64,192,290317,1,0,0:0:0:0:
320,192,290317,1,0,0:0:0:0:
448,192,290437,128,0,290557:0:0:0:0:
192,192,290557,1,0,0:0:0:0:
320,192,290557,1,0,0:0:0:0:
64,192,290677,1,0,0:0:0:0:
192,192,290797,1,0,0:0:0:0:
320,192,290797,1,0,0:0:0:0:
448,192,290917,128,0,292117:0:0:0:0:
64,192,291037,1,0,0:0:0:0:
320,192,291037,1,0,0:0:0:0:
192,192,291157,1,0,0:0:0:0:
64,192,291277,1,0,0:0:0:0:
192,192,291277,1,0,0:0:0:0:
320,192,291397,1,0,0:0:0:0:
320,192,291517,1,0,0:0:0:0:
192,192,291517,1,0,0:0:0:0:
64,192,291637,1,0,0:0:0:0:
192,192,291757,1,0,0:0:0:0:
320,192,291757,1,0,0:0:0:0:
320,192,291877,1,0,0:0:0:0:
192,192,291997,1,0,0:0:0:0:
64,192,291997,1,0,0:0:0:0:
64,192,292117,128,0,292357:0:0:0:0:
320,192,292117,1,0,0:0:0:0:
192,192,292237,1,0,0:0:0:0:
448,192,292237,1,0,0:0:0:0:
192,192,292357,128,0,293797:0:0:0:0:
64,192,292477,1,0,0:0:0:0:
448,192,292477,1,0,0:0:0:0:
320,192,292597,1,0,0:0:0:0:
448,192,292717,1,0,0:0:0:0:
64,192,292717,1,0,0:0:0:0:
448,192,292837,1,0,0:0:0:0:
64,192,292957,1,0,0:0:0:0:
320,192,292957,1,0,0:0:0:0:
448,192,293077,1,0,0:0:0:0:
320,192,293197,1,0,0:0:0:0:
448,192,293197,1,0,0:0:0:0:
64,192,293317,1,0,0:0:0:0:
64,192,293437,1,0,0:0:0:0:
320,192,293437,1,0,0:0:0:0:
320,192,293557,1,0,0:0:0:0:
448,192,293677,1,0,0:0:0:0:
64,192,293677,1,0,0:0:0:0:
320,192,293797,128,0,294877:0:0:0:0:
64,192,293917,1,0,0:0:0:0:
192,192,293917,1,0,0:0:0:0:
448,192,294037,1,0,0:0:0:0:
192,192,294157,1,0,0:0:0:0:
448,192,294157,1,0,0:0:0:0:
64,192,294277,1,0,0:0:0:0:
192,192,294397,1,0,0:0:0:0:
64,192,294397,1,0,0:0:0:0:
448,192,294517,1,0,0:0:0:0:
64,192,294637,1,0,0:0:0:0:
192,192,294637,1,0,0:0:0:0:
448,192,294757,1,0,0:0:0:0:
64,192,294877,1,0,0:0:0:0:
192,192,294877,1,0,0:0:0:0:
448,192,294997,1,0,0:0:0:0:
64,192,295117,1,0,0:0:0:0:
192,192,295117,1,0,0:0:0:0:
448,192,295177,1,0,0:0:0:0:
64,192,295237,1,0,0:0:0:0:
320,192,295237,1,0,0:0:0:0:
192,192,295297,1,0,0:0:0:0:
320,192,295357,1,0,0:0:0:0:
448,192,295417,1,0,0:0:0:0:
320,192,295477,1,0,0:0:0:0:
192,192,295537,1,0,0:0:0:0:
64,192,295597,1,0,0:0:0:0:
192,192,295657,1,0,0:0:0:0:
320,192,295717,1,0,0:0:0:0:
448,192,295717,1,0,0:0:0:0:
192,192,295777,1,0,0:0:0:0:
64,192,295837,1,0,0:0:0:0:
192,192,295897,1,0,0:0:0:0:
320,192,295957,1,0,0:0:0:0:
448,192,296017,1,0,0:0:0:0:
320,192,296077,1,0,0:0:0:0:
192,192,296137,1,0,0:0:0:0:
64,192,296197,1,0,0:0:0:0:
448,192,296197,1,0,0:0:0:0:
192,192,296257,1,0,0:0:0:0:
448,192,296317,1,0,0:0:0:0:
320,192,296377,1,0,0:0:0:0:
192,192,296437,1,0,0:0:0:0:
64,192,296497,1,0,0:0:0:0:
320,192,296557,1,0,0:0:0:0:
192,192,296617,1,0,0:0:0:0:
448,192,296677,128,0,297997:0:0:0:0:
64,192,296917,1,0,0:0:0:0:
192,192,297037,1,0,0:0:0:0:
320,192,297037,1,0,0:0:0:0:
320,192,297157,1,0,0:0:0:0:
64,192,297277,1,0,0:0:0:0:
192,192,297277,1,0,0:0:0:0:
320,192,297397,1,0,0:0:0:0:
64,192,297517,1,0,0:0:0:0:
192,192,297517,1,0,0:0:0:0:
192,192,297637,1,0,0:0:0:0:
64,192,297757,1,0,0:0:0:0:
320,192,297757,1,0,0:0:0:0:
64,192,297877,1,0,0:0:0:0:
192,192,297997,1,0,0:0:0:0:
320,192,297997,1,0,0:0:0:0:
448,192,298117,128,0,299257:0:0:0:0:
64,192,298237,1,0,0:0:0:0:
320,192,298237,1,0,0:0:0:0:
192,192,298357,1,0,0:0:0:0:
64,192,298477,1,0,0:0:0:0:
192,192,298477,1,0,0:0:0:0:
320,192,298597,1,0,0:0:0:0:
192,192,298717,1,0,0:0:0:0:
64,192,298717,1,0,0:0:0:0:
320,192,298837,1,0,0:0:0:0:
192,192,298957,1,0,0:0:0:0:
64,192,298957,1,0,0:0:0:0:
320,192,299077,1,0,0:0:0:0:
64,192,299197,1,0,0:0:0:0:
192,192,299197,1,0,0:0:0:0:
320,192,299257,128,0,299377:0:0:0:0:
64,192,299317,1,0,0:0:0:0:
192,192,299377,128,0,299497:0:0:0:0:
448,192,299437,1,0,0:0:0:0:
64,192,299437,1,0,0:0:0:0:
320,192,299497,128,0,299917:0:0:0:0:
448,192,299557,1,0,0:0:0:0:
64,192,299677,1,0,0:0:0:0:
192,192,299677,1,0,0:0:0:0:
448,192,299797,1,0,0:0:0:0:
64,192,299917,128,0,300757:0:0:0:0:
192,192,299917,1,0,0:0:0:0:
448,192,299917,1,0,0:0:0:0:
448,192,300037,1,0,0:0:0:0:
192,192,300157,1,0,0:0:0:0:
320,192,300157,1,0,0:0:0:0:
320,192,300277,1,0,0:0:0:0:
448,192,300397,1,0,0:0:0:0:
192,192,300397,1,0,0:0:0:0:
448,192,300517,1,0,0:0:0:0:
320,192,300637,1,0,0:0:0:0:
192,192,300637,1,0,0:0:0:0:
448,192,300757,1,0,0:0:0:0:
192,192,300877,1,0,0:0:0:0:
320,192,300877,1,0,0:0:0:0:
448,192,300997,1,0,0:0:0:0:
192,192,301057,1,0,0:0:0:0:
448,192,301117,1,0,0:0:0:0:
64,192,301177,1,0,0:0:0:0:
320,192,301237,1,0,0:0:0:0:
192,192,301297,1,0,0:0:0:0:
320,192,301357,1,0,0:0:0:0:
64,192,301417,1,0,0:0:0:0:
448,192,301477,1,0,0:0:0:0:
192,192,301537,1,0,0:0:0:0:
448,192,301597,1,0,0:0:0:0:
64,192,301657,1,0,0:0:0:0:
320,192,301717,1,0,0:0:0:0:
192,192,301777,1,0,0:0:0:0:
320,192,301837,1,0,0:0:0:0:
64,192,301897,1,0,0:0:0:0:
448,192,301957,1,0,0:0:0:0:
192,192,302017,1,0,0:0:0:0:
448,192,302077,1,0,0:0:0:0:
64,192,302137,1,0,0:0:0:0:
320,192,302197,1,0,0:0:0:0:
192,192,302257,1,0,0:0:0:0:
320,192,302317,1,0,0:0:0:0:
192,192,302377,1,0,0:0:0:0:
64,192,302437,1,0,0:0:0:0:
448,192,302437,1,0,0:0:0:0:
320,192,302437,128,0,303517:0:0:0:0:
192,192,302677,1,0,0:0:0:0:
64,192,302797,1,0,0:0:0:0:
448,192,302797,1,0,0:0:0:0:
192,192,302917,1,0,0:0:0:0:
192,192,303037,1,0,0:0:0:0:
64,192,303037,1,0,0:0:0:0:
448,192,303157,1,0,0:0:0:0:
192,192,303277,1,0,0:0:0:0:
448,192,303277,1,0,0:0:0:0:
64,192,303397,1,0,0:0:0:0:
192,192,303517,128,0,303757:0:0:0:0:
64,192,303517,1,0,0:0:0:0:
448,192,303517,1,0,0:0:0:0:
320,192,303637,1,0,0:0:0:0:
320,192,303757,1,0,0:0:0:0:
448,192,303757,1,0,0:0:0:0:
192,192,303877,128,0,304957:0:0:0:0:
448,192,303877,1,0,0:0:0:0:
64,192,303997,1,0,0:0:0:0:
320,192,303997,1,0,0:0:0:0:
320,192,304117,1,0,0:0:0:0:
64,192,304237,1,0,0:0:0:0:
448,192,304237,1,0,0:0:0:0:
64,192,304357,1,0,0:0:0:0:
320,192,304477,1,0,0:0:0:0:
448,192,304477,1,0,0:0:0:0:
448,192,304597,1,0,0:0:0:0:
64,192,304717,1,0,0:0:0:0:
320,192,304717,1,0,0:0:0:0:
320,192,304837,1,0,0:0:0:0:
64,192,304957,1,0,0:0:0:0:
448,192,304957,1,0,0:0:0:0:
448,192,305077,1,0,0:0:0:0:
192,192,305197,1,0,0:0:0:0:
320,192,305197,1,0,0:0:0:0:
320,192,305317,1,0,0:0:0:0:
448,192,305317,1,0,0:0:0:0:
64,192,305317,1,0,0:0:0:0:
64,192,305557,1,0,0:0:0:0:
448,192,305557,1,0,0:0:0:0:
320,192,305617,1,0,0:0:0:0:
192,192,305677,1,0,0:0:0:0:
64,192,305737,1,0,0:0:0:0:
320,192,305797,1,0,0:0:0:0:
192,192,305857,1,0,0:0:0:0:
448,192,305917,1,0,0:0:0:0:
320,192,305977,1,0,0:0:0:0:
64,192,306037,1,0,0:0:0:0:
192,192,306037,1,0,0:0:0:0:
448,192,306097,1,0,0:0:0:0:
320,192,306157,1,0,0:0:0:0:
64,192,306217,1,0,0:0:0:0:
192,192,306277,1,0,0:0:0:0:
448,192,306277,1,0,0:0:0:0:
192,192,306397,1,0,0:0:0:0:
448,192,306397,1,0,0:0:0:0:
64,192,306517,1,0,0:0:0:0:
192,192,306517,1,0,0:0:0:0:
320,192,306577,1,0,0:0:0:0:
448,192,306577,1,0,0:0:0:0:
192,192,306637,1,0,0:0:0:0:
64,192,306637,1,0,0:0:0:0:
320,192,306697,1,0,0:0:0:0:
448,192,306697,1,0,0:0:0:0:
192,192,306757,1,0,0:0:0:0:
64,192,306757,1,0,0:0:0:0:
64,192,306997,1,0,0:0:0:0:
320,192,306997,1,0,0:0:0:0:
192,192,307057,1,0,0:0:0:0:
448,192,307057,1,0,0:0:0:0:
64,192,307117,1,0,0:0:0:0:
320,192,307117,1,0,0:0:0:0:
320,192,307237,1,0,0:0:0:0:
320,192,307357,1,0,0:0:0:0:
64,192,307477,1,0,0:0:0:0:
448,192,307477,1,0,0:0:0:0:
64,192,307597,1,0,0:0:0:0:
448,192,307597,1,0,0:0:0:0:
448,192,307717,1,0,0:0:0:0:
64,192,307717,1,0,0:0:0:0:
64,192,307837,1,0,0:0:0:0:
448,192,307837,1,0,0:0:0:0:
448,192,307957,1,0,0:0:0:0:
192,192,307957,1,0,0:0:0:0:
64,192,308077,1,0,0:0:0:0:
320,192,308077,1,0,0:0:0:0:
64,192,308197,1,0,0:0:0:0:
448,192,308197,128,0,308317:0:0:0:0:
320,192,308197,128,0,308317:0:0:0:0:
320,192,308557,1,0,0:0:0:0:
192,192,308617,1,0,0:0:0:0:
448,192,308677,1,0,0:0:0:0:
64,192,308737,1,0,0:0:0:0:
320,192,308797,1,0,0:0:0:0:
448,192,308857,1,0,0:0:0:0:
64,192,308917,1,0,0:0:0:0:
192,192,308917,1,0,0:0:0:0:
320,192,308977,1,0,0:0:0:0:
448,192,309037,1,0,0:0:0:0:
320,192,309097,1,0,0:0:0:0:
64,192,309157,1,0,0:0:0:0:
448,192,309217,1,0,0:0:0:0:
64,192,309277,1,0,0:0:0:0:
320,192,309337,1,0,0:0:0:0:
192,192,309397,1,0,0:0:0:0:
448,192,309457,1,0,0:0:0:0:
320,192,309517,1,0,0:0:0:0:
192,192,309577,1,0,0:0:0:0:
64,192,309637,1,0,0:0:0:0:
320,192,309637,1,0,0:0:0:0:
192,192,309697,1,0,0:0:0:0:
448,192,309757,1,0,0:0:0:0:
64,192,309817,1,0,0:0:0:0:
448,192,309877,1,0,0:0:0:0:
320,192,309937,1,0,0:0:0:0:
64,192,309997,1,0,0:0:0:0:
192,192,310057,1,0,0:0:0:0:
320,192,310117,1,0,0:0:0:0:
192,192,310177,1,0,0:0:0:0:
448,192,310237,1,0,0:0:0:0:
320,192,310297,1,0,0:0:0:0:
64,192,310357,1,0,0:0:0:0:
448,192,310357,1,0,0:0:0:0:
192,192,310417,1,0,0:0:0:0:
320,192,310477,1,0,0:0:0:0:
448,192,310537,1,0,0:0:0:0:
64,192,310597,1,0,0:0:0:0:
192,192,310597,1,0,0:0:0:0:
320,192,310657,1,0,0:0:0:0:
448,192,310717,1,0,0:0:0:0:
64,192,310777,1,0,0:0:0:0:
192,192,310837,1,0,0:0:0:0:
320,192,310837,1,0,0:0:0:0:
448,192,310897,1,0,0:0:0:0:
64,192,310957,1,0,0:0:0:0:
192,192,311017,1,0,0:0:0:0:
320,192,311077,1,0,0:0:0:0:
448,192,311077,1,0,0:0:0:0:
64,192,311137,1,0,0:0:0:0:
192,192,311197,1,0,0:0:0:0:
448,192,311257,1,0,0:0:0:0:
320,192,311317,1,0,0:0:0:0:
192,192,311377,1,0,0:0:0:0:
64,192,311437,1,0,0:0:0:0:
320,192,311497,1,0,0:0:0:0:
192,192,311557,1,0,0:0:0:0:
448,192,311617,1,0,0:0:0:0:
320,192,311677,1,0,0:0:0:0:
192,192,311737,1,0,0:0:0:0:
64,192,311797,1,0,0:0:0:0:
448,192,311797,1,0,0:0:0:0:
320,192,311857,1,0,0:0:0:0:
192,192,311917,1,0,0:0:0:0:
320,192,311977,1,0,0:0:0:0:
448,192,312037,1,0,0:0:0:0:
64,192,312097,1,0,0:0:0:0:
192,192,312157,1,0,0:0:0:0:
320,192,312217,1,0,0:0:0:0:
448,192,312277,1,0,0:0:0:0:
64,192,312337,1,0,0:0:0:0:
192,192,312397,1,0,0:0:0:0:
320,192,312457,1,0,0:0:0:0:
64,192,312517,1,0,0:0:0:0:
448,192,312517,1,0,0:0:0:0:
192,192,312577,1,0,0:0:0:0:
320,192,312637,1,0,0:0:0:0:
448,192,312697,1,0,0:0:0:0:
64,192,312757,1,0,0:0:0:0:
192,192,312757,1,0,0:0:0:0:
320,192,312817,1,0,0:0:0:0:
448,192,312877,1,0,0:0:0:0:
192,192,312937,1,0,0:0:0:0:
64,192,312997,1,0,0:0:0:0:
320,192,313057,1,0,0:0:0:0:
192,192,313117,1,0,0:0:0:0:
320,192,313177,1,0,0:0:0:0:
448,192,313237,1,0,0:0:0:0:
64,192,313297,1,0,0:0:0:0:
192,192,313357,1,0,0:0:0:0:
320,192,313417,1,0,0:0:0:0:
64,192,313477,1,0,0:0:0:0:
448,192,313477,1,0,0:0:0:0:
320,192,313537,1,0,0:0:0:0:
192,192,313597,1,0,0:0:0:0:
320,192,313657,1,0,0:0:0:0:
64,192,313717,1,0,0:0:0:0:
192,192,313717,1,0,0:0:0:0:
448,192,313777,1,0,0:0:0:0:
320,192,313837,1,0,0:0:0:0:
192,192,313897,1,0,0:0:0:0:
64,192,313957,1,0,0:0:0:0:
320,192,313957,1,0,0:0:0:0:
192,192,314017,1,0,0:0:0:0:
448,192,314077,1,0,0:0:0:0:
320,192,314137,1,0,0:0:0:0:
192,192,314197,1,0,0:0:0:0:
64,192,314257,1,0,0:0:0:0:
320,192,314317,1,0,0:0:0:0:
192,192,314377,1,0,0:0:0:0:
448,192,314437,1,0,0:0:0:0:
320,192,314497,1,0,0:0:0:0:
64,192,314557,1,0,0:0:0:0:
192,192,314617,1,0,0:0:0:0:
320,192,314677,1,0,0:0:0:0:
448,192,314677,1,0,0:0:0:0:
64,192,314737,1,0,0:0:0:0:
192,192,314797,1,0,0:0:0:0:
448,192,314857,1,0,0:0:0:0:
320,192,314917,1,0,0:0:0:0:
64,192,314977,1,0,0:0:0:0:
448,192,315037,1,0,0:0:0:0:
192,192,315097,1,0,0:0:0:0:
320,192,315157,1,0,0:0:0:0:
192,192,315217,1,0,0:0:0:0:
448,192,315277,1,0,0:0:0:0:
320,192,315337,1,0,0:0:0:0:
64,192,315397,1,0,0:0:0:0:
448,192,315397,1,0,0:0:0:0:
192,192,315457,1,0,0:0:0:0:
320,192,315517,1,0,0:0:0:0:
448,192,315577,1,0,0:0:0:0:
64,192,315637,1,0,0:0:0:0:
448,192,315697,1,0,0:0:0:0:
192,192,315757,1,0,0:0:0:0:
320,192,315817,1,0,0:0:0:0:
64,192,315877,1,0,0:0:0:0:
448,192,315937,1,0,0:0:0:0:
192,192,315997,1,0,0:0:0:0:
320,192,316057,1,0,0:0:0:0:
64,192,316117,1,0,0:0:0:0:
192,192,316117,1,0,0:0:0:0:
320,192,316177,1,0,0:0:0:0:
448,192,316237,1,0,0:0:0:0:
64,192,316297,1,0,0:0:0:0:
192,192,316357,1,0,0:0:0:0:
320,192,316357,1,0,0:0:0:0:
448,192,316417,1,0,0:0:0:0:
64,192,316477,1,0,0:0:0:0:
192,192,316537,1,0,0:0:0:0:
320,192,316597,1,0,0:0:0:0:
448,192,316597,1,0,0:0:0:0:
64,192,316657,1,0,0:0:0:0:
192,192,316717,1,0,0:0:0:0:
320,192,316777,1,0,0:0:0:0:
64,192,316837,1,0,0:0:0:0:
448,192,316837,1,0,0:0:0:0:
192,192,316897,1,0,0:0:0:0:
320,192,316957,1,0,0:0:0:0:
64,192,317017,1,0,0:0:0:0:
448,192,317077,1,0,0:0:0:0:
192,192,317137,1,0,0:0:0:0:
64,192,317197,1,0,0:0:0:0:
448,192,317197,1,0,0:0:0:0:
192,192,317257,1,0,0:0:0:0:
320,192,317317,1,0,0:0:0:0:
64,192,317377,1,0,0:0:0:0:
448,192,317437,1,0,0:0:0:0:
320,192,317497,1,0,0:0:0:0:
64,192,317557,1,0,0:0:0:0:
448,192,317557,1,0,0:0:0:0:
192,192,317617,1,0,0:0:0:0:
64,192,317677,1,0,0:0:0:0:
320,192,317737,1,0,0:0:0:0:
192,192,317797,1,0,0:0:0:0:
448,192,317857,1,0,0:0:0:0:
64,192,317917,1,0,0:0:0:0:
192,192,317917,1,0,0:0:0:0:
320,192,317917,1,0,0:0:0:0:
192,192,318037,1,0,0:0:0:0:
320,192,318037,1,0,0:0:0:0:
192,192,318157,1,0,0:0:0:0:
320,192,318157,1,0,0:0:0:0:
192,192,318277,1,0,0:0:0:0:
320,192,318277,1,0,0:0:0:0:
192,192,318397,1,0,0:0:0:0:
320,192,318397,1,0,0:0:0:0:
448,192,318397,1,0,0:0:0:0:
320,192,318517,1,0,0:0:0:0:
448,192,318517,1,0,0:0:0:0:
320,192,318637,1,0,0:0:0:0:
448,192,318637,1,0,0:0:0:0:
192,192,318697,1,0,0:0:0:0:
64,192,318757,1,0,0:0:0:0:
448,192,318817,1,0,0:0:0:0:
320,192,318877,1,0,0:0:0:0:
192,192,318937,1,0,0:0:0:0:
64,192,318997,1,0,0:0:0:0:
320,192,318997,1,0,0:0:0:0:
448,192,318997,1,0,0:0:0:0:
64,192,319117,1,0,0:0:0:0:
320,192,319117,1,0,0:0:0:0:
64,192,319357,1,0,0:0:0:0:
192,192,319357,1,0,0:0:0:0:
448,192,319357,1,0,0:0:0:0:
64,192,319477,1,0,0:0:0:0:
192,192,319477,1,0,0:0:0:0:
64,192,319717,1,0,0:0:0:0:
448,192,319717,1,0,0:0:0:0:
320,192,319717,1,0,0:0:0:0:
192,192,320077,1,0,0:0:0:0:
320,192,320137,1,0,0:0:0:0:
192,192,320197,1,0,0:0:0:0:
448,192,320257,1,0,0:0:0:0:
64,192,320317,1,0,0:0:0:0:
192,192,320377,1,0,0:0:0:0:
64,192,320437,1,0,0:0:0:0:
448,192,320437,1,0,0:0:0:0:
320,192,320497,1,0,0:0:0:0:
192,192,320557,1,0,0:0:0:0:
64,192,320617,1,0,0:0:0:0:
448,192,320677,1,0,0:0:0:0:
320,192,320737,1,0,0:0:0:0:
64,192,320797,1,0,0:0:0:0:
192,192,320857,1,0,0:0:0:0:
448,192,320917,1,0,0:0:0:0:
320,192,320977,1,0,0:0:0:0:
192,192,321037,1,0,0:0:0:0:
64,192,321097,1,0,0:0:0:0:
192,192,321157,1,0,0:0:0:0:
448,192,321157,1,0,0:0:0:0:
320,192,321217,1,0,0:0:0:0:
448,192,321277,1,0,0:0:0:0:
64,192,321337,1,0,0:0:0:0:
320,192,321397,1,0,0:0:0:0:
64,192,321457,1,0,0:0:0:0:
448,192,321517,1,0,0:0:0:0:
320,192,321577,1,0,0:0:0:0:
192,192,321637,1,0,0:0:0:0:
320,192,321697,1,0,0:0:0:0:
64,192,321757,1,0,0:0:0:0:
192,192,321817,1,0,0:0:0:0:
320,192,321877,1,0,0:0:0:0:
448,192,321877,1,0,0:0:0:0:
192,192,321937,1,0,0:0:0:0:
64,192,321997,1,0,0:0:0:0:
448,192,322057,1,0,0:0:0:0:
192,192,322117,1,0,0:0:0:0:
320,192,322117,1,0,0:0:0:0:
64,192,322177,1,0,0:0:0:0:
448,192,322237,1,0,0:0:0:0:
320,192,322297,1,0,0:0:0:0:
64,192,322357,1,0,0:0:0:0:
192,192,322357,1,0,0:0:0:0:
448,192,322417,1,0,0:0:0:0:
320,192,322477,1,0,0:0:0:0:
192,192,322537,1,0,0:0:0:0:
64,192,322597,1,0,0:0:0:0:
448,192,322597,1,0,0:0:0:0:
320,192,322657,1,0,0:0:0:0:
192,192,322717,1,0,0:0:0:0:
320,192,322777,1,0,0:0:0:0:
64,192,322837,1,0,0:0:0:0:
192,192,322897,1,0,0:0:0:0:
448,192,322957,1,0,0:0:0:0:
320,192,323017,1,0,0:0:0:0:
448,192,323077,1,0,0:0:0:0:
192,192,323137,1,0,0:0:0:0:
320,192,323197,1,0,0:0:0:0:
192,192,323257,1,0,0:0:0:0:
64,192,323317,1,0,0:0:0:0:
320,192,323317,1,0,0:0:0:0:
448,192,323377,1,0,0:0:0:0:
192,192,323437,1,0,0:0:0:0:
320,192,323497,1,0,0:0:0:0:
64,192,323557,1,0,0:0:0:0:
192,192,323617,1,0,0:0:0:0:
448,192,323677,1,0,0:0:0:0:
320,192,323737,1,0,0:0:0:0:
64,192,323797,1,0,0:0:0:0:
192,192,323857,1,0,0:0:0:0:
448,192,323917,1,0,0:0:0:0:
320,192,323977,1,0,0:0:0:0:
64,192,324037,1,0,0:0:0:0:
448,192,324037,1,0,0:0:0:0:
192,192,324037,128,0,324157:0:0:0:0:
64,192,324277,1,0,0:0:0:0:
448,192,324277,1,0,0:0:0:0:
320,192,324277,128,0,324397:0:0:0:0:
64,192,324517,1,0,0:0:0:0:
192,192,324577,1,0,0:0:0:0:
320,192,324637,1,0,0:0:0:0:
448,192,324697,1,0,0:0:0:0:
192,192,324757,1,0,0:0:0:0:
320,192,324757,1,0,0:0:0:0:
64,192,324757,128,0,324877:0:0:0:0:
320,192,324997,1,0,0:0:0:0:
448,192,324997,1,0,0:0:0:0:
192,192,324997,128,0,325117:0:0:0:0:
448,192,325237,1,0,0:0:0:0:
320,192,325297,1,0,0:0:0:0:
64,192,325357,1,0,0:0:0:0:
192,192,325417,1,0,0:0:0:0:
64,192,325477,1,0,0:0:0:0:
320,192,325477,1,0,0:0:0:0:
448,192,325477,128,0,325597:0:0:0:0:
192,192,325717,1,0,0:0:0:0:
64,192,325717,1,0,0:0:0:0:
320,192,325717,128,0,325837:0:0:0:0:
64,192,325957,1,0,0:0:0:0:
448,192,325957,1,0,0:0:0:0:
192,192,325957,128,0,326077:0:0:0:0:
64,192,326197,1,0,0:0:0:0:
320,192,326197,1,0,0:0:0:0:
448,192,326197,128,0,326317:0:0:0:0:
64,192,326557,1,0,0:0:0:0:
192,192,326617,1,0,0:0:0:0:
320,192,326677,1,0,0:0:0:0:
448,192,326737,1,0,0:0:0:0:
64,192,326797,1,0,0:0:0:0:
320,192,326797,1,0,0:0:0:0:
192,192,326857,1,0,0:0:0:0:
320,192,326917,1,0,0:0:0:0:
448,192,326917,1,0,0:0:0:0:
64,192,326977,1,0,0:0:0:0:
192,192,327037,1,0,0:0:0:0:
320,192,327097,1,0,0:0:0:0:
448,192,327157,1,0,0:0:0:0:
320,192,327217,1,0,0:0:0:0:
192,192,327277,1,0,0:0:0:0:
64,192,327337,1,0,0:0:0:0:
448,192,327397,1,0,0:0:0:0:
320,192,327457,1,0,0:0:0:0:
448,192,327517,1,0,0:0:0:0:
192,192,327577,1,0,0:0:0:0:
64,192,327637,1,0,0:0:0:0:
320,192,327637,1,0,0:0:0:0:
192,192,327697,1,0,0:0:0:0:
320,192,327757,1,0,0:0:0:0:
448,192,327757,1,0,0:0:0:0:
64,192,327817,1,0,0:0:0:0:
192,192,327877,1,0,0:0:0:0:
320,192,327937,1,0,0:0:0:0:
64,192,327997,1,0,0:0:0:0:
448,192,327997,1,0,0:0:0:0:
192,192,328057,1,0,0:0:0:0:
320,192,328117,1,0,0:0:0:0:
448,192,328117,1,0,0:0:0:0:
192,192,328177,1,0,0:0:0:0:
64,192,328237,1,0,0:0:0:0:
320,192,328297,1,0,0:0:0:0:
448,192,328357,128,0,329077:0:0:0:0:
64,192,328357,1,0,0:0:0:0:
192,192,328597,1,0,0:0:0:0:
320,192,328657,1,0,0:0:0:0:
64,192,328717,128,0,329077:0:0:0:0:
192,192,328717,1,0,0:0:0:0:
192,192,329077,1,0,0:0:0:0:
320,192,329137,1,0,0:0:0:0:
192,192,329197,1,0,0:0:0:0:
64,192,329257,1,0,0:0:0:0:
320,192,329317,1,0,0:0:0:0:
192,192,329377,1,0,0:0:0:0:
448,192,329437,1,0,0:0:0:0:
320,192,329497,1,0,0:0:0:0:
192,192,329557,1,0,0:0:0:0:
64,192,329617,1,0,0:0:0:0:
320,192,329677,1,0,0:0:0:0:
192,192,329737,1,0,0:0:0:0:
64,192,329797,1,0,0:0:0:0:
320,192,329797,1,0,0:0:0:0:
448,192,329797,1,0,0:0:0:0:
192,192,329857,1,0,0:0:0:0:
64,192,329917,1,0,0:0:0:0:
320,192,329917,1,0,0:0:0:0:
448,192,329977,1,0,0:0:0:0:
192,192,330037,1,0,0:0:0:0:
320,192,330037,1,0,0:0:0:0:
192,192,330157,1,0,0:0:0:0:
448,192,330157,1,0,0:0:0:0:
320,192,330277,1,0,0:0:0:0:
192,192,330397,1,0,0:0:0:0:
64,192,330517,1,0,0:0:0:0:
320,192,330517,1,0,0:0:0:0:
448,192,330517,1,0,0:0:0:0:
192,192,330637,1,0,0:0:0:0:
448,192,330637,1,0,0:0:0:0:
192,192,330757,1,0,0:0:0:0:
320,192,330757,1,0,0:0:0:0:
64,192,330877,1,0,0:0:0:0:
448,192,330877,1,0,0:0:0:0:
64,192,330997,1,0,0:0:0:0:
192,192,330997,1,0,0:0:0:0:
192,192,331117,1,0,0:0:0:0:
64,192,331117,1,0,0:0:0:0:
448,192,331237,128,0,331417:0:0:0:0:
64,192,331237,128,0,331417:0:0:0:0:
192,192,331237,1,0,0:0:0:0:
