osu file format v14

[General]
AudioFilename: audio.mp3
AudioLeadIn: 0
PreviewTime: -1
Countdown: 1
SampleSet: None
StackLeniency: 0.7
Mode: 0
LetterboxInBreaks: 0
WidescreenStoryboard: 0

[Editor]
DistanceSpacing: 0.8
BeatDivisor: 8
GridSize: 4
TimelineZoom: 1

[Metadata]
Title:The Hypocricy
TitleUnicode:The Hypocricy
Artist:Fleshgod Apocalypse
ArtistUnicode:Fleshgod Apocalypse
Creator:I-hate-Osu
Version:
Source:
Tags:Fleshgod apocalypse, deathmetal, hypocicy
BeatmapID:1422134
BeatmapSetID:672808

[Difficulty]
HPDrainRate:6
CircleSize:4
OverallDifficulty:7
ApproachRate:7
SliderMultiplier:1.4
SliderTickRate:2

[Events]
//Background and Video events
0,0,"maxresdefault (3).jpg",0,0
//Break Periods
2,17962,20252
//Storyboard Layer 0 (Background)
//Storyboard Layer 1 (Fail)
//Storyboard Layer 2 (Pass)
//Storyboard Layer 3 (Foreground)
//Storyboard Sound Samples

[TimingPoints]
2,240,4,1,0,100,1,0

[HitObjects]
80,120,2,6,0,B|148:76|224:72|292:112|328:180,1,288.75
328,200,692,1,0,0:0:0:0:
328,228,842,1,0,0:0:0:0:
92,84,1562,2,0,P|56:164|96:244,1,183.75
376,80,2282,1,0,0:0:0:0:
128,300,2462,1,0,0:0:0:0:
384,300,2642,2,0,P|416:208|372:176,1,131.25
348,240,3002,2,0,P|288:176|304:116,1,157.5
312,76,3632,2,0,P|216:48|128:144,1,236.25
64,44,4472,1,0,0:0:0:0:
416,324,4712,1,0,0:0:0:0:
432,56,5282,2,0,P|332:48|304:132,1,201.25
392,120,5942,2,0,P|416:176|316:228,1,192.5
256,200,6602,1,0,0:0:0:0:
256,200,6662,1,0,0:0:0:0:
256,200,6722,1,0,0:0:0:0:
256,200,6782,1,0,0:0:0:0:
256,200,6842,1,0,0:0:0:0:
256,200,6932,1,0,0:0:0:0:
256,200,6992,1,0,0:0:0:0:
256,200,7052,1,0,0:0:0:0:
256,200,7112,1,0,0:0:0:0:
260,208,7232,6,0,P|328:288|264:136,1,673.75
256,192,9452,12,0,10292,0:0:0:0:
88,64,10832,5,0,0:0:0:0:
396,308,10982,1,0,0:0:0:0:
372,88,11252,1,0,0:0:0:0:
112,304,11402,1,0,0:0:0:0:
124,212,11672,5,0,0:0:0:0:
132,212,11762,5,0,0:0:0:0:
140,212,11822,1,0,0:0:0:0:
148,212,11882,1,0,0:0:0:0:
156,212,11942,1,0,0:0:0:0:
164,212,12002,1,0,0:0:0:0:
168,208,12062,1,0,0:0:0:0:
176,204,12122,1,0,0:0:0:0:
180,200,12182,1,0,0:0:0:0:
184,196,12242,1,0,0:0:0:0:
188,192,12302,1,0,0:0:0:0:
192,188,12362,1,0,0:0:0:0:
196,184,12422,1,0,0:0:0:0:
200,180,12482,1,0,0:0:0:0:
204,172,12542,1,0,0:0:0:0:
208,168,12602,1,0,0:0:0:0:
216,168,12662,1,0,0:0:0:0:
220,168,12722,1,0,0:0:0:0:
228,168,12782,1,0,0:0:0:0:
232,172,12842,1,0,0:0:0:0:
240,176,12902,1,0,0:0:0:0:
240,180,12962,1,0,0:0:0:0:
244,188,13022,1,0,0:0:0:0:
248,196,13082,1,0,0:0:0:0:
248,204,13142,1,0,0:0:0:0:
256,212,13202,1,0,0:0:0:0:
260,220,13262,1,0,0:0:0:0:
268,228,13322,1,0,0:0:0:0:
276,240,13382,1,0,0:0:0:0:
284,252,13442,1,0,0:0:0:0:
292,260,13502,1,0,0:0:0:0:
304,264,13562,1,0,0:0:0:0:
312,268,13622,1,0,0:0:0:0:
320,268,13682,1,0,0:0:0:0:
328,268,13742,1,0,0:0:0:0:
340,268,13802,1,0,0:0:0:0:
348,264,13862,1,0,0:0:0:0:
352,260,13922,1,0,0:0:0:0:
356,252,13982,1,0,0:0:0:0:
360,240,14042,1,0,0:0:0:0:
356,228,14102,1,0,0:0:0:0:
348,216,14162,1,0,0:0:0:0:
336,212,14222,1,0,0:0:0:0:
320,216,14282,1,0,0:0:0:0:
308,224,14342,1,0,0:0:0:0:
304,240,14402,1,0,0:0:0:0:
292,248,14462,1,0,0:0:0:0:
292,252,14522,1,0,0:0:0:0:
284,252,14582,1,0,0:0:0:0:
276,248,14642,1,0,0:0:0:0:
268,244,14702,1,0,0:0:0:0:
260,232,14762,1,0,0:0:0:0:
256,224,14822,1,0,0:0:0:0:
256,216,14882,1,0,0:0:0:0:
256,208,14942,1,0,0:0:0:0:
260,200,15032,1,0,0:0:0:0:
268,192,15062,1,0,0:0:0:0:
272,192,15122,1,0,0:0:0:0:
280,192,15182,1,0,0:0:0:0:
288,192,15242,1,0,0:0:0:0:
296,188,15302,1,0,0:0:0:0:
304,184,15362,1,0,0:0:0:0:
308,176,15452,1,0,0:0:0:0:
304,168,15512,1,0,0:0:0:0:
296,160,15572,1,0,0:0:0:0:
288,156,15632,1,0,0:0:0:0:
276,156,15692,1,0,0:0:0:0:
264,160,15752,1,0,0:0:0:0:
248,168,15812,1,0,0:0:0:0:
240,176,15872,1,0,0:0:0:0:
232,184,15932,1,0,0:0:0:0:
216,192,15992,1,0,0:0:0:0:
204,192,16052,1,0,0:0:0:0:
184,192,16112,1,0,0:0:0:0:
172,192,16172,1,0,0:0:0:0:
168,184,16232,1,0,0:0:0:0:
160,176,16292,1,0,0:0:0:0:
152,168,16352,1,0,0:0:0:0:
152,160,16412,1,0,0:0:0:0:
160,152,16472,1,0,0:0:0:0:
160,144,16532,1,0,0:0:0:0:
168,144,16592,1,0,0:0:0:0:
176,140,16652,1,0,0:0:0:0:
184,140,16712,1,0,0:0:0:0:
188,144,16772,1,0,0:0:0:0:
196,152,16832,1,0,0:0:0:0:
204,156,16892,1,0,0:0:0:0:
208,160,16952,1,0,0:0:0:0:
216,168,17012,1,0,0:0:0:0:
224,172,17072,1,0,0:0:0:0:
232,172,17132,1,0,0:0:0:0:
240,168,17192,1,0,0:0:0:0:
244,164,17252,1,0,0:0:0:0:
244,164,17312,1,0,0:0:0:0:
236,156,17372,1,0,0:0:0:0:
228,148,17432,1,0,0:0:0:0:
220,144,17492,1,0,0:0:0:0:
208,144,17582,1,0,0:0:0:0:
192,148,17642,1,0,0:0:0:0:
180,148,17702,1,0,0:0:0:0:
168,152,17762,1,0,0:0:0:0:
184,164,21452,5,0,0:0:0:0:
396,76,21842,1,0,0:0:0:0:
432,308,22502,1,0,0:0:0:0:
408,304,22652,1,0,0:0:0:0:
136,176,22742,1,0,0:0:0:0:
124,184,22862,1,0,0:0:0:0:
392,96,23222,1,0,0:0:0:0:
392,108,23282,1,0,0:0:0:0:
392,120,23342,1,0,0:0:0:0:
392,132,23402,1,0,0:0:0:0:
388,144,23462,1,0,0:0:0:0:
380,156,23522,1,0,0:0:0:0:
360,160,23582,1,0,0:0:0:0:
340,152,23642,1,0,0:0:0:0:
332,140,23702,1,0,0:0:0:0:
324,128,23762,1,0,0:0:0:0:
312,116,23822,1,0,0:0:0:0:
296,112,23882,1,0,0:0:0:0:
276,120,23942,1,0,0:0:0:0:
272,140,24002,1,0,0:0:0:0:
276,156,24062,1,0,0:0:0:0:
280,172,24122,1,0,0:0:0:0:
288,184,24182,1,0,0:0:0:0:
292,196,24242,1,0,0:0:0:0:
304,204,24302,1,0,0:0:0:0:
312,208,24362,1,0,0:0:0:0:
324,208,24422,1,0,0:0:0:0:
336,204,24482,1,0,0:0:0:0:
344,196,24542,1,0,0:0:0:0:
344,184,24602,1,0,0:0:0:0:
344,168,24662,1,0,0:0:0:0:
340,156,24722,1,0,0:0:0:0:
328,152,24782,1,0,0:0:0:0:
304,160,24842,1,0,0:0:0:0:
288,176,24902,1,0,0:0:0:0:
284,184,24962,1,0,0:0:0:0:
280,196,25022,1,0,0:0:0:0:
272,208,25082,1,0,0:0:0:0:
256,216,25142,1,0,0:0:0:0:
240,224,25202,1,0,0:0:0:0:
224,232,25262,1,0,0:0:0:0:
208,232,25322,1,0,0:0:0:0:
188,232,25382,1,0,0:0:0:0:
176,224,25442,1,0,0:0:0:0:
168,208,25502,1,0,0:0:0:0:
168,200,25562,1,0,0:0:0:0:
168,188,25622,1,0,0:0:0:0:
176,180,25682,1,0,0:0:0:0:
184,172,25742,1,0,0:0:0:0:
192,168,25802,1,0,0:0:0:0:
200,164,25862,1,0,0:0:0:0:
216,160,25922,1,0,0:0:0:0:
224,164,25982,1,0,0:0:0:0:
240,168,26042,1,0,0:0:0:0:
260,180,26102,1,0,0:0:0:0:
272,188,26162,1,0,0:0:0:0:
284,192,26192,5,0,0:0:0:0:
292,192,26252,1,0,0:0:0:0:
304,188,26312,1,0,0:0:0:0:
312,180,26372,1,0,0:0:0:0:
316,168,26432,1,0,0:0:0:0:
312,156,26492,1,0,0:0:0:0:
304,136,26552,1,0,0:0:0:0:
316,120,26612,1,0,0:0:0:0:
336,116,26672,1,0,0:0:0:0:
352,116,26732,1,0,0:0:0:0:
368,128,26792,1,0,0:0:0:0:
376,152,26852,1,0,0:0:0:0:
360,172,26912,1,0,0:0:0:0:
348,184,26972,1,0,0:0:0:0:
332,192,27032,1,0,0:0:0:0:
312,192,27092,1,0,0:0:0:0:
264,256,27122,1,0,0:0:0:0:
296,188,27152,1,0,0:0:0:0:
284,180,27212,1,0,0:0:0:0:
272,168,27272,1,0,0:0:0:0:
248,164,27332,1,0,0:0:0:0:
232,172,27392,1,0,0:0:0:0:
432,60,27572,5,0,0:0:0:0:
436,268,27752,1,0,0:0:0:0:
412,184,28232,1,0,0:0:0:0:
376,188,28442,1,0,0:0:0:0:
