osu file format v14

[General]
AudioFilename: 04. The Fool.mp3
AudioLeadIn: 0
PreviewTime: 72
Countdown: 0
SampleSet: Normal
StackLeniency: 0.7
Mode: 1
LetterboxInBreaks: 0
WidescreenStoryboard: 1

[Editor]
Bookmarks: 164570,165483
DistanceSpacing: 1.1
BeatDivisor: 4
GridSize: 32
TimelineZoom: 4.749999

[Metadata]
Title:The Fool
TitleUnicode:The Fool
Artist:Fleshgod Apocalypse
ArtistUnicode:Fleshgod Apocalypse
Creator:LZD
Version:Stamina Thief
Source:
Tags:
BeatmapID:965433
BeatmapSetID:442451

[Difficulty]
HPDrainRate:5
CircleSize:2
OverallDifficulty:6.5
ApproachRate:5
SliderMultiplier:1.39999991989136
SliderTickRate:1

[Events]
//Background and Video events
0,0,"the fool b2g.jpg",0,0
//Break Periods
//Storyboard Layer 0 (Background)
//Storyboard Layer 1 (Fail)
//Storyboard Layer 2 (Pass)
//Storyboard Layer 3 (Foreground)
//Storyboard Sound Samples

[TimingPoints]
72,260.89225150013,4,1,0,20,1,0
8355,-100,4,1,0,65,0,0
24595,260.89225150013,4,1,0,65,1,0
29030,275.229357798165,4,1,0,65,1,0
29030,-94.3396226415094,4,1,0,65,0,0
30681,307.692307692308,4,1,0,65,1,0
30681,-84.7457627118644,4,1,0,65,0,0
31296,333.333333333333,4,1,0,65,1,0
31296,-80,4,1,0,65,0,0
31989,361.44578313253,4,1,0,65,1,0
31989,-74.0740740740741,4,1,0,65,0,0
32376,428.571428571429,4,1,0,65,1,0
32376,-64.5161290322581,4,1,0,65,0,0
32844,357.142857142857,4,1,0,65,1,0
32844,-75.7575757575758,4,1,0,65,0,0
33201,500,4,1,0,65,1,0
33201,-58.1395348837209,4,1,0,65,0,0
33701,600,4,1,0,65,1,0
33701,-55.5555555555556,4,1,0,65,0,0
34301,576.923076923077,4,1,0,65,1,0
34301,-63.2911392405063,4,1,0,65,0,0
34877,615.384615384615,4,1,0,65,1,0
34877,-61.7283950617284,4,1,0,65,0,0
36083,260.89225150013,4,1,0,65,1,0
52258,260.89225150013,4,1,0,65,1,0
68955,-100,4,1,0,80,0,1
85391,-100,4,1,0,65,0,0
163398,260.89225150013,4,1,0,65,1,0
179573,260.89225150013,4,1,0,65,1,0
196270,-100,4,1,0,80,0,1
230186,-100,4,1,0,65,0,0

[HitObjects]
64,160,72,5,8,0:0:0:0:
128,160,202,1,8,0:0:0:0:
96,96,332,1,0,0:0:0:0:
128,160,463,1,0,0:0:0:0:
224,128,593,1,8,0:0:0:0:
128,160,724,1,8,0:0:0:0:
96,96,854,1,0,0:0:0:0:
128,160,985,1,0,0:0:0:0:
96,160,1115,1,8,0:0:0:0:
64,96,1246,1,8,0:0:0:0:
96,160,1376,1,0,0:0:0:0:
96,160,1506,1,0,0:0:0:0:
96,160,1637,1,8,0:0:0:0:
96,160,1767,1,0,0:0:0:0:
96,160,1898,1,8,0:0:0:0:
96,160,2028,1,0,0:0:0:0:
96,160,2159,1,8,0:0:0:0:
96,160,2289,1,8,0:0:0:0:
160,160,2420,1,0,0:0:0:0:
160,192,2550,1,0,0:0:0:0:
96,160,2680,1,8,0:0:0:0:
96,160,2811,1,8,0:0:0:0:
160,160,2941,1,0,0:0:0:0:
160,160,3072,1,8,0:0:0:0:
96,160,3202,1,0,0:0:0:0:
96,160,3333,1,8,0:0:0:0:
128,160,3398,1,8,0:0:0:0:
96,160,3463,1,0,0:0:0:0:
160,192,3594,1,0,0:0:0:0:
224,224,3724,1,8,0:0:0:0:
160,160,3854,1,0,0:0:0:0:
224,224,3985,1,8,0:0:0:0:
192,160,4115,1,0,0:0:0:0:
224,224,4246,1,8,0:0:0:0:
192,160,4376,1,8,0:0:0:0:
160,96,4507,1,0,0:0:0:0:
224,128,4637,1,0,0:0:0:0:
224,192,4768,1,8,0:0:0:0:
224,192,4898,1,8,0:0:0:0:
224,192,5028,1,0,0:0:0:0:
224,192,5159,1,8,0:0:0:0:
224,192,5289,1,0,0:0:0:0:
224,192,5420,1,8,0:0:0:0:
224,192,5550,1,0,0:0:0:0:
224,192,5681,1,8,0:0:0:0:
224,192,5811,1,0,0:0:0:0:
224,192,5942,1,8,0:0:0:0:
224,192,6072,1,0,0:0:0:0:
224,192,6202,1,8,0:0:0:0:
224,192,6333,1,0,0:0:0:0:
224,192,6463,1,8,0:0:0:0:
224,192,6594,1,0,0:0:0:0:
224,192,6724,1,8,0:0:0:0:
224,192,6855,1,0,0:0:0:0:
224,192,6985,1,8,0:0:0:0:
224,192,7116,1,0,0:0:0:0:
224,192,7246,1,0,0:0:0:0:
224,192,7376,1,8,0:0:0:0:
224,192,7507,1,8,0:0:0:0:
224,192,7637,1,0,0:0:0:0:
224,192,7768,1,8,0:0:0:0:
224,192,7898,1,0,0:0:0:0:
224,192,8420,1,12,0:0:0:0:
160,160,8550,1,0,0:0:0:0:
128,160,8616,1,0,0:0:0:0:
96,160,8681,1,0,0:0:0:0:
32,96,8811,1,0,0:0:0:0:
64,160,8942,1,12,0:0:0:0:
96,96,9072,1,0,0:0:0:0:
64,128,9138,1,0,0:0:0:0:
64,128,9203,1,0,0:0:0:0:
64,128,9333,1,0,0:0:0:0:
352,96,9464,1,12,0:0:0:0:
160,160,9594,1,0,0:0:0:0:
160,128,9659,1,0,0:0:0:0:
160,160,9725,1,0,0:0:0:0:
160,160,9790,1,0,0:0:0:0:
160,160,9855,1,0,0:0:0:0:
160,160,9920,1,0,0:0:0:0:
160,160,9985,1,8,0:0:0:0:
160,160,10051,1,8,0:0:0:0:
160,160,10116,1,0,0:0:0:0:
160,160,10181,1,0,0:0:0:0:
160,160,10246,1,8,0:0:0:0:
160,160,10312,1,0,0:0:0:0:
160,160,10377,1,0,0:0:0:0:
160,160,10442,1,0,0:0:0:0:
160,160,10507,1,12,0:0:0:0:
96,128,10638,1,0,0:0:0:0:
64,160,10703,1,0,0:0:0:0:
96,128,10768,1,0,0:0:0:0:
96,128,10899,1,0,0:0:0:0:
128,160,11029,1,12,0:0:0:0:
96,128,11159,1,0,0:0:0:0:
128,160,11290,1,12,0:0:0:0:
64,160,11420,1,0,0:0:0:0:
128,160,11551,1,12,0:0:0:0:
160,128,11681,1,0,0:0:0:0:
160,128,11746,1,0,0:0:0:0:
160,128,11812,1,8,0:0:0:0:
160,128,11877,1,8,0:0:0:0:
160,128,11942,1,0,0:0:0:0:
160,128,12007,1,0,0:0:0:0:
160,128,12073,1,8,0:0:0:0:
160,128,12138,1,8,0:0:0:0:
160,128,12203,1,0,0:0:0:0:
160,128,12268,1,0,0:0:0:0:
160,128,12333,1,8,0:0:0:0:
160,128,12399,1,8,0:0:0:0:
160,128,12464,1,8,0:0:0:0:
160,128,12529,1,8,0:0:0:0:
160,128,12594,1,0,0:0:0:0:
96,128,12725,1,0,0:0:0:0:
128,128,12855,1,8,0:0:0:0:
128,128,12920,1,8,0:0:0:0:
128,128,12986,1,8,0:0:0:0:
128,128,13051,1,8,0:0:0:0:
128,128,13116,1,0,0:0:0:0:
96,128,13247,1,0,0:0:0:0:
32,160,13377,1,8,0:0:0:0:
32,160,13442,1,8,0:0:0:0:
32,160,13507,1,8,0:0:0:0:
32,160,13573,1,8,0:0:0:0:
128,128,13638,1,0,0:0:0:0:
96,128,13768,1,0,0:0:0:0:
64,128,13899,1,8,0:0:0:0:
64,128,13964,1,8,0:0:0:0:
64,128,14029,1,8,0:0:0:0:
64,128,14094,1,8,0:0:0:0:
64,128,14160,1,0,0:0:0:0:
96,128,14290,1,0,0:0:0:0:
96,128,14421,1,8,0:0:0:0:
96,128,14486,1,8,0:0:0:0:
256,224,14551,1,8,0:0:0:0:
288,256,14616,1,8,0:0:0:0:
352,288,14681,1,0,0:0:0:0:
96,160,14812,1,8,0:0:0:0:
96,160,14877,1,8,0:0:0:0:
96,160,14942,1,0,0:0:0:0:
96,160,15008,1,0,0:0:0:0:
96,160,15073,1,0,0:0:0:0:
96,160,15138,1,0,0:0:0:0:
96,160,15203,1,8,0:0:0:0:
96,160,15334,1,8,0:0:0:0:
96,160,15464,1,0,0:0:0:0:
96,160,15595,1,8,0:0:0:0:
96,160,15725,1,0,0:0:0:0:
128,128,15790,1,0,0:0:0:0:
128,128,15855,1,0,0:0:0:0:
128,128,15921,1,0,0:0:0:0:
128,128,15986,1,0,0:0:0:0:
128,128,16051,1,0,0:0:0:0:
128,128,16116,1,8,0:0:0:0:
128,128,16182,1,8,0:0:0:0:
128,128,16247,1,0,0:0:0:0:
448,352,16377,1,8,0:0:0:0:
416,320,16442,1,8,0:0:0:0:
384,288,16508,1,0,0:0:0:0:
320,256,16638,1,0,0:0:0:0:
288,256,16703,1,0,0:0:0:0:
256,224,16769,1,12,0:0:0:0:
192,224,16899,1,0,0:0:0:0:
160,224,16964,1,0,0:0:0:0:
128,224,17029,1,0,0:0:0:0:
64,192,17160,1,0,0:0:0:0:
160,192,17290,1,12,0:0:0:0:
96,192,17421,1,0,0:0:0:0:
64,192,17486,1,0,0:0:0:0:
32,192,17551,1,0,0:0:0:0:
32,192,17682,1,0,0:0:0:0:
96,160,17812,1,12,0:0:0:0:
160,160,17943,1,0,0:0:0:0:
160,128,18008,1,0,0:0:0:0:
160,160,18074,1,8,0:0:0:0:
160,160,18139,1,8,0:0:0:0:
160,160,18204,1,0,0:0:0:0:
160,160,18269,1,0,0:0:0:0:
160,160,18334,1,8,0:0:0:0:
160,160,18400,1,0,0:0:0:0:
160,160,18465,1,8,0:0:0:0:
160,160,18530,1,0,0:0:0:0:
160,160,18595,1,8,0:0:0:0:
160,160,18661,1,8,0:0:0:0:
160,160,18726,1,0,0:0:0:0:
160,160,18791,1,0,0:0:0:0:
160,160,18856,1,12,0:0:0:0:
96,160,18986,1,0,0:0:0:0:
96,160,19051,1,0,0:0:0:0:
96,160,19117,1,0,0:0:0:0:
96,160,19247,1,0,0:0:0:0:
128,192,19378,1,12,0:0:0:0:
192,128,19508,1,0,0:0:0:0:
128,192,19638,1,12,0:0:0:0:
64,160,19769,1,0,0:0:0:0:
160,128,19899,1,0,0:0:0:0:
160,128,19964,1,0,0:0:0:0:
160,128,20030,1,8,0:0:0:0:
160,128,20095,1,8,0:0:0:0:
160,128,20160,1,0,0:0:0:0:
160,128,20225,1,0,0:0:0:0:
160,128,20291,1,8,0:0:0:0:
160,128,20356,1,8,0:0:0:0:
160,128,20421,1,0,0:0:0:0:
160,128,20486,1,0,0:0:0:0:
160,128,20551,1,8,0:0:0:0:
160,128,20617,1,8,0:0:0:0:
160,128,20682,1,8,0:0:0:0:
160,128,20747,1,8,0:0:0:0:
160,128,20812,1,0,0:0:0:0:
128,160,20878,1,0,0:0:0:0:
128,160,20943,1,8,0:0:0:0:
192,160,21073,1,0,0:0:0:0:
288,192,21204,1,8,0:0:0:0:
224,160,21334,1,0,0:0:0:0:
96,160,21465,5,8,0:0:0:0:
96,160,21530,1,8,0:0:0:0:
96,160,21595,1,8,0:0:0:0:
96,160,21660,1,8,0:0:0:0:
96,160,21726,1,0,0:0:0:0:
96,160,21791,1,0,0:0:0:0:
96,160,21856,1,0,0:0:0:0:
96,160,21921,1,0,0:0:0:0:
96,160,21986,1,8,0:0:0:0:
96,160,22117,1,0,0:0:0:0:
96,160,22247,1,8,0:0:0:0:
96,160,22378,1,0,0:0:0:0:
384,288,22508,1,8,0:0:0:0:
352,288,22573,1,8,0:0:0:0:
320,256,22639,1,8,0:0:0:0:
288,256,22704,1,8,0:0:0:0:
256,224,22769,1,0,0:0:0:0:
224,224,22834,1,0,0:0:0:0:
224,224,22900,1,0,0:0:0:0:
224,224,22965,1,0,0:0:0:0:
160,96,23030,5,8,0:0:0:0:
160,96,23117,1,0,0:0:0:0:
160,96,23204,1,0,0:0:0:0:
160,96,23291,1,8,0:0:0:0:
160,96,23378,1,0,0:0:0:0:
160,96,23465,1,0,0:0:0:0:
256,192,23552,1,8,0:0:0:0:
224,128,23682,1,0,0:0:0:0:
160,64,23813,1,8,0:0:0:0:
224,128,23943,1,8,0:0:0:0:
160,64,24074,1,0,0:0:0:0:
192,180,24204,1,0,0:0:0:0:
192,180,24334,1,8,0:0:0:0:
192,180,24465,1,8,0:0:0:0:
151,158,24594,1,0,0:0:0:0:
179,122,24725,1,8,0:0:0:0:
163,141,24855,1,0,0:0:0:0:
164,137,24920,1,0,0:0:0:0:
163,137,24986,1,0,0:0:0:0:
149,144,25116,1,0,0:0:0:0:
149,144,25247,1,8,0:0:0:0:
173,133,25377,1,0,0:0:0:0:
173,133,25442,1,0,0:0:0:0:
173,133,25507,1,0,0:0:0:0:
203,123,25638,1,0,0:0:0:0:
179,122,25768,1,8,0:0:0:0:
173,133,25899,1,0,0:0:0:0:
173,133,25964,1,0,0:0:0:0:
173,133,26029,1,0,0:0:0:0:
167,119,26160,1,0,0:0:0:0:
170,120,26290,1,8,0:0:0:0:
173,133,26421,1,0,0:0:0:0:
173,133,26486,1,0,0:0:0:0:
173,133,26551,1,0,0:0:0:0:
157,134,26682,1,4,0:0:0:0:
173,133,26942,1,0,0:0:0:0:
173,133,27008,1,0,0:0:0:0:
173,133,27073,1,0,0:0:0:0:
158,136,27203,1,4,0:0:0:0:
173,133,27464,1,0,0:0:0:0:
173,133,27529,1,0,0:0:0:0:
173,133,27595,1,0,0:0:0:0:
172,116,27725,1,0,0:0:0:0:
167,110,27856,1,8,0:0:0:0:
166,109,27986,1,0,0:0:0:0:
166,108,28116,1,8,0:0:0:0:
156,106,28247,1,0,0:0:0:0:
155,102,28377,1,8,0:0:0:0:
158,110,28508,1,0,0:0:0:0:
158,110,28573,1,0,0:0:0:0:
158,110,28638,1,0,0:0:0:0:
153,109,28703,1,0,0:0:0:0:
153,109,28769,1,0,0:0:0:0:
153,109,28834,1,0,0:0:0:0:
153,109,28899,1,0,0:0:0:0:
152,109,28964,1,0,0:0:0:0:
153,109,29030,1,8,0:0:0:0:
96,128,29306,1,0,0:0:0:0:
96,128,29580,1,0,0:0:0:0:
177,63,29650,1,0,0:0:0:0:
199,81,29718,1,0,0:0:0:0:
96,128,29855,1,8,0:0:0:0:
130,92,29993,1,0,0:0:0:0:
256,128,30130,1,0,0:0:0:0:
66,120,30199,1,0,0:0:0:0:
66,120,30268,1,0,0:0:0:0:
128,192,30406,1,8,0:0:0:0:
106,129,30543,1,0,0:0:0:0:
256,128,30681,1,0,0:0:0:0:
124,128,30757,1,0,0:0:0:0:
124,127,30834,1,0,0:0:0:0:
128,192,30988,1,8,0:0:0:0:
90,138,31142,1,0,0:0:0:0:
256,96,31296,1,0,0:0:0:0:
58,117,31379,1,0,0:0:0:0:
58,117,31462,1,0,0:0:0:0:
96,128,31629,1,8,0:0:0:0:
32,160,31796,1,0,0:0:0:0:
32,288,31989,1,0,0:0:0:0:
32,256,32079,1,0,0:0:0:0:
32,224,32169,1,0,0:0:0:0:
64,128,32376,1,8,0:0:0:0:
128,128,32590,1,8,0:0:0:0:
64,128,32844,1,0,0:0:0:0:
128,128,33201,1,0,0:0:0:0:
128,128,33701,1,8,0:0:0:0:
32,128,34301,1,0,0:0:0:0:
96,160,34877,5,8,0:0:0:0:
160,128,35492,1,0,0:0:0:0:
96,192,36083,5,4,0:0:0:0:
224,192,36213,1,0,0:0:0:0:
224,192,36343,1,8,0:0:0:0:
224,192,36474,1,0,0:0:0:0:
224,192,36604,1,8,0:0:0:0:
192,224,36735,1,0,0:0:0:0:
192,224,36800,1,0,0:0:0:0:
192,224,36865,1,8,0:0:0:0:
128,192,36996,1,0,0:0:0:0:
128,160,37126,1,8,0:0:0:0:
128,192,37257,1,0,0:0:0:0:
128,160,37387,1,8,0:0:0:0:
128,192,37517,1,0,0:0:0:0:
128,160,37648,1,8,0:0:0:0:
128,192,37778,1,0,0:0:0:0:
128,160,37909,1,8,0:0:0:0:
160,192,38039,1,0,0:0:0:0:
160,192,38104,1,0,0:0:0:0:
160,192,38170,1,8,0:0:0:0:
96,128,38300,1,0,0:0:0:0:
96,128,38431,1,8,0:0:0:0:
96,128,38561,1,0,0:0:0:0:
96,128,38691,1,8,0:0:0:0:
96,128,38822,1,8,0:0:0:0:
0,128,38952,1,0,0:0:0:0:
0,128,39018,1,0,0:0:0:0:
0,128,39083,1,0,0:0:0:0:
64,192,39213,1,8,0:0:0:0:
64,192,39344,1,0,0:0:0:0:
64,192,39409,1,0,0:0:0:0:
64,192,39474,1,8,0:0:0:0:
224,288,39605,1,8,0:0:0:0:
224,288,39735,1,0,0:0:0:0:
64,192,39865,1,0,0:0:0:0:
64,192,39931,1,0,0:0:0:0:
64,192,39996,1,8,0:0:0:0:
192,224,40126,1,8,0:0:0:0:
192,224,40257,1,4,0:0:0:0:
192,224,40518,1,4,0:0:0:0:
160,192,40648,1,0,0:0:0:0:
160,192,40779,1,8,0:0:0:0:
160,192,40909,1,0,0:0:0:0:
160,192,41039,5,8,0:0:0:0:
160,192,41170,1,0,0:0:0:0:
192,128,41235,1,0,0:0:0:0:
160,192,41300,5,8,0:0:0:0:
160,192,41431,1,0,0:0:0:0:
160,192,41561,1,8,0:0:0:0:
160,192,41692,1,0,0:0:0:0:
160,192,41822,1,8,0:0:0:0:
160,192,41953,1,0,0:0:0:0:
96,160,42083,5,8,0:0:0:0:
96,128,42148,1,8,0:0:0:0:
96,128,42213,1,0,0:0:0:0:
96,128,42279,1,0,0:0:0:0:
96,128,42344,1,8,0:0:0:0:
64,96,42474,5,0,0:0:0:0:
128,128,42540,1,0,0:0:0:0:
64,96,42605,1,0,0:0:0:0:
64,96,42670,1,0,0:0:0:0:
64,96,42735,1,0,0:0:0:0:
64,96,42866,1,0,0:0:0:0:
160,128,42931,1,0,0:0:0:0:
64,96,42996,1,0,0:0:0:0:
64,96,43061,1,0,0:0:0:0:
64,96,43127,1,0,0:0:0:0:
64,96,43257,1,0,0:0:0:0:
96,128,43322,1,0,0:0:0:0:
64,96,43387,1,0,0:0:0:0:
64,96,43453,1,0,0:0:0:0:
64,96,43518,1,0,0:0:0:0:
64,96,43648,1,0,0:0:0:0:
96,128,43714,1,0,0:0:0:0:
64,96,43779,1,0,0:0:0:0:
64,96,43844,1,0,0:0:0:0:
64,96,43909,1,0,0:0:0:0:
160,128,44040,5,8,0:0:0:0:
160,128,44105,1,8,0:0:0:0:
160,128,44170,1,0,0:0:0:0:
160,128,44235,1,0,0:0:0:0:
160,128,44301,1,8,0:0:0:0:
160,128,44366,1,8,0:0:0:0:
160,128,44431,1,0,0:0:0:0:
96,128,44561,1,8,0:0:0:0:
128,192,44692,1,0,0:0:0:0:
128,192,44757,1,0,0:0:0:0:
128,192,44822,1,8,0:0:0:0:
96,128,44953,1,0,0:0:0:0:
96,128,45083,1,8,0:0:0:0:
160,128,45214,1,0,0:0:0:0:
160,128,45279,1,0,0:0:0:0:
160,128,45344,1,8,0:0:0:0:
128,224,45475,1,0,0:0:0:0:
192,224,45605,1,8,0:0:0:0:
160,160,45736,1,0,0:0:0:0:
160,160,45801,1,0,0:0:0:0:
160,160,45866,1,8,0:0:0:0:
96,128,45996,1,8,0:0:0:0:
96,128,46127,1,0,0:0:0:0:
160,160,46257,1,8,0:0:0:0:
160,160,46323,1,8,0:0:0:0:
160,160,46388,1,0,0:0:0:0:
160,160,46518,1,0,0:0:0:0:
128,128,46649,1,8,0:0:0:0:
128,128,46714,1,8,0:0:0:0:
128,128,46779,1,0,0:0:0:0:
128,128,46910,1,8,0:0:0:0:
128,128,46975,1,8,0:0:0:0:
128,128,47040,1,0,0:0:0:0:
128,128,47105,1,0,0:0:0:0:
128,128,47170,1,8,0:0:0:0:
128,128,47301,1,0,0:0:0:0:
64,128,47431,1,8,0:0:0:0:
64,128,47562,1,0,0:0:0:0:
64,128,47692,1,8,0:0:0:0:
128,96,47823,1,0,0:0:0:0:
128,96,47888,1,0,0:0:0:0:
128,96,47953,1,8,0:0:0:0:
160,160,48084,1,0,0:0:0:0:
160,160,48214,1,8,0:0:0:0:
160,160,48344,1,0,0:0:0:0:
160,160,48410,1,0,0:0:0:0:
160,160,48475,1,0,0:0:0:0:
160,160,48605,1,8,0:0:0:0:
160,160,48736,1,0,0:0:0:0:
128,96,48866,5,0,0:0:0:0:
128,96,48931,1,0,0:0:0:0:
128,96,48997,1,8,0:0:0:0:
96,128,49127,1,0,0:0:0:0:
128,128,49258,1,8,0:0:0:0:
128,128,49388,1,0,0:0:0:0:
128,128,49453,1,0,0:0:0:0:
128,128,49518,1,0,0:0:0:0:
128,128,49649,1,0,0:0:0:0:
128,128,49779,1,8,0:0:0:0:
128,96,49910,1,0,0:0:0:0:
128,96,49975,1,0,0:0:0:0:
128,96,50040,1,8,0:0:0:0:
64,128,50171,1,8,0:0:0:0:
64,128,50301,1,0,0:0:0:0:
128,128,50432,5,8,0:0:0:0:
128,128,50497,5,8,0:0:0:0:
128,128,50562,1,0,0:0:0:0:
64,160,50692,1,0,0:0:0:0:
64,160,50823,1,8,0:0:0:0:
64,160,50888,1,8,0:0:0:0:
64,160,50953,1,0,0:0:0:0:
64,160,51084,1,0,0:0:0:0:
128,160,51214,5,8,0:0:0:0:
128,160,51279,1,0,0:0:0:0:
128,160,51345,1,0,0:0:0:0:
128,160,51410,1,0,0:0:0:0:
128,160,51475,1,8,0:0:0:0:
128,160,51540,1,0,0:0:0:0:
128,160,51606,1,0,0:0:0:0:
128,160,51671,1,0,0:0:0:0:
128,160,51736,1,8,0:0:0:0:
160,96,51866,1,0,0:0:0:0:
96,96,51997,1,0,0:0:0:0:
96,96,52127,1,0,0:0:0:0:
224,192,52258,5,8,0:0:0:0:
384,288,52323,1,8,0:0:0:0:
384,288,52388,1,8,0:0:0:0:
384,288,52454,1,0,0:0:0:0:
384,288,52519,1,0,0:0:0:0:
384,288,52584,1,0,0:0:0:0:
416,320,52649,1,8,0:0:0:0:
384,288,52910,1,8,0:0:0:0:
384,288,52975,1,8,0:0:0:0:
384,288,53041,1,8,0:0:0:0:
384,288,53106,1,0,0:0:0:0:
384,288,53171,1,0,0:0:0:0:
384,288,53236,1,0,0:0:0:0:
384,288,53301,1,8,0:0:0:0:
224,256,53561,1,0,0:0:0:0:
64,224,53822,1,0,0:0:0:0:
32,192,54083,1,0,0:0:0:0:
96,192,54344,1,8,0:0:0:0:
96,192,54409,1,8,0:0:0:0:
96,192,54475,1,8,0:0:0:0:
96,192,54540,1,0,0:0:0:0:
96,192,54605,1,0,0:0:0:0:
96,192,54670,1,0,0:0:0:0:
96,192,54735,1,8,0:0:0:0:
160,192,54996,1,8,0:0:0:0:
192,192,55062,1,8,0:0:0:0:
224,192,55127,1,8,0:0:0:0:
256,192,55192,1,0,0:0:0:0:
256,192,55257,1,0,0:0:0:0:
256,192,55322,1,0,0:0:0:0:
256,192,55388,1,8,0:0:0:0:
96,192,55649,1,0,0:0:0:0:
0,192,55909,1,0,0:0:0:0:
96,96,56170,1,0,0:0:0:0:
160,128,56431,1,8,0:0:0:0:
160,128,56496,1,8,0:0:0:0:
160,128,56562,1,8,0:0:0:0:
160,128,56627,1,0,0:0:0:0:
160,128,56692,1,0,0:0:0:0:
160,128,56757,1,0,0:0:0:0:
160,128,56823,1,8,0:0:0:0:
160,128,57083,1,8,0:0:0:0:
160,128,57149,1,8,0:0:0:0:
160,128,57214,1,8,0:0:0:0:
160,128,57279,1,0,0:0:0:0:
160,128,57344,1,0,0:0:0:0:
160,128,57410,1,0,0:0:0:0:
160,128,57475,1,8,0:0:0:0:
160,128,58518,1,8,0:0:0:0:
160,128,58584,1,8,0:0:0:0:
160,128,58649,1,8,0:0:0:0:
160,128,58714,1,0,0:0:0:0:
160,128,58779,1,0,0:0:0:0:
160,128,58844,1,0,0:0:0:0:
160,128,58910,1,8,0:0:0:0:
160,128,59171,1,8,0:0:0:0:
160,128,59236,1,8,0:0:0:0:
160,128,59301,1,8,0:0:0:0:
160,128,59366,1,0,0:0:0:0:
160,128,59431,1,0,0:0:0:0:
160,128,59497,1,0,0:0:0:0:
160,128,59562,1,8,0:0:0:0:
115,201,59627,1,0,0:0:0:0:
115,201,59692,1,0,0:0:0:0:
115,201,59758,1,0,0:0:0:0:
115,201,59823,1,0,0:0:0:0:
115,201,59888,1,0,0:0:0:0:
115,201,59953,1,0,0:0:0:0:
115,201,60018,1,0,0:0:0:0:
115,201,60084,1,8,0:0:0:0:
115,201,60149,1,0,0:0:0:0:
115,201,60214,1,0,0:0:0:0:
115,201,60279,1,0,0:0:0:0:
115,201,60345,1,8,0:0:0:0:
115,201,60410,1,0,0:0:0:0:
115,201,60475,1,0,0:0:0:0:
115,201,60540,1,0,0:0:0:0:
160,128,60606,1,8,0:0:0:0:
160,128,60671,1,8,0:0:0:0:
160,128,60736,1,8,0:0:0:0:
160,128,60801,1,0,0:0:0:0:
160,128,60866,1,0,0:0:0:0:
160,128,60932,1,0,0:0:0:0:
160,128,60997,1,8,0:0:0:0:
160,128,61258,1,8,0:0:0:0:
160,128,61323,1,8,0:0:0:0:
160,128,61388,1,8,0:0:0:0:
160,128,61453,1,0,0:0:0:0:
160,128,61519,1,0,0:0:0:0:
160,128,61584,1,0,0:0:0:0:
160,128,61649,1,8,0:0:0:0:
96,224,61714,1,0,0:0:0:0:
103,218,61780,1,8,0:0:0:0:
103,216,61845,1,8,0:0:0:0:
138,152,61910,1,0,0:0:0:0:
73,158,61975,1,0,0:0:0:0:
73,158,62040,1,8,0:0:0:0:
73,158,62106,1,0,0:0:0:0:
73,158,62171,1,8,0:0:0:0:
61,135,62236,1,8,0:0:0:0:
102,131,62301,1,0,0:0:0:0:
102,131,62367,1,0,0:0:0:0:
102,131,62432,1,8,0:0:0:0:
112,156,62562,1,0,0:0:0:0:
81,181,62693,1,8,0:0:0:0:
81,181,62758,1,8,0:0:0:0:
81,181,62823,1,8,0:0:0:0:
81,181,62888,1,0,0:0:0:0:
81,181,62954,1,0,0:0:0:0:
81,181,63019,1,0,0:0:0:0:
81,181,63084,1,8,0:0:0:0:
81,181,63345,1,8,0:0:0:0:
81,181,63410,1,8,0:0:0:0:
81,181,63475,1,8,0:0:0:0:
81,181,63541,1,0,0:0:0:0:
81,181,63606,1,0,0:0:0:0:
81,181,63671,1,0,0:0:0:0:
81,181,63736,1,8,0:0:0:0:
183,199,64258,1,8,0:0:0:0:
181,192,64323,1,0,0:0:0:0:
181,192,64388,1,0,0:0:0:0:
181,192,64454,1,0,0:0:0:0:
181,192,64519,1,8,0:0:0:0:
181,192,64584,1,0,0:0:0:0:
181,192,64649,1,0,0:0:0:0:
181,192,64715,1,0,0:0:0:0:
81,181,64780,1,8,0:0:0:0:
81,181,64845,1,8,0:0:0:0:
81,181,64910,1,8,0:0:0:0:
81,181,64975,1,0,0:0:0:0:
81,181,65041,1,0,0:0:0:0:
81,181,65106,1,0,0:0:0:0:
81,181,65171,1,8,0:0:0:0:
81,181,65432,1,8,0:0:0:0:
81,181,65497,1,8,0:0:0:0:
81,181,65562,1,8,0:0:0:0:
81,181,65628,1,0,0:0:0:0:
81,181,65693,1,0,0:0:0:0:
81,181,65758,1,0,0:0:0:0:
81,181,65823,1,8,0:0:0:0:
75,175,65910,1,0,0:0:0:0:
75,175,65997,1,8,0:0:0:0:
66,173,66084,1,0,0:0:0:0:
70,175,66171,1,0,0:0:0:0:
190,205,66258,1,0,0:0:0:0:
189,205,66345,1,8,0:0:0:0:
189,205,66432,1,0,0:0:0:0:
189,205,66519,1,8,0:0:0:0:
189,205,66606,1,0,0:0:0:0:
189,205,66693,1,0,0:0:0:0:
189,205,66780,1,0,0:0:0:0:
189,205,66867,1,8,0:0:0:0:
112,175,66997,1,0,0:0:0:0:
112,175,67063,1,0,0:0:0:0:
112,175,67128,1,0,0:0:0:0:
272,271,67193,1,0,0:0:0:0:
272,271,67258,1,8,0:0:0:0:
272,271,67389,1,0,0:0:0:0:
272,271,67454,1,0,0:0:0:0:
272,271,67519,1,0,0:0:0:0:
272,271,67650,1,8,0:0:0:0:
280,234,67715,1,0,0:0:0:0:
280,234,67780,1,0,0:0:0:0:
280,234,67910,5,12,0:0:0:0:
96,160,68432,1,0,0:0:0:0:
96,320,68954,5,8,0:0:0:0:
96,288,69019,1,0,0:0:0:0:
128,256,69085,1,0,0:0:0:0:
128,224,69150,1,0,0:0:0:0:
128,224,69215,1,0,0:0:0:0:
128,224,69280,1,0,0:0:0:0:
128,224,69345,1,8,0:0:0:0:
128,224,69411,1,0,0:0:0:0:
128,224,69476,1,0,0:0:0:0:
128,224,69541,1,0,0:0:0:0:
128,192,69606,1,0,0:0:0:0:
128,192,69672,1,0,0:0:0:0:
128,192,69737,1,8,0:0:0:0:
128,192,69802,1,0,0:0:0:0:
128,192,69867,1,0,0:0:0:0:
128,192,69932,1,0,0:0:0:0:
128,192,69998,1,0,0:0:0:0:
128,192,70063,1,0,0:0:0:0:
128,192,70128,1,8,0:0:0:0:
128,192,70193,1,0,0:0:0:0:
128,192,70259,1,0,0:0:0:0:
128,192,70324,1,0,0:0:0:0:
128,192,70389,1,0,0:0:0:0:
128,192,70454,1,0,0:0:0:0:
128,192,70519,1,8,0:0:0:0:
128,192,70585,1,0,0:0:0:0:
128,192,70650,1,0,0:0:0:0:
128,192,70715,1,0,0:0:0:0:
128,192,70780,1,8,0:0:0:0:
128,192,70846,1,0,0:0:0:0:
128,192,70911,1,0,0:0:0:0:
128,192,70976,1,0,0:0:0:0:
128,192,71041,1,8,0:0:0:0:
128,192,71106,1,0,0:0:0:0:
128,192,71172,1,0,0:0:0:0:
128,192,71237,1,0,0:0:0:0:
128,192,71302,1,0,0:0:0:0:
128,192,71367,1,0,0:0:0:0:
128,192,71433,1,8,0:0:0:0:
128,192,71498,1,0,0:0:0:0:
128,192,71563,1,0,0:0:0:0:
128,192,71628,1,0,0:0:0:0:
128,192,71693,1,0,0:0:0:0:
128,192,71759,1,0,0:0:0:0:
128,192,71824,1,8,0:0:0:0:
128,192,71889,1,0,0:0:0:0:
128,192,71954,1,0,0:0:0:0:
128,192,72020,1,0,0:0:0:0:
128,192,72085,1,8,0:0:0:0:
128,192,72150,1,0,0:0:0:0:
128,192,72215,1,0,0:0:0:0:
128,192,72280,1,0,0:0:0:0:
128,192,72346,1,0,0:0:0:0:
128,192,72411,1,0,0:0:0:0:
128,192,72476,1,8,0:0:0:0:
128,192,72541,1,0,0:0:0:0:
128,192,72607,1,0,0:0:0:0:
128,192,72672,1,0,0:0:0:0:
128,192,72737,1,0,0:0:0:0:
128,192,72802,1,0,0:0:0:0:
128,192,72867,1,8,0:0:0:0:
128,192,72933,1,0,0:0:0:0:
128,192,72998,1,0,0:0:0:0:
128,192,73063,1,0,0:0:0:0:
128,192,73128,1,8,0:0:0:0:
128,192,73194,1,0,0:0:0:0:
128,192,73259,1,0,0:0:0:0:
128,192,73324,1,0,0:0:0:0:
128,192,73389,1,0,0:0:0:0:
128,192,73454,1,0,0:0:0:0:
128,192,73520,1,8,0:0:0:0:
128,192,73585,1,0,0:0:0:0:
128,192,73650,1,0,0:0:0:0:
128,192,73715,1,0,0:0:0:0:
128,192,73781,1,0,0:0:0:0:
128,192,73846,1,0,0:0:0:0:
128,192,73911,1,8,0:0:0:0:
128,192,73976,1,0,0:0:0:0:
128,192,74041,1,0,0:0:0:0:
128,192,74107,1,0,0:0:0:0:
128,192,74172,1,0,0:0:0:0:
128,192,74237,1,0,0:0:0:0:
128,192,74302,1,8,0:0:0:0:
128,192,74368,1,0,0:0:0:0:
128,192,74433,1,0,0:0:0:0:
128,192,74498,1,0,0:0:0:0:
128,192,74563,1,0,0:0:0:0:
128,192,74628,1,0,0:0:0:0:
128,192,74694,1,8,0:0:0:0:
128,192,74759,1,0,0:0:0:0:
128,192,74824,1,0,0:0:0:0:
128,192,74889,1,0,0:0:0:0:
128,192,74955,1,8,0:0:0:0:
128,192,75020,1,0,0:0:0:0:
128,192,75085,1,0,0:0:0:0:
128,192,75150,1,0,0:0:0:0:
128,192,75215,1,8,0:0:0:0:
128,192,75281,1,0,0:0:0:0:
128,192,75346,1,0,0:0:0:0:
128,192,75411,1,0,0:0:0:0:
128,192,75476,1,0,0:0:0:0:
128,192,75542,1,0,0:0:0:0:
128,192,75607,1,8,0:0:0:0:
128,192,75672,1,0,0:0:0:0:
128,192,75737,1,0,0:0:0:0:
128,192,75802,1,0,0:0:0:0:
128,192,75868,1,0,0:0:0:0:
128,192,75933,1,0,0:0:0:0:
128,192,75998,1,8,0:0:0:0:
64,160,76063,1,0,0:0:0:0:
64,160,76129,1,0,0:0:0:0:
64,160,76194,1,0,0:0:0:0:
64,192,76259,1,8,0:0:0:0:
160,160,76324,1,0,0:0:0:0:
160,160,76389,1,0,0:0:0:0:
64,192,76455,1,8,0:0:0:0:
160,160,76520,1,0,0:0:0:0:
160,160,76585,1,0,0:0:0:0:
192,192,76650,1,8,0:0:0:0:
160,160,76715,1,0,0:0:0:0:
128,192,76781,1,8,0:0:0:0:
160,160,76847,1,0,0:0:0:0:
160,160,76912,1,0,0:0:0:0:
96,224,76977,1,8,0:0:0:0:
160,160,77042,1,0,0:0:0:0:
160,160,77107,1,0,0:0:0:0:
96,160,77172,1,8,0:0:0:0:
160,160,77237,1,0,0:0:0:0:
64,160,77303,1,8,0:0:0:0:
96,160,77368,1,0,0:0:0:0:
128,160,77433,1,0,0:0:0:0:
128,160,77498,1,0,0:0:0:0:
128,160,77563,1,8,0:0:0:0:
128,160,77629,1,0,0:0:0:0:
128,160,77694,1,0,0:0:0:0:
128,160,77759,1,0,0:0:0:0:
128,160,77824,1,8,0:0:0:0:
128,160,77890,1,0,0:0:0:0:
128,160,77955,1,0,0:0:0:0:
128,160,78020,1,0,0:0:0:0:
128,160,78085,1,0,0:0:0:0:
128,160,78151,1,0,0:0:0:0:
128,160,78216,1,0,0:0:0:0:
128,160,78281,1,0,0:0:0:0:
128,160,78346,1,8,0:0:0:0:
128,160,78411,1,0,0:0:0:0:
128,160,78477,1,0,0:0:0:0:
128,160,78542,1,0,0:0:0:0:
128,160,78607,1,8,0:0:0:0:
128,160,78672,1,0,0:0:0:0:
128,160,78738,1,0,0:0:0:0:
128,160,78803,1,0,0:0:0:0:
128,160,78868,1,8,0:0:0:0:
128,160,78933,1,0,0:0:0:0:
128,160,78998,1,0,0:0:0:0:
128,160,79064,1,0,0:0:0:0:
128,160,79129,1,0,0:0:0:0:
128,160,79194,1,0,0:0:0:0:
128,160,79259,1,0,0:0:0:0:
128,160,79325,1,0,0:0:0:0:
128,160,79390,1,8,0:0:0:0:
128,160,79455,1,0,0:0:0:0:
128,160,79520,1,0,0:0:0:0:
128,160,79585,1,0,0:0:0:0:
128,160,79651,1,8,0:0:0:0:
128,160,79716,1,0,0:0:0:0:
128,160,79781,1,0,0:0:0:0:
128,160,79846,1,0,0:0:0:0:
128,160,79912,1,8,0:0:0:0:
128,160,79977,1,0,0:0:0:0:
128,160,80042,1,0,0:0:0:0:
128,160,80107,1,0,0:0:0:0:
128,160,80173,1,8,0:0:0:0:
128,160,80238,1,8,0:0:0:0:
128,160,80303,1,0,0:0:0:0:
128,160,80368,1,0,0:0:0:0:
128,160,80433,1,8,0:0:0:0:
128,160,80499,1,8,0:0:0:0:
128,160,80564,1,8,0:0:0:0:
128,160,80629,1,8,0:0:0:0:
128,160,80694,1,8,0:0:0:0:
128,160,80759,1,8,0:0:0:0:
128,160,80825,1,0,0:0:0:0:
128,160,80890,1,0,0:0:0:0:
128,160,80955,1,8,0:0:0:0:
128,160,81020,1,8,0:0:0:0:
128,160,81086,1,0,0:0:0:0:
128,160,81151,1,0,0:0:0:0:
128,160,81216,1,8,0:0:0:0:
128,160,81281,1,8,0:0:0:0:
128,160,81346,1,0,0:0:0:0:
128,160,81412,1,0,0:0:0:0:
128,192,81477,5,12,0:0:0:0:
224,224,81607,1,0,0:0:0:0:
224,224,81738,1,0,0:0:0:0:
224,224,81868,1,12,0:0:0:0:
224,224,81999,1,0,0:0:0:0:
224,224,82129,1,0,0:0:0:0:
224,224,82260,1,12,0:0:0:0:
224,224,82391,1,0,0:0:0:0:
224,224,82521,1,0,0:0:0:0:
224,224,82651,1,0,0:0:0:0:
224,224,82717,1,0,0:0:0:0:
224,224,82782,1,0,0:0:0:0:
224,224,82847,1,0,0:0:0:0:
224,224,82912,1,0,0:0:0:0:
224,224,82977,1,0,0:0:0:0:
224,224,83042,1,12,0:0:0:0:
256,192,83173,1,0,0:0:0:0:
256,192,83303,1,0,0:0:0:0:
160,96,83433,1,12,0:0:0:0:
320,288,83564,1,0,0:0:0:0:
320,288,83694,1,0,0:0:0:0:
320,288,83825,1,0,0:0:0:0:
320,288,83890,1,0,0:0:0:0:
320,288,83955,1,0,0:0:0:0:
320,288,84020,1,0,0:0:0:0:
96,160,84086,1,0,0:0:0:0:
96,96,84151,1,0,0:0:0:0:
96,128,84216,1,12,0:0:0:0:
96,128,84347,1,8,0:0:0:0:
96,96,84477,1,0,0:0:0:0:
122,156,84607,1,8,0:0:0:0:
176,155,84673,1,8,0:0:0:0:
176,155,84738,1,8,0:0:0:0:
176,155,84803,1,8,0:0:0:0:
176,155,84868,1,8,0:0:0:0:
150,158,84934,1,8,0:0:0:0:
150,158,84999,1,0,0:0:0:0:
150,158,85064,1,0,0:0:0:0:
150,158,85129,1,0,0:0:0:0:
150,158,85194,1,0,0:0:0:0:
150,158,85260,1,0,0:0:0:0:
150,158,85325,1,0,0:0:0:0:
151,189,85390,5,12,0:0:0:0:
137,145,85651,1,4,0:0:0:0:
137,145,85912,1,4,0:0:0:0:
137,145,86173,1,4,0:0:0:0:
137,145,86434,1,4,0:0:0:0:
137,145,86564,1,0,0:0:0:0:
137,145,86695,1,4,0:0:0:0:
96,128,87738,1,4,0:0:0:0:
96,128,87999,1,4,0:0:0:0:
96,128,88260,1,4,0:0:0:0:
96,128,88521,1,8,0:0:0:0:
96,128,88586,1,8,0:0:0:0:
96,128,88651,1,8,0:0:0:0:
96,128,88717,1,8,0:0:0:0:
96,128,88782,1,4,0:0:0:0:
128,128,89825,1,4,0:0:0:0:
128,128,90086,1,4,0:0:0:0:
128,128,90347,1,4,0:0:0:0:
128,128,90608,1,4,0:0:0:0:
128,128,90739,1,0,0:0:0:0:
128,128,90804,1,0,0:0:0:0:
128,128,90869,1,0,0:0:0:0:
96,160,90934,1,0,0:0:0:0:
192,160,90999,1,8,0:0:0:0:
224,160,91065,1,8,0:0:0:0:
224,160,91130,1,8,0:0:0:0:
224,160,91195,1,8,0:0:0:0:
224,160,91260,1,8,0:0:0:0:
192,192,91326,1,8,0:0:0:0:
128,128,91391,1,0,0:0:0:0:
128,128,91456,1,0,0:0:0:0:
128,128,91521,1,8,0:0:0:0:
96,160,91586,1,8,0:0:0:0:
192,160,91652,1,8,0:0:0:0:
224,160,91717,1,8,0:0:0:0:
224,160,91782,1,8,0:0:0:0:
224,160,91847,1,8,0:0:0:0:
224,160,91913,1,4,0:0:0:0:
64,160,92173,1,4,0:0:0:0:
64,160,92434,1,4,0:0:0:0:
64,160,92695,1,4,0:0:0:0:
64,160,92826,1,0,0:0:0:0:
64,160,92956,1,4,0:0:0:0:
128,96,94000,1,4,0:0:0:0:
128,96,94260,1,0,0:0:0:0:
128,96,94521,1,8,0:0:0:0:
128,96,94782,1,0,0:0:0:0:
128,256,94913,1,0,0:0:0:0:
128,96,95043,1,8,0:0:0:0:
128,96,95174,1,0,0:0:0:0:
128,96,95239,1,0,0:0:0:0:
128,96,95304,1,8,0:0:0:0:
128,128,95434,1,0,0:0:0:0:
128,128,95565,1,8,0:0:0:0:
128,128,95695,1,0,0:0:0:0:
128,128,95761,1,0,0:0:0:0:
128,96,95826,1,8,0:0:0:0:
128,96,95891,1,8,0:0:0:0:
128,96,95956,1,8,0:0:0:0:
128,96,96021,1,8,0:0:0:0:
128,96,96087,1,0,0:0:0:0:
128,128,96348,1,0,0:0:0:0:
128,128,96609,1,8,0:0:0:0:
128,128,96869,1,0,0:0:0:0:
128,128,97000,1,0,0:0:0:0:
128,128,97130,1,8,0:0:0:0:
96,96,97261,1,0,0:0:0:0:
96,96,97391,1,0,0:0:0:0:
96,96,97522,1,0,0:0:0:0:
96,96,97652,1,8,0:0:0:0:
160,128,97783,1,8,0:0:0:0:
160,128,97913,1,0,0:0:0:0:
160,128,98043,1,8,0:0:0:0:
160,128,98174,1,0,0:0:0:0:
192,160,98435,1,0,0:0:0:0:
192,160,98696,1,8,0:0:0:0:
160,128,98957,1,0,0:0:0:0:
160,128,99087,1,0,0:0:0:0:
160,128,99217,1,8,0:0:0:0:
160,128,99348,1,0,0:0:0:0:
160,128,99413,1,0,0:0:0:0:
160,128,99478,1,8,0:0:0:0:
160,128,99609,1,0,0:0:0:0:
160,128,99739,1,8,0:0:0:0:
160,128,99870,1,0,0:0:0:0:
160,128,99935,1,0,0:0:0:0:
160,128,100000,1,8,0:0:0:0:
160,128,100065,1,8,0:0:0:0:
160,128,100131,1,8,0:0:0:0:
160,128,100196,1,8,0:0:0:0:
160,128,100261,1,0,0:0:0:0:
160,128,100522,1,0,0:0:0:0:
128,128,100783,1,0,0:0:0:0:
128,128,100848,1,0,0:0:0:0:
128,128,100913,1,0,0:0:0:0:
128,128,100978,1,0,0:0:0:0:
128,128,101044,1,8,0:0:0:0:
128,128,101109,1,8,0:0:0:0:
128,128,101174,1,8,0:0:0:0:
128,128,101239,1,8,0:0:0:0:
128,128,101305,1,0,0:0:0:0:
128,128,101565,1,8,0:0:0:0:
224,224,101696,1,0,0:0:0:0:
224,224,101826,1,8,0:0:0:0:
224,224,101957,1,0,0:0:0:0:
224,224,102087,1,8,0:0:0:0:
224,224,102218,1,0,0:0:0:0:
224,224,102348,1,8,0:0:0:0:
224,224,102479,1,8,0:0:0:0:
128,192,102609,1,0,0:0:0:0:
128,192,102674,1,0,0:0:0:0:
128,192,102739,1,0,0:0:0:0:
128,192,102870,1,8,0:0:0:0:
128,192,103000,1,0,0:0:0:0:
128,192,103065,1,0,0:0:0:0:
128,192,103130,1,0,0:0:0:0:
128,192,103261,1,8,0:0:0:0:
192,192,103392,1,0,0:0:0:0:
192,192,103457,1,0,0:0:0:0:
192,192,103522,1,0,0:0:0:0:
192,192,103587,1,0,0:0:0:0:
192,192,103653,1,8,0:0:0:0:
192,160,103783,1,0,0:0:0:0:
192,160,103913,1,8,0:0:0:0:
192,160,104044,1,0,0:0:0:0:
192,160,104174,1,8,0:0:0:0:
192,160,104305,1,0,0:0:0:0:
192,160,104370,1,0,0:0:0:0:
192,160,104435,1,8,0:0:0:0:
96,160,104566,1,0,0:0:0:0:
192,224,104696,1,0,0:0:0:0:
192,224,104827,1,0,0:0:0:0:
192,224,104957,1,8,0:0:0:0:
224,256,105088,1,8,0:0:0:0:
224,256,105218,1,0,0:0:0:0:
192,288,105348,1,8,0:0:0:0:
224,256,105479,1,4,0:0:0:0:
128,160,105740,1,8,0:0:0:0:
96,128,105870,1,0,0:0:0:0:
96,128,106001,1,8,0:0:0:0:
64,128,106131,1,0,0:0:0:0:
64,128,106262,1,8,0:0:0:0:
64,128,106392,1,0,0:0:0:0:
64,128,106522,1,8,0:0:0:0:
64,128,106653,1,0,0:0:0:0:
64,128,106783,1,8,0:0:0:0:
64,128,106914,1,0,0:0:0:0:
64,128,107044,1,8,0:0:0:0:
64,128,107109,1,8,0:0:0:0:
64,128,107175,1,0,0:0:0:0:
64,128,107240,1,0,0:0:0:0:
64,128,107305,1,8,0:0:0:0:
128,128,107436,1,0,0:0:0:0:
128,128,107566,1,8,0:0:0:0:
128,128,107696,1,0,0:0:0:0:
128,128,107827,1,8,0:0:0:0:
128,128,107957,1,0,0:0:0:0:
128,128,108088,1,8,0:0:0:0:
128,128,108218,1,0,0:0:0:0:
128,128,108349,1,8,0:0:0:0:
128,128,108479,1,0,0:0:0:0:
128,128,108610,1,4,0:0:0:0:
128,128,108740,1,4,0:0:0:0:
128,96,109001,1,0,0:0:0:0:
128,96,109262,1,0,0:0:0:0:
128,96,109523,1,8,0:0:0:0:
128,96,109653,1,8,0:0:0:0:
64,128,109718,1,0,0:0:0:0:
64,128,109784,1,0,0:0:0:0:
64,128,109849,1,0,0:0:0:0:
64,128,109914,1,8,0:0:0:0:
64,128,109979,1,0,0:0:0:0:
160,128,110044,1,0,0:0:0:0:
160,128,110110,1,0,0:0:0:0:
160,128,110175,1,8,0:0:0:0:
160,128,110240,1,0,0:0:0:0:
160,128,110305,1,0,0:0:0:0:
160,128,110371,1,0,0:0:0:0:
160,128,110436,1,8,0:0:0:0:
160,128,110501,1,0,0:0:0:0:
160,128,110566,1,0,0:0:0:0:
160,128,110631,1,0,0:0:0:0:
160,128,110697,1,8,0:0:0:0:
160,128,110762,1,8,0:0:0:0:
160,128,110827,1,8,0:0:0:0:
160,128,110892,1,8,0:0:0:0:
160,128,110958,1,0,0:0:0:0:
160,128,111023,1,0,0:0:0:0:
160,128,111088,1,0,0:0:0:0:
160,128,111153,1,0,0:0:0:0:
32,128,111218,5,8,0:0:0:0:
32,128,111349,1,0,0:0:0:0:
32,128,111414,1,0,0:0:0:0:
32,128,111479,1,0,0:0:0:0:
32,128,111610,1,8,0:0:0:0:
32,128,111740,1,0,0:0:0:0:
32,128,111805,1,0,0:0:0:0:
32,128,111871,1,0,0:0:0:0:
32,128,111936,1,0,0:0:0:0:
32,128,112001,1,8,0:0:0:0:
128,160,112132,1,0,0:0:0:0:
128,160,112262,1,8,0:0:0:0:
128,160,112392,1,0,0:0:0:0:
128,160,112523,1,8,0:0:0:0:
128,160,112653,1,0,0:0:0:0:
128,160,112719,1,0,0:0:0:0:
128,160,112784,1,8,0:0:0:0:
160,160,112914,1,0,0:0:0:0:
96,160,113045,5,0,0:0:0:0:
96,160,113175,5,0,0:0:0:0:
96,160,113306,5,8,0:0:0:0:
96,160,113436,5,8,0:0:0:0:
96,160,113566,5,0,0:0:0:0:
96,160,113697,5,8,0:0:0:0:
96,160,113827,5,4,0:0:0:0:
64,160,114088,1,8,0:0:0:0:
128,192,114219,1,0,0:0:0:0:
128,192,114349,1,8,0:0:0:0:
128,192,114480,1,0,0:0:0:0:
128,192,114545,1,0,0:0:0:0:
128,192,114610,1,8,0:0:0:0:
128,192,114741,1,0,0:0:0:0:
128,192,114871,1,8,0:0:0:0:
128,192,115001,1,0,0:0:0:0:
128,192,115067,1,0,0:0:0:0:
128,192,115132,1,8,0:0:0:0:
128,192,115262,1,0,0:0:0:0:
128,192,115328,1,0,0:0:0:0:
128,224,115393,1,0,0:0:0:0:
96,160,115458,1,0,0:0:0:0:
128,224,115523,1,8,0:0:0:0:
128,224,115654,1,0,0:0:0:0:
128,224,115719,1,0,0:0:0:0:
128,224,115784,1,8,0:0:0:0:
128,224,115915,1,0,0:0:0:0:
128,224,116045,1,8,0:0:0:0:
128,224,116175,1,0,0:0:0:0:
128,224,116241,1,0,0:0:0:0:
128,224,116306,1,8,0:0:0:0:
128,224,116436,1,0,0:0:0:0:
128,224,116502,1,0,0:0:0:0:
128,224,116567,1,8,0:0:0:0:
128,224,116632,1,0,0:0:0:0:
128,224,116697,1,0,0:0:0:0:
128,224,116828,1,8,0:0:0:0:
96,192,116958,6,0,L|416:32,1,350
96,192,117741,6,0,L|416:32,1,350
96,192,118523,6,0,L|416:32,1,350
96,192,119306,1,0,0:0:0:0:
96,192,119371,1,0,0:0:0:0:
96,192,119437,1,0,0:0:0:0:
96,192,119567,1,0,0:0:0:0:
96,160,119697,1,8,0:0:0:0:
96,160,119828,1,0,0:0:0:0:
96,160,119893,1,0,0:0:0:0:
96,160,119958,1,8,0:0:0:0:
96,160,120024,1,8,0:0:0:0:
96,160,120089,1,0,0:0:0:0:
96,160,120154,1,0,0:0:0:0:
96,160,120219,1,8,0:0:0:0:
96,160,120284,1,0,0:0:0:0:
96,160,120350,1,8,0:0:0:0:
128,128,120480,1,0,0:0:0:0:
224,192,120611,1,8,0:0:0:0:
160,128,120871,1,8,0:0:0:0:
160,96,121002,1,0,0:0:0:0:
224,224,121132,1,8,0:0:0:0:
224,224,121198,1,8,0:0:0:0:
224,224,121263,1,8,0:0:0:0:
384,256,121393,1,0,0:0:0:0:
224,224,121524,1,8,0:0:0:0:
224,224,121589,1,8,0:0:0:0:
224,224,121654,1,8,0:0:0:0:
384,256,121785,1,0,0:0:0:0:
224,224,121915,1,8,0:0:0:0:
224,224,121980,1,8,0:0:0:0:
224,224,122045,1,8,0:0:0:0:
384,256,122176,1,0,0:0:0:0:
224,192,122306,1,8,0:0:0:0:
224,192,122372,1,8,0:0:0:0:
224,192,122437,1,8,0:0:0:0:
384,256,122567,1,0,0:0:0:0:
224,224,122698,1,8,0:0:0:0:
224,224,122763,1,8,0:0:0:0:
224,224,122828,1,0,0:0:0:0:
224,224,122893,1,0,0:0:0:0:
224,224,122959,1,8,0:0:0:0:
224,224,123024,1,0,0:0:0:0:
224,224,123089,1,8,0:0:0:0:
224,224,123154,1,8,0:0:0:0:
224,224,123220,1,0,0:0:0:0:
352,288,123350,1,0,0:0:0:0:
352,288,123415,1,0,0:0:0:0:
352,288,123480,1,8,0:0:0:0:
352,288,123546,1,0,0:0:0:0:
352,288,123611,1,8,0:0:0:0:
352,288,123676,1,8,0:0:0:0:
352,288,123741,1,0,0:0:0:0:
352,288,123807,1,0,0:0:0:0:
352,288,123872,1,8,0:0:0:0:
352,288,123937,1,8,0:0:0:0:
352,288,124002,1,0,0:0:0:0:
320,256,124067,1,0,0:0:0:0:
320,256,124133,1,8,0:0:0:0:
320,256,124198,1,8,0:0:0:0:
320,256,124263,1,0,0:0:0:0:
320,256,124394,1,8,0:0:0:0:
320,256,124459,1,8,0:0:0:0:
320,256,124524,1,0,0:0:0:0:
320,256,124589,1,0,0:0:0:0:
320,256,124654,1,8,0:0:0:0:
320,256,124720,1,0,0:0:0:0:
320,256,124785,1,8,0:0:0:0:
128,128,125046,1,0,0:0:0:0:
128,160,125307,5,8,0:0:0:0:
128,160,125394,1,8,0:0:0:0:
128,160,125481,1,0,0:0:0:0:
128,160,125568,1,8,0:0:0:0:
128,160,125655,1,0,0:0:0:0:
128,160,125741,1,0,0:0:0:0:
128,160,125828,1,8,0:0:0:0:
128,160,125915,1,0,0:0:0:0:
128,160,126002,1,0,0:0:0:0:
128,160,126089,1,8,0:0:0:0:
128,160,126176,1,8,0:0:0:0:
128,160,126263,1,0,0:0:0:0:
128,160,126350,1,8,0:0:0:0:
128,160,126437,1,0,0:0:0:0:
128,160,126524,1,0,0:0:0:0:
128,160,126611,1,8,0:0:0:0:
128,160,126698,1,0,0:0:0:0:
128,160,126785,1,0,0:0:0:0:
128,160,126872,1,8,0:0:0:0:
128,160,126959,1,8,0:0:0:0:
128,160,127046,1,0,0:0:0:0:
128,160,127133,1,8,0:0:0:0:
128,160,127220,1,0,0:0:0:0:
128,160,127307,1,0,0:0:0:0:
128,160,127394,1,8,0:0:0:0:
128,160,127481,1,0,0:0:0:0:
128,160,127568,1,0,0:0:0:0:
128,160,127655,1,8,0:0:0:0:
128,160,127742,1,0,0:0:0:0:
128,160,127829,1,0,0:0:0:0:
128,160,127916,1,8,0:0:0:0:
128,160,128046,1,0,0:0:0:0:
128,160,128176,1,0,0:0:0:0:
128,160,128307,1,0,0:0:0:0:
128,160,128437,1,8,0:0:0:0:
192,224,128698,1,0,0:0:0:0:
192,224,128829,1,0,0:0:0:0:
192,224,128959,1,0,0:0:0:0:
192,224,129090,1,8,0:0:0:0:
192,224,129220,1,0,0:0:0:0:
192,224,129350,1,8,0:0:0:0:
192,224,129481,1,0,0:0:0:0:
96,160,129546,1,0,0:0:0:0:
96,160,129611,1,0,0:0:0:0:
64,160,129742,1,0,0:0:0:0:
64,160,129807,1,0,0:0:0:0:
64,160,129872,1,0,0:0:0:0:
96,192,130003,1,0,0:0:0:0:
96,192,130133,1,8,0:0:0:0:
64,160,130264,1,0,0:0:0:0:
64,160,130329,1,0,0:0:0:0:
64,160,130394,1,0,0:0:0:0:
32,160,130524,1,0,0:0:0:0:
64,160,130655,1,8,0:0:0:0:
64,160,130720,1,0,0:0:0:0:
64,160,130785,1,8,0:0:0:0:
64,160,130851,1,0,0:0:0:0:
64,160,130916,1,0,0:0:0:0:
64,160,130981,1,0,0:0:0:0:
64,160,131046,1,8,0:0:0:0:
64,160,131177,1,0,0:0:0:0:
64,160,131307,1,8,0:0:0:0:
64,160,131438,1,0,0:0:0:0:
64,160,131568,1,8,0:0:0:0:
160,128,131633,1,8,0:0:0:0:
160,128,131699,1,8,0:0:0:0:
160,128,131764,1,8,0:0:0:0:
160,128,131829,1,8,0:0:0:0:
160,128,131894,1,8,0:0:0:0:
160,128,131959,1,8,0:0:0:0:
160,128,132025,1,8,0:0:0:0:
160,128,132090,1,8,0:0:0:0:
160,128,132155,1,8,0:0:0:0:
160,128,132220,1,8,0:0:0:0:
160,128,132286,1,8,0:0:0:0:
160,96,132351,1,0,0:0:0:0:
160,128,132416,1,0,0:0:0:0:
160,128,132481,1,0,0:0:0:0:
160,128,132546,1,0,0:0:0:0:
160,96,132612,1,8,0:0:0:0:
160,128,132677,1,8,0:0:0:0:
160,128,132742,1,8,0:0:0:0:
160,128,132807,1,8,0:0:0:0:
160,128,132873,1,8,0:0:0:0:
160,128,132938,1,8,0:0:0:0:
160,128,133003,1,8,0:0:0:0:
160,128,133068,1,8,0:0:0:0:
160,128,133133,1,8,0:0:0:0:
160,128,133199,1,8,0:0:0:0:
160,128,133264,1,8,0:0:0:0:
160,128,133329,1,8,0:0:0:0:
160,96,133394,1,0,0:0:0:0:
160,128,133460,1,0,0:0:0:0:
160,128,133525,1,0,0:0:0:0:
160,128,133590,1,0,0:0:0:0:
160,96,133655,1,8,0:0:0:0:
160,128,133720,1,8,0:0:0:0:
160,128,133786,1,8,0:0:0:0:
160,128,133851,1,8,0:0:0:0:
160,128,133916,1,8,0:0:0:0:
160,128,133981,1,8,0:0:0:0:
160,128,134047,1,8,0:0:0:0:
160,128,134112,1,8,0:0:0:0:
160,128,134177,1,8,0:0:0:0:
160,128,134242,1,8,0:0:0:0:
160,128,134307,1,0,0:0:0:0:
160,128,134373,1,0,0:0:0:0:
160,128,134438,1,0,0:0:0:0:
160,128,134503,1,0,0:0:0:0:
160,128,134568,1,0,0:0:0:0:
160,128,134634,1,0,0:0:0:0:
160,128,134699,1,8,0:0:0:0:
160,128,134764,1,8,0:0:0:0:
160,128,134829,1,8,0:0:0:0:
160,128,134894,1,8,0:0:0:0:
160,128,134960,1,8,0:0:0:0:
160,128,135025,1,8,0:0:0:0:
160,128,135090,1,8,0:0:0:0:
160,128,135155,1,8,0:0:0:0:
160,128,135221,1,8,0:0:0:0:
160,128,135286,1,8,0:0:0:0:
160,128,135351,1,0,0:0:0:0:
160,128,135416,1,0,0:0:0:0:
160,128,135481,1,0,0:0:0:0:
160,128,135547,1,0,0:0:0:0:
160,128,135612,1,0,0:0:0:0:
160,128,135677,1,0,0:0:0:0:
160,128,135742,1,8,0:0:0:0:
160,128,135808,1,8,0:0:0:0:
160,128,135873,1,8,0:0:0:0:
160,128,135938,1,8,0:0:0:0:
160,128,136003,1,8,0:0:0:0:
160,128,136068,1,8,0:0:0:0:
160,128,136134,1,8,0:0:0:0:
160,128,136199,1,8,0:0:0:0:
160,128,136264,1,8,0:0:0:0:
160,128,136329,1,8,0:0:0:0:
160,128,136395,1,8,0:0:0:0:
160,128,136460,1,8,0:0:0:0:
160,128,136525,1,0,0:0:0:0:
192,128,136590,1,0,0:0:0:0:
192,128,136655,1,0,0:0:0:0:
192,128,136721,1,0,0:0:0:0:
160,128,136786,1,8,0:0:0:0:
128,128,136851,1,8,0:0:0:0:
128,128,136916,1,8,0:0:0:0:
128,128,136982,1,8,0:0:0:0:
128,128,137047,1,8,0:0:0:0:
128,128,137112,1,8,0:0:0:0:
128,128,137177,1,8,0:0:0:0:
128,128,137242,1,8,0:0:0:0:
128,128,137308,1,8,0:0:0:0:
128,128,137373,1,8,0:0:0:0:
128,128,137438,1,8,0:0:0:0:
128,128,137503,1,8,0:0:0:0:
64,128,137569,1,0,0:0:0:0:
128,128,137634,1,0,0:0:0:0:
128,128,137699,1,0,0:0:0:0:
128,128,137764,1,0,0:0:0:0:
96,128,137829,1,8,0:0:0:0:
128,128,137895,1,8,0:0:0:0:
128,128,137960,1,8,0:0:0:0:
128,128,138025,1,8,0:0:0:0:
128,128,138090,1,8,0:0:0:0:
128,128,138156,1,8,0:0:0:0:
128,128,138221,1,8,0:0:0:0:
128,128,138286,1,8,0:0:0:0:
128,128,138351,1,8,0:0:0:0:
128,128,138416,1,8,0:0:0:0:
128,128,138482,1,0,0:0:0:0:
96,128,138547,1,0,0:0:0:0:
96,128,138612,1,0,0:0:0:0:
96,128,138677,1,0,0:0:0:0:
96,128,138743,1,0,0:0:0:0:
96,128,138808,1,0,0:0:0:0:
96,160,138873,5,8,0:0:0:0:
96,160,138938,1,8,0:0:0:0:
96,160,139003,1,8,0:0:0:0:
96,160,139069,1,8,0:0:0:0:
96,160,139134,1,0,0:0:0:0:
96,160,139199,1,0,0:0:0:0:
96,160,139264,1,0,0:0:0:0:
96,160,139330,1,0,0:0:0:0:
96,160,139395,1,8,0:0:0:0:
96,160,139460,1,8,0:0:0:0:
96,160,139525,1,0,0:0:0:0:
96,160,139591,1,0,0:0:0:0:
96,160,139656,1,8,0:0:0:0:
96,160,139721,1,8,0:0:0:0:
96,160,139786,1,0,0:0:0:0:
96,160,139851,1,0,0:0:0:0:
128,192,139917,5,12,0:0:0:0:
64,160,140438,1,0,0:0:0:0:
128,192,140960,1,0,0:0:0:0:
128,192,141091,1,8,0:0:0:0:
128,192,141221,1,0,0:0:0:0:
128,192,141352,1,8,0:0:0:0:
128,192,141482,1,0,0:0:0:0:
128,192,141547,1,0,0:0:0:0:
128,192,141612,1,0,0:0:0:0:
128,192,141743,1,8,0:0:0:0:
128,160,141808,1,8,0:0:0:0:
128,192,141873,1,8,0:0:0:0:
128,192,142004,1,4,0:0:0:0:
64,160,142526,1,0,0:0:0:0:
128,160,142786,1,8,0:0:0:0:
128,192,142917,1,8,0:0:0:0:
64,160,143047,1,0,0:0:0:0:
64,160,143178,1,8,0:0:0:0:
128,128,143243,1,0,0:0:0:0:
64,160,143308,1,0,0:0:0:0:
64,160,143439,1,8,0:0:0:0:
64,160,143569,1,0,0:0:0:0:
128,128,143634,1,0,0:0:0:0:
64,160,143700,1,0,0:0:0:0:
64,160,143830,1,8,0:0:0:0:
64,160,143895,1,8,0:0:0:0:
64,160,143960,1,0,0:0:0:0:
64,160,144026,1,0,0:0:0:0:
64,160,144091,1,8,0:0:0:0:
160,192,144221,1,0,0:0:0:0:
160,192,144287,1,0,0:0:0:0:
160,192,144352,1,8,0:0:0:0:
160,192,144482,1,0,0:0:0:0:
160,160,144613,1,8,0:0:0:0:
128,128,144743,1,0,0:0:0:0:
128,128,144808,1,0,0:0:0:0:
128,128,144874,1,8,0:0:0:0:
128,128,145004,1,0,0:0:0:0:
128,160,145135,5,0,0:0:0:0:
192,128,145222,1,0,0:0:0:0:
224,128,145309,1,0,0:0:0:0:
288,96,145395,1,8,0:0:0:0:
320,96,145482,1,8,0:0:0:0:
384,64,145569,1,0,0:0:0:0:
416,64,145656,1,8,0:0:0:0:
480,32,145743,1,0,0:0:0:0:
160,160,145830,1,0,0:0:0:0:
160,160,145917,1,8,0:0:0:0:
160,128,146004,1,8,0:0:0:0:
160,128,146091,1,0,0:0:0:0:
160,160,146178,1,8,0:0:0:0:
160,160,146243,1,8,0:0:0:0:
160,160,146309,1,8,0:0:0:0:
128,160,146374,1,0,0:0:0:0:
160,160,146439,1,0,0:0:0:0:
160,96,146504,1,0,0:0:0:0:
160,96,146569,1,8,0:0:0:0:
160,128,146635,1,8,0:0:0:0:
160,96,146700,1,8,0:0:0:0:
160,96,146765,1,0,0:0:0:0:
160,96,146830,1,0,0:0:0:0:
160,96,146896,1,0,0:0:0:0:
160,96,146961,1,8,0:0:0:0:
128,128,147026,1,8,0:0:0:0:
64,128,147091,1,0,0:0:0:0:
64,128,147157,1,0,0:0:0:0:
224,192,147222,1,12,0:0:0:0:
32,96,147613,1,0,0:0:0:0:
64,160,147744,1,12,0:0:0:0:
64,128,148135,1,0,0:0:0:0:
352,96,148266,1,12,0:0:0:0:
160,160,148396,1,0,0:0:0:0:
160,128,148461,1,0,0:0:0:0:
160,160,148527,1,0,0:0:0:0:
160,160,148592,1,0,0:0:0:0:
160,160,148657,1,0,0:0:0:0:
160,160,148722,1,0,0:0:0:0:
160,160,148787,1,8,0:0:0:0:
160,160,148853,1,8,0:0:0:0:
160,160,148918,1,0,0:0:0:0:
160,160,148983,1,0,0:0:0:0:
160,160,149048,1,8,0:0:0:0:
160,160,149114,1,0,0:0:0:0:
160,160,149179,1,0,0:0:0:0:
160,160,149244,1,0,0:0:0:0:
160,160,149309,1,12,0:0:0:0:
96,128,149440,1,0,0:0:0:0:
64,160,149505,1,0,0:0:0:0:
96,128,149570,1,0,0:0:0:0:
96,128,149701,1,0,0:0:0:0:
128,160,149831,1,12,0:0:0:0:
96,128,149961,1,0,0:0:0:0:
128,160,150092,1,12,0:0:0:0:
64,160,150222,1,0,0:0:0:0:
128,160,150353,1,12,0:0:0:0:
160,128,150483,1,0,0:0:0:0:
160,128,150548,1,0,0:0:0:0:
160,128,150614,1,8,0:0:0:0:
160,128,150679,1,8,0:0:0:0:
160,128,150744,1,0,0:0:0:0:
160,128,150809,1,0,0:0:0:0:
160,128,150875,1,8,0:0:0:0:
160,128,150940,1,8,0:0:0:0:
160,128,151005,1,0,0:0:0:0:
160,128,151070,1,0,0:0:0:0:
160,128,151135,1,8,0:0:0:0:
160,128,151201,1,8,0:0:0:0:
160,128,151266,1,8,0:0:0:0:
160,128,151331,1,8,0:0:0:0:
160,128,151396,1,0,0:0:0:0:
96,128,151527,1,0,0:0:0:0:
128,128,151657,1,8,0:0:0:0:
128,128,151722,1,8,0:0:0:0:
128,128,151788,1,8,0:0:0:0:
128,128,151853,1,8,0:0:0:0:
128,128,151918,1,0,0:0:0:0:
96,128,152049,1,0,0:0:0:0:
32,160,152179,1,8,0:0:0:0:
32,160,152244,1,8,0:0:0:0:
32,160,152309,1,8,0:0:0:0:
32,160,152375,1,8,0:0:0:0:
128,128,152440,1,0,0:0:0:0:
96,128,152570,1,0,0:0:0:0:
64,128,152701,1,8,0:0:0:0:
64,128,152766,1,8,0:0:0:0:
64,128,152831,1,8,0:0:0:0:
64,128,152896,1,8,0:0:0:0:
64,128,152962,1,0,0:0:0:0:
96,128,153092,1,0,0:0:0:0:
96,128,153223,1,8,0:0:0:0:
96,128,153288,1,8,0:0:0:0:
256,224,153353,1,8,0:0:0:0:
288,256,153418,1,8,0:0:0:0:
352,288,153483,1,0,0:0:0:0:
96,160,153614,1,8,0:0:0:0:
96,160,153679,1,8,0:0:0:0:
96,160,153744,1,0,0:0:0:0:
96,160,153810,1,0,0:0:0:0:
96,160,153875,1,0,0:0:0:0:
96,160,153940,1,0,0:0:0:0:
96,160,154005,1,8,0:0:0:0:
96,160,154136,1,8,0:0:0:0:
96,160,154266,1,0,0:0:0:0:
96,160,154397,1,8,0:0:0:0:
96,160,154527,1,0,0:0:0:0:
128,128,154592,1,0,0:0:0:0:
128,128,154657,1,0,0:0:0:0:
128,128,154723,1,0,0:0:0:0:
128,128,154788,1,0,0:0:0:0:
128,128,154853,1,0,0:0:0:0:
128,128,154918,1,8,0:0:0:0:
128,128,154984,1,8,0:0:0:0:
128,128,155049,1,0,0:0:0:0:
448,352,155179,1,8,0:0:0:0:
416,320,155244,1,8,0:0:0:0:
384,288,155310,1,0,0:0:0:0:
320,256,155440,1,0,0:0:0:0:
288,256,155505,1,0,0:0:0:0:
256,224,155571,1,12,0:0:0:0:
192,224,155701,1,0,0:0:0:0:
160,224,155766,1,0,0:0:0:0:
128,224,155831,1,0,0:0:0:0:
64,192,155962,1,0,0:0:0:0:
160,192,156092,1,12,0:0:0:0:
96,192,156223,1,0,0:0:0:0:
64,192,156288,1,0,0:0:0:0:
32,192,156353,1,0,0:0:0:0:
32,192,156484,1,0,0:0:0:0:
96,160,156614,1,12,0:0:0:0:
160,160,156745,1,0,0:0:0:0:
160,128,156810,1,0,0:0:0:0:
160,160,156876,1,8,0:0:0:0:
160,160,156941,1,8,0:0:0:0:
160,160,157006,1,0,0:0:0:0:
160,160,157071,1,0,0:0:0:0:
160,160,157136,1,8,0:0:0:0:
160,160,157202,1,0,0:0:0:0:
160,160,157267,1,8,0:0:0:0:
160,160,157332,1,0,0:0:0:0:
160,160,157397,1,8,0:0:0:0:
160,160,157463,1,8,0:0:0:0:
160,160,157528,1,0,0:0:0:0:
160,160,157593,1,0,0:0:0:0:
160,160,157658,1,12,0:0:0:0:
96,160,157788,1,0,0:0:0:0:
96,160,157853,1,0,0:0:0:0:
96,160,157919,1,0,0:0:0:0:
96,160,158049,1,0,0:0:0:0:
128,192,158180,1,12,0:0:0:0:
192,128,158310,1,0,0:0:0:0:
128,192,158440,1,12,0:0:0:0:
64,160,158571,1,0,0:0:0:0:
160,128,158701,1,0,0:0:0:0:
160,128,158766,1,0,0:0:0:0:
160,128,158832,1,8,0:0:0:0:
160,128,158897,1,8,0:0:0:0:
160,128,158962,1,0,0:0:0:0:
160,128,159027,1,0,0:0:0:0:
160,128,159093,1,8,0:0:0:0:
160,128,159158,1,8,0:0:0:0:
160,128,159223,1,0,0:0:0:0:
160,128,159288,1,0,0:0:0:0:
160,128,159353,1,8,0:0:0:0:
160,128,159419,1,8,0:0:0:0:
160,128,159484,1,8,0:0:0:0:
160,128,159549,1,8,0:0:0:0:
160,128,159614,1,0,0:0:0:0:
128,160,159680,1,0,0:0:0:0:
128,160,159745,1,8,0:0:0:0:
192,160,159875,1,0,0:0:0:0:
288,192,160006,1,8,0:0:0:0:
224,160,160136,1,0,0:0:0:0:
96,160,160267,5,8,0:0:0:0:
96,160,160332,1,8,0:0:0:0:
96,160,160397,1,8,0:0:0:0:
96,160,160462,1,8,0:0:0:0:
96,160,160528,1,0,0:0:0:0:
96,160,160593,1,0,0:0:0:0:
96,160,160658,1,0,0:0:0:0:
96,160,160723,1,0,0:0:0:0:
96,160,160788,1,8,0:0:0:0:
96,160,160919,1,0,0:0:0:0:
96,160,161049,1,8,0:0:0:0:
96,160,161180,1,0,0:0:0:0:
384,288,161310,1,8,0:0:0:0:
352,288,161375,1,8,0:0:0:0:
320,256,161441,1,8,0:0:0:0:
288,256,161506,1,8,0:0:0:0:
256,224,161571,1,0,0:0:0:0:
224,224,161636,1,0,0:0:0:0:
224,224,161702,1,0,0:0:0:0:
224,224,161767,1,0,0:0:0:0:
160,96,161832,5,8,0:0:0:0:
160,96,161919,1,0,0:0:0:0:
160,96,162006,1,0,0:0:0:0:
160,96,162093,1,8,0:0:0:0:
160,96,162180,1,0,0:0:0:0:
160,96,162267,1,0,0:0:0:0:
256,192,162354,1,8,0:0:0:0:
224,128,162484,1,0,0:0:0:0:
160,64,162615,1,8,0:0:0:0:
224,128,162745,1,8,0:0:0:0:
160,64,162876,1,0,0:0:0:0:
192,180,163006,1,0,0:0:0:0:
192,180,163136,1,8,0:0:0:0:
192,180,163267,1,8,0:0:0:0:
96,192,163398,5,4,0:0:0:0:
96,128,164571,1,0,0:0:0:0:
96,128,164636,1,0,0:0:0:0:
96,128,164701,1,0,0:0:0:0:
96,128,164767,1,0,0:0:0:0:
96,128,164832,1,8,0:0:0:0:
96,128,164897,1,8,0:0:0:0:
96,128,164962,1,8,0:0:0:0:
96,128,165027,1,8,0:0:0:0:
96,128,165093,1,0,0:0:0:0:
96,128,165158,1,0,0:0:0:0:
96,128,165223,1,8,0:0:0:0:
96,128,165288,1,8,0:0:0:0:
96,128,165354,1,8,0:0:0:0:
96,128,165419,1,8,0:0:0:0:
96,128,165484,1,0,0:0:0:0:
96,128,165614,1,8,0:0:0:0:
96,128,165745,1,0,0:0:0:0:
64,160,165810,1,0,0:0:0:0:
96,128,165875,1,8,0:0:0:0:
96,128,166005,1,0,0:0:0:0:
96,128,166136,1,8,0:0:0:0:
128,128,166202,1,8,0:0:0:0:
0,128,166266,1,0,0:0:0:0:
0,128,166397,1,8,0:0:0:0:
64,192,166528,1,0,0:0:0:0:
64,192,166658,1,8,0:0:0:0:
64,192,166723,1,8,0:0:0:0:
128,128,166789,1,0,0:0:0:0:
128,128,166854,1,0,0:0:0:0:
224,288,166919,1,8,0:0:0:0:
128,128,166984,1,0,0:0:0:0:
224,288,167049,1,8,0:0:0:0:
64,192,167179,1,0,0:0:0:0:
64,192,167245,1,0,0:0:0:0:
64,192,167310,1,8,0:0:0:0:
192,224,167440,1,8,0:0:0:0:
192,224,167571,1,4,0:0:0:0:
192,224,167832,1,4,0:0:0:0:
160,192,167962,1,0,0:0:0:0:
160,192,168093,1,8,0:0:0:0:
160,192,168223,1,0,0:0:0:0:
160,192,168353,5,8,0:0:0:0:
160,192,168484,1,0,0:0:0:0:
192,128,168549,1,0,0:0:0:0:
160,192,168614,5,8,0:0:0:0:
160,192,168745,1,0,0:0:0:0:
160,192,168875,1,8,0:0:0:0:
160,192,169006,1,0,0:0:0:0:
160,192,169136,1,8,0:0:0:0:
160,192,169267,1,0,0:0:0:0:
96,160,169397,5,8,0:0:0:0:
96,128,169462,1,8,0:0:0:0:
96,128,169527,1,0,0:0:0:0:
96,128,169593,1,0,0:0:0:0:
96,128,169658,1,8,0:0:0:0:
64,96,169788,5,0,0:0:0:0:
128,128,169854,1,0,0:0:0:0:
64,96,169919,1,0,0:0:0:0:
64,96,169984,1,0,0:0:0:0:
64,96,170049,1,0,0:0:0:0:
64,96,170180,1,0,0:0:0:0:
160,128,170245,1,0,0:0:0:0:
64,96,170310,1,0,0:0:0:0:
64,96,170375,1,0,0:0:0:0:
64,96,170441,1,0,0:0:0:0:
64,96,170571,1,0,0:0:0:0:
96,128,170636,1,0,0:0:0:0:
64,96,170701,1,0,0:0:0:0:
64,96,170767,1,0,0:0:0:0:
64,96,170832,1,0,0:0:0:0:
64,96,170962,1,0,0:0:0:0:
96,128,171028,1,0,0:0:0:0:
64,96,171093,1,0,0:0:0:0:
64,96,171158,1,0,0:0:0:0:
64,96,171223,1,0,0:0:0:0:
160,128,171354,5,8,0:0:0:0:
160,128,171419,1,8,0:0:0:0:
160,128,171484,1,0,0:0:0:0:
160,128,171549,1,0,0:0:0:0:
160,128,171615,1,8,0:0:0:0:
160,128,171680,1,8,0:0:0:0:
160,128,171745,1,0,0:0:0:0:
96,128,171875,1,8,0:0:0:0:
128,192,172006,1,0,0:0:0:0:
128,192,172071,1,0,0:0:0:0:
128,192,172136,1,8,0:0:0:0:
96,128,172267,1,0,0:0:0:0:
96,128,172397,1,8,0:0:0:0:
160,128,172528,1,0,0:0:0:0:
160,128,172593,1,0,0:0:0:0:
160,128,172658,1,8,0:0:0:0:
128,224,172789,1,0,0:0:0:0:
192,224,172919,1,8,0:0:0:0:
160,160,173050,1,0,0:0:0:0:
160,160,173115,1,0,0:0:0:0:
160,160,173180,1,8,0:0:0:0:
96,128,173310,1,8,0:0:0:0:
96,128,173441,1,0,0:0:0:0:
160,160,173571,1,8,0:0:0:0:
160,160,173637,1,8,0:0:0:0:
160,160,173702,1,0,0:0:0:0:
160,160,173832,1,0,0:0:0:0:
128,128,173963,1,8,0:0:0:0:
128,128,174028,1,8,0:0:0:0:
128,128,174093,1,0,0:0:0:0:
128,128,174224,1,8,0:0:0:0:
128,128,174289,1,8,0:0:0:0:
128,128,174354,1,0,0:0:0:0:
128,128,174419,1,0,0:0:0:0:
128,128,174484,1,8,0:0:0:0:
128,128,174615,1,0,0:0:0:0:
64,128,174745,1,8,0:0:0:0:
64,128,174876,1,0,0:0:0:0:
64,128,175006,1,8,0:0:0:0:
128,96,175137,1,0,0:0:0:0:
128,96,175202,1,0,0:0:0:0:
128,96,175267,1,8,0:0:0:0:
160,160,175398,1,0,0:0:0:0:
160,160,175528,1,8,0:0:0:0:
160,160,175658,1,0,0:0:0:0:
160,160,175724,1,0,0:0:0:0:
160,160,175789,1,0,0:0:0:0:
160,160,175919,1,8,0:0:0:0:
160,160,176050,1,0,0:0:0:0:
128,96,176180,5,0,0:0:0:0:
128,96,176245,1,0,0:0:0:0:
128,96,176311,1,8,0:0:0:0:
96,128,176441,1,0,0:0:0:0:
128,128,176572,1,8,0:0:0:0:
128,128,176702,1,0,0:0:0:0:
128,128,176767,1,0,0:0:0:0:
128,128,176832,1,0,0:0:0:0:
128,128,176963,1,0,0:0:0:0:
128,128,177093,1,8,0:0:0:0:
128,96,177224,1,0,0:0:0:0:
128,96,177289,1,0,0:0:0:0:
128,96,177354,1,8,0:0:0:0:
64,128,177485,1,8,0:0:0:0:
64,128,177615,1,0,0:0:0:0:
128,128,177746,5,8,0:0:0:0:
128,128,177811,5,8,0:0:0:0:
128,128,177876,1,0,0:0:0:0:
64,160,178006,1,0,0:0:0:0:
64,160,178137,1,8,0:0:0:0:
64,160,178202,1,8,0:0:0:0:
64,160,178267,1,0,0:0:0:0:
64,160,178398,5,0,0:0:0:0:
128,160,178529,1,8,0:0:0:0:
128,96,178594,1,0,0:0:0:0:
128,160,178659,1,0,0:0:0:0:
128,96,178724,1,0,0:0:0:0:
128,96,178790,1,8,0:0:0:0:
96,160,178855,1,0,0:0:0:0:
96,160,178920,1,0,0:0:0:0:
96,160,178985,1,0,0:0:0:0:
96,160,179050,1,8,0:0:0:0:
96,160,179181,1,0,0:0:0:0:
96,160,179311,1,0,0:0:0:0:
128,160,179442,1,0,0:0:0:0:
224,192,179573,5,8,0:0:0:0:
384,288,179639,1,8,0:0:0:0:
384,288,179704,1,8,0:0:0:0:
384,288,179769,1,0,0:0:0:0:
384,288,179834,1,0,0:0:0:0:
384,288,179899,1,0,0:0:0:0:
416,320,179965,1,8,0:0:0:0:
384,288,180226,1,8,0:0:0:0:
384,288,180291,1,8,0:0:0:0:
384,288,180356,1,8,0:0:0:0:
384,288,180421,1,0,0:0:0:0:
384,288,180486,1,0,0:0:0:0:
384,288,180552,1,0,0:0:0:0:
384,288,180617,1,8,0:0:0:0:
224,256,180878,1,0,0:0:0:0:
64,224,181139,1,0,0:0:0:0:
32,192,181400,1,0,0:0:0:0:
96,192,181661,1,8,0:0:0:0:
96,192,181726,1,8,0:0:0:0:
96,192,181791,1,8,0:0:0:0:
96,192,181856,1,0,0:0:0:0:
96,192,181921,1,0,0:0:0:0:
96,192,181987,1,0,0:0:0:0:
96,192,182052,1,8,0:0:0:0:
160,192,182313,1,8,0:0:0:0:
192,192,182378,1,8,0:0:0:0:
224,192,182443,1,8,0:0:0:0:
256,192,182508,1,0,0:0:0:0:
256,192,182574,1,0,0:0:0:0:
256,192,182639,1,0,0:0:0:0:
256,192,182704,1,8,0:0:0:0:
96,192,182965,1,0,0:0:0:0:
0,192,183226,1,0,0:0:0:0:
96,96,183487,1,0,0:0:0:0:
160,128,183748,1,8,0:0:0:0:
160,128,183813,1,8,0:0:0:0:
160,128,183878,1,8,0:0:0:0:
160,128,183943,1,0,0:0:0:0:
160,128,184009,1,0,0:0:0:0:
160,128,184074,1,0,0:0:0:0:
160,128,184139,1,8,0:0:0:0:
160,128,184400,1,8,0:0:0:0:
160,128,184465,1,8,0:0:0:0:
160,128,184530,1,8,0:0:0:0:
160,128,184596,1,0,0:0:0:0:
160,128,184661,1,0,0:0:0:0:
160,128,184726,1,0,0:0:0:0:
160,128,184791,1,8,0:0:0:0:
160,128,185835,1,8,0:0:0:0:
160,128,185900,1,8,0:0:0:0:
160,128,185965,1,8,0:0:0:0:
160,128,186030,1,0,0:0:0:0:
160,128,186096,1,0,0:0:0:0:
160,128,186161,1,0,0:0:0:0:
160,128,186226,1,8,0:0:0:0:
160,128,186487,1,8,0:0:0:0:
160,128,186552,1,8,0:0:0:0:
160,128,186617,1,8,0:0:0:0:
160,128,186683,1,0,0:0:0:0:
160,128,186748,1,0,0:0:0:0:
160,128,186813,1,0,0:0:0:0:
160,128,186878,1,8,0:0:0:0:
115,201,186944,1,0,0:0:0:0:
115,201,187009,1,0,0:0:0:0:
115,201,187074,1,0,0:0:0:0:
115,201,187139,1,0,0:0:0:0:
115,201,187204,1,0,0:0:0:0:
115,201,187270,1,0,0:0:0:0:
115,201,187335,1,0,0:0:0:0:
115,201,187400,1,8,0:0:0:0:
115,201,187465,1,0,0:0:0:0:
115,201,187531,1,0,0:0:0:0:
115,201,187596,1,0,0:0:0:0:
115,201,187661,1,8,0:0:0:0:
115,201,187726,1,0,0:0:0:0:
115,201,187791,1,0,0:0:0:0:
115,201,187857,1,0,0:0:0:0:
160,128,187922,1,8,0:0:0:0:
160,128,187987,1,8,0:0:0:0:
160,128,188052,1,8,0:0:0:0:
160,128,188118,1,0,0:0:0:0:
160,128,188183,1,0,0:0:0:0:
160,128,188248,1,0,0:0:0:0:
160,128,188313,1,8,0:0:0:0:
160,128,188574,1,8,0:0:0:0:
160,128,188639,1,8,0:0:0:0:
160,128,188705,1,8,0:0:0:0:
160,128,188770,1,0,0:0:0:0:
160,128,188835,1,0,0:0:0:0:
160,128,188900,1,0,0:0:0:0:
160,128,188965,1,8,0:0:0:0:
96,160,189031,1,0,0:0:0:0:
103,218,189096,1,8,0:0:0:0:
103,216,189161,1,8,0:0:0:0:
138,152,189226,1,0,0:0:0:0:
73,158,189292,1,0,0:0:0:0:
73,158,189357,1,8,0:0:0:0:
73,158,189422,1,0,0:0:0:0:
73,158,189487,1,8,0:0:0:0:
61,135,189552,1,8,0:0:0:0:
102,131,189618,1,0,0:0:0:0:
102,131,189683,1,0,0:0:0:0:
102,131,189748,1,8,0:0:0:0:
112,156,189879,1,0,0:0:0:0:
81,181,190009,1,8,0:0:0:0:
81,181,190074,1,8,0:0:0:0:
81,181,190140,1,8,0:0:0:0:
81,181,190205,1,0,0:0:0:0:
81,181,190270,1,0,0:0:0:0:
81,181,190335,1,0,0:0:0:0:
81,181,190400,1,8,0:0:0:0:
81,181,190661,1,8,0:0:0:0:
81,181,190727,1,8,0:0:0:0:
81,181,190792,1,8,0:0:0:0:
81,181,190857,1,0,0:0:0:0:
81,181,190922,1,0,0:0:0:0:
81,181,190987,1,0,0:0:0:0:
81,181,191053,1,8,0:0:0:0:
183,199,191574,1,8,0:0:0:0:
181,192,191640,1,0,0:0:0:0:
181,192,191705,1,0,0:0:0:0:
181,192,191770,1,0,0:0:0:0:
181,192,191835,1,8,0:0:0:0:
181,192,191901,1,0,0:0:0:0:
181,192,191966,1,0,0:0:0:0:
181,192,192031,1,0,0:0:0:0:
81,181,192096,1,8,0:0:0:0:
81,181,192161,1,8,0:0:0:0:
81,181,192227,1,8,0:0:0:0:
81,181,192292,1,0,0:0:0:0:
81,181,192357,1,0,0:0:0:0:
81,181,192422,1,0,0:0:0:0:
81,181,192488,1,8,0:0:0:0:
81,181,192748,1,8,0:0:0:0:
81,181,192814,1,8,0:0:0:0:
81,181,192879,1,8,0:0:0:0:
81,181,192944,1,0,0:0:0:0:
81,181,193009,1,0,0:0:0:0:
81,181,193075,1,0,0:0:0:0:
81,181,193140,1,8,0:0:0:0:
75,175,193227,1,0,0:0:0:0:
75,175,193314,1,8,0:0:0:0:
66,173,193401,1,0,0:0:0:0:
70,175,193487,1,0,0:0:0:0:
190,205,193574,1,0,0:0:0:0:
189,205,193662,1,8,0:0:0:0:
189,205,193748,1,0,0:0:0:0:
189,205,193835,1,8,0:0:0:0:
189,205,193922,1,0,0:0:0:0:
189,205,194009,1,0,0:0:0:0:
189,205,194096,1,0,0:0:0:0:
189,205,194183,1,8,0:0:0:0:
112,175,194314,1,0,0:0:0:0:
112,175,194379,1,0,0:0:0:0:
112,175,194444,1,0,0:0:0:0:
272,271,194509,1,0,0:0:0:0:
272,271,194575,1,8,0:0:0:0:
272,271,194705,1,0,0:0:0:0:
224,256,194769,1,0,0:0:0:0:
272,271,194836,1,0,0:0:0:0:
272,271,194966,1,8,0:0:0:0:
70,175,195030,1,0,0:0:0:0:
280,234,195096,1,0,0:0:0:0:
280,234,195227,5,12,0:0:0:0:
96,160,195749,1,0,0:0:0:0:
96,320,196270,5,8,0:0:0:0:
96,288,196335,1,0,0:0:0:0:
128,256,196401,1,0,0:0:0:0:
128,224,196466,1,0,0:0:0:0:
128,224,196531,1,0,0:0:0:0:
128,224,196596,1,0,0:0:0:0:
128,224,196661,1,8,0:0:0:0:
128,224,196727,1,0,0:0:0:0:
128,224,196792,1,0,0:0:0:0:
128,224,196857,1,0,0:0:0:0:
128,192,196922,1,0,0:0:0:0:
128,192,196988,1,0,0:0:0:0:
128,192,197053,1,8,0:0:0:0:
128,192,197118,1,0,0:0:0:0:
128,192,197183,1,0,0:0:0:0:
128,192,197248,1,0,0:0:0:0:
128,192,197314,1,0,0:0:0:0:
128,192,197379,1,0,0:0:0:0:
128,192,197444,1,8,0:0:0:0:
128,192,197509,1,0,0:0:0:0:
128,192,197575,1,0,0:0:0:0:
128,192,197640,1,0,0:0:0:0:
128,192,197705,1,0,0:0:0:0:
128,192,197770,1,0,0:0:0:0:
128,192,197835,1,8,0:0:0:0:
128,192,197901,1,0,0:0:0:0:
128,192,197966,1,0,0:0:0:0:
128,192,198031,1,0,0:0:0:0:
128,192,198096,1,8,0:0:0:0:
128,192,198162,1,0,0:0:0:0:
128,192,198227,1,0,0:0:0:0:
128,192,198292,1,0,0:0:0:0:
128,192,198357,1,8,0:0:0:0:
128,192,198422,1,0,0:0:0:0:
128,192,198488,1,0,0:0:0:0:
128,192,198553,1,0,0:0:0:0:
128,192,198618,1,0,0:0:0:0:
128,192,198683,1,0,0:0:0:0:
128,192,198749,1,8,0:0:0:0:
128,192,198814,1,0,0:0:0:0:
128,192,198879,1,0,0:0:0:0:
128,192,198944,1,0,0:0:0:0:
128,192,199009,1,0,0:0:0:0:
128,192,199075,1,0,0:0:0:0:
128,192,199140,1,8,0:0:0:0:
128,192,199205,1,0,0:0:0:0:
128,192,199270,1,0,0:0:0:0:
128,192,199336,1,0,0:0:0:0:
128,192,199401,1,8,0:0:0:0:
128,192,199466,1,0,0:0:0:0:
128,192,199531,1,0,0:0:0:0:
128,192,199596,1,0,0:0:0:0:
128,192,199662,1,0,0:0:0:0:
128,192,199727,1,0,0:0:0:0:
128,192,199792,1,8,0:0:0:0:
128,192,199857,1,0,0:0:0:0:
128,192,199923,1,0,0:0:0:0:
128,192,199988,1,0,0:0:0:0:
128,192,200053,1,0,0:0:0:0:
128,192,200118,1,0,0:0:0:0:
128,192,200183,1,8,0:0:0:0:
128,192,200249,1,0,0:0:0:0:
128,192,200314,1,0,0:0:0:0:
128,192,200379,1,0,0:0:0:0:
128,192,200444,1,8,0:0:0:0:
128,192,200510,1,0,0:0:0:0:
128,192,200575,1,0,0:0:0:0:
128,192,200640,1,0,0:0:0:0:
128,192,200705,1,0,0:0:0:0:
128,192,200770,1,0,0:0:0:0:
128,192,200836,1,8,0:0:0:0:
128,192,200901,1,0,0:0:0:0:
128,192,200966,1,0,0:0:0:0:
128,192,201031,1,0,0:0:0:0:
128,192,201097,1,0,0:0:0:0:
128,192,201162,1,0,0:0:0:0:
128,192,201227,1,8,0:0:0:0:
128,192,201292,1,0,0:0:0:0:
128,192,201357,1,0,0:0:0:0:
128,192,201423,1,0,0:0:0:0:
128,192,201488,1,0,0:0:0:0:
128,192,201553,1,0,0:0:0:0:
128,192,201618,1,8,0:0:0:0:
128,192,201684,1,0,0:0:0:0:
128,192,201749,1,0,0:0:0:0:
128,192,201814,1,0,0:0:0:0:
128,192,201879,1,0,0:0:0:0:
128,192,201944,1,0,0:0:0:0:
128,192,202010,1,8,0:0:0:0:
128,192,202075,1,0,0:0:0:0:
128,192,202140,1,0,0:0:0:0:
128,192,202205,1,0,0:0:0:0:
128,192,202271,1,8,0:0:0:0:
128,192,202336,1,0,0:0:0:0:
128,192,202401,1,0,0:0:0:0:
128,192,202466,1,0,0:0:0:0:
128,192,202531,1,8,0:0:0:0:
128,192,202597,1,0,0:0:0:0:
128,192,202662,1,0,0:0:0:0:
128,192,202727,1,0,0:0:0:0:
128,192,202792,1,0,0:0:0:0:
128,192,202858,1,0,0:0:0:0:
128,192,202923,1,8,0:0:0:0:
128,192,202988,1,0,0:0:0:0:
128,192,203053,1,0,0:0:0:0:
128,192,203118,1,0,0:0:0:0:
128,192,203184,1,0,0:0:0:0:
128,192,203249,1,0,0:0:0:0:
128,192,203314,1,8,0:0:0:0:
64,160,203379,1,0,0:0:0:0:
64,160,203445,1,0,0:0:0:0:
64,160,203510,1,0,0:0:0:0:
64,192,203575,1,8,0:0:0:0:
32,160,203641,1,0,0:0:0:0:
32,160,203706,1,0,0:0:0:0:
64,192,203771,1,8,0:0:0:0:
32,160,203836,1,0,0:0:0:0:
32,160,203901,1,0,0:0:0:0:
192,192,203966,1,8,0:0:0:0:
32,160,204032,1,0,0:0:0:0:
128,192,204097,1,8,0:0:0:0:
128,128,204162,1,0,0:0:0:0:
64,224,204227,1,0,0:0:0:0:
96,224,204292,1,8,0:0:0:0:
32,160,204358,1,0,0:0:0:0:
96,128,204423,1,0,0:0:0:0:
96,160,204488,1,8,0:0:0:0:
96,128,204554,1,0,0:0:0:0:
64,160,204619,1,8,0:0:0:0:
96,160,204684,1,0,0:0:0:0:
128,160,204749,1,0,0:0:0:0:
128,160,204814,1,0,0:0:0:0:
128,160,204879,1,8,0:0:0:0:
128,160,204945,1,0,0:0:0:0:
128,160,205010,1,0,0:0:0:0:
128,160,205075,1,0,0:0:0:0:
128,160,205140,1,8,0:0:0:0:
128,160,205206,1,0,0:0:0:0:
128,160,205271,1,0,0:0:0:0:
128,160,205336,1,0,0:0:0:0:
128,160,205401,1,0,0:0:0:0:
128,160,205467,1,0,0:0:0:0:
128,160,205532,1,0,0:0:0:0:
128,160,205597,1,0,0:0:0:0:
128,160,205662,1,8,0:0:0:0:
128,160,205727,1,0,0:0:0:0:
128,160,205793,1,0,0:0:0:0:
128,160,205858,1,0,0:0:0:0:
128,160,205923,1,8,0:0:0:0:
128,160,205988,1,0,0:0:0:0:
128,160,206054,1,0,0:0:0:0:
128,160,206119,1,0,0:0:0:0:
128,160,206184,1,8,0:0:0:0:
128,160,206249,1,0,0:0:0:0:
128,160,206314,1,0,0:0:0:0:
128,160,206380,1,0,0:0:0:0:
128,160,206445,1,0,0:0:0:0:
128,160,206510,1,0,0:0:0:0:
128,160,206575,1,0,0:0:0:0:
128,160,206641,1,0,0:0:0:0:
128,160,206706,1,8,0:0:0:0:
128,160,206771,1,0,0:0:0:0:
128,160,206836,1,0,0:0:0:0:
128,160,206901,1,0,0:0:0:0:
128,160,206967,1,8,0:0:0:0:
128,160,207032,1,0,0:0:0:0:
128,160,207097,1,0,0:0:0:0:
128,160,207162,1,0,0:0:0:0:
128,160,207228,1,8,0:0:0:0:
128,160,207293,1,0,0:0:0:0:
128,160,207358,1,0,0:0:0:0:
128,160,207423,1,0,0:0:0:0:
128,160,207488,1,8,0:0:0:0:
128,160,207554,1,8,0:0:0:0:
128,160,207619,1,0,0:0:0:0:
128,160,207684,1,0,0:0:0:0:
128,160,207749,1,8,0:0:0:0:
128,160,207815,1,8,0:0:0:0:
128,160,207880,1,8,0:0:0:0:
128,160,207945,1,8,0:0:0:0:
128,160,208010,1,8,0:0:0:0:
128,160,208075,1,8,0:0:0:0:
128,160,208141,1,0,0:0:0:0:
128,160,208206,1,0,0:0:0:0:
128,160,208271,1,8,0:0:0:0:
128,160,208336,1,8,0:0:0:0:
128,160,208402,1,0,0:0:0:0:
128,160,208467,1,0,0:0:0:0:
128,160,208532,1,8,0:0:0:0:
128,160,208597,1,8,0:0:0:0:
128,160,208662,1,0,0:0:0:0:
128,160,208728,1,0,0:0:0:0:
128,192,208793,5,12,0:0:0:0:
224,224,208924,1,0,0:0:0:0:
224,224,209053,1,0,0:0:0:0:
224,224,209185,1,12,0:0:0:0:
224,224,209314,1,0,0:0:0:0:
224,224,209446,1,0,0:0:0:0:
224,224,209576,1,12,0:0:0:0:
224,224,209707,1,0,0:0:0:0:
224,224,209837,1,0,0:0:0:0:
224,224,209966,1,0,0:0:0:0:
224,224,210033,1,0,0:0:0:0:
224,224,210098,1,0,0:0:0:0:
224,224,210163,1,0,0:0:0:0:
224,224,210227,1,0,0:0:0:0:
224,224,210294,1,0,0:0:0:0:
224,224,210359,1,12,0:0:0:0:
256,192,210488,1,0,0:0:0:0:
256,192,210620,1,0,0:0:0:0:
160,96,210750,1,12,0:0:0:0:
320,288,210881,1,0,0:0:0:0:
320,288,211011,1,0,0:0:0:0:
320,288,211140,1,0,0:0:0:0:
320,288,211207,1,0,0:0:0:0:
320,288,211272,1,0,0:0:0:0:
320,288,211337,1,0,0:0:0:0:
96,160,211401,1,0,0:0:0:0:
96,160,211467,1,0,0:0:0:0:
96,128,211533,1,12,0:0:0:0:
96,128,211662,1,8,0:0:0:0:
96,96,211794,1,0,0:0:0:0:
174,137,211924,1,8,0:0:0:0:
174,137,211989,1,8,0:0:0:0:
174,137,212054,1,8,0:0:0:0:
174,137,212120,1,8,0:0:0:0:
174,137,212185,1,8,0:0:0:0:
174,137,212250,1,8,0:0:0:0:
174,137,212315,1,0,0:0:0:0:
174,137,212380,1,0,0:0:0:0:
174,137,212446,1,0,0:0:0:0:
174,137,212511,1,0,0:0:0:0:
174,137,212576,1,0,0:0:0:0:
174,137,212641,1,0,0:0:0:0:
180,149,212707,1,12,0:0:0:0:
96,320,212967,5,8,0:0:0:0:
96,288,213032,1,0,0:0:0:0:
128,256,213098,1,0,0:0:0:0:
128,224,213163,1,0,0:0:0:0:
128,224,213228,1,8,0:0:0:0:
128,224,213293,1,0,0:0:0:0:
128,224,213358,1,0,0:0:0:0:
128,224,213424,1,0,0:0:0:0:
128,224,213488,1,8,0:0:0:0:
128,224,213554,1,0,0:0:0:0:
128,192,213619,1,0,0:0:0:0:
128,192,213685,1,0,0:0:0:0:
128,192,213749,1,8,0:0:0:0:
128,192,213815,1,0,0:0:0:0:
128,192,213880,1,0,0:0:0:0:
128,192,213945,1,0,0:0:0:0:
128,192,214011,1,8,0:0:0:0:
128,192,214076,1,8,0:0:0:0:
128,192,214141,1,8,0:0:0:0:
128,192,214206,1,8,0:0:0:0:
128,192,214272,1,0,0:0:0:0:
128,192,214337,1,0,0:0:0:0:
128,192,214402,1,0,0:0:0:0:
128,192,214467,1,0,0:0:0:0:
128,192,214532,1,8,0:0:0:0:
128,192,214598,1,0,0:0:0:0:
128,192,214663,1,0,0:0:0:0:
128,192,214728,1,0,0:0:0:0:
128,192,214793,1,8,0:0:0:0:
128,192,214859,1,0,0:0:0:0:
128,192,214924,1,0,0:0:0:0:
128,192,214989,1,0,0:0:0:0:
128,192,215054,1,8,0:0:0:0:
128,192,215119,1,0,0:0:0:0:
128,192,215185,1,0,0:0:0:0:
128,192,215250,1,0,0:0:0:0:
128,192,215315,1,8,0:0:0:0:
128,192,215380,1,8,0:0:0:0:
128,192,215446,1,8,0:0:0:0:
128,192,215511,1,8,0:0:0:0:
128,192,215576,1,0,0:0:0:0:
128,192,215641,1,0,0:0:0:0:
128,192,215706,1,0,0:0:0:0:
128,192,215772,1,0,0:0:0:0:
128,192,215837,1,8,0:0:0:0:
128,192,215902,1,0,0:0:0:0:
128,192,215967,1,0,0:0:0:0:
128,192,216033,1,0,0:0:0:0:
128,192,216098,1,8,0:0:0:0:
128,192,216163,1,8,0:0:0:0:
128,192,216228,1,8,0:0:0:0:
128,192,216293,1,8,0:0:0:0:
128,192,216359,1,0,0:0:0:0:
128,192,216424,1,0,0:0:0:0:
128,192,216489,1,8,0:0:0:0:
128,192,216554,1,0,0:0:0:0:
128,192,216620,1,8,0:0:0:0:
128,192,216684,1,8,0:0:0:0:
128,192,216750,1,8,0:0:0:0:
128,192,216815,1,8,0:0:0:0:
128,192,216880,1,0,0:0:0:0:
128,192,216946,1,0,0:0:0:0:
128,192,217011,1,0,0:0:0:0:
128,192,217076,1,0,0:0:0:0:
128,192,217141,1,8,0:0:0:0:
128,192,217207,1,8,0:0:0:0:
128,192,217272,1,8,0:0:0:0:
128,192,217337,1,8,0:0:0:0:
128,192,217402,1,8,0:0:0:0:
128,192,217467,1,8,0:0:0:0:
128,192,217533,1,8,0:0:0:0:
128,192,217598,1,8,0:0:0:0:
128,192,217663,1,0,0:0:0:0:
128,192,217728,1,0,0:0:0:0:
128,192,217794,1,0,0:0:0:0:
128,192,217859,1,0,0:0:0:0:
128,192,217924,1,0,0:0:0:0:
128,192,217989,1,0,0:0:0:0:
128,192,218054,1,0,0:0:0:0:
128,192,218120,1,0,0:0:0:0:
128,192,218185,1,8,0:0:0:0:
128,192,218250,1,8,0:0:0:0:
128,192,218315,1,8,0:0:0:0:
128,192,218381,1,8,0:0:0:0:
128,192,218445,1,8,0:0:0:0:
128,192,218511,1,8,0:0:0:0:
128,192,218576,1,8,0:0:0:0:
128,192,218641,1,8,0:0:0:0:
128,192,218707,1,0,0:0:0:0:
128,192,218772,1,0,0:0:0:0:
128,192,218837,1,0,0:0:0:0:
128,192,218902,1,0,0:0:0:0:
128,192,218968,1,8,0:0:0:0:
128,192,219033,1,8,0:0:0:0:
128,192,219098,1,0,0:0:0:0:
128,192,219163,1,0,0:0:0:0:
128,192,219228,1,8,0:0:0:0:
128,192,219294,1,8,0:0:0:0:
128,192,219359,1,8,0:0:0:0:
128,192,219424,1,8,0:0:0:0:
128,192,219489,1,8,0:0:0:0:
128,192,219555,1,8,0:0:0:0:
128,192,219620,1,8,0:0:0:0:
128,192,219685,1,8,0:0:0:0:
128,192,219750,1,0,0:0:0:0:
128,192,219815,1,0,0:0:0:0:
128,192,219881,1,0,0:0:0:0:
128,192,219946,1,0,0:0:0:0:
128,192,220011,1,8,0:0:0:0:
64,160,220076,1,0,0:0:0:0:
64,160,220142,1,0,0:0:0:0:
64,160,220207,1,0,0:0:0:0:
64,192,220272,1,8,0:0:0:0:
192,96,220338,1,0,0:0:0:0:
192,96,220403,1,0,0:0:0:0:
64,192,220468,1,8,0:0:0:0:
192,96,220533,1,0,0:0:0:0:
192,96,220599,1,0,0:0:0:0:
192,192,220663,1,8,0:0:0:0:
192,96,220729,1,0,0:0:0:0:
128,192,220794,1,8,0:0:0:0:
192,96,220859,1,0,0:0:0:0:
64,224,220924,1,0,0:0:0:0:
96,224,220989,1,8,0:0:0:0:
32,160,221055,1,0,0:0:0:0:
128,160,221120,1,0,0:0:0:0:
96,160,221185,1,8,0:0:0:0:
64,160,221251,1,0,0:0:0:0:
64,160,221316,1,8,0:0:0:0:
96,160,221381,1,8,0:0:0:0:
128,160,221446,1,8,0:0:0:0:
128,160,221511,1,8,0:0:0:0:
128,160,221576,1,8,0:0:0:0:
128,160,221642,1,8,0:0:0:0:
128,160,221707,1,0,0:0:0:0:
128,160,221772,1,0,0:0:0:0:
128,160,221837,1,0,0:0:0:0:
128,160,221903,1,0,0:0:0:0:
128,160,221968,1,0,0:0:0:0:
128,160,222033,1,0,0:0:0:0:
128,160,222098,1,8,0:0:0:0:
128,160,222164,1,0,0:0:0:0:
128,160,222229,1,0,0:0:0:0:
128,160,222294,1,0,0:0:0:0:
128,160,222359,1,8,0:0:0:0:
128,160,222424,1,8,0:0:0:0:
128,160,222490,1,8,0:0:0:0:
128,160,222555,1,8,0:0:0:0:
128,160,222620,1,8,0:0:0:0:
128,160,222685,1,8,0:0:0:0:
128,160,222751,1,0,0:0:0:0:
128,160,222816,1,0,0:0:0:0:
128,160,222881,1,8,0:0:0:0:
128,160,222946,1,8,0:0:0:0:
128,160,223011,1,0,0:0:0:0:
128,160,223077,1,0,0:0:0:0:
128,160,223142,1,8,0:0:0:0:
128,160,223207,1,0,0:0:0:0:
128,160,223272,1,0,0:0:0:0:
128,160,223338,1,0,0:0:0:0:
128,160,223403,1,8,0:0:0:0:
128,160,223468,1,8,0:0:0:0:
128,160,223533,1,8,0:0:0:0:
128,160,223598,1,8,0:0:0:0:
128,160,223664,1,8,0:0:0:0:
128,160,223729,1,8,0:0:0:0:
128,160,223794,1,0,0:0:0:0:
128,160,223859,1,0,0:0:0:0:
128,160,223925,1,8,0:0:0:0:
128,160,223990,1,8,0:0:0:0:
128,160,224055,1,0,0:0:0:0:
128,160,224120,1,0,0:0:0:0:
128,160,224185,1,8,0:0:0:0:
128,160,224251,1,0,0:0:0:0:
128,160,224316,1,0,0:0:0:0:
128,160,224381,1,0,0:0:0:0:
128,160,224446,1,8,0:0:0:0:
128,160,224512,1,8,0:0:0:0:
128,160,224577,1,8,0:0:0:0:
128,160,224642,1,8,0:0:0:0:
128,160,224707,1,8,0:0:0:0:
128,160,224772,1,8,0:0:0:0:
128,160,224838,1,0,0:0:0:0:
128,160,224903,1,0,0:0:0:0:
128,160,224968,1,8,0:0:0:0:
128,160,225033,1,8,0:0:0:0:
128,160,225099,1,0,0:0:0:0:
128,160,225164,1,0,0:0:0:0:
128,160,225229,1,8,0:0:0:0:
128,160,225294,1,8,0:0:0:0:
128,160,225359,1,0,0:0:0:0:
128,160,225425,1,0,0:0:0:0:
128,192,225490,5,12,0:0:0:0:
224,224,225621,1,0,0:0:0:0:
224,224,225750,1,0,0:0:0:0:
224,224,225881,1,12,0:0:0:0:
224,224,226011,1,0,0:0:0:0:
224,224,226143,1,0,0:0:0:0:
224,224,226273,1,12,0:0:0:0:
224,224,226404,1,0,0:0:0:0:
224,224,226534,1,0,0:0:0:0:
224,224,226665,1,0,0:0:0:0:
224,224,226730,1,0,0:0:0:0:
224,224,226795,1,0,0:0:0:0:
224,224,226860,1,0,0:0:0:0:
224,224,226924,1,0,0:0:0:0:
224,224,226991,1,0,0:0:0:0:
224,224,227056,1,12,0:0:0:0:
256,192,227185,1,0,0:0:0:0:
256,192,227317,1,0,0:0:0:0:
160,96,227446,1,12,0:0:0:0:
320,288,227578,1,0,0:0:0:0:
320,288,227708,1,0,0:0:0:0:
320,288,227839,1,0,0:0:0:0:
320,288,227904,1,0,0:0:0:0:
320,288,227969,1,0,0:0:0:0:
320,288,228034,1,0,0:0:0:0:
96,160,228098,1,0,0:0:0:0:
128,192,228164,1,0,0:0:0:0:
96,128,228230,1,12,0:0:0:0:
96,128,228359,1,8,0:0:0:0:
96,96,228491,1,0,0:0:0:0:
132,157,228621,1,8,0:0:0:0:
132,157,228686,1,8,0:0:0:0:
132,157,228751,1,8,0:0:0:0:
132,157,228817,1,8,0:0:0:0:
132,157,228882,1,8,0:0:0:0:
132,157,228947,1,8,0:0:0:0:
132,157,229012,1,0,0:0:0:0:
132,157,229078,1,0,0:0:0:0:
132,157,229143,1,0,0:0:0:0:
132,157,229208,1,0,0:0:0:0:
132,157,229273,1,0,0:0:0:0:
132,157,229338,1,0,0:0:0:0:
32,160,229404,5,12,0:0:0:0:
115,119,229665,1,0,0:0:0:0:
121,109,229925,1,0,0:0:0:0:
121,109,229991,1,0,0:0:0:0:
121,109,230056,1,0,0:0:0:0:
233,112,230121,1,0,0:0:0:0:
352,256,230186,5,12,0:0:0:0:
