osu file format v14

[General]
AudioFilename: audio.mp3
AudioLeadIn: 0
PreviewTime: 116873
Countdown: 0
SampleSet: Drum
StackLeniency: 0.7
Mode: 2
LetterboxInBreaks: 0
WidescreenStoryboard: 0

[Editor]
Bookmarks: 35048,40148,49748,59348,64148,68948,74948,78548,88148,97748,107348,126548,136148,145748,164948,226548
DistanceSpacing: 1
BeatDivisor: 4
GridSize: 4
TimelineZoom: 1.9

[Metadata]
Title:No
TitleUnicode:No
Artist:Fleshgod Apocalypse
ArtistUnicode:Fleshgod Apocalypse
Creator:Du5t
Version:No
Source:
Tags:featured artist fa Nuclear Blast Records technical english Metal Melodeath symphonic death Melodic rock deathstream male female vocals vocal dust AIcoa Alcoa
BeatmapID:3241542
BeatmapSetID:1587120

[Difficulty]
HPDrainRate:6
CircleSize:4
OverallDifficulty:9.6
ApproachRate:9.6
SliderMultiplier:1.8
SliderTickRate:2

[Events]
//Background and Video events
0,0,"sus.jpg",0,0
//Break Periods
//Storyboard Layer 0 (Background)
//Storyboard Layer 1 (Fail)
//Storyboard Layer 2 (Pass)
//Storyboard Layer 3 (Foreground)
//Storyboard Layer 4 (Overlay)
//Storyboard Sound Samples

[TimingPoints]
526,300,4,3,1,60,1,0
1126,-100,4,3,2,60,0,0
1576,-100,4,3,1,60,0,0
1726,-100,4,3,3,60,0,0
2926,-100,4,3,1,60,0,0
3526,-100,4,3,54,60,0,0
3531,-100,4,3,1,60,0,0
4126,-100,4,3,2,60,0,0
4576,-100,4,3,1,60,0,0
4726,-100,4,3,2,60,0,0
5176,-100,4,3,1,60,0,0
5326,-100,4,3,2,60,0,0
6526,-100,4,3,1,60,0,0
7726,-100,4,3,2,60,0,0
9076,-100,4,3,2,60,0,0
11326,-100,4,3,1,60,0,0
13726,-100,4,3,2,60,0,0
15526,-80,4,3,3,60,0,0
16126,-100,4,3,2,60,0,0
17926,-100,4,3,3,60,0,0
18526,-100,4,3,2,60,0,0
19126,-100,4,3,4,60,0,0
19726,-100,4,3,5,60,0,0
21226,-100,4,3,5,60,0,0
22726,-100,4,3,5,60,0,0
23026,-100,4,3,5,60,0,0
25126,-80,4,3,3,60,0,0
26026,-100,4,3,3,60,0,0
26326,-100,4,3,2,60,0,0
26926,-100,4,3,3,60,0,0
27526,-100,4,3,4,60,0,0
28126,-100,4,3,2,60,0,0
28726,-100,4,3,3,60,0,0
29326,-100,4,3,2,60,0,0
29926,-100,4,3,3,60,0,0
30526,-100,4,3,2,60,0,0
31051,-100,4,3,2,5,0,0
31126,-100,4,3,2,60,0,0
32626,-100,4,3,6,60,0,0
33526,-100,4,3,2,60,0,0
34726,-100,4,3,1,60,0,0
35026,-100,4,3,1,60,0,0
35326,-100,4,3,1,30,0,0
35926,-100,4,3,6,30,0,0
36001,-100,4,3,6,5,0,0
36226,-100,4,3,1,35,0,0
36601,-100,4,3,1,5,0,0
36826,-100,4,3,1,45,0,0
37126,-100,4,3,6,45,0,0
37201,-100,4,3,1,45,0,0
37501,-100,4,3,1,5,0,0
37726,-100,4,3,1,55,0,0
38326,-100,4,3,6,55,0,0
38401,-100,4,3,6,5,0,0
38626,-100,4,3,1,55,0,0
39001,-100,4,3,1,5,0,0
39226,-100,4,3,1,60,0,0
39826,-100,4,3,1,60,0,0
40126,-100,4,3,1,60,0,0
40726,-100,4,3,6,60,0,0
41026,-100,4,3,6,60,0,0
41326,-100,4,3,6,60,0,0
41626,-100,4,3,6,60,0,0
41926,-100,4,3,6,60,0,0
42226,-100,4,3,6,60,0,0
42526,-100,4,3,6,60,0,0
42826,-100,4,3,6,60,0,0
43126,-100,4,3,6,60,0,0
43426,-100,4,3,6,60,0,0
43726,-100,4,3,6,60,0,0
44026,-100,4,3,6,60,0,0
44326,-100,4,3,6,60,0,0
44626,-100,4,3,6,60,0,0
44926,-100,4,3,6,60,0,0
45226,-100,4,3,6,60,0,0
45526,-100,4,3,6,60,0,0
45826,-100,4,3,6,60,0,0
46126,-100,4,3,6,60,0,0
46426,-100,4,3,6,60,0,0
46726,-100,4,3,6,60,0,0
47026,-100,4,3,6,60,0,0
47326,-100,4,3,6,60,0,0
47626,-100,4,3,6,60,0,0
47926,-100,4,3,6,60,0,0
48226,-100,4,3,6,60,0,0
48526,-100,4,3,1,60,0,0
49726,-100,4,3,6,60,0,0
50026,-100,4,3,6,60,0,0
53026,-80,4,3,6,60,0,0
53926,-100,4,3,6,60,0,0
54826,-100,4,3,6,60,0,0
57526,-100,4,3,2,60,0,0
58576,-100,4,3,2,60,0,0
59326,-100,4,3,2,60,0,0
59626,-100,4,3,2,60,0,0
61426,-100,4,3,1,60,0,0
62026,-100,4,3,2,60,0,0
63826,-100,4,3,1,60,0,0
64426,-100,4,3,2,60,0,0
64726,-100,4,3,1,60,0,0
65026,-100,4,3,2,60,0,0
65326,-100,4,3,1,60,0,0
65626,-100,4,3,2,60,0,0
66226,-100,4,3,1,60,0,0
66826,-100,4,3,2,60,0,0
67126,-100,4,3,1,60,0,0
67426,-100,4,3,2,60,0,0
67726,-100,4,3,1,60,0,0
68326,-100,4,3,3,60,0,0
68926,-100,4,3,7,60,0,1
69226,-100,4,3,3,60,0,1
69526,-100,4,3,7,60,0,1
69826,-100,4,3,3,60,0,1
70726,-100,4,3,7,60,0,1
70801,-100,4,3,3,60,0,1
71326,-100,4,3,1,60,0,1
71626,-100,4,3,3,60,0,1
71926,-100,4,3,7,60,0,1
72226,-100,4,3,3,60,0,1
73726,-100,4,3,1,60,0,1
74026,-100,4,3,3,60,0,1
74326,-100,4,3,7,60,0,1
74626,-100,4,3,3,60,0,1
75226,-100,4,3,2,60,0,1
75526,-100,4,3,4,60,0,1
75826,-100,4,3,2,60,0,1
76126,-100,4,3,4,60,0,1
76426,-100,4,3,2,60,0,1
76726,-100,4,3,8,60,0,1
77026,-100,4,3,2,60,0,1
78526,-100,4,3,4,60,0,1
78826,-100,4,3,3,60,0,1
83626,-100,4,3,4,60,0,1
85726,-100,4,3,3,60,0,1
86026,-100,4,3,4,60,0,1
87826,-100,4,3,4,60,0,1
88126,-100,4,3,6,60,0,0
88426,-100,4,3,6,60,0,0
88726,-100,4,3,6,60,0,0
89026,-100,4,3,6,60,0,0
89326,-100,4,3,6,60,0,0
89626,-100,4,3,6,60,0,0
89926,-100,4,3,6,60,0,0
90226,-100,4,3,6,60,0,0
90526,-100,4,3,6,60,0,0
90826,-100,4,3,6,60,0,0
91126,-100,4,3,6,60,0,0
91426,-100,4,3,6,60,0,0
91726,-100,4,3,6,60,0,0
92026,-100,4,3,6,60,0,0
92326,-100,4,3,6,60,0,0
92626,-100,4,3,6,60,0,0
92926,-100,4,3,6,60,0,0
93226,-100,4,3,6,60,0,0
93526,-100,4,3,6,60,0,0
93826,-100,4,3,6,60,0,0
94126,-100,4,3,6,60,0,0
94426,-100,4,3,6,60,0,0
94726,-100,4,3,6,60,0,0
95026,-100,4,3,6,60,0,0
95326,-100,4,3,6,60,0,0
95626,-100,4,3,6,60,0,0
95926,-100,4,3,6,60,0,0
96226,-100,4,3,6,60,0,0
96601,-100,4,3,1,60,0,0
97726,-100,4,3,8,60,0,0
98026,-100,4,3,8,60,0,0
101026,-80,4,3,8,60,0,0
102226,-100,4,3,8,60,0,0
102826,-100,4,3,8,60,0,0
105526,-100,4,3,2,60,0,0
106576,-100,4,3,2,60,0,0
107326,-100,4,3,2,60,0,0
107626,-100,4,3,2,60,0,0
109426,-100,4,3,1,60,0,0
110026,-100,4,3,2,60,0,0
111826,-100,4,3,1,60,0,0
112426,-100,4,3,2,60,0,0
112726,-100,4,3,1,60,0,0
113026,-100,4,3,2,60,0,0
113326,-100,4,3,1,60,0,0
113626,-100,4,3,2,60,0,0
114226,-100,4,3,1,60,0,0
114526,-100,4,3,1,60,0,0
114826,-100,4,3,2,60,0,0
115126,-100,4,3,1,60,0,0
115426,-100,4,3,2,60,0,0
115726,-100,4,3,1,60,0,0
116326,-100,4,3,3,60,0,0
116926,-100,4,3,7,60,0,1
117226,-100,4,3,3,60,0,1
118126,-100,4,3,7,60,0,1
118276,-100,4,3,3,60,0,1
119326,-100,4,3,8,60,0,1
119626,-100,4,3,3,60,0,1
120526,-100,4,3,7,60,0,1
121726,-100,4,3,8,60,0,1
122026,-100,4,3,3,60,0,1
122326,-100,4,3,7,60,0,1
122626,-100,4,3,3,60,0,1
122926,-100,4,3,7,60,0,1
123226,-100,4,3,2,60,0,1
123526,-100,4,3,4,60,0,1
123826,-100,4,3,2,60,0,1
124126,-100,4,3,4,60,0,1
124426,-100,4,3,2,60,0,1
124726,-100,4,3,4,60,0,1
125026,-100,4,3,2,60,0,1
126526,-100,4,3,7,60,0,1
126826,-100,4,3,3,60,0,1
131626,-100,4,3,4,60,0,1
133726,-100,4,3,3,60,0,1
134026,-100,4,3,4,60,0,1
136126,-100,4,3,9,60,0,0
136201,-100,4,3,1,60,0,0
136726,-100,4,3,1,60,0,0
138226,-100,4,3,1,60,0,0
139126,-100,4,3,1,60,0,0
140176,-100,4,3,2,60,0,0
140326,-100,4,3,1,60,0,0
140926,-100,4,3,1,30,0,0
141526,-100,4,3,6,30,0,0
141601,-100,4,3,6,5,0,0
141826,-100,4,3,1,35,0,0
142201,-100,4,3,1,5,0,0
142426,-100,4,3,1,45,0,0
142726,-100,4,3,6,45,0,0
142801,-100,4,3,1,45,0,0
143026,-100,4,3,1,45,0,0
143101,-100,4,3,1,5,0,0
143326,-100,4,3,1,55,0,0
143926,-100,4,3,6,55,0,0
144001,-100,4,3,6,5,0,0
144226,-100,4,3,1,55,0,0
144601,-100,4,3,1,5,0,0
144826,-100,4,3,1,60,0,0
145426,-100,4,3,6,60,0,0
145726,-100,4,3,5,60,0,0
146026,-100,4,3,3,60,0,0
146326,-100,4,3,7,60,0,0
146626,-100,4,3,3,60,0,0
147526,-100,4,3,7,60,0,0
147826,-100,4,3,3,60,0,0
148126,-100,4,3,2,60,0,0
148426,-100,4,3,3,60,0,0
148726,-100,4,3,7,60,0,0
149026,-100,4,3,3,60,0,0
149926,-100,4,3,7,60,0,0
150226,-100,4,3,3,60,0,0
150526,-100,4,3,2,60,0,0
150826,-100,4,3,3,60,0,0
151126,-100,4,3,7,60,0,0
151426,-100,4,3,3,60,0,0
152326,-100,4,3,7,60,0,0
152626,-100,4,3,3,60,0,0
152926,-100,4,3,2,60,0,0
153526,-100,4,3,7,60,0,0
153826,-100,4,3,3,60,0,0
154726,-100,4,3,7,60,0,0
154801,-100,4,3,2,60,0,0
155626,-100,4,3,3,60,0,0
155926,-100,4,3,7,60,0,0
156226,-100,4,3,3,60,0,0
157126,-100,4,3,7,60,0,0
157426,-100,4,3,3,60,0,0
157726,-100,4,3,2,60,0,0
158026,-100,4,3,3,60,0,0
158326,-100,4,3,7,60,0,0
158626,-100,4,3,3,60,0,0
159526,-100,4,3,7,60,0,0
159826,-100,4,3,3,60,0,0
160126,-100,4,3,2,60,0,0
160426,-100,4,3,3,60,0,0
160726,-100,4,3,7,60,0,0
161026,-100,4,3,3,60,0,0
161926,-100,4,3,7,60,0,0
162226,-100,4,3,3,60,0,0
162526,-100,4,3,10,60,0,0
162826,-100,4,3,3,60,0,0
163126,-100,4,3,10,60,0,0
163426,-100,4,3,3,60,0,0
163726,-100,4,3,10,60,0,0
164026,-100,4,3,6,60,0,0
164176,-100,4,3,6,60,0,0
164326,-100,4,3,6,60,0,0
164476,-100,4,3,6,60,0,0
164551,-100,4,3,6,60,0,0
164926,-100,4,3,11,60,0,0
165226,-100,4,3,2,60,0,0
165526,-100,4,3,8,60,0,0
165826,-100,4,3,2,60,0,0
166126,-100,4,3,8,60,0,0
166426,-100,4,3,2,60,0,0
166726,-100,4,3,8,60,0,0
167026,-100,4,3,2,60,0,0
167326,-100,4,3,10,60,0,0
167626,-100,4,3,2,60,0,0
167926,-100,4,3,8,60,0,0
168226,-100,4,3,2,60,0,0
168526,-100,4,3,8,60,0,0
168826,-100,4,3,2,60,0,0
169126,-100,4,3,8,60,0,0
169426,-100,4,3,2,60,0,0
169726,-100,4,3,10,60,0,0
170026,-100,4,3,2,60,0,0
170326,-100,4,3,10,60,0,0
170626,-100,4,3,2,60,0,0
170926,-100,4,3,10,60,0,0
171226,-100,4,3,2,60,0,0
171526,-100,4,3,10,60,0,0
171826,-100,4,3,2,60,0,0
172126,-100,4,3,10,60,0,0
172426,-100,4,3,2,60,0,0
172726,-100,4,3,10,60,0,0
173026,-100,4,3,2,60,0,0
173326,-100,4,3,10,60,0,0
173626,-100,4,3,2,60,0,0
173926,-100,4,3,10,60,0,0
174076,-100,4,3,2,60,0,0
175126,-100,4,3,8,60,0,0
175426,-100,4,3,2,60,0,0
175726,-100,4,3,8,60,0,0
176026,-100,4,3,2,60,0,0
176326,-100,4,3,8,60,0,0
176626,-100,4,3,2,60,0,0
176926,-100,4,3,10,60,0,0
177226,-100,4,3,2,60,0,0
177526,-100,4,3,8,60,0,0
177826,-100,4,3,2,60,0,0
178126,-100,4,3,8,60,0,0
178426,-100,4,3,2,60,0,0
178726,-100,4,3,8,60,0,0
179026,-100,4,3,2,60,0,0
179326,-100,4,3,10,60,0,0
179626,-100,4,3,2,60,0,0
179926,-100,4,3,10,60,0,0
180226,-100,4,3,1,60,0,0
180526,-100,4,3,10,60,0,0
180826,-100,4,3,1,60,0,0
181126,-100,4,3,10,60,0,0
181426,-100,4,3,1,60,0,0
181726,-100,4,3,10,60,0,0
182026,-100,4,3,3,30,0,0
182176,-100,4,3,3,35,0,0
182326,-100,4,3,3,40,0,0
182476,-100,4,3,3,45,0,0
182626,-100,4,3,3,50,0,0
182776,-100,4,3,3,55,0,0
182926,-100,4,3,6,60,0,0
183026,-100,4,3,1,60,0,0
183126,-100,4,3,2,60,0,0
183226,-100,4,3,1,60,0,0
183326,-100,4,3,4,60,0,0
183426,-100,4,3,1,60,0,0
183526,-100,4,3,4,60,0,0
183626,-100,4,3,1,60,0,0
183726,-100,4,3,2,60,0,0
183826,-100,4,3,1,60,0,0
183926,-100,4,3,4,60,0,0
184026,-100,4,3,1,60,0,0
184126,-166.666666666667,4,3,6,60,0,0
184726,-166.666666666667,4,3,3,60,0,0
185326,-166.666666666667,4,3,7,60,0,0
185776,-166.666666666667,4,3,3,60,0,0
185926,-166.666666666667,4,3,52,60,0,0
185931,-166.666666666667,4,3,3,60,0,0
186526,-166.666666666667,4,3,2,60,0,0
187126,-166.666666666667,4,3,3,60,0,0
187726,-166.666666666667,4,3,7,60,0,0
188176,-166.666666666667,4,3,3,60,0,0
188326,-166.666666666667,4,3,52,60,0,0
188331,-166.666666666667,4,3,3,60,0,0
188926,-166.666666666667,4,3,2,60,0,0
189526,-166.666666666667,4,3,52,60,0,0
189531,-166.666666666667,4,3,3,60,0,0
190126,-166.666666666667,4,3,7,60,0,0
190576,-166.666666666667,4,3,3,60,0,0
190726,-166.666666666667,4,3,52,60,0,0
190731,-166.666666666667,4,3,3,60,0,0
191626,-166.666666666667,4,3,3,60,0,0
192526,-166.666666666667,4,3,7,60,0,0
192976,-166.666666666667,4,3,3,60,0,0
193726,-166.666666666667,4,3,2,60,0,0
194326,-166.666666666667,4,3,3,60,0,0
194926,-166.666666666667,4,3,7,60,0,0
195376,-166.666666666667,4,3,3,60,0,0
195526,-166.666666666667,4,3,52,60,0,0
195531,-166.666666666667,4,3,3,60,0,0
196726,-166.666666666667,4,3,52,60,0,0
196731,-166.666666666667,4,3,3,60,0,0
197326,-166.666666666667,4,3,7,60,0,0
197776,-166.666666666667,4,3,3,60,0,0
197926,-166.666666666667,4,3,52,60,0,0
197931,-166.666666666667,4,3,3,60,0,0
198526,-166.666666666667,4,3,2,60,0,0
199126,-166.666666666667,4,3,52,60,0,0
199131,-166.666666666667,4,3,3,60,0,0
199726,-166.666666666667,4,3,7,60,0,0
200176,-166.666666666667,4,3,3,60,0,0
200326,-166.666666666667,4,3,52,60,0,0
200331,-166.666666666667,4,3,3,60,0,0
200926,-166.666666666667,4,3,1,60,0,0
201151,-166.666666666667,4,3,1,5,0,0
201226,-166.666666666667,4,3,3,60,0,0
201451,-166.666666666667,4,3,3,5,0,0
201526,-166.666666666667,4,3,8,60,0,0
201751,-166.666666666667,4,3,8,5,0,0
201826,-166.666666666667,4,3,1,60,0,0
202126,-100,4,3,8,60,0,0
202426,-100,4,3,1,60,0,0
203326,-100,4,3,1,60,0,0
203926,-100,4,3,7,60,0,0
204226,-100,4,3,1,60,0,0
204526,-100,4,3,7,60,0,0
204976,-100,4,3,1,60,0,0
205126,-100,4,3,7,60,0,0
205426,-100,4,3,3,60,0,0
206326,-100,4,3,7,60,0,0
206626,-100,4,3,3,60,0,0
207526,-100,4,3,7,60,0,0
207826,-100,4,3,1,60,0,0
208126,-100,4,3,7,60,0,0
208426,-100,4,3,1,60,0,0
208726,-100,4,3,7,60,0,0
209026,-100,4,3,3,60,0,0
209926,-100,4,3,7,60,0,0
210226,-100,4,3,3,60,0,0
210826,-100,4,3,1,60,0,0
211126,-100,4,3,7,60,0,0
211426,-100,4,3,3,60,0,0
212326,-100,4,3,8,60,0,0
212476,-100,4,3,1,60,0,0
212626,-100,4,3,8,60,0,0
212776,-100,4,3,2,60,0,0
213526,-100,4,3,7,60,0,0
213826,-100,4,3,3,60,0,0
214726,-100,4,3,7,60,0,0
215026,-100,4,3,1,60,0,0
215326,-100,4,3,7,60,0,0
215626,-100,4,3,1,60,0,0
215926,-100,4,3,7,60,0,0
216226,-100,4,3,1,60,0,0
216526,-100,4,3,7,60,0,0
216676,-100,4,3,1,60,0,0
220126,-100,4,3,1,60,0,0
221326,-100,4,3,1,60,0,0
222526,250,4,3,4,60,1,1
222526,-100,4,3,4,60,0,1
222776,-100,4,3,2,60,0,1
224526,-100,4,3,1,60,0,1
224776,-100,4,3,2,60,0,1
226526,-100,4,3,1,60,0,1
226776,-100,4,3,2,60,0,1
229526,-100,4,3,1,60,0,1
229776,-100,4,3,6,60,0,1
229838,-100,4,3,2,60,0,1
230526,-100,4,3,2,60,0,1
230776,-100,4,3,10,60,0,1
230838,-100,4,3,1,60,0,1
231026,-100,4,3,10,60,0,1
231088,-100,4,3,1,60,0,1
231276,-100,4,3,10,60,0,1
231338,-100,4,3,1,60,0,1
231526,-100,4,3,10,60,0,1
231588,-100,4,3,1,60,0,1
231776,-100,4,3,10,60,0,1
231838,-100,4,3,1,60,0,1
232026,-100,4,3,10,60,0,1
232088,-100,4,3,1,60,0,1
232276,-100,4,3,10,60,0,1
232338,-100,4,3,1,60,0,1
232526,-100,4,3,10,60,0,1
232588,-100,4,3,1,60,0,1
232776,-100,4,3,10,60,0,1
232838,-100,4,3,1,60,0,1
233026,-100,4,3,10,60,0,1
233088,-100,4,3,1,60,0,1
233276,-100,4,3,10,60,0,1
233338,-100,4,3,1,60,0,1
233526,-100,4,3,10,60,0,1
233713,-100,4,3,2,60,0,1
237776,-100,4,3,6,60,0,1
237901,-100,4,3,1,60,0,1
238526,-100,4,3,10,60,0,0
239151,-100,4,3,3,60,0,0
239276,-100,4,3,3,60,0,1
239401,-100,4,3,3,30,0,0
239526,-100,4,3,2,60,0,1
239651,-100,4,3,2,60,0,0
239901,-100,4,3,1,60,0,0
240026,-100,4,3,2,60,0,0
241151,-100,4,3,2,5,0,0

[Colours]
Combo1 : 239,154,160
Combo2 : 0,0,191
Combo3 : 0,128,255

[HitObjects]
384,336,526,6,0,P|442:308|342:194,1,270,12|0,3:1|0:0,0:0:0:0:
117,71,1126,2,0,L|396:78,1,270,12|0,3:1|0:0,0:0:0:0:
164,231,1726,5,12,3:1:0:0:
423,247,2926,6,0,P|481:224|390:88,1,270,12|0,3:1|0:0,0:0:0:0:
201,57,3526,2,0,P|174:107|306:261,1,270,0|0,0:0|0:0,0:0:0:0:
72,323,4126,6,0,P|77:266|258:163,1,270,12|0,3:1|0:0,0:0:0:0:
33,42,4726,2,0,P|22:104|144:201,1,225,12|0,3:1|0:0,0:0:0:0:
213,205,5176,1,0,2:2:0:0:
294,205,5251,1,0,2:2:0:0:
213,205,5326,6,0,P|165:190|240:49,1,270,2|0,2:3|0:0,0:0:0:0:
364,284,5926,2,0,P|416:270|336:140,1,270,0|0,0:0|0:0,0:0:0:0:
140,31,6526,6,0,P|93:55|153:187,1,225,12|0,3:1|0:0,0:0:0:0:
220,190,6976,1,0,0:0:0:0:
355,197,7126,2,0,P|408:184|338:80,1,225,0|0,0:0|0:0,0:0:0:0:
273,73,7576,1,10,3:1:0:0:
481,287,7726,6,0,L|254:272,1,225,12|0,3:1|0:0,0:0:0:0:
338,217,8176,1,8,3:1:0:0:
32,287,8326,2,0,L|259:272,1,225,12|0,3:1|0:0,0:0:0:0:
175,213,8776,1,8,3:1:0:0:
482,287,8926,5,12,3:1:0:0:
391,278,9076,1,8,3:3:0:0:
346,275,9151,1,8,3:1:0:0:
301,268,9226,1,8,3:3:0:0:
256,264,9301,1,8,3:1:0:0:
391,180,9376,1,8,3:1:0:0:
445,177,9451,1,8,3:1:0:0:
310,42,9526,1,8,3:3:0:0:
290,93,9601,1,8,3:3:0:0:
309,140,9676,1,8,3:1:0:0:
357,154,9751,1,8,3:1:0:0:
222,308,9826,1,8,3:3:0:0:
177,302,9901,1,8,3:3:0:0:
312,231,9976,1,8,3:1:0:0:
361,237,10051,1,8,3:1:0:0:
204,81,10126,5,8,3:1:0:0:
411,48,10276,1,8,3:3:0:0:
425,96,10351,1,8,3:3:0:0:
289,146,10426,1,8,3:1:0:0:
303,194,10501,1,8,3:1:0:0:
351,215,10576,1,8,3:1:0:0:
404,220,10651,1,8,3:1:0:0:
269,325,10726,1,8,3:3:0:0:
205,309,10801,1,8,3:3:0:0:
162,269,10876,1,8,3:1:0:0:
140,214,10951,1,8,3:1:0:0:
164,161,11026,1,8,3:1:0:0:
213,129,11101,1,8,3:1:0:0:
350,61,11176,1,8,3:1:0:0:
296,57,11251,1,8,3:1:0:0:
84,72,11326,5,12,1:3:0:0:
63,121,11401,1,0,3:3:0:0:
84,158,11476,1,0,3:3:0:0:
134,176,11551,1,0,3:3:0:0:
279,174,11626,1,8,3:3:0:0:
341,175,11701,1,0,3:3:0:0:
279,174,11776,1,0,3:3:0:0:
216,167,11851,1,0,3:3:0:0:
352,328,11926,1,8,3:3:0:0:
410,308,12001,1,0,3:3:0:0:
455,270,12076,1,0,3:3:0:0:
470,213,12151,1,0,3:3:0:0:
440,162,12226,1,8,3:3:0:0:
383,145,12301,1,0,3:3:0:0:
247,78,12376,1,0,3:3:0:0:
184,71,12451,1,0,3:3:0:0:
354,237,12526,5,8,3:3:0:0:
398,234,12601,1,0,3:3:0:0:
354,237,12676,1,0,3:3:0:0:
219,239,12751,1,0,3:3:0:0:
83,126,12826,1,8,3:3:0:0:
127,125,12901,1,0,3:3:0:0:
171,123,12976,1,0,3:3:0:0:
306,120,13051,1,0,3:3:0:0:
441,73,13126,1,8,3:3:0:0:
397,72,13201,1,0,3:3:0:0:
353,70,13276,1,0,3:3:0:0:
218,67,13351,1,0,3:3:0:0:
83,126,13426,1,8,3:3:0:0:
127,125,13501,1,0,3:3:0:0:
171,123,13576,1,0,3:3:0:0:
306,120,13651,1,0,3:3:0:0:
127,177,13726,5,12,3:3:0:0:
67,213,13801,1,0,3:3:0:0:
47,268,13876,1,0,3:3:0:0:
69,321,13951,1,0,3:3:0:0:
206,252,14026,1,8,3:3:0:0:
268,255,14101,1,0,3:3:0:0:
205,252,14176,1,0,3:3:0:0:
142,244,14251,1,0,3:3:0:0:
278,346,14326,1,8,3:3:0:0:
337,331,14401,1,0,3:3:0:0:
370,283,14476,1,0,3:3:0:0:
351,227,14551,1,0,3:3:0:0:
304,191,14626,1,8,3:3:0:0:
246,178,14701,1,0,3:3:0:0:
383,106,14776,1,0,3:3:0:0:
445,102,14851,1,0,3:3:0:0:
296,345,14926,5,8,3:3:0:0:
237,331,15001,1,0,3:3:0:0:
204,283,15076,1,0,3:3:0:0:
223,227,15151,1,0,3:3:0:0:
270,191,15226,1,8,3:3:0:0:
328,178,15301,1,0,3:3:0:0:
191,106,15376,1,0,3:3:0:0:
129,102,15451,1,0,3:3:0:0:
265,62,15526,2,0,L|330:55,3,56.25,10|0|0|0,3:3|0:0|0:0|3:3,0:0:0:0:
171,170,15826,2,0,L|93:163,3,56.25,10|0|0|0,3:3|0:0|0:0|3:3,0:0:0:0:
309,333,16126,5,12,3:3:0:0:
334,280,16201,1,0,3:3:0:0:
320,222,16276,1,0,3:3:0:0:
283,176,16351,1,0,3:3:0:0:
229,153,16426,1,8,3:3:0:0:
170,150,16501,1,0,3:3:0:0:
307,48,16576,1,0,3:3:0:0:
369,43,16651,1,0,3:3:0:0:
181,78,16726,1,8,3:3:0:0:
128,108,16801,1,0,3:3:0:0:
106,166,16876,1,0,3:3:0:0:
127,218,16951,1,0,3:3:0:0:
184,244,17026,1,8,3:3:0:0:
246,247,17101,1,0,3:3:0:0:
107,309,17176,1,0,3:3:0:0:
53,306,17251,1,0,3:3:0:0:
254,46,17326,5,12,3:3:0:0:
321,50,17401,1,0,3:3:0:0:
258,51,17476,1,0,3:3:0:0:
195,55,17551,1,0,3:3:0:0:
257,57,17626,1,8,3:3:0:0:
319,61,17701,1,0,3:3:0:0:
180,142,17776,1,0,3:3:0:0:
117,144,17851,1,0,3:3:0:0:
254,46,17926,5,12,3:3:0:0:
307,48,18001,1,0,3:3:0:0:
253,48,18076,1,0,3:3:0:0:
199,51,18151,1,0,3:3:0:0:
252,53,18226,1,8,3:3:0:0:
305,57,18301,1,0,3:3:0:0:
170,140,18376,1,0,3:3:0:0:
117,144,18451,1,0,3:3:0:0:
253,48,18526,5,12,3:3:0:0:
297,49,18601,1,0,3:3:0:0:
252,51,18676,1,0,3:3:0:0:
207,54,18751,1,0,3:3:0:0:
251,57,18826,1,8,3:3:0:0:
295,60,18901,1,0,3:3:0:0:
162,138,18976,1,0,3:3:0:0:
117,144,19051,1,0,3:3:0:0:
252,53,19126,1,12,3:3:0:0:
286,61,19201,1,0,3:3:0:0:
307,89,19276,1,0,3:3:0:0:
307,125,19351,1,0,3:3:0:0:
286,154,19426,1,8,3:3:0:0:
252,167,19501,1,0,3:3:0:0:
115,230,19576,1,0,3:3:0:0:
150,231,19651,1,0,3:3:0:0:
353,201,19726,5,12,3:3:0:0:
367,262,19801,1,8,3:3:0:0:
229,269,19876,1,8,3:3:0:0:
215,330,19951,1,8,3:3:0:0:
353,201,20026,1,8,3:1:0:0:
367,262,20101,1,8,3:3:0:0:
294,267,20176,1,8,3:1:0:0:
280,328,20251,1,8,3:1:0:0:
145,195,20326,1,8,3:3:0:0:
131,133,20401,1,8,3:3:0:0:
268,137,20476,1,8,3:1:0:0:
282,75,20551,1,8,3:1:0:0:
422,69,20626,1,8,3:3:0:0:
475,70,20701,1,8,3:1:0:0:
333,200,20776,1,8,3:3:0:0:
270,195,20851,1,8,3:1:0:0:
451,331,20926,5,12,3:3:0:0:
461,273,21001,1,0,3:3:0:0:
443,217,21076,1,0,3:3:0:0:
388,194,21151,1,0,3:3:0:0:
329,188,21226,1,10,3:3:0:0:
270,185,21301,1,0,3:3:0:0:
329,188,21376,1,0,3:3:0:0:
387,186,21451,1,0,3:3:0:0:
254,50,21526,1,10,3:3:0:0:
244,107,21601,1,0,3:3:0:0:
268,160,21676,1,0,3:3:0:0:
329,188,21751,1,0,3:3:0:0:
390,201,21826,1,10,3:3:0:0:
452,209,21901,1,0,3:3:0:0:
298,265,21976,1,0,3:3:0:0:
239,264,22051,1,0,3:3:0:0:
377,40,22126,5,10,3:3:0:0:
400,79,22201,1,0,3:3:0:0:
377,116,22276,1,0,3:3:0:0:
332,126,22351,1,0,3:3:0:0:
190,113,22426,1,10,3:3:0:0:
196,164,22501,1,0,3:3:0:0:
246,185,22576,1,0,3:3:0:0:
297,192,22651,1,0,3:3:0:0:
139,251,22726,1,10,3:3:0:0:
80,253,22801,1,0,3:3:0:0:
217,291,22876,1,0,3:3:0:0:
275,294,22951,1,0,3:3:0:0:
137,341,23026,1,10,3:3:0:0:
114,282,23101,1,0,3:3:0:0:
255,226,23176,1,0,3:3:0:0:
264,171,23251,1,0,3:3:0:0:
80,65,23326,5,14,3:3:0:0:
58,119,23401,1,0,3:3:0:0:
81,172,23476,1,0,3:3:0:0:
131,189,23551,1,0,3:3:0:0:
188,180,23626,1,10,3:3:0:0:
217,129,23701,1,0,3:3:0:0:
187,78,23776,1,0,3:3:0:0:
130,62,23851,1,0,3:3:0:0:
267,210,23926,1,10,3:3:0:0:
289,264,24001,1,0,3:3:0:0:
266,317,24076,1,0,3:3:0:0:
216,334,24151,1,0,3:3:0:0:
159,325,24226,1,10,3:3:0:0:
130,274,24301,1,0,3:3:0:0:
160,223,24376,1,0,3:3:0:0:
217,207,24451,1,0,3:3:0:0:
355,49,24526,5,10,3:3:0:0:
362,106,24601,1,0,3:3:0:0:
290,127,24676,1,0,3:3:0:0:
297,184,24751,1,0,3:3:0:0:
157,49,24826,1,10,3:3:0:0:
150,106,24901,1,0,3:3:0:0:
222,127,24976,1,0,3:3:0:0:
215,184,25051,1,0,3:3:0:0:
353,273,25126,2,0,L|441:268,3,56.25,10|0|0|0,3:3|0:0|0:0|3:3,0:0:0:0:
251,329,25426,1,10,3:3:0:0:
197,325,25501,1,0,3:3:0:0:
333,205,25576,1,2,3:3:0:0:
279,200,25651,1,0,3:3:0:0:
93,68,25726,5,12,3:3:0:0:
72,114,25801,1,0,3:3:0:0:
93,154,25876,1,0,3:3:0:0:
142,176,25951,1,0,3:3:0:0:
282,51,26026,1,0,3:3:0:0:
237,48,26101,1,0,3:3:0:0:
96,40,26176,1,8,3:3:0:0:
312,51,26326,5,12,3:3:0:0:
370,78,26401,1,0,3:3:0:0:
389,130,26476,1,0,3:3:0:0:
368,179,26551,1,0,3:3:0:0:
230,264,26626,1,0,3:3:0:0:
282,261,26701,1,0,3:3:0:0:
416,253,26776,1,8,3:3:0:0:
189,128,26926,5,12,3:3:0:0:
144,135,27001,1,0,3:3:0:0:
99,142,27076,1,0,3:3:0:0:
144,135,27151,1,0,3:3:0:0:
282,51,27226,1,0,3:3:0:0:
223,47,27301,1,0,3:3:0:0:
86,39,27376,1,8,3:3:0:0:
357,115,27526,5,12,3:3:0:0:
377,165,27601,1,0,3:3:0:0:
357,201,27676,1,0,3:3:0:0:
301,212,27751,1,0,3:3:0:0:
165,291,27826,1,8,3:3:0:0:
219,291,27901,1,0,3:3:0:0:
379,306,27976,1,0,3:3:0:0:
325,301,28051,1,0,3:3:0:0:
163,70,28126,5,12,3:3:0:0:
105,83,28201,1,0,3:3:0:0:
61,122,28276,1,0,3:3:0:0:
41,177,28351,1,0,3:3:0:0:
64,230,28426,1,8,3:3:0:0:
116,256,28501,1,0,3:3:0:0:
254,73,28576,1,0,3:3:0:0:
307,70,28651,1,0,3:3:0:0:
163,71,28726,5,12,3:3:0:0:
141,125,28801,1,0,3:3:0:0:
165,178,28876,1,0,3:3:0:0:
217,203,28951,1,0,3:3:0:0:
274,213,29026,1,8,3:3:0:0:
332,213,29101,1,0,3:3:0:0:
195,283,29176,1,0,3:3:0:0:
141,283,29251,1,0,3:3:0:0:
320,54,29326,5,12,3:3:0:0:
382,51,29401,1,8,3:3:0:0:
192,54,29476,1,8,3:3:0:0:
130,51,29551,1,8,3:3:0:0:
320,54,29626,1,8,3:1:0:0:
382,51,29701,1,8,3:1:0:0:
320,54,29776,1,8,3:1:0:0:
257,56,29851,1,8,3:1:0:0:
434,188,29926,1,12,3:3:0:0:
496,183,30001,1,8,3:3:0:0:
355,337,30076,1,8,3:1:0:0:
330,283,30151,1,8,3:1:0:0:
351,230,30226,1,8,3:1:0:0:
408,208,30301,1,8,3:1:0:0:
180,155,30376,1,8,3:1:0:0:
121,157,30451,1,8,3:1:0:0:
353,117,30526,5,4,1:3:0:0:
256,192,30676,12,0,34726,2:2:0:0:
445,184,35026,6,0,P|448:250|384:282,1,135,0|8,3:3|3:3,0:0:0:0:
206,326,35326,5,8,3:3:0:0:
153,323,35401,1,8,3:3:0:0:
220,266,35476,1,8,3:3:0:0:
215,214,35551,1,8,3:3:0:0:
283,198,35626,1,8,3:3:0:0:
278,146,35701,1,8,3:3:0:0:
346,141,35776,1,8,3:3:0:0:
341,89,35851,1,8,3:3:0:0:
157,62,35926,2,0,P|108:87|169:145,1,135,8|8,3:3|3:3,0:0:0:0:
320,317,36226,5,8,3:3:0:0:
373,314,36301,1,8,3:3:0:0:
320,317,36376,1,8,3:3:0:0:
266,318,36451,1,8,3:3:0:0:
448,52,36526,2,0,P|474:110|404:142,1,135,8|8,3:3|3:3,0:0:0:0:
192,324,36826,5,8,3:3:0:0:
133,324,36901,1,8,3:3:0:0:
271,231,36976,1,8,3:3:0:0:
330,231,37051,1,8,3:3:0:0:
193,101,37126,1,8,3:3:0:0:
180,158,37201,1,8,3:3:0:0:
319,101,37276,1,8,3:3:0:0:
332,158,37351,1,8,3:3:0:0:
102,49,37426,2,0,P|70:101|149:143,1,135,8|8,3:3|3:3,0:0:0:0:
341,164,37726,5,8,3:3:0:0:
403,161,37801,1,8,3:3:0:0:
262,218,37876,1,8,3:3:0:0:
248,271,37951,1,8,3:3:0:0:
107,281,38026,1,8,3:3:0:0:
93,335,38101,1,8,3:3:0:0:
230,92,38176,1,8,3:3:0:0:
244,146,38251,1,8,3:3:0:0:
474,303,38326,2,0,P|485:243|425:203,1,135,8|8,3:3|3:3,0:0:0:0:
219,212,38626,5,8,3:3:0:0:
156,212,38701,1,8,3:3:0:0:
293,212,38776,1,8,3:3:0:0:
356,212,38851,1,8,3:3:0:0:
125,52,38926,2,0,P|76:67|109:150,1,135,8|8,3:3|3:3,0:0:0:0:
307,141,39226,5,8,3:3:0:0:
374,144,39301,1,8,3:3:0:0:
205,141,39376,1,8,3:3:0:0:
138,144,39451,1,8,3:3:0:0:
307,141,39526,1,8,3:3:0:0:
374,144,39601,1,8,3:3:0:0:
307,141,39676,1,8,3:1:0:0:
374,144,39751,1,8,3:1:0:0:
131,334,39826,1,8,3:3:0:0:
77,304,39901,1,0,0:0:0:0:
57,245,39976,1,0,3:3:0:0:
78,198,40051,1,0,0:0:0:0:
394,128,40126,5,12,1:2:0:0:
394,70,40276,1,0,3:3:0:0:
349,70,40351,1,0,3:3:0:0:
318,103,40426,1,8,3:1:0:0:
325,147,40501,1,0,3:3:0:0:
353,181,40576,1,0,3:3:0:0:
397,188,40651,1,0,3:3:0:0:
260,300,40726,6,0,L|66:282,1,180,8|0,3:3|0:0,0:0:0:0:
125,282,41101,1,0,3:3:0:0:
169,282,41176,1,0,3:3:0:0:
213,278,41251,1,0,3:3:0:0:
76,66,41326,6,0,P|42:102|125:166,1,180,8|0,3:3|0:0,0:0:0:0:
170,187,41701,1,0,3:3:0:0:
120,186,41776,1,0,3:3:0:0:
70,186,41851,1,0,3:3:0:0:
205,263,41926,1,8,3:3:0:0:
257,252,42001,1,0,3:3:0:0:
290,209,42076,1,0,3:3:0:0:
299,155,42151,1,0,3:3:0:0:
268,110,42226,2,0,L|163:105,1,90,8|0,3:1|0:0,0:0:0:0:
223,106,42451,1,0,0:0:0:0:
358,117,42526,5,8,3:3:0:0:
402,120,42601,1,0,3:3:0:0:
446,120,42676,1,0,3:3:0:0:
481,147,42751,1,0,3:3:0:0:
494,189,42826,1,8,3:1:0:0:
483,232,42901,1,0,3:3:0:0:
454,267,42976,1,0,3:3:0:0:
413,287,43051,1,0,3:3:0:0:
277,343,43126,6,0,L|94:338,1,180,8|0,3:3|0:0,0:0:0:0:
141,332,43501,1,0,3:3:0:0:
279,248,43576,1,0,3:3:0:0:
324,242,43651,1,0,3:3:0:0:
156,71,43726,6,0,P|149:136|251:188,1,180,8|0,3:3|0:0,0:0:0:0:
281,190,44101,1,0,3:3:0:0:
311,157,44176,1,0,3:3:0:0:
324,107,44251,1,0,3:3:0:0:
185,316,44326,1,8,3:3:0:0:
172,265,44401,1,0,3:3:0:0:
243,260,44476,1,0,3:3:0:0:
256,209,44551,1,0,3:3:0:0:
108,184,44626,1,8,3:1:0:0:
20,182,44776,1,0,3:3:0:0:
300,48,44926,5,8,1:3:0:0:
342,61,45001,1,0,3:3:0:0:
376,90,45076,1,0,3:3:0:0:
395,130,45151,1,0,3:3:0:0:
392,174,45226,1,8,3:1:0:0:
364,209,45301,1,0,3:3:0:0:
320,219,45376,1,0,3:3:0:0:
275,220,45451,1,0,3:3:0:0:
133,326,45526,6,0,P|127:263|231:210,1,180,8|0,3:3|0:0,0:0:0:0:
265,202,45901,1,0,3:3:0:0:
288,158,45976,1,0,3:3:0:0:
265,119,46051,1,0,3:3:0:0:
126,76,46126,6,0,L|319:55,1,180,8|0,3:3|0:0,0:0:0:0:
255,54,46501,1,0,3:3:0:0:
205,50,46576,1,0,3:3:0:0:
155,46,46651,1,0,3:3:0:0:
298,226,46726,5,8,3:3:0:0:
351,231,46801,1,0,3:3:0:0:
298,226,46876,1,0,3:3:0:0:
244,221,46951,1,0,3:3:0:0:
298,226,47026,2,0,L|395:216,1,90,8|0,3:1|0:0,0:0:0:0:
342,213,47251,1,0,0:0:0:0:
183,64,47326,5,8,3:3:0:0:
232,69,47401,1,0,3:3:0:0:
274,94,47476,1,0,3:3:0:0:
295,138,47551,1,0,3:3:0:0:
286,186,47626,1,8,3:1:0:0:
246,215,47701,1,0,3:3:0:0:
197,226,47776,1,0,3:3:0:0:
246,215,47851,1,0,3:3:0:0:
387,331,47926,6,0,P|428:310|362:227,1,180,8|0,3:3|0:0,0:0:0:0:
329,226,48301,1,0,3:3:0:0:
194,235,48376,1,0,3:3:0:0:
140,236,48451,1,0,3:3:0:0:
301,73,48526,5,8,3:3:0:0:
355,73,48601,1,8,3:3:0:0:
211,73,48676,1,8,3:3:0:0:
157,73,48751,1,8,3:3:0:0:
301,73,48826,1,8,3:1:0:0:
315,137,48901,1,8,3:3:0:0:
455,166,48976,1,8,3:1:0:0:
469,230,49051,1,8,3:3:0:0:
319,300,49126,5,8,3:1:0:0:
193,223,49276,1,8,3:1:0:0:
319,167,49426,1,8,3:1:0:0:
102,160,49576,1,8,3:1:0:0:
410,160,49726,5,12,1:3:0:0:
446,260,49876,1,0,3:3:0:0:
383,253,49951,1,0,3:3:0:0:
320,243,50026,1,8,3:3:0:0:
383,253,50101,1,0,3:3:0:0:
446,260,50176,1,0,3:3:0:0:
383,253,50251,1,0,3:3:0:0:
239,234,50326,1,8,3:3:0:0:
148,223,50476,1,0,3:3:0:0:
275,135,50626,1,8,3:3:0:0:
337,139,50701,1,0,3:3:0:0:
274,135,50776,1,0,3:3:0:0:
211,129,50851,1,0,3:3:0:0:
73,83,50926,5,8,3:3:0:0:
164,79,51076,1,0,3:3:0:0:
38,143,51226,1,8,3:3:0:0:
53,203,51301,1,0,3:3:0:0:
99,245,51376,1,0,3:3:0:0:
161,254,51451,1,0,3:3:0:0:
302,73,51526,1,8,3:3:0:0:
363,85,51601,1,0,3:3:0:0:
386,145,51676,1,0,3:3:0:0:
357,198,51751,1,0,3:3:0:0:
219,195,51826,1,8,3:3:0:0:
126,184,51976,1,0,3:3:0:0:
367,337,52126,5,8,3:3:0:0:
433,321,52201,1,0,3:3:0:0:
480,280,52276,1,0,3:3:0:0:
499,220,52351,1,0,3:3:0:0:
487,158,52426,1,8,3:3:0:0:
439,116,52501,1,0,3:3:0:0:
377,102,52576,1,0,3:3:0:0:
314,99,52651,1,0,3:3:0:0:
176,207,52726,1,8,3:3:0:0:
270,202,52876,1,0,3:3:0:0:
144,91,53026,2,0,L|81:90,3,56.25,8|0|0|0,3:3|0:0|0:0|0:0,0:0:0:0:
237,287,53326,5,8,3:3:0:0:
326,281,53476,1,0,3:3:0:0:
201,185,53626,1,8,3:3:0:0:
138,180,53701,1,0,3:3:0:0:
201,180,53776,1,0,3:3:0:0:
263,176,53851,1,0,3:3:0:0:
123,66,53926,1,8,3:3:0:0:
69,62,54001,1,0,3:3:0:0:
210,112,54076,1,0,3:3:0:0:
264,108,54151,1,0,3:3:0:0:
123,242,54226,1,8,3:3:0:0:
32,234,54376,1,0,3:3:0:0:
299,307,54526,5,8,1:3:0:0:
361,304,54601,1,0,3:3:0:0:
298,300,54676,1,0,3:3:0:0:
235,291,54751,1,0,3:3:0:0:
297,283,54826,1,8,3:3:0:0:
359,275,54901,1,0,3:3:0:0:
296,270,54976,1,0,3:3:0:0:
233,266,55051,1,0,3:3:0:0:
379,184,55126,1,8,3:3:0:0:
470,178,55276,1,0,3:3:0:0:
341,115,55426,1,8,3:3:0:0:
403,108,55501,1,0,3:3:0:0:
465,101,55576,1,0,3:3:0:0:
403,108,55651,1,0,3:3:0:0:
265,191,55726,5,8,3:3:0:0:
173,179,55876,1,0,3:3:0:0:
301,275,56026,1,8,3:3:0:0:
322,228,56101,1,0,3:3:0:0:
303,190,56176,1,0,3:3:0:0:
254,178,56251,1,0,3:3:0:0:
119,87,56326,1,8,3:3:0:0:
132,142,56401,1,0,3:3:0:0:
179,165,56476,1,0,3:3:0:0:
239,170,56551,1,0,3:3:0:0:
99,246,56626,1,8,3:3:0:0:
15,236,56776,1,0,3:3:0:0:
295,60,56926,5,8,3:3:0:0:
348,62,57001,1,0,3:3:0:0:
210,119,57076,1,0,3:3:0:0:
157,120,57151,1,0,3:3:0:0:
295,191,57226,1,8,3:3:0:0:
327,230,57301,1,0,3:3:0:0:
189,209,57376,1,0,3:3:0:0:
171,261,57451,1,0,3:3:0:0:
323,347,57526,1,8,3:3:0:0:
330,288,57601,1,8,3:3:0:0:
337,230,57676,1,8,3:1:0:0:
227,72,57826,1,8,3:3:0:0:
173,71,57901,1,8,3:1:0:0:
312,145,57976,1,8,3:1:0:0:
366,146,58051,1,8,3:3:0:0:
181,152,58126,5,8,3:1:0:0:
127,152,58201,1,8,3:1:0:0:
266,303,58276,1,8,3:3:0:0:
221,259,58351,1,8,3:3:0:0:
83,266,58426,1,8,3:3:0:0:
60,200,58501,1,8,3:3:0:0:
199,87,58576,1,8,3:1:0:0:
208,31,58651,1,8,3:1:0:0:
344,92,58726,1,8,3:3:0:0:
335,149,58801,1,8,3:3:0:0:
291,188,58876,1,8,3:1:0:0:
229,202,58951,1,8,3:1:0:0:
367,263,59026,1,8,3:3:0:0:
429,256,59101,1,8,3:3:0:0:
248,336,59176,1,8,3:1:0:0:
185,331,59251,1,8,3:1:0:0:
373,337,59326,5,8,1:1:0:0:
355,285,59401,1,0,3:3:0:0:
317,245,59476,1,0,3:3:0:0:
264,232,59551,1,0,3:3:0:0:
205,231,59626,1,10,3:1:0:0:
263,228,59701,1,0,3:3:0:0:
321,221,59776,1,0,3:3:0:0:
378,211,59851,1,0,3:3:0:0:
241,86,59926,1,10,3:1:0:0:
183,97,60001,1,0,3:3:0:0:
160,151,60076,1,0,3:3:0:0:
181,205,60151,1,0,3:3:0:0:
321,142,60226,1,10,3:1:0:0:
379,138,60301,1,0,3:3:0:0:
241,86,60376,5,0,3:3:0:0:
258,141,60451,1,0,3:3:0:0:
303,177,60526,1,10,3:1:0:0:
360,185,60601,1,0,3:3:0:0:
217,317,60676,1,0,3:3:0:0:
159,309,60751,1,0,3:3:0:0:
106,283,60826,1,10,3:1:0:0:
77,231,60901,1,0,3:3:0:0:
90,174,60976,1,0,3:3:0:0:
136,138,61051,1,0,3:3:0:0:
274,78,61126,1,10,3:1:0:0:
296,132,61201,1,0,3:3:0:0:
275,186,61276,1,0,3:3:0:0:
216,195,61351,1,0,3:3:0:0:
79,82,61426,1,10,3:1:0:0:
20,82,61501,1,0,3:3:0:0:
181,286,61576,5,2,3:3:0:0:
160,231,61651,1,0,3:3:0:0:
106,207,61726,1,10,3:1:0:0:
47,201,61801,1,0,3:3:0:0:
207,360,61876,1,2,3:3:0:0:
265,353,61951,1,0,3:3:0:0:
318,329,62026,1,10,3:1:0:0:
344,276,62101,1,0,3:3:0:0:
339,217,62176,1,0,3:3:0:0:
294,179,62251,1,0,3:3:0:0:
135,62,62326,1,10,3:1:0:0:
122,118,62401,1,0,3:3:0:0:
191,132,62476,1,0,3:3:0:0:
204,188,62551,1,0,3:3:0:0:
362,41,62626,1,10,3:1:0:0:
375,97,62701,1,0,3:3:0:0:
306,111,62776,1,0,3:3:0:0:
293,167,62851,1,0,3:3:0:0:
473,215,62926,5,10,3:1:0:0:
487,271,63001,1,0,3:3:0:0:
452,317,63076,1,0,3:3:0:0:
393,322,63151,1,0,3:3:0:0:
212,314,63226,1,10,3:1:0:0:
149,309,63301,1,0,3:3:0:0:
337,215,63376,1,0,3:3:0:0:
399,209,63451,1,0,3:3:0:0:
336,207,63526,1,10,3:1:0:0:
273,203,63601,1,0,3:3:0:0:
210,198,63676,1,0,3:3:0:0:
272,195,63751,1,0,3:3:0:0:
456,110,63826,1,10,1:1:0:0:
229,109,63976,1,0,3:3:0:0:
456,110,64126,5,10,1:1:0:0:
480,161,64201,1,0,0:0:0:0:
456,214,64276,1,0,3:3:0:0:
402,223,64351,1,0,0:0:0:0:
261,225,64426,1,10,3:1:0:0:
211,221,64501,1,0,3:3:0:0:
349,135,64576,1,0,3:3:0:0:
299,132,64651,1,0,3:3:0:0:
154,57,64726,5,10,1:1:0:0:
130,108,64801,1,0,3:3:0:0:
154,161,64876,1,0,3:3:0:0:
214,170,64951,1,0,3:3:0:0:
78,271,65026,1,10,3:1:0:0:
127,268,65101,1,0,3:3:0:0:
273,260,65176,1,0,3:3:0:0:
322,258,65251,1,0,3:3:0:0:
173,345,65326,5,10,1:1:0:0:
114,345,65401,1,0,3:3:0:0:
59,324,65476,1,0,3:3:0:0:
24,276,65551,1,0,3:3:0:0:
14,218,65626,1,10,3:1:0:0:
28,161,65701,1,0,3:3:0:0:
62,113,65776,1,0,3:3:0:0:
115,89,65851,1,0,3:3:0:0:
177,84,65926,1,10,3:1:0:0:
239,75,66001,1,0,3:3:0:0:
177,84,66076,1,0,3:3:0:0:
115,89,66151,1,0,3:3:0:0:
255,234,66226,1,10,1:1:0:0:
308,233,66301,1,0,3:3:0:0:
170,302,66376,1,0,3:3:0:0:
116,301,66451,1,0,3:3:0:0:
293,123,66526,5,10,1:1:0:0:
279,175,66601,1,0,3:3:0:0:
236,215,66676,1,0,3:3:0:0:
178,224,66751,1,0,3:3:0:0:
236,227,66826,1,10,3:1:0:0:
294,230,66901,1,0,3:3:0:0:
235,229,66976,1,0,3:3:0:0:
176,225,67051,1,0,3:3:0:0:
319,64,67126,1,10,1:1:0:0:
382,64,67201,1,0,3:3:0:0:
319,64,67276,1,0,3:3:0:0:
382,64,67351,1,0,3:3:0:0:
239,136,67426,1,10,3:1:0:0:
176,136,67501,1,0,3:3:0:0:
239,136,67576,1,0,3:3:0:0:
176,136,67651,1,0,3:3:0:0:
317,265,67726,5,10,3:1:0:0:
375,261,67801,1,8,3:1:0:0:
195,265,67876,1,8,3:1:0:0:
137,261,67951,1,8,3:1:0:0:
317,265,68026,1,8,3:1:0:0:
258,263,68101,1,8,3:1:0:0:
75,154,68176,1,8,3:3:0:0:
254,151,68251,1,8,3:3:0:0:
434,141,68326,1,10,3:1:0:0:
117,226,68926,5,12,1:3:0:0:
100,128,69076,1,0,3:3:0:0:
245,319,69226,1,10,3:1:0:0:
263,221,69376,1,0,3:3:0:0:
406,228,69526,1,10,3:3:0:0:
388,130,69676,1,0,3:3:0:0:
244,121,69826,1,10,3:1:0:0:
460,69,69976,1,0,3:3:0:0:
244,121,70126,6,0,L|351:125,1,90,10|0,3:1|0:0,0:0:0:0:
188,193,70426,1,10,3:1:0:0:
183,228,70501,1,8,3:1:0:0:
178,263,70576,1,8,3:1:0:0:
322,308,70726,2,0,L|205:316,1,90,10|0,3:3|0:0,0:0:0:0:
378,175,71026,1,10,3:1:0:0:
383,210,71101,1,8,3:1:0:0:
388,245,71176,1,8,3:1:0:0:
162,68,71326,5,12,1:1:0:0:
144,165,71476,1,0,3:3:0:0:
289,177,71626,1,10,3:1:0:0:
307,274,71776,1,0,3:3:0:0:
144,165,71926,1,10,3:3:0:0:
234,162,72076,1,0,3:3:0:0:
89,74,72226,1,10,3:1:0:0:
104,124,72301,1,0,3:3:0:0:
154,151,72376,1,0,3:3:0:0:
212,156,72451,1,0,3:3:0:0:
442,165,72526,5,10,3:1:0:0:
442,165,73126,5,0,0:0:0:0:
70,165,73276,1,0,0:0:0:0:
70,165,73726,5,12,1:1:0:0:
53,262,73876,1,0,3:3:0:0:
201,160,74026,1,10,3:1:0:0:
290,153,74176,1,0,3:3:0:0:
146,75,74326,1,10,3:3:0:0:
235,68,74476,1,0,3:3:0:0:
380,63,74626,1,10,3:1:0:0:
399,160,74776,1,0,3:3:0:0:
110,116,74926,5,10,3:1:0:0:
66,126,75001,1,0,3:3:0:0:
32,155,75076,1,0,3:3:0:0:
16,197,75151,1,0,3:3:0:0:
28,240,75226,1,10,3:1:0:0:
58,273,75301,1,0,3:3:0:0:
100,289,75376,1,0,3:3:0:0:
144,290,75451,1,0,3:3:0:0:
188,285,75526,1,10,3:3:0:0:
143,277,75601,1,0,3:3:0:0:
98,272,75676,1,0,3:3:0:0:
142,264,75751,1,0,3:3:0:0:
179,238,75826,1,10,3:1:0:0:
192,195,75901,1,0,3:3:0:0:
173,153,75976,1,0,3:3:0:0:
132,134,76051,1,0,3:3:0:0:
268,156,76126,5,2,3:3:0:0:
324,172,76201,1,0,3:3:0:0:
348,225,76276,1,0,3:3:0:0:
327,279,76351,1,0,3:3:0:0:
264,297,76426,1,10,3:1:0:0:
202,271,76501,1,0,3:3:0:0:
181,214,76576,1,0,3:3:0:0:
212,164,76651,1,0,3:3:0:0:
256,160,76726,1,10,3:3:0:0:
314,153,76801,1,0,3:3:0:0:
255,149,76876,1,0,3:3:0:0:
196,147,76951,1,0,3:3:0:0:
149,182,77026,1,10,3:1:0:0:
135,238,77101,1,0,3:3:0:0:
150,294,77176,1,0,3:3:0:0:
193,333,77251,1,0,3:3:0:0:
331,309,77326,5,8,3:3:0:0:
385,308,77401,1,8,3:3:0:0:
243,226,77476,1,8,3:3:0:0:
190,222,77551,1,8,3:3:0:0:
331,309,77626,1,8,3:3:0:0:
385,308,77701,1,8,3:1:0:0:
331,309,77776,1,8,3:3:0:0:
277,310,77851,1,8,3:1:0:0:
413,190,77926,1,8,3:3:0:0:
466,190,78001,1,8,3:1:0:0:
213,91,78076,1,8,3:1:0:0:
199,147,78151,1,8,3:1:0:0:
334,161,78226,1,8,3:1:0:0:
387,163,78301,1,8,3:1:0:0:
178,161,78376,1,8,3:1:0:0:
115,162,78451,1,8,3:1:0:0:
385,313,78526,5,12,1:1:0:0:
438,310,78601,1,0,3:3:0:0:
491,307,78676,1,0,3:3:0:0:
438,310,78751,1,0,3:3:0:0:
279,232,78826,1,10,3:3:0:0:
332,229,78901,1,0,3:3:0:0:
385,226,78976,1,0,3:3:0:0:
332,229,79051,1,0,3:3:0:0:
174,170,79126,1,10,3:3:0:0:
227,167,79201,1,0,3:3:0:0:
280,164,79276,1,0,3:3:0:0:
227,167,79351,1,0,3:3:0:0:
66,41,79426,1,10,3:3:0:0:
46,91,79501,1,0,3:3:0:0:
66,140,79576,1,0,3:3:0:0:
117,157,79651,1,0,3:3:0:0:
277,77,79726,5,10,3:3:0:0:
384,73,79876,1,0,3:3:0:0:
330,75,79951,1,0,0:0:0:0:
277,77,80026,1,10,3:3:0:0:
169,70,80176,1,0,3:3:0:0:
223,70,80251,1,0,0:0:0:0:
169,70,80326,1,10,3:3:0:0:
125,101,80401,1,0,3:3:0:0:
108,152,80476,1,0,3:3:0:0:
142,193,80551,1,0,0:0:0:0:
300,203,80626,1,10,3:3:0:0:
353,199,80701,1,0,3:3:0:0:
406,197,80776,1,0,3:3:0:0:
169,119,80926,5,12,1:3:0:0:
222,118,81001,1,0,3:3:0:0:
275,114,81076,1,0,3:3:0:0:
328,109,81151,1,0,3:3:0:0:
171,348,81226,1,10,3:3:0:0:
117,340,81301,1,0,3:3:0:0:
95,290,81376,1,0,3:3:0:0:
116,240,81451,1,0,3:3:0:0:
277,224,81526,1,10,3:3:0:0:
330,220,81601,1,0,3:3:0:0:
277,224,81676,1,0,3:3:0:0:
330,220,81751,1,0,3:3:0:0:
169,125,81826,1,10,3:3:0:0:
116,121,81901,1,0,3:3:0:0:
169,125,81976,1,0,3:3:0:0:
116,121,82051,1,0,3:3:0:0:
274,40,82126,5,10,3:3:0:0:
297,84,82201,1,0,3:3:0:0:
273,122,82276,1,0,3:3:0:0:
220,134,82351,1,0,3:3:0:0:
273,138,82426,1,10,3:3:0:0:
326,141,82501,1,0,3:3:0:0:
379,143,82576,1,0,3:3:0:0:
326,141,82651,1,0,3:3:0:0:
120,255,82726,5,10,3:3:0:0:
110,158,82876,1,0,3:3:0:0:
392,255,83026,5,10,3:3:0:0:
402,158,83176,1,0,3:3:0:0:
352,153,83251,1,0,3:3:0:0:
212,313,83326,5,12,1:3:0:0:
158,312,83401,1,0,3:3:0:0:
212,313,83476,1,0,3:3:0:0:
265,314,83551,1,0,3:3:0:0:
424,63,83626,1,10,3:3:0:0:
406,113,83701,1,0,3:3:0:0:
362,144,83776,1,0,3:3:0:0:
309,152,83851,1,0,3:3:0:0:
148,122,83926,1,10,3:3:0:0:
166,172,84001,1,0,3:3:0:0:
210,203,84076,1,0,3:3:0:0:
263,211,84151,1,0,3:3:0:0:
424,63,84226,1,10,3:3:0:0:
406,113,84301,1,0,3:3:0:0:
362,144,84376,1,0,3:3:0:0:
309,152,84451,1,0,3:3:0:0:
469,215,84526,5,10,1:3:0:0:
491,264,84601,1,0,3:3:0:0:
468,313,84676,1,0,3:3:0:0:
415,325,84751,1,0,3:3:0:0:
257,130,84826,1,10,3:3:0:0:
235,179,84901,1,0,3:3:0:0:
258,228,84976,1,0,3:3:0:0:
311,240,85051,1,0,3:3:0:0:
154,312,85126,1,10,3:3:0:0:
97,306,85201,1,0,3:3:0:0:
154,312,85276,1,0,3:3:0:0:
97,306,85351,1,0,3:3:0:0:
260,147,85426,1,10,3:3:0:0:
313,144,85501,1,0,3:3:0:0:
154,73,85576,1,0,3:3:0:0:
207,70,85651,1,0,3:3:0:0:
368,281,85726,5,12,1:3:0:0:
314,278,85801,1,0,3:3:0:0:
260,273,85876,1,0,3:3:0:0:
206,268,85951,1,0,3:3:0:0:
367,59,86026,1,10,3:3:0:0:
420,62,86101,1,0,3:3:0:0:
467,87,86176,1,0,3:3:0:0:
487,137,86251,1,0,3:3:0:0:
470,188,86326,1,10,3:3:0:0:
437,230,86401,1,0,3:3:0:0:
388,253,86476,1,0,3:3:0:0:
334,258,86551,1,0,3:3:0:0:
176,154,86626,1,10,3:3:0:0:
155,203,86701,1,0,3:3:0:0:
175,252,86776,1,0,3:3:0:0:
228,257,86851,1,0,3:3:0:0:
408,113,86926,5,8,3:3:0:0:
349,108,87001,1,8,3:3:0:0:
177,95,87076,1,8,3:3:0:0:
163,148,87151,1,8,3:3:0:0:
313,171,87226,1,8,3:1:0:0:
327,224,87301,1,8,3:3:0:0:
177,95,87376,1,8,3:1:0:0:
163,148,87451,1,8,3:1:0:0:
313,228,87526,1,8,3:3:0:0:
327,281,87601,1,8,3:3:0:0:
476,248,87676,1,8,3:1:0:0:
490,300,87751,1,8,3:1:0:0:
327,187,87826,1,8,3:1:0:0:
268,187,87901,1,8,3:1:0:0:
327,187,87976,1,8,3:1:0:0:
385,184,88051,1,8,3:1:0:0:
98,224,88126,5,12,1:3:0:0:
75,185,88201,1,0,3:3:0:0:
91,142,88276,1,0,3:3:0:0:
130,119,88351,1,0,3:3:0:0:
175,125,88426,1,8,3:1:0:0:
195,165,88501,1,0,3:3:0:0:
180,207,88576,1,0,3:3:0:0:
142,230,88651,1,0,3:3:0:0:
284,313,88726,6,0,L|477:303,1,180,8|0,3:3|0:0,0:0:0:0:
420,295,89101,1,0,3:3:0:0:
376,290,89176,1,0,3:3:0:0:
332,284,89251,1,0,3:3:0:0:
165,257,89326,6,0,P|119:239|176:151,1,180,8|0,3:3|0:0,0:0:0:0:
209,150,89701,1,0,3:3:0:0:
254,154,89776,1,0,3:3:0:0:
299,156,89851,1,0,3:3:0:0:
160,79,89926,5,8,3:3:0:0:
107,83,90001,1,0,3:3:0:0:
160,79,90076,1,0,3:3:0:0:
214,74,90151,1,0,3:3:0:0:
160,79,90226,2,0,B|95:82|95:82|95:139|95:139|134:138,1,135,8|0,3:1|3:3,0:0:0:0:
258,338,90526,5,8,3:3:0:0:
302,314,90601,1,0,3:3:0:0:
331,273,90676,1,0,3:3:0:0:
336,223,90751,1,0,3:3:0:0:
314,178,90826,1,8,3:1:0:0:
283,139,90901,1,0,3:3:0:0:
244,109,90976,1,0,3:3:0:0:
196,99,91051,1,0,3:3:0:0:
339,42,91126,6,0,P|394:62|372:171,1,180,8|0,3:3|0:0,0:0:0:0:
337,170,91501,1,0,3:3:0:0:
382,167,91576,1,0,3:3:0:0:
427,165,91651,1,0,3:3:0:0:
279,328,91726,6,0,P|231:306|286:209,1,180,8|0,3:3|0:0,0:0:0:0:
313,204,92101,1,0,3:3:0:0:
358,200,92176,1,0,3:3:0:0:
403,197,92251,1,0,3:3:0:0:
265,115,92326,5,8,3:3:0:0:
212,123,92401,1,0,3:3:0:0:
170,155,92476,1,0,3:3:0:0:
152,205,92551,1,0,3:3:0:0:
162,258,92626,1,8,3:1:0:0:
209,285,92701,1,0,0:0:0:0:
353,53,92776,1,0,3:3:0:0:
407,51,92851,1,0,0:0:0:0:
224,321,92926,5,12,1:3:0:0:
194,281,93001,1,0,3:3:0:0:
198,231,93076,1,0,3:3:0:0:
223,188,93151,1,0,3:3:0:0:
264,160,93226,1,8,3:1:0:0:
312,147,93301,1,0,3:3:0:0:
362,143,93376,1,0,3:3:0:0:
315,129,93451,1,0,3:3:0:0:
173,68,93526,6,0,P|120:69|133:179,1,180,8|0,3:3|0:0,0:0:0:0:
167,164,93901,1,0,3:3:0:0:
217,165,93976,1,0,3:3:0:0:
267,165,94051,1,0,3:3:0:0:
404,297,94126,6,0,P|449:275|377:200,1,180,8|0,3:3|0:0,0:0:0:0:
346,184,94501,1,0,3:3:0:0:
306,155,94576,1,0,3:3:0:0:
283,111,94651,1,0,3:3:0:0:
426,41,94726,5,8,3:3:0:0:
412,83,94801,1,0,3:3:0:0:
378,112,94876,1,0,3:3:0:0:
334,122,94951,1,0,3:3:0:0:
284,123,95026,2,0,P|308:175|394:203,1,135,8|0,3:1|3:3,0:0:0:0:
189,331,95326,5,8,3:3:0:0:
139,327,95401,1,0,3:3:0:0:
98,299,95476,1,0,3:3:0:0:
68,258,95551,1,0,3:3:0:0:
58,209,95626,1,8,3:1:0:0:
68,160,95701,1,0,3:3:0:0:
100,122,95776,1,0,3:3:0:0:
148,112,95851,1,0,3:3:0:0:
291,124,95926,6,0,P|350:156|290:234,1,180,8|0,3:3|0:0,0:0:0:0:
253,236,96301,1,0,3:3:0:0:
232,196,96376,1,0,3:3:0:0:
250,154,96451,1,0,3:3:0:0:
395,60,96526,5,8,3:1:0:0:
404,113,96601,1,8,3:3:0:0:
341,124,96676,1,8,3:3:0:0:
350,177,96751,1,8,3:3:0:0:
212,74,96826,1,8,3:1:0:0:
203,127,96901,1,8,3:3:0:0:
340,219,96976,1,8,3:1:0:0:
394,220,97051,1,8,3:3:0:0:
236,340,97126,5,10,3:1:0:0:
353,285,97276,1,10,3:1:0:0:
235,224,97426,1,10,3:1:0:0:
465,249,97576,1,10,3:1:0:0:
101,68,97726,5,12,1:3:0:0:
99,187,97876,1,0,3:3:0:0:
162,191,97951,1,0,3:3:0:0:
225,191,98026,1,8,3:3:0:0:
288,188,98101,1,0,3:3:0:0:
225,191,98176,1,0,3:3:0:0:
162,191,98251,1,0,3:3:0:0:
302,289,98326,5,8,3:3:0:0:
392,282,98476,1,0,3:3:0:0:
266,72,98626,1,8,3:3:0:0:
204,77,98701,1,0,3:3:0:0:
266,72,98776,1,0,3:3:0:0:
329,66,98851,1,0,3:3:0:0:
466,210,98926,5,8,3:3:0:0:
375,207,99076,1,0,3:3:0:0:
496,92,99226,1,8,3:3:0:0:
480,152,99301,1,0,3:3:0:0:
439,199,99376,1,0,3:3:0:0:
380,219,99451,1,0,3:3:0:0:
237,214,99526,5,8,3:3:0:0:
223,152,99601,1,0,3:3:0:0:
291,148,99676,1,0,3:3:0:0:
277,86,99751,1,0,3:3:0:0:
140,83,99826,1,8,3:3:0:0:
51,78,99976,1,0,3:3:0:0:
306,338,100126,5,8,3:3:0:0:
368,324,100201,1,0,3:3:0:0:
415,281,100276,1,0,3:3:0:0:
441,223,100351,1,0,3:3:0:0:
434,160,100426,1,8,3:3:0:0:
393,112,100501,1,0,3:3:0:0:
335,89,100576,1,0,3:3:0:0:
277,86,100651,1,0,3:3:0:0:
136,219,100726,5,8,3:3:0:0:
226,212,100876,1,0,3:3:0:0:
99,130,101026,2,0,L|28:125,3,56.25,8|0|0|0,3:3|0:0|0:0|0:0,0:0:0:0:
189,302,101326,5,8,3:3:0:0:
279,292,101476,1,0,3:3:0:0:
156,216,101626,1,8,3:3:0:0:
219,210,101701,1,0,3:3:0:0:
282,202,101776,1,0,3:3:0:0:
219,210,101851,1,0,3:3:0:0:
84,148,101926,5,8,3:3:0:0:
138,147,102001,1,0,3:3:0:0:
276,150,102076,1,0,3:3:0:0:
330,149,102151,1,0,3:3:0:0:
191,69,102226,1,8,3:3:0:0:
101,67,102376,1,0,3:3:0:0:
360,294,102526,5,12,1:3:0:0:
423,290,102601,1,0,3:3:0:0:
361,286,102676,1,0,3:3:0:0:
299,281,102751,1,0,3:3:0:0:
362,280,102826,1,8,3:3:0:0:
424,266,102901,1,0,3:3:0:0:
362,257,102976,1,0,3:3:0:0:
300,250,103051,1,0,3:3:0:0:
167,187,103126,1,8,3:3:0:0:
257,181,103276,1,0,3:3:0:0:
365,109,103426,1,8,3:3:0:0:
303,104,103501,1,0,3:3:0:0:
241,100,103576,1,0,3:3:0:0:
179,95,103651,1,0,3:3:0:0:
319,304,103726,5,8,3:3:0:0:
409,297,103876,1,0,3:3:0:0:
282,222,104026,1,8,3:3:0:0:
220,215,104101,1,0,3:3:0:0:
196,157,104176,1,0,3:3:0:0:
219,98,104251,1,0,3:3:0:0:
358,62,104326,1,8,3:3:0:0:
379,121,104401,1,0,3:3:0:0:
357,179,104476,1,0,3:3:0:0:
296,194,104551,1,0,3:3:0:0:
151,202,104626,1,8,3:3:0:0:
62,197,104776,1,0,3:3:0:0:
314,88,104926,5,8,3:3:0:0:
367,88,105001,1,0,3:3:0:0:
228,158,105076,1,0,3:3:0:0:
175,158,105151,1,0,3:3:0:0:
314,88,105226,1,8,3:3:0:0:
327,140,105301,1,0,3:3:0:0:
188,197,105376,1,0,3:3:0:0:
201,249,105451,1,0,3:3:0:0:
385,271,105526,1,8,3:3:0:0:
396,218,105601,1,8,3:3:0:0:
407,165,105676,1,8,3:1:0:0:
295,150,105826,1,8,3:3:0:0:
241,147,105901,1,8,3:1:0:0:
295,150,105976,1,8,3:1:0:0:
349,147,106051,1,8,3:3:0:0:
209,48,106126,5,8,3:1:0:0:
155,49,106201,1,8,3:1:0:0:
291,83,106276,1,8,3:3:0:0:
346,85,106351,1,8,3:3:0:0:
208,223,106426,1,8,3:1:0:0:
263,225,106501,1,8,3:1:0:0:
424,234,106576,1,8,3:1:0:0:
436,181,106651,1,8,3:1:0:0:
300,182,106726,1,8,3:3:0:0:
287,129,106801,1,8,3:3:0:0:
149,155,106876,1,8,3:1:0:0:
136,102,106951,1,8,3:3:0:0:
274,87,107026,1,8,3:3:0:0:
327,86,107101,1,8,3:1:0:0:
168,43,107176,1,8,3:1:0:0:
115,42,107251,1,0,0:0:0:0:
311,280,107326,5,8,1:1:0:0:
293,224,107401,1,0,3:3:0:0:
247,186,107476,1,0,3:3:0:0:
188,181,107551,1,0,3:3:0:0:
247,186,107626,1,10,3:1:0:0:
293,224,107701,1,0,3:3:0:0:
311,280,107776,1,0,3:3:0:0:
284,326,107851,1,0,3:3:0:0:
147,120,107926,1,10,3:1:0:0:
161,65,108001,1,0,3:3:0:0:
235,79,108076,1,0,3:3:0:0:
249,24,108151,1,0,3:3:0:0:
114,228,108226,1,10,3:1:0:0:
100,284,108301,1,0,3:3:0:0:
241,304,108376,5,0,3:3:0:0:
227,242,108451,1,0,3:3:0:0:
183,196,108526,1,10,3:1:0:0:
122,180,108601,1,0,3:3:0:0:
264,77,108676,1,0,3:3:0:0:
321,89,108751,1,0,3:3:0:0:
365,127,108826,1,10,3:1:0:0:
376,184,108901,1,0,3:3:0:0:
348,235,108976,1,0,3:3:0:0:
294,258,109051,1,0,3:3:0:0:
150,340,109126,1,10,3:1:0:0:
130,285,109201,1,0,3:3:0:0:
150,230,109276,1,0,3:3:0:0:
206,214,109351,1,0,3:3:0:0:
347,207,109426,1,10,3:1:0:0:
405,204,109501,1,0,3:3:0:0:
246,101,109576,5,2,3:3:0:0:
262,157,109651,1,0,3:3:0:0:
308,192,109726,1,10,3:1:0:0:
368,203,109801,1,0,3:3:0:0:
207,319,109876,1,2,3:3:0:0:
149,308,109951,1,0,3:3:0:0:
111,263,110026,1,10,3:1:0:0:
97,206,110101,1,0,3:3:0:0:
120,152,110176,1,0,3:3:0:0:
170,122,110251,1,0,3:3:0:0:
327,66,110326,1,10,3:1:0:0:
336,121,110401,1,0,3:3:0:0:
268,146,110476,1,0,3:3:0:0:
277,202,110551,1,0,3:3:0:0:
120,152,110626,1,10,3:1:0:0:
111,207,110701,1,0,3:3:0:0:
178,233,110776,1,0,3:3:0:0:
169,289,110851,1,0,3:3:0:0:
326,343,110926,5,10,3:1:0:0:
308,293,111001,1,0,3:3:0:0:
263,267,111076,1,0,3:3:0:0:
205,261,111151,1,0,3:3:0:0:
362,208,111226,1,10,3:1:0:0:
416,201,111301,1,0,3:3:0:0:
257,138,111376,1,0,3:3:0:0:
194,136,111451,1,0,3:3:0:0:
256,131,111526,1,10,3:1:0:0:
318,124,111601,1,0,3:3:0:0:
380,120,111676,1,0,3:3:0:0:
317,115,111751,1,0,3:3:0:0:
159,47,111826,1,10,1:1:0:0:
382,33,111976,1,0,3:3:0:0:
159,47,112126,5,10,1:1:0:0:
137,101,112201,1,0,3:3:0:0:
159,154,112276,1,0,3:3:0:0:
214,171,112351,1,0,3:3:0:0:
352,238,112426,1,10,3:1:0:0:
401,237,112501,1,0,3:3:0:0:
262,316,112576,1,0,3:3:0:0:
213,315,112651,1,0,3:3:0:0:
352,238,112726,1,10,1:1:0:0:
330,188,112801,1,0,3:3:0:0:
288,153,112876,1,0,3:3:0:0:
234,144,112951,1,0,3:3:0:0:
374,72,113026,1,10,3:1:0:0:
324,67,113101,1,0,3:3:0:0:
184,65,113176,1,0,3:3:0:0:
134,60,113251,1,0,3:3:0:0:
283,342,113326,5,10,1:1:0:0:
340,333,113401,1,0,3:3:0:0:
388,299,113476,1,0,3:3:0:0:
415,247,113551,1,0,3:3:0:0:
416,188,113626,1,10,3:1:0:0:
386,137,113701,1,0,3:3:0:0:
335,107,113776,1,0,3:3:0:0:
277,95,113851,1,0,3:3:0:0:
213,105,113926,1,10,3:1:0:0:
199,161,114001,1,0,3:3:0:0:
268,172,114076,1,0,3:3:0:0:
282,228,114151,1,0,3:3:0:0:
143,244,114226,1,10,1:1:0:0:
129,300,114301,1,0,3:3:0:0:
268,172,114376,1,0,3:3:0:0:
317,168,114451,1,0,3:3:0:0:
135,68,114526,5,10,1:1:0:0:
81,77,114601,1,0,3:3:0:0:
240,62,114676,1,0,3:3:0:0:
263,112,114751,1,0,3:3:0:0:
240,172,114826,1,10,3:1:0:0:
182,183,114901,1,0,3:3:0:0:
123,186,114976,1,0,3:3:0:0:
182,183,115051,1,0,3:3:0:0:
319,235,115126,1,10,1:1:0:0:
382,237,115201,1,0,3:3:0:0:
319,235,115276,1,0,3:3:0:0:
382,237,115351,1,0,3:3:0:0:
239,307,115426,1,10,3:1:0:0:
177,306,115501,1,0,3:3:0:0:
239,307,115576,1,0,3:3:0:0:
177,306,115651,1,0,3:3:0:0:
317,265,115726,5,10,3:1:0:0:
375,261,115801,1,8,3:1:0:0:
195,265,115876,1,8,3:1:0:0:
137,261,115951,1,8,3:1:0:0:
317,265,116026,1,8,3:1:0:0:
258,263,116101,1,8,3:1:0:0:
75,154,116176,1,8,3:3:0:0:
254,151,116251,1,8,3:3:0:0:
434,141,116326,1,10,3:1:0:0:
472,163,116401,1,8,3:1:0:0:
491,203,116476,1,8,3:3:0:0:
490,247,116551,1,8,3:3:0:0:
478,290,116626,1,8,3:1:0:0:
449,324,116701,1,8,3:1:0:0:
409,344,116776,1,8,3:1:0:0:
364,349,116851,1,8,3:1:0:0:
161,263,116926,5,12,1:3:0:0:
71,258,117076,1,0,3:3:0:0:
215,153,117226,1,10,3:1:0:0:
305,148,117376,1,0,3:3:0:0:
448,70,117526,1,10,3:1:0:0:
358,65,117676,1,0,3:3:0:0:
214,56,117826,1,10,3:1:0:0:
430,146,117976,1,0,3:3:0:0:
214,56,118126,6,0,L|209:149,1,90,10|0,3:3|0:0,0:0:0:0:
354,226,118426,1,10,3:1:0:0:
309,224,118501,1,8,3:1:0:0:
264,221,118576,1,8,3:1:0:0:
407,79,118726,2,0,L|412:172,1,90,10|0,3:1|0:0,0:0:0:0:
267,249,119026,1,10,3:1:0:0:
312,247,119101,1,8,3:1:0:0:
357,244,119176,1,8,3:1:0:0:
140,94,119326,5,12,1:3:0:0:
50,85,119476,1,0,3:3:0:0:
194,182,119626,1,10,3:1:0:0:
284,173,119776,1,0,3:3:0:0:
140,94,119926,1,10,3:1:0:0:
229,93,120076,1,0,3:3:0:0:
86,217,120226,1,10,3:1:0:0:
63,167,120301,1,0,3:3:0:0:
86,126,120376,1,0,3:3:0:0:
135,115,120451,1,0,3:3:0:0:
415,93,120526,5,10,3:3:0:0:
415,93,121126,1,0,0:0:0:0:
97,93,121276,1,0,0:0:0:0:
97,93,121726,5,12,1:3:0:0:
186,97,121876,1,0,3:3:0:0:
330,114,122026,1,10,3:1:0:0:
342,203,122176,1,0,3:3:0:0:
198,207,122326,1,10,3:3:0:0:
186,296,122476,1,0,3:3:0:0:
330,114,122626,1,10,3:1:0:0:
419,109,122776,1,0,3:3:0:0:
144,67,122926,5,10,3:3:0:0:
100,77,123001,1,0,3:3:0:0:
68,109,123076,1,0,3:3:0:0:
62,153,123151,1,0,3:3:0:0:
79,194,123226,1,10,3:1:0:0:
117,216,123301,1,0,3:3:0:0:
166,221,123376,1,0,3:3:0:0:
215,217,123451,1,0,3:3:0:0:
166,221,123526,1,10,3:3:0:0:
124,193,123601,1,0,3:3:0:0:
105,146,123676,1,0,3:3:0:0:
136,107,123751,1,0,3:3:0:0:
185,100,123826,1,10,3:1:0:0:
211,138,123901,1,0,3:3:0:0:
190,177,123976,1,0,3:3:0:0:
143,184,124051,1,0,3:3:0:0:
285,317,124126,5,10,3:3:0:0:
338,321,124201,1,0,3:3:0:0:
285,317,124276,1,0,3:3:0:0:
231,312,124351,1,0,3:3:0:0:
195,271,124426,1,10,3:1:0:0:
178,219,124501,1,0,3:3:0:0:
195,163,124576,1,0,3:3:0:0:
225,113,124651,1,0,3:3:0:0:
273,80,124726,1,10,3:3:0:0:
330,70,124801,1,0,3:3:0:0:
388,74,124876,1,0,3:3:0:0:
330,84,124951,1,0,3:3:0:0:
272,95,125026,1,10,3:1:0:0:
249,144,125101,1,0,3:3:0:0:
271,197,125176,1,0,3:3:0:0:
319,230,125251,1,0,3:3:0:0:
456,298,125326,5,8,3:1:0:0:
402,300,125401,1,8,3:3:0:0:
264,288,125476,1,8,3:3:0:0:
210,290,125551,1,8,3:1:0:0:
350,160,125626,1,8,3:1:0:0:
404,162,125701,1,8,3:3:0:0:
457,164,125776,1,8,3:1:0:0:
404,162,125851,1,8,3:1:0:0:
263,90,125926,1,8,3:3:0:0:
209,86,126001,1,8,3:3:0:0:
357,50,126076,1,8,3:1:0:0:
362,103,126151,1,8,3:3:0:0:
193,187,126226,1,8,3:3:0:0:
134,183,126301,1,8,3:3:0:0:
319,187,126376,1,8,3:3:0:0:
377,183,126451,1,8,3:3:0:0:
109,332,126526,5,12,1:3:0:0:
50,324,126601,1,0,3:3:0:0:
29,269,126676,1,0,3:3:0:0:
51,215,126751,1,0,3:3:0:0:
209,232,126826,1,10,3:3:0:0:
150,224,126901,1,0,3:3:0:0:
129,169,126976,1,0,3:3:0:0:
151,115,127051,1,0,3:3:0:0:
310,156,127126,1,10,3:3:0:0:
251,148,127201,1,0,3:3:0:0:
230,93,127276,1,0,3:3:0:0:
252,39,127351,1,0,3:3:0:0:
409,62,127426,1,10,3:3:0:0:
432,115,127501,1,0,3:3:0:0:
410,169,127576,1,0,3:3:0:0:
361,178,127651,1,0,3:3:0:0:
197,182,127726,5,10,3:3:0:0:
89,173,127876,1,0,3:3:0:0:
142,171,127951,1,0,0:0:0:0:
315,182,128026,1,10,3:3:0:0:
423,173,128176,1,0,3:3:0:0:
370,171,128251,1,0,0:0:0:0:
229,74,128326,1,10,3:3:0:0:
222,127,128401,1,0,3:3:0:0:
358,338,128476,1,0,3:3:0:0:
365,284,128551,1,0,0:0:0:0:
229,74,128626,1,10,3:3:0:0:
222,127,128701,1,0,3:3:0:0:
215,180,128776,1,0,3:3:0:0:
482,63,128926,5,12,1:3:0:0:
465,114,129001,1,0,3:3:0:0:
419,142,129076,1,0,3:3:0:0:
365,150,129151,1,0,3:3:0:0:
207,316,129226,1,10,3:3:0:0:
153,311,129301,1,0,3:3:0:0:
99,302,129376,1,0,3:3:0:0:
153,311,129451,1,0,3:3:0:0:
314,175,129526,1,10,3:3:0:0:
367,171,129601,1,0,3:3:0:0:
314,175,129676,1,0,3:3:0:0:
367,171,129751,1,0,3:3:0:0:
206,76,129826,1,10,3:3:0:0:
153,72,129901,1,0,3:3:0:0:
206,76,129976,1,0,3:3:0:0:
153,72,130051,1,0,3:3:0:0:
311,315,130126,5,10,3:3:0:0:
334,266,130201,1,0,3:3:0:0:
312,216,130276,1,0,3:3:0:0:
254,206,130351,1,0,3:3:0:0:
200,210,130426,1,10,3:3:0:0:
146,213,130501,1,0,3:3:0:0:
196,193,130576,1,0,3:3:0:0:
247,176,130651,1,0,3:3:0:0:
414,119,130726,5,10,3:3:0:0:
428,216,130876,1,0,3:3:0:0:
98,119,131026,5,10,3:3:0:0:
84,216,131176,1,0,3:3:0:0:
133,220,131251,1,0,3:3:0:0:
287,282,131326,5,12,1:3:0:0:
309,232,131401,1,0,3:3:0:0:
285,183,131476,1,0,3:3:0:0:
231,173,131551,1,0,3:3:0:0:
74,45,131626,1,10,3:3:0:0:
20,44,131701,1,0,3:3:0:0:
73,45,131776,1,0,3:3:0:0:
126,47,131851,1,0,3:3:0:0:
284,118,131926,1,10,3:3:0:0:
338,117,132001,1,0,3:3:0:0:
285,118,132076,1,0,3:3:0:0:
232,120,132151,1,0,3:3:0:0:
74,45,132226,1,10,3:3:0:0:
20,44,132301,1,0,3:3:0:0:
73,45,132376,1,0,3:3:0:0:
126,47,132451,1,0,3:3:0:0:
290,276,132526,5,10,1:3:0:0:
231,269,132601,1,0,3:3:0:0:
207,215,132676,1,0,3:3:0:0:
231,161,132751,1,0,3:3:0:0:
395,195,132826,1,10,3:3:0:0:
373,145,132901,1,0,3:3:0:0:
324,121,132976,1,0,3:3:0:0:
270,115,133051,1,0,3:3:0:0:
430,300,133126,1,10,3:3:0:0:
488,293,133201,1,0,3:3:0:0:
430,300,133276,1,0,3:3:0:0:
488,293,133351,1,0,3:3:0:0:
324,135,133426,1,10,3:3:0:0:
271,132,133501,1,0,3:3:0:0:
430,61,133576,1,0,3:3:0:0:
377,58,133651,1,0,3:3:0:0:
217,232,133726,5,12,1:3:0:0:
270,228,133801,1,0,3:3:0:0:
323,223,133876,1,0,3:3:0:0:
381,221,133951,1,0,3:3:0:0:
219,79,134026,1,10,3:3:0:0:
165,78,134101,1,0,3:3:0:0:
112,91,134176,1,0,3:3:0:0:
72,127,134251,1,0,3:3:0:0:
55,178,134326,1,10,3:3:0:0:
62,226,134401,1,0,3:3:0:0:
111,249,134476,1,0,3:3:0:0:
165,254,134551,1,0,3:3:0:0:
323,163,134626,1,10,3:3:0:0:
376,163,134701,1,0,3:3:0:0:
322,161,134776,1,0,3:3:0:0:
268,159,134851,1,0,3:3:0:0:
90,107,134926,5,8,3:1:0:0:
31,103,135001,1,8,3:3:0:0:
209,55,135076,1,8,3:3:0:0:
268,51,135151,1,8,3:1:0:0:
125,142,135226,1,8,3:3:0:0:
112,199,135301,1,8,3:3:0:0:
262,228,135376,1,8,3:1:0:0:
275,285,135451,1,8,3:1:0:0:
426,186,135526,1,8,3:3:0:0:
439,243,135601,1,8,3:3:0:0:
281,136,135676,1,8,3:1:0:0:
222,129,135751,1,8,3:1:0:0:
280,130,135826,1,8,3:1:0:0:
307,176,135901,1,8,3:1:0:0:
281,223,135976,1,8,3:1:0:0:
227,232,136051,1,8,3:1:0:0:
488,266,136126,5,12,1:3:0:0:
256,192,136276,12,0,139876,0:0:0:0:
172,262,140176,5,0,2:2:0:0:
301,259,140326,2,0,P|345:247|279:173,1,180,0|0,2:2|0:0,0:0:0:0:
172,262,140776,1,0,0:0:0:0:
389,75,140926,5,8,3:3:0:0:
403,131,141001,1,8,3:3:0:0:
335,147,141076,1,8,3:3:0:0:
321,203,141151,1,8,3:3:0:0:
253,218,141226,1,8,3:3:0:0:
267,274,141301,1,8,3:3:0:0:
200,281,141376,1,8,3:3:0:0:
186,337,141451,1,8,3:3:0:0:
368,298,141526,6,0,P|414:280|370:226,1,135,8|8,3:3|3:3,0:0:0:0:
192,175,141826,1,8,3:3:0:0:
179,117,141901,1,8,3:3:0:0:
248,114,141976,1,8,3:3:0:0:
261,56,142051,1,8,3:3:0:0:
76,133,142126,6,0,P|34:156|80:217,1,135,8|8,3:3|3:3,0:0:0:0:
252,232,142426,1,8,3:3:0:0:
310,235,142501,1,8,3:3:0:0:
162,149,142576,1,8,3:3:0:0:
103,152,142651,1,8,3:3:0:0:
252,43,142726,1,8,3:3:0:0:
266,95,142801,1,8,3:3:0:0:
128,286,142876,1,8,3:3:0:0:
114,338,142951,1,8,3:3:0:0:
336,318,143026,6,0,P|384:312|402:234,1,135,8|8,3:3|3:3,0:0:0:0:
262,190,143326,1,8,3:3:0:0:
203,188,143401,1,8,3:3:0:0:
63,51,143476,1,8,3:3:0:0:
49,103,143551,1,8,3:3:0:0:
187,198,143626,1,8,3:3:0:0:
201,250,143701,1,8,3:3:0:0:
341,56,143776,1,8,3:3:0:0:
327,108,143851,1,8,3:3:0:0:
98,328,143926,6,0,P|86:272|173:222,1,135,8|8,3:3|3:3,0:0:0:0:
305,218,144226,1,8,3:3:0:0:
367,214,144301,1,8,3:3:0:0:
207,218,144376,1,8,3:3:0:0:
145,214,144451,1,8,3:3:0:0:
374,337,144526,2,0,P|423:334|442:245,1,135,8|8,3:3|3:3,0:0:0:0:
295,145,144826,5,8,3:3:0:0:
236,141,144901,1,8,3:3:0:0:
393,102,144976,1,8,3:3:0:0:
451,98,145051,1,8,3:3:0:0:
294,256,145126,1,8,3:3:0:0:
227,259,145201,1,8,3:3:0:0:
294,256,145276,1,8,3:3:0:0:
227,259,145351,1,8,3:3:0:0:
386,217,145426,1,8,3:3:0:0:
327,212,145501,1,0,0:0:0:0:
183,207,145576,1,0,3:3:0:0:
123,201,145651,1,0,0:0:0:0:
367,339,145726,5,12,1:1:0:0:
415,327,145801,1,0,3:3:0:0:
452,294,145876,1,0,3:3:0:0:
466,246,145951,1,0,3:3:0:0:
463,196,146026,1,10,3:1:0:0:
434,155,146101,1,0,3:3:0:0:
393,126,146176,1,0,3:3:0:0:
345,113,146251,1,0,3:3:0:0:
296,121,146326,1,10,3:3:0:0:
272,164,146401,1,0,3:3:0:0:
293,208,146476,1,0,3:3:0:0:
343,218,146551,1,0,3:3:0:0:
426,204,146626,1,10,3:1:0:0:
454,160,146701,1,0,3:3:0:0:
434,110,146776,1,0,3:3:0:0:
385,88,146851,1,0,3:3:0:0:
216,37,146926,5,10,3:1:0:0:
173,61,147001,1,0,3:3:0:0:
145,102,147076,1,0,3:3:0:0:
143,152,147151,1,0,3:3:0:0:
178,198,147226,1,10,3:1:0:0:
227,214,147301,1,0,3:3:0:0:
307,190,147376,1,0,3:3:0:0:
329,136,147451,1,0,3:3:0:0:
309,91,147526,1,10,3:3:0:0:
271,51,147601,1,0,3:3:0:0:
222,26,147676,1,0,3:3:0:0:
174,29,147751,1,0,3:3:0:0:
98,67,147826,1,10,3:1:0:0:
112,109,147901,1,0,3:3:0:0:
140,144,147976,1,0,3:3:0:0:
181,161,148051,1,0,3:3:0:0:
366,249,148126,5,12,1:1:0:0:
322,236,148201,1,0,3:3:0:0:
287,206,148276,1,0,3:3:0:0:
271,163,148351,1,0,3:3:0:0:
277,118,148426,1,10,3:1:0:0:
306,84,148501,1,0,3:3:0:0:
347,67,148576,1,0,3:3:0:0:
391,71,148651,1,0,3:3:0:0:
419,105,148726,1,10,3:3:0:0:
414,149,148801,1,0,3:3:0:0:
365,178,148876,1,0,3:3:0:0:
316,178,148951,1,0,3:3:0:0:
233,143,149026,1,10,3:1:0:0:
222,99,149101,1,0,3:3:0:0:
242,58,149176,1,0,3:3:0:0:
283,40,149251,1,0,3:3:0:0:
478,323,149326,5,10,3:1:0:0:
472,278,149401,1,0,3:3:0:0:
449,239,149476,1,0,3:3:0:0:
408,216,149551,1,0,3:3:0:0:
365,200,149626,1,10,3:1:0:0:
320,195,149701,1,0,3:3:0:0:
232,191,149776,1,0,3:3:0:0:
238,146,149851,1,0,3:3:0:0:
261,107,149926,1,10,3:3:0:0:
302,84,150001,1,0,3:3:0:0:
345,68,150076,1,0,3:3:0:0:
390,63,150151,1,0,3:3:0:0:
479,121,150226,1,10,3:1:0:0:
464,163,150301,1,0,3:3:0:0:
430,193,150376,1,0,3:3:0:0:
385,197,150451,1,0,3:3:0:0:
243,313,150526,5,12,1:1:0:0:
218,269,150601,1,0,3:3:0:0:
239,225,150676,1,0,3:3:0:0:
284,207,150751,1,0,3:3:0:0:
358,204,150826,1,10,3:1:0:0:
284,191,150901,1,0,3:3:0:0:
244,169,150976,1,0,3:3:0:0:
222,129,151051,1,0,3:3:0:0:
232,85,151126,1,10,3:3:0:0:
265,54,151201,1,0,3:3:0:0:
318,44,151276,1,0,3:3:0:0:
403,41,151351,1,0,3:3:0:0:
423,76,151426,1,10,3:1:0:0:
422,120,151501,1,0,3:3:0:0:
399,158,151576,1,0,3:3:0:0:
358,177,151651,1,0,3:3:0:0:
187,313,151726,5,10,3:1:0:0:
231,303,151801,1,0,3:3:0:0:
271,283,151876,1,0,3:3:0:0:
290,242,151951,1,0,3:3:0:0:
292,197,152026,1,10,3:1:0:0:
268,158,152101,1,0,3:3:0:0:
183,157,152176,1,0,3:3:0:0:
152,124,152251,1,0,3:3:0:0:
142,80,152326,1,10,3:3:0:0:
166,42,152401,1,0,3:3:0:0:
209,30,152476,1,0,3:3:0:0:
254,30,152551,1,0,3:3:0:0:
307,40,152626,1,10,3:1:0:0:
253,49,152701,1,0,3:3:0:0:
199,58,152776,1,0,3:3:0:0:
146,68,152851,1,0,3:3:0:0:
314,114,152926,2,0,L|417:117,1,90,8|0,2:1|0:0,0:0:0:0:
120,306,153226,5,12,3:1:0:0:
80,287,153301,1,0,3:3:0:0:
53,251,153376,1,0,3:3:0:0:
53,206,153451,1,0,3:3:0:0:
77,167,153526,1,10,3:3:0:0:
118,146,153601,1,0,3:3:0:0:
172,136,153676,1,0,3:3:0:0:
257,136,153751,1,0,3:3:0:0:
279,90,153826,1,10,3:1:0:0:
261,48,153901,1,0,3:3:0:0:
223,24,153976,1,0,3:3:0:0:
179,21,154051,1,0,3:3:0:0:
318,316,154126,5,10,3:1:0:0:
365,303,154201,1,0,3:3:0:0:
408,279,154276,1,0,3:3:0:0:
442,243,154351,1,0,3:3:0:0:
462,198,154426,1,10,3:1:0:0:
462,148,154501,1,0,3:3:0:0:
440,103,154576,1,0,3:3:0:0:
399,74,154651,1,0,3:3:0:0:
351,60,154726,1,10,3:3:0:0:
301,54,154801,1,8,3:1:0:0:
252,65,154876,1,8,3:1:0:0:
230,109,154951,1,8,3:1:0:0:
247,155,155026,1,8,3:1:0:0:
285,185,155101,1,8,3:1:0:0:
328,207,155176,1,8,3:1:0:0:
376,216,155251,1,8,3:1:0:0:
202,323,155326,5,4,1:3:0:0:
217,280,155401,1,0,3:3:0:0:
248,247,155476,1,0,3:3:0:0:
292,238,155551,1,0,3:3:0:0:
331,216,155626,1,10,3:1:0:0:
349,175,155701,1,0,3:3:0:0:
342,130,155776,1,0,3:3:0:0:
310,97,155851,1,0,3:3:0:0:
266,84,155926,1,10,3:3:0:0:
221,89,156001,1,0,3:3:0:0:
199,128,156076,1,0,3:3:0:0:
229,160,156151,1,0,3:3:0:0:
312,164,156226,1,10,3:1:0:0:
361,154,156301,1,0,3:3:0:0:
379,111,156376,1,0,3:3:0:0:
357,72,156451,1,0,3:3:0:0:
190,327,156526,5,10,3:1:0:0:
147,311,156601,1,0,3:3:0:0:
119,275,156676,1,0,3:3:0:0:
110,230,156751,1,0,3:3:0:0:
129,189,156826,1,10,3:1:0:0:
174,162,156901,1,0,3:3:0:0:
257,167,156976,1,0,3:3:0:0:
287,200,157051,1,0,3:3:0:0:
299,243,157126,1,10,3:3:0:0:
287,286,157201,1,0,3:3:0:0:
256,319,157276,1,0,3:3:0:0:
205,328,157351,1,0,3:3:0:0:
121,315,157426,1,10,3:1:0:0:
90,276,157501,1,0,3:3:0:0:
77,227,157576,1,0,3:3:0:0:
106,187,157651,1,0,3:3:0:0:
251,183,157726,5,12,1:1:0:0:
298,170,157801,1,0,3:3:0:0:
326,129,157876,1,0,3:3:0:0:
327,79,157951,1,0,3:3:0:0:
298,38,158026,1,10,3:1:0:0:
251,19,158101,1,0,3:3:0:0:
322,268,158176,1,0,3:3:0:0:
369,255,158251,1,0,3:3:0:0:
397,214,158326,1,10,3:3:0:0:
398,164,158401,1,0,3:3:0:0:
369,123,158476,1,0,3:3:0:0:
322,104,158551,1,0,3:3:0:0:
395,337,158626,5,10,3:1:0:0:
443,325,158701,1,0,3:3:0:0:
481,293,158776,1,0,3:3:0:0:
497,246,158851,1,0,3:3:0:0:
490,192,158926,1,10,3:1:0:0:
455,150,159001,1,0,3:3:0:0:
403,133,159076,1,0,3:3:0:0:
325,129,159151,1,0,3:3:0:0:
341,180,159226,1,10,3:1:0:0:
369,214,159301,1,0,3:3:0:0:
408,236,159376,1,0,3:3:0:0:
451,245,159451,1,0,3:3:0:0:
315,333,159526,5,10,3:3:0:0:
274,314,159601,1,0,3:3:0:0:
243,281,159676,1,0,3:3:0:0:
233,237,159751,1,0,3:3:0:0:
253,197,159826,1,10,3:1:0:0:
287,168,159901,1,0,3:3:0:0:
327,149,159976,1,0,3:3:0:0:
371,144,160051,1,0,3:3:0:0:
234,47,160126,5,12,1:1:0:0:
189,48,160201,1,0,3:3:0:0:
145,60,160276,1,0,3:3:0:0:
108,86,160351,1,0,3:3:0:0:
83,123,160426,1,10,3:1:0:0:
75,167,160501,1,0,3:3:0:0:
90,209,160576,1,0,3:3:0:0:
127,234,160651,1,0,3:3:0:0:
206,273,160726,5,10,3:3:0:0:
163,257,160801,1,0,3:3:0:0:
131,224,160876,1,0,3:3:0:0:
122,179,160951,1,0,3:3:0:0:
142,138,161026,1,10,3:1:0:0:
182,117,161101,1,0,3:3:0:0:
226,116,161176,1,0,3:3:0:0:
264,139,161251,1,0,3:3:0:0:
288,202,161326,5,10,3:1:0:0:
276,245,161401,1,0,3:3:0:0:
249,281,161476,1,0,3:3:0:0:
205,291,161551,1,0,3:3:0:0:
160,286,161626,1,10,3:1:0:0:
131,251,161701,1,0,3:3:0:0:
115,208,161776,1,0,3:3:0:0:
128,165,161851,1,0,3:3:0:0:
171,144,161926,1,10,3:3:0:0:
215,140,162001,1,0,3:3:0:0:
170,133,162076,1,0,3:3:0:0:
126,122,162151,1,0,3:3:0:0:
170,115,162226,1,10,3:1:0:0:
213,103,162301,1,0,3:3:0:0:
168,97,162376,1,0,3:3:0:0:
123,89,162451,1,0,3:3:0:0:
311,324,162526,5,12,1:3:0:0:
354,313,162601,1,0,3:3:0:0:
392,289,162676,1,0,3:3:0:0:
406,246,162751,1,0,3:3:0:0:
400,201,162826,1,10,3:1:0:0:
369,168,162901,1,0,3:3:0:0:
231,162,162976,1,0,3:3:0:0:
186,158,163051,1,0,3:3:0:0:
345,329,163126,5,12,1:3:0:0:
397,315,163201,1,0,3:3:0:0:
438,280,163276,1,0,3:3:0:0:
464,232,163351,1,0,3:3:0:0:
455,173,163426,1,10,3:1:0:0:
411,141,163501,1,0,3:3:0:0:
252,115,163576,1,0,3:3:0:0:
198,110,163651,1,0,3:3:0:0:
380,329,163726,5,12,1:3:0:0:
441,317,163801,1,0,3:3:0:0:
480,268,163876,1,0,3:3:0:0:
493,206,163951,1,0,3:3:0:0:
468,148,164026,1,8,3:1:0:0:
412,118,164101,1,0,3:3:0:0:
231,60,164176,1,8,3:3:0:0:
168,58,164251,1,0,3:3:0:0:
306,207,164326,1,8,3:1:0:0:
368,208,164401,1,0,3:3:0:0:
187,272,164476,1,8,3:3:0:0:
124,268,164551,1,8,3:1:0:0:
345,151,164626,1,8,3:1:0:0:
407,149,164701,1,8,3:1:0:0:
345,151,164776,1,8,3:1:0:0:
282,149,164851,1,8,3:1:0:0:
56,75,164926,5,12,1:3:0:0:
36,115,165001,1,0,3:3:0:0:
51,157,165076,1,0,3:3:0:0:
90,177,165151,1,0,3:3:0:0:
233,199,165226,1,10,3:1:0:0:
247,156,165301,1,0,3:3:0:0:
182,146,165376,1,0,3:3:0:0:
168,103,165451,1,0,3:3:0:0:
305,78,165526,1,10,3:3:0:0:
394,84,165676,1,0,3:3:0:0:
259,266,165826,1,10,3:1:0:0:
214,267,165901,1,0,3:3:0:0:
169,268,165976,1,0,3:3:0:0:
124,268,166051,1,0,3:3:0:0:
260,172,166126,5,10,3:3:0:0:
351,151,166276,1,0,3:3:0:0:
218,81,166426,1,10,3:1:0:0:
173,81,166501,1,0,3:3:0:0:
128,82,166576,1,0,3:3:0:0:
83,84,166651,1,0,3:3:0:0:
222,311,166726,5,10,3:3:0:0:
244,267,166801,1,0,3:3:0:0:
221,231,166876,1,0,3:3:0:0:
172,215,166951,1,0,3:3:0:0:
33,150,167026,1,10,3:1:0:0:
18,229,167176,1,0,3:3:0:0:
236,56,167326,5,12,1:3:0:0:
280,54,167401,1,0,3:3:0:0:
235,54,167476,1,0,3:3:0:0:
190,52,167551,1,0,3:3:0:0:
331,121,167626,1,10,3:1:0:0:
375,125,167701,1,0,3:3:0:0:
397,163,167776,1,0,3:3:0:0:
377,203,167851,1,0,3:3:0:0:
241,254,167926,5,10,3:3:0:0:
151,247,168076,1,0,3:3:0:0:
287,315,168226,1,10,3:1:0:0:
331,311,168301,1,0,3:3:0:0:
375,306,168376,1,0,3:3:0:0:
419,300,168451,1,0,3:3:0:0:
283,158,168526,5,10,3:3:0:0:
193,150,168676,1,0,3:3:0:0:
328,75,168826,1,10,3:1:0:0:
372,71,168901,1,0,3:3:0:0:
416,66,168976,1,0,3:3:0:0:
460,60,169051,1,0,3:3:0:0:
315,214,169126,5,10,3:3:0:0:
270,207,169201,1,0,3:3:0:0:
249,167,169276,1,0,3:3:0:0:
271,127,169351,1,0,3:3:0:0:
407,128,169426,1,10,3:1:0:0:
497,128,169576,1,0,3:3:0:0:
242,306,169726,5,12,1:3:0:0:
134,293,169876,1,0,3:3:0:0:
240,276,170026,1,10,3:1:0:0:
347,262,170176,1,0,3:3:0:0:
130,177,170326,1,10,3:3:0:0:
22,167,170476,1,0,3:3:0:0:
238,90,170626,1,10,3:1:0:0:
130,80,170776,1,0,3:3:0:0:
346,41,170926,5,12,1:3:0:0:
359,148,171076,1,0,3:3:0:0:
224,170,171226,1,10,3:1:0:0:
211,277,171376,1,0,3:3:0:0:
429,199,171526,1,10,3:3:0:0:
442,306,171676,1,0,3:3:0:0:
229,76,171826,1,10,3:1:0:0:
337,65,171976,1,0,3:3:0:0:
108,306,172126,6,0,L|306:299,1,180,12|0,1:3|0:0,0:0:0:0:
151,203,172576,2,0,L|45:200,2,90,0|0|0,3:3|0:0|0:0,0:0:0:0:
288,203,173026,2,0,L|383:206,1,90,10|0,3:1|0:0,0:0:0:0:
159,59,173326,5,12,1:3:0:0:
132,155,173476,1,0,3:3:0:0:
268,182,173626,1,10,3:1:0:0:
295,278,173776,1,0,3:3:0:0:
80,72,173926,1,10,3:3:0:0:
21,66,174001,1,0,0:0:0:0:
159,120,174076,1,8,3:3:0:0:
218,114,174151,1,8,3:3:0:0:
78,194,174226,1,8,3:3:0:0:
55,232,174301,1,8,3:3:0:0:
76,271,174376,1,8,3:1:0:0:
119,282,174451,1,8,3:1:0:0:
306,284,174526,5,12,1:1:0:0:
350,286,174601,1,0,3:3:0:0:
306,284,174676,1,0,3:3:0:0:
261,279,174751,1,0,3:3:0:0:
118,157,174826,1,10,3:1:0:0:
74,159,174901,1,0,3:3:0:0:
118,157,174976,1,0,3:3:0:0:
163,152,175051,1,0,3:3:0:0:
305,146,175126,5,10,3:3:0:0:
394,137,175276,1,0,3:3:0:0:
255,67,175426,1,10,3:1:0:0:
210,66,175501,1,0,3:3:0:0:
186,104,175576,1,0,3:3:0:0:
209,142,175651,1,0,3:3:0:0:
352,286,175726,5,10,3:3:0:0:
441,277,175876,1,0,3:3:0:0:
302,207,176026,1,10,3:1:0:0:
257,206,176101,1,0,3:3:0:0:
233,244,176176,1,0,3:3:0:0:
256,282,176251,1,0,3:3:0:0:
396,122,176326,5,10,3:3:0:0:
409,164,176401,1,0,3:3:0:0:
342,181,176476,1,0,3:3:0:0:
329,223,176551,1,0,3:3:0:0:
477,242,176626,1,10,3:1:0:0:
492,157,176776,1,0,3:3:0:0:
261,70,176926,5,12,1:3:0:0:
216,63,177001,1,0,3:3:0:0:
261,70,177076,1,0,3:3:0:0:
305,74,177151,1,0,3:3:0:0:
444,319,177226,1,10,3:1:0:0:
465,279,177301,1,0,3:3:0:0:
445,238,177376,1,0,3:3:0:0:
400,230,177451,1,0,3:3:0:0:
256,228,177526,5,10,3:3:0:0:
166,228,177676,1,0,3:3:0:0:
303,178,177826,1,10,3:1:0:0:
347,173,177901,1,0,3:3:0:0:
368,133,177976,1,0,3:3:0:0:
348,92,178051,1,0,3:3:0:0:
208,297,178126,5,10,3:3:0:0:
118,297,178276,1,0,3:3:0:0:
255,247,178426,1,10,3:1:0:0:
299,242,178501,1,0,3:3:0:0:
320,202,178576,1,0,3:3:0:0:
300,161,178651,1,0,3:3:0:0:
162,105,178726,1,10,3:3:0:0:
108,104,178801,1,0,3:3:0:0:
248,57,178876,1,0,3:3:0:0:
302,56,178951,1,0,3:3:0:0:
158,196,179026,1,10,3:1:0:0:
67,192,179176,1,0,3:3:0:0:
353,295,179326,5,12,1:3:0:0:
460,286,179476,1,0,3:3:0:0:
353,295,179626,1,10,3:1:0:0:
460,286,179776,1,0,3:3:0:0:
159,295,179926,5,12,1:3:0:0:
267,289,180076,1,0,3:3:0:0:
376,283,180226,1,8,3:1:0:0:
159,295,180376,1,0,3:3:0:0:
376,283,180526,5,12,1:3:0:0:
268,272,180676,1,0,3:3:0:0:
161,258,180826,1,8,3:1:0:0:
268,272,180976,1,0,3:3:0:0:
52,107,181126,1,12,1:3:0:0:
36,197,181276,1,0,3:3:0:0:
180,70,181426,1,8,3:1:0:0:
192,122,181501,1,0,3:3:0:0:
123,139,181576,1,0,3:3:0:0:
135,191,181651,1,0,0:0:0:0:
300,260,181726,5,12,3:3:0:0:
176,208,181876,1,0,0:0:0:0:
300,153,182026,1,0,2:2:0:0:
48,328,182176,5,0,2:2:0:0:
172,276,182326,1,0,2:2:0:0:
48,221,182476,1,0,2:2:0:0:
300,153,182626,1,0,2:2:0:0:
183,148,182776,1,0,2:2:0:0:
439,271,182926,5,8,2:3:0:0:
454,195,183026,1,0,2:2:0:0:
297,226,183126,1,0,2:2:0:0:
282,150,183226,1,0,2:2:0:0:
123,152,183326,1,0,2:2:0:0:
108,76,183426,1,0,2:2:0:0:
203,246,183526,1,0,2:2:0:0:
280,242,183626,1,0,2:2:0:0:
203,246,183726,1,0,2:2:0:0:
125,247,183826,1,0,2:2:0:0:
352,73,183926,1,0,2:2:0:0:
444,75,184026,1,0,2:2:0:0:
112,365,184126,6,0,P|66:354|126:162,1,323.999990112305,12|8,1:1|3:1,0:0:0:0:
332,102,185326,6,0,L|147:87,2,161.999995056153,10|8|8,3:3|3:1|3:1,0:0:0:0:
115,111,186526,6,0,P|91:151|234:346,1,323.999990112305,12|8,3:1|3:1,0:0:0:0:
438,94,187726,6,0,L|254:88,2,161.999995056153,10|8|8,3:3|3:1|3:1,0:0:0:0:
220,289,188926,6,0,P|271:288|383:34,1,377.999988464356,12|8,3:1|3:1,0:0:0:0:
248,117,190126,6,0,L|128:113,1,107.999996704102,10|0,3:3|0:0,0:0:0:0:
274,217,190576,2,0,L|399:209,1,107.999996704102,8|0,3:1|0:0,0:0:0:0:
245,302,191026,2,0,L|243:237,1,53.9999983520508,8|0,3:1|0:0,0:0:0:0:
376,243,191326,1,8,2:1:0:0:
17,114,191626,5,4,3:3:0:0:
125,117,191926,1,2,3:3:0:0:
241,121,192226,1,8,3:1:0:0:
278,122,192301,1,8,3:1:0:0:
241,121,192376,1,8,3:1:0:0:
203,118,192451,1,8,3:1:0:0:
340,280,192526,6,0,P|378:262|346:216,1,107.999996704102,10|0,3:3|3:3,0:0:0:0:
135,100,193126,2,0,P|83:108|57:162,1,107.999996704102,2|8,3:3|3:1,0:0:0:0:
414,340,193726,6,0,P|449:328|372:136,1,323.999990112305,12|8,3:1|3:1,0:0:0:0:
116,108,194926,6,0,L|293:115,2,161.999995056153,10|8|8,3:3|3:1|3:1,0:0:0:0:
388,285,196126,2,0,L|225:280,2,161.999995056153,10|8|8,3:1|3:1|3:1,0:0:0:0:
121,167,197326,6,0,L|113:295,1,107.999996704102,10|0,3:3|0:0,0:0:0:0:
364,104,197926,2,0,P|406:110|433:184,1,107.999996704102,0|8,0:0|3:1,0:0:0:0:
74,348,198526,6,0,P|42:321|153:127,1,323.999990112305,12|0,3:1|0:0,0:0:0:0:
418,326,199726,6,0,L|240:318,2,161.999995056153,10|8|8,3:3|3:1|3:1,0:0:0:0:
141,161,200926,5,12,3:1:0:0:
360,177,201226,2,0,L|365:104,1,53.9999983520508,10|0,3:1|0:0,0:0:0:0:
141,161,201526,2,0,L|134:236,1,53.9999983520508,12|0,3:3|0:0,0:0:0:0:
272,82,201826,1,8,3:1:0:0:
278,113,201901,1,8,3:1:0:0:
301,135,201976,1,8,3:1:0:0:
332,141,202051,1,8,3:1:0:0:
160,347,202126,6,0,B|84:345|84:345|78:276|78:276|120:275|120:275,1,180,12|0,3:3|0:0,0:0:0:0:
348,285,202576,2,0,B|424:283|424:283|470:232|470:232|452:228|452:228|393:226|393:226,1,180,12|0,3:1|0:0,0:0:0:0:
114,185,203026,2,0,P|57:171|106:134,1,135,12|0,3:1|0:0,0:0:0:0:
325,98,203326,6,0,L|427:95,1,90,4|0,1:2|0:0,0:0:0:0:
271,164,203626,2,0,L|267:277,1,90,8|0,3:1|0:0,0:0:0:0:
122,180,203926,2,0,L|116:83,1,90,10|0,3:3|0:0,0:0:0:0:
240,76,204226,1,8,3:1:0:0:
117,90,204376,1,8,3:1:0:0:
334,346,204526,6,0,P|381:340|309:214,1,270,10|0,3:3|0:0,0:0:0:0:
179,207,205126,2,0,L|79:210,1,90,10|0,3:3|0:0,0:0:0:0:
234,125,205426,2,0,L|339:129,1,90,8|0,3:1|0:0,0:0:0:0:
95,55,205726,6,0,L|86:157,1,90,10|0,3:1|0:0,0:0:0:0:
229,193,206026,2,0,L|236:290,1,90,8|0,3:1|0:0,0:0:0:0:
382,312,206326,2,0,P|383:249|266:203,1,180,10|0,3:3|0:0,0:0:0:0:
200,202,206776,1,8,3:1:0:0:
430,178,206926,6,0,P|481:166|407:96,1,180,10|0,3:1|0:0,0:0:0:0:
294,80,207376,2,0,L|192:84,2,90,8|0|0,3:1|0:0|0:0,0:0:0:0:
437,224,207826,1,8,3:1:0:0:
458,263,207901,1,8,3:1:0:0:
439,304,207976,1,8,3:1:0:0:
392,313,208051,1,8,3:1:0:0:
236,209,208126,6,0,L|124:211,1,90,10|0,3:3|0:0,0:0:0:0:
283,80,208426,2,0,L|288:181,1,90,8|0,3:1|0:0,0:0:0:0:
434,230,208726,2,0,L|442:133,1,90,10|0,3:3|0:0,0:0:0:0:
319,102,209026,1,8,3:1:0:0:
441,140,209176,1,8,3:1:0:0:
211,343,209326,6,0,P|161:331|227:182,1,270,10|0,3:1|0:0,0:0:0:0:
354,177,209926,2,0,L|448:180,1,90,10|0,3:3|0:0,0:0:0:0:
296,55,210226,2,0,L|291:156,1,90,8|0,3:1|0:0,0:0:0:0:
437,56,210526,1,8,2:1:0:0:
41,316,210826,5,12,3:1:0:0:
277,186,211126,2,0,L|92:176,1,180,10|0,3:3|0:0,0:0:0:0:
188,132,211576,1,8,3:1:0:0:
405,322,211726,6,0,P|449:303|373:231,1,180,10|0,3:1|0:0,0:0:0:0:
351,222,212101,1,8,3:1:0:0:
306,224,212176,1,8,3:1:0:0:
261,227,212251,1,8,3:1:0:0:
411,59,212326,2,0,L|417:167,1,90,12|0,3:3|0:0,0:0:0:0:
107,61,212626,2,0,L|8:57,1,90,12|0,3:3|0:0,0:0:0:0:
260,291,212926,5,12,1:1:0:0:
377,291,213076,1,0,3:3:0:0:
260,291,213226,1,8,3:1:0:0:
143,289,213376,1,0,3:3:0:0:
260,203,213526,1,10,3:3:0:0:
376,199,213676,1,0,3:3:0:0:
260,203,213826,1,8,3:1:0:0:
143,207,213976,1,0,3:3:0:0:
360,116,214126,5,10,3:1:0:0:
368,205,214276,1,0,3:3:0:0:
241,162,214426,1,8,3:1:0:0:
239,251,214576,1,0,3:3:0:0:
113,125,214726,1,10,3:3:0:0:
206,122,214876,1,0,3:3:0:0:
331,116,215026,1,8,3:1:0:0:
380,114,215101,1,8,3:1:0:0:
429,113,215176,1,8,3:1:0:0:
478,113,215251,1,8,3:1:0:0:
321,318,215326,5,10,3:3:0:0:
204,319,215476,1,0,3:3:0:0:
320,313,215626,1,8,3:1:0:0:
436,306,215776,1,0,3:3:0:0:
181,159,215926,1,10,3:3:0:0:
298,160,216076,1,0,3:3:0:0:
182,154,216226,1,8,3:1:0:0:
66,147,216376,1,0,3:3:0:0:
277,45,216526,5,10,3:3:0:0:
291,103,216601,1,0,3:3:0:0:
226,105,216676,1,8,3:3:0:0:
212,163,216751,1,8,3:3:0:0:
345,210,216826,1,8,3:3:0:0:
380,256,216901,1,8,3:3:0:0:
232,259,216976,1,8,3:1:0:0:
197,305,217051,1,8,3:1:0:0:
345,210,217126,1,8,3:3:0:0:
398,211,217201,1,8,3:3:0:0:
192,207,217276,1,8,3:1:0:0:
139,208,217351,1,8,3:1:0:0:
344,314,217426,1,8,3:3:0:0:
406,320,217501,1,8,3:3:0:0:
149,324,217576,1,8,3:1:0:0:
87,330,217651,1,8,3:1:0:0:
393,264,217726,6,0,P|448:251|355:130,1,270,4|0,1:2|0:0,0:0:0:0:
157,90,218326,2,0,P|108:104|192:238,1,270,8|0,3:1|0:0,0:0:0:0:
388,74,218926,5,8,3:1:0:0:
116,331,220126,2,0,P|64:321|137:185,1,270,8|0,1:1|0:0,0:0:0:0:
266,254,220726,2,0,P|346:253|420:78,1,270,0|0,0:0|0:0,0:0:0:0:
179,62,221326,6,0,P|119:90|198:247,1,270,8|0,3:1|0:0,0:0:0:0:
472,359,221926,2,0,L|476:41,1,315,8|0,3:1|0:0,0:0:0:0:
115,113,222526,5,12,3:1:0:0:
70,111,222588,1,0,3:3:0:0:
193,188,222651,1,8,3:1:0:0:
238,186,222713,1,0,3:3:0:0:
115,249,222776,1,10,3:1:0:0:
70,247,222838,1,0,3:3:0:0:
194,327,222901,1,10,3:1:0:0:
239,325,222963,1,0,3:3:0:0:
114,31,223026,1,10,3:1:0:0:
92,71,223088,1,0,3:3:0:0:
115,104,223151,1,10,3:1:0:0:
158,114,223213,1,0,3:3:0:0:
281,240,223276,1,10,3:1:0:0:
325,238,223338,1,0,3:3:0:0:
279,235,223401,1,10,3:1:0:0:
234,230,223463,1,0,3:3:0:0:
397,113,223526,5,12,3:1:0:0:
442,111,223588,1,0,3:3:0:0:
319,188,223651,1,8,3:1:0:0:
274,186,223713,1,0,3:3:0:0:
397,249,223776,1,10,3:1:0:0:
442,247,223838,1,0,3:3:0:0:
318,327,223901,1,10,3:1:0:0:
273,325,223963,1,0,3:3:0:0:
396,42,224026,1,10,3:1:0:0:
449,47,224088,1,0,3:3:0:0:
473,95,224151,1,10,3:1:0:0:
448,142,224213,1,0,3:3:0:0:
323,281,224276,1,10,3:1:0:0:
302,231,224338,1,0,3:3:0:0:
326,182,224401,1,10,3:1:0:0:
378,170,224463,1,0,3:3:0:0:
219,104,224526,5,12,3:1:0:0:
174,103,224588,1,0,3:3:0:0:
51,213,224651,1,8,3:1:0:0:
96,212,224713,1,0,3:3:0:0:
220,216,224776,1,10,3:1:0:0:
265,215,224838,1,0,3:3:0:0:
388,323,224901,1,10,3:1:0:0:
343,320,224963,1,0,3:3:0:0:
220,290,225026,1,10,3:1:0:0:
208,246,225088,1,0,3:3:0:0:
276,228,225151,1,10,3:1:0:0:
288,184,225213,1,0,3:3:0:0:
161,53,225276,1,10,3:1:0:0:
141,92,225338,1,0,3:3:0:0:
163,131,225401,1,10,3:1:0:0:
206,139,225463,1,0,3:3:0:0:
370,150,225526,5,12,3:1:0:0:
325,147,225588,1,0,3:3:0:0:
201,176,225651,1,8,3:1:0:0:
156,173,225713,1,0,3:3:0:0:
279,46,225776,1,10,3:1:0:0:
260,91,225838,1,0,3:3:0:0:
218,119,225901,1,8,3:1:0:0:
168,121,225963,1,0,3:3:0:0:
291,293,226026,1,10,3:1:0:0:
246,290,226088,1,0,3:3:0:0:
122,319,226151,1,8,3:1:0:0:
77,316,226213,1,0,3:3:0:0:
200,189,226276,1,10,3:1:0:0:
181,234,226338,1,0,3:3:0:0:
139,262,226401,1,8,3:1:0:0:
89,264,226463,1,0,3:3:0:0:
247,72,226526,5,12,3:1:0:0:
291,76,226588,1,0,3:3:0:0:
170,99,226651,1,8,3:1:0:0:
125,101,226713,1,0,3:3:0:0:
170,100,226776,1,10,3:1:0:0:
214,98,226838,1,0,3:3:0:0:
89,183,226901,1,10,3:1:0:0:
66,221,226963,1,0,3:3:0:0:
89,264,227026,1,10,3:1:0:0:
133,268,227088,1,0,3:3:0:0:
256,121,227151,1,8,3:1:0:0:
279,159,227213,1,0,3:3:0:0:
256,202,227276,1,10,3:1:0:0:
212,206,227338,1,0,3:3:0:0:
337,277,227401,1,10,3:1:0:0:
382,273,227463,1,0,3:3:0:0:
223,328,227526,5,12,3:1:0:0:
178,324,227588,1,0,3:3:0:0:
304,54,227651,1,8,3:1:0:0:
288,95,227713,1,0,3:3:0:0:
256,121,227776,1,10,3:1:0:0:
212,129,227838,1,0,3:3:0:0:
371,190,227901,1,10,3:1:0:0:
424,183,227963,1,0,3:3:0:0:
442,131,228026,1,10,3:1:0:0:
420,81,228088,1,0,3:3:0:0:
297,336,228151,1,8,3:1:0:0:
274,287,228213,1,0,3:3:0:0:
299,238,228276,1,10,3:1:0:0:
351,226,228338,1,0,3:3:0:0:
226,185,228401,1,10,3:1:0:0:
181,184,228463,1,0,3:3:0:0:
342,50,228526,5,12,3:1:0:0:
393,65,228588,1,0,3:3:0:0:
425,108,228651,1,8,3:1:0:0:
437,160,228713,1,0,3:3:0:0:
425,213,228776,1,10,3:1:0:0:
377,236,228838,1,0,3:3:0:0:
253,142,228901,1,8,3:1:0:0:
208,137,228963,1,0,3:3:0:0:
253,135,229026,1,10,3:1:0:0:
297,131,229088,1,0,3:3:0:0:
174,277,229151,1,8,3:1:0:0:
129,272,229213,1,0,3:3:0:0:
174,270,229276,1,10,3:1:0:0:
218,266,229338,1,0,3:3:0:0:
95,199,229401,1,8,3:1:0:0:
51,196,229463,1,0,3:3:0:0:
208,44,229526,5,12,3:1:0:0:
261,48,229588,1,0,0:0:0:0:
285,86,229651,1,8,3:1:0:0:
262,124,229713,1,0,0:0:0:0:
136,189,229776,1,8,3:3:0:0:
180,187,229838,1,8,3:3:0:0:
303,267,229901,1,8,3:3:0:0:
315,224,229963,1,8,3:3:0:0:
244,229,230026,1,8,3:1:0:0:
232,186,230088,1,8,3:1:0:0:
300,165,230151,1,8,3:3:0:0:
312,122,230213,1,8,3:3:0:0:
184,98,230276,1,8,3:1:0:0:
139,93,230338,1,8,3:1:0:0:
302,54,230401,1,8,3:3:0:0:
346,50,230463,1,8,3:3:0:0:
161,329,230526,5,12,3:2:0:0:
103,323,230588,1,0,3:3:0:0:
282,266,230651,1,8,3:1:0:0:
340,260,230713,1,8,3:1:0:0:
158,189,230776,1,10,3:3:0:0:
100,183,230838,1,8,3:1:0:0:
279,91,230901,1,8,3:1:0:0:
337,85,230963,1,8,3:1:0:0:
151,59,231026,1,10,3:3:0:0:
93,54,231088,1,8,3:1:0:0:
151,50,231151,1,8,3:1:0:0:
208,42,231213,1,8,3:1:0:0:
392,172,231276,1,10,3:3:0:0:
450,167,231338,1,8,3:1:0:0:
392,163,231401,1,10,3:1:0:0:
335,155,231463,1,8,3:1:0:0:
150,283,231526,5,10,3:3:0:0:
207,279,231588,1,8,3:1:0:0:
392,271,231651,1,8,3:1:0:0:
449,267,231713,1,8,3:1:0:0:
273,196,231776,1,10,3:3:0:0:
215,191,231838,1,8,3:1:0:0:
399,89,231901,1,8,3:1:0:0:
341,92,231963,1,8,3:1:0:0:
176,75,232026,1,10,3:3:0:0:
118,72,232088,1,8,3:1:0:0:
176,68,232151,1,8,3:1:0:0:
233,63,232213,1,8,3:1:0:0:
65,213,232276,1,10,3:3:0:0:
7,210,232338,1,8,3:1:0:0:
65,206,232401,1,8,3:1:0:0:
122,201,232463,1,8,3:1:0:0:
305,202,232526,5,10,3:3:0:0:
362,199,232588,1,8,3:1:0:0:
181,133,232651,1,8,3:1:0:0:
238,128,232713,1,8,3:1:0:0:
416,70,232776,1,10,3:3:0:0:
357,68,232838,1,8,3:1:0:0:
184,48,232901,1,8,3:1:0:0:
127,45,232963,1,8,3:1:0:0:
309,291,233026,1,10,3:3:0:0:
366,287,233088,1,8,3:1:0:0:
389,232,233151,1,8,3:1:0:0:
368,177,233213,1,8,3:1:0:0:
203,291,233276,1,10,3:3:0:0:
179,232,233338,1,8,3:1:0:0:
202,180,233401,1,10,3:1:0:0:
259,174,233463,1,8,3:1:0:0:
76,105,233526,5,10,3:3:0:0:
18,100,233588,1,0,3:3:0:0:
201,80,233651,1,8,3:3:0:0:
258,77,233713,1,8,3:3:0:0:
199,74,233776,1,8,3:1:0:0:
141,70,233838,1,8,3:1:0:0:
321,127,233901,1,8,3:1:0:0:
379,125,233963,1,8,3:1:0:0:
194,336,234026,1,8,3:1:0:0:
140,330,234088,1,8,3:1:0:0:
89,308,234151,1,8,3:1:0:0:
53,267,234213,1,8,3:1:0:0:
40,213,234276,1,8,3:1:0:0:
56,161,234338,1,8,3:1:0:0:
95,123,234401,1,8,3:1:0:0:
147,110,234463,1,8,3:1:0:0:
328,228,234526,5,10,3:1:0:0:
372,224,234588,1,0,0:0:0:0:
248,149,234651,1,8,3:1:0:0:
203,142,234713,1,0,0:0:0:0:
248,146,234776,1,10,3:1:0:0:
292,148,234838,1,0,3:3:0:0:
164,31,234901,1,8,3:1:0:0:
119,27,234963,1,0,3:3:0:0:
242,63,235026,1,10,3:1:0:0:
222,103,235088,1,0,3:3:0:0:
184,127,235151,1,8,3:1:0:0:
139,132,235213,1,0,3:3:0:0:
263,303,235276,1,10,3:1:0:0:
316,300,235338,1,0,3:3:0:0:
338,250,235401,1,8,3:1:0:0:
314,202,235463,1,0,3:3:0:0:
132,196,235526,5,10,3:1:0:0:
176,192,235588,1,0,3:3:0:0:
299,67,235651,1,8,3:1:0:0:
319,106,235713,1,0,3:3:0:0:
295,145,235776,1,10,3:1:0:0:
251,153,235838,1,0,3:3:0:0:
378,74,235901,1,8,3:1:0:0:
422,71,235963,1,0,3:3:0:0:
299,154,236026,1,10,3:1:0:0:
319,194,236088,1,0,3:3:0:0:
357,218,236151,1,8,3:1:0:0:
402,223,236213,1,0,3:3:0:0:
278,334,236276,1,10,3:1:0:0:
224,329,236338,1,0,3:3:0:0:
202,279,236401,1,8,3:1:0:0:
223,230,236463,1,0,3:3:0:0:
406,144,236526,5,10,3:1:0:0:
450,144,236588,1,0,3:3:0:0:
322,88,236651,1,8,3:1:0:0:
278,88,236713,1,0,3:3:0:0:
403,250,236776,1,10,3:1:0:0:
447,250,236838,1,0,3:3:0:0:
322,349,236901,1,8,3:1:0:0:
278,334,236963,1,0,3:3:0:0:
267,285,237026,1,10,3:1:0:0:
287,240,237088,1,0,3:3:0:0:
325,208,237151,1,8,3:1:0:0:
373,204,237213,1,0,3:3:0:0:
249,134,237276,1,10,3:1:0:0:
204,132,237338,1,0,3:3:0:0:
249,134,237401,1,8,3:1:0:0:
293,137,237463,1,0,3:3:0:0:
110,63,237526,6,0,P|66:102|122:167,1,135,10|8,3:1|3:3,0:0:0:0:
224,190,237776,1,8,3:3:0:0:
276,189,237838,1,0,3:3:0:0:
112,276,237901,1,8,3:3:0:0:
60,274,237963,1,8,3:3:0:0:
226,58,238026,1,8,3:1:0:0:
286,59,238088,1,8,3:1:0:0:
419,274,238151,1,8,3:3:0:0:
478,270,238213,1,8,3:3:0:0:
282,330,238276,1,8,3:1:0:0:
228,326,238338,1,8,3:1:0:0:
411,164,238401,1,8,3:1:0:0:
357,161,238463,1,8,3:1:0:0:
34,152,238526,5,12,1:3:0:0:
277,177,239151,1,8,3:1:0:0:
232,174,239213,1,8,3:1:0:0:
77,168,239276,2,0,P|40:220|89:287,1,135,4|0,0:0|0:0,0:0:0:0:
441,81,239526,1,12,1:1:0:0:
188,126,239901,1,0,2:2:0:0:
232,123,239963,1,0,2:2:0:0:
277,118,240026,1,0,2:2:0:0:
321,114,240088,5,0,2:2:0:0:
256,192,240276,12,0,241151,0:0:0:0:
