osu file format v14

[General]
AudioFilename: audio.mp3
AudioLeadIn: 0
PreviewTime: 117440
Countdown: 0
SampleSet: Normal
StackLeniency: 0.7
Mode: 1
LetterboxInBreaks: 0
WidescreenStoryboard: 0

[Editor]
Bookmarks: 41072,60272,66672,79472,85872,127440,130106,137040,143440,156240,168240,194640,204240,216240,241840,267440,279173,287706,300506,311706,318106,330906,342106,351706,354906,361306,367706,393306,406106,431706,442906
DistanceSpacing: 0.8
BeatDivisor: 6
GridSize: 32
TimelineZoom: 2.1

[Metadata]
Title:Marche Royale / In Aeternum
TitleUnicode:Marche Royale / In Aeternum
Artist:Fleshgod Apocalypse
ArtistUnicode:Fleshgod Apocalypse
Creator:Heaxys
Version:Conquest
Source:
Tags:Symphonic Death Metal English King Nuclear Blast Records
BeatmapID:2597216
BeatmapSetID:1249644

[Difficulty]
HPDrainRate:4
CircleSize:2
OverallDifficulty:7
ApproachRate:10
SliderMultiplier:1.4
SliderTickRate:1

[Events]
//Background and Video events
0,0,"374820.jpg",0,-120
//Break Periods
2,393506,405656
//Storyboard Layer 0 (Background)
//Storyboard Layer 1 (Fail)
//Storyboard Layer 2 (Pass)
//Storyboard Layer 3 (Foreground)
//Storyboard Layer 4 (Overlay)
//Storyboard Sound Samples

[TimingPoints]
1272,400,4,1,0,10,1,0
10870,-100,4,1,0,15,0,0
12470,-100,4,1,0,20,0,0
14070,-100,4,1,0,25,0,0
15670,-100,4,1,0,30,0,0
17270,-100,4,1,0,35,0,0
18870,-100,4,1,0,40,0,0
20470,-100,4,1,0,45,0,0
22070,-100,4,1,0,50,0,0
25136,-50,4,1,0,80,0,0
25403,-50,4,1,0,70,0,0
25536,-50,4,1,0,60,0,0
25670,-50,4,1,0,50,0,0
25803,-50,4,1,0,40,0,0
25936,-50,4,1,0,30,0,0
26070,-50,4,1,0,20,0,0
26203,-50,4,1,0,10,0,0
26872,400,4,1,0,10,1,8
28138,-100,4,1,0,15,0,8
28272,400,4,1,0,15,1,0
40934,-100,4,1,0,25,0,0
66502,-95.2380952380952,4,1,0,35,0,0
73003,-90.9090909090909,4,1,0,40,0,0
79336,-86.9565217391304,4,1,0,45,0,0
85005,-84.7457627118644,4,1,0,45,0,0
85405,-80.6451612903226,4,1,0,45,0,0
85736,-74.0740740740741,4,1,0,70,0,0
85846,400,4,1,0,70,1,0
85846,-74.0740740740741,4,1,0,70,0,0
91708,-73.5294117647059,4,1,0,70,0,0
91842,-72.992700729927,4,1,0,70,0,0
91975,-72.463768115942,4,1,0,70,0,0
92108,-71.9424460431655,4,1,0,70,0,0
92236,-71.4285714285714,4,1,0,70,0,0
104375,-70.9219858156028,4,1,0,70,0,0
104642,-70.4225352112676,4,1,0,70,0,0
104775,-69.9300699300699,4,1,0,70,0,0
104908,-69.4444444444444,4,1,0,70,0,0
105036,-68.9655172413793,4,1,0,70,0,0
110508,-68.4931506849315,4,1,0,70,0,0
110642,-68.0272108843537,4,1,0,70,0,0
110769,-67.5675675675676,4,1,0,70,0,0
111042,-66.6666666666667,4,1,0,70,0,0
117131,-71.4285714285714,4,1,0,76,0,0
117173,400,2,1,0,70,1,0
117173,-71.4285714285714,4,1,0,76,0,0
117262,-74.0740740740741,4,1,0,82,0,0
117396,-76.9230769230769,4,1,0,88,0,0
117529,-80,4,1,0,92,0,0
117662,-83.3333333333333,4,1,0,96,0,0
117786,-55.5555555555556,4,1,0,100,0,0
117840,400,2,1,0,100,1,1
117840,-55.5555555555556,6,1,0,100,0,1
143440,-55.5555555555556,6,1,0,100,0,0
143796,-58.8235294117647,6,1,0,50,0,0
144636,-62.5,6,1,0,50,0,0
144996,-66.6666666666667,6,1,0,65,0,0
150171,-66.6666666666667,6,1,0,50,0,0
151371,-66.6666666666667,6,1,0,65,0,0
153371,-66.6666666666667,6,1,0,50,0,0
156171,-60.6060606060606,6,1,0,90,0,0
167798,-61.7283950617284,6,1,0,86,0,0
167931,-62.8930817610063,6,1,0,82,0,0
168064,-64.1025641025641,6,1,0,78,0,0
168198,-65.359477124183,4,1,0,74,0,0
168306,-66.6666666666667,4,1,0,70,0,0
168636,-68.0272108843537,4,1,0,70,0,0
168769,-69.4444444444444,4,1,0,70,0,0
168902,-70.9219858156028,4,1,0,70,0,0
169036,-72.463768115942,4,1,0,70,0,0
169302,-74.0740740740741,4,1,0,70,0,0
169771,-74.0740740740741,4,1,0,80,0,0
170369,-72.463768115942,4,1,0,80,0,0
170636,-70.9219858156028,4,1,0,80,0,0
171169,-69.4444444444444,4,1,0,80,0,0
171302,-68.0272108843537,4,1,0,80,0,0
171436,-66.6666666666667,4,1,0,80,0,0
179569,-67.5675675675676,4,1,0,80,0,0
179836,-68.4931506849315,4,1,0,80,0,0
180236,-69.4444444444444,4,1,0,80,0,0
180502,-70.4225352112676,4,1,0,80,0,0
180636,-71.4285714285714,4,1,0,80,0,0
181036,-62.5,4,1,0,80,0,0
193036,-58.8235294117647,4,1,0,80,0,0
193702,-59.5238095238095,4,1,0,80,0,0
193769,-60.2409638554217,4,1,0,80,0,0
193836,-60.9756097560976,4,1,0,80,0,0
193902,-61.7283950617284,4,1,0,80,0,0
193969,-62.5,4,1,0,80,0,0
194036,-62.8930817610063,4,1,0,80,0,0
194102,-63.2911392405063,4,1,0,80,0,0
194169,-63.6942675159236,4,1,0,80,0,0
194236,-64.1025641025641,4,1,0,80,0,0
194302,-64.5161290322581,4,1,0,80,0,0
194369,-64.9350649350649,4,1,0,80,0,0
194436,-65.359477124183,4,1,0,80,0,0
194502,-65.7894736842105,4,1,0,80,0,0
194569,-66.2251655629139,4,1,0,80,0,0
194636,-66.6666666666667,4,1,0,80,0,0
196236,-66.2251655629139,4,1,0,80,0,0
196638,-65.359477124183,4,1,0,80,0,0
196769,-64.1025641025641,4,1,0,80,0,0
196902,-62.5,4,1,0,80,0,0
202902,-66.6666666666667,4,1,0,80,0,0
203606,-66.2251655629139,4,1,0,81,0,0
203672,-65.7894736842105,4,1,0,82,0,0
203739,-65.359477124183,4,1,0,83,0,0
203806,-64.9350649350649,4,1,0,84,0,0
203872,-64.5161290322581,4,1,0,85,0,0
203939,-63.6942675159236,4,1,0,86,0,0
204006,-62.8930817610063,4,1,0,87,0,0
204072,-62.111801242236,4,1,0,88,0,0
204139,-61.3496932515337,4,1,0,89,0,0
204206,-60.6060606060606,4,1,0,90,0,0
216474,-63.2911392405063,6,1,0,86,0,0
216606,-64.5161290322581,6,1,0,82,0,0
216872,-65.7894736842105,6,1,0,78,0,0
217006,-67.1140939597315,6,1,0,74,0,0
217238,-68.9655172413793,6,1,0,70,0,0
217771,-68.9655172413793,6,1,0,80,0,0
218369,-68.4931506849316,6,1,0,80,0,0
218636,-68.0272108843539,6,1,0,80,0,0
219169,-67.5675675675678,6,1,0,80,0,0
219302,-67.1140939597315,6,1,0,80,0,0
219438,-66.6666666666667,6,1,0,80,0,0
227436,-68.0272108843537,6,1,0,80,0,0
227569,-68.9655172413793,6,1,0,80,0,0
227838,-69.9300699300699,6,1,0,80,0,0
227969,-70.9219858156028,6,1,0,80,0,0
228369,-71.4285714285714,6,1,0,80,0,0
229038,-62.5,6,1,0,80,0,0
238608,-62.5,6,1,0,76,0,0
238872,-64.5161290322581,6,1,0,72,0,0
239006,-65.359477124183,6,1,0,68,0,0
239139,-66.2251655629139,6,1,0,64,0,0
239371,-67.5675675675676,6,1,0,60,0,0
239702,-68.9655172413793,6,1,0,60,0,0
239836,-69.9300699300699,6,1,0,60,0,0
239969,-70.9219858156028,6,1,0,60,0,0
240236,-72.463768115942,6,1,0,60,0,0
240369,-72.992700729927,6,1,0,60,0,0
240502,-73.5294117647059,6,1,0,60,0,0
240636,-74.0740740740741,6,1,0,60,0,0
240769,-74.6268656716418,6,1,0,60,0,0
240902,-75.187969924812,6,1,0,60,0,0
241036,-75.7575757575758,6,1,0,60,0,0
241169,-76.3358778625954,6,1,0,60,0,0
241406,-76.9230769230769,6,1,0,65,0,0
241539,-77.5193798449612,6,1,0,70,0,0
241672,-78.125,6,1,0,75,0,0
241806,-66.6666666666667,6,1,0,100,0,0
241840,-66.6666666666667,6,1,0,100,0,1
253302,-63.6942675159236,6,1,0,100,0,1
253569,-60.9756097560976,6,1,0,100,0,1
253836,-58.4795321637427,6,1,0,100,0,1
253969,-57.1428571428571,6,1,0,100,0,1
254102,-55.8659217877095,6,1,0,100,0,1
254369,-53.763440860215,6,1,0,100,0,1
254636,-58.8235294117647,6,1,0,100,0,1
254902,-66.6666666666667,6,1,0,100,0,1
266104,-63.2911392405063,6,1,0,100,0,1
266371,-60.2409638554217,6,1,0,100,0,1
266504,-58.1395348837209,6,1,0,100,0,1
266638,-55.5555555555556,6,1,0,100,0,1
266904,-52.6315789473684,6,1,0,100,0,1
267038,-50.5050505050505,6,1,0,100,0,1
267304,-48.5436893203883,6,1,0,100,0,1
267436,-47.1698113207547,6,1,0,100,0,1
267440,-47.1698113207547,6,1,0,100,0,0
267702,-48.5436893203883,6,1,0,80,0,0
267836,-49.2610837438424,6,1,0,80,0,0
267969,-50,6,1,0,80,0,0
268236,-50.761421319797,6,1,0,80,0,0
268369,-51.5463917525773,6,1,0,80,0,0
268502,-52.3560209424084,6,1,0,80,0,0
268769,-53.1914893617021,6,1,0,80,0,0
268902,-54.054054054054,6,1,0,80,0,0
269036,-54.9450549450549,6,1,0,80,0,0
269302,-55.8659217877095,6,1,0,80,0,0
269436,-56.8181818181818,6,1,0,80,0,0
269569,-57.8034682080925,6,1,0,80,0,0
269702,-58.8235294117647,6,1,0,80,0,0
269836,-59.8802395209581,6,1,0,80,0,0
270102,-60.9756097560976,6,1,0,80,0,0
270236,-62.111801242236,6,1,0,80,0,0
270369,-63.2911392405063,6,1,0,80,0,0
270502,-64.5161290322581,6,1,0,80,0,0
270636,-65.7894736842105,6,1,0,80,0,0
270902,-66.6666666666667,6,1,0,80,0,0
278902,-63.6942675159236,6,1,0,80,0,0
279173,266.666666666667,4,1,0,80,1,0
279173,-90.9090909090909,4,1,0,80,0,0
287637,-90.9090909090909,4,1,0,70,0,0
287706,266.666666666667,3,1,0,70,1,0
300502,-80,3,1,0,90,0,0
300568,-81.3008130081301,3,1,0,90,0,0
300635,-82.6446280991736,3,1,0,90,0,0
300702,-84.0336134453781,3,1,0,90,0,0
300768,-84.7457627118644,3,1,0,90,0,0
300835,-85.4700854700855,3,1,0,90,0,0
300902,-86.2068965517241,3,1,0,90,0,0
300968,-86.9565217391304,3,1,0,90,0,0
301035,-87.719298245614,3,1,0,90,0,0
301102,-88.4955752212389,3,1,0,90,0,0
301168,-89.2857142857143,3,1,0,90,0,0
301235,-90.0900900900901,3,1,0,90,0,0
301302,-90.9090909090909,3,1,0,90,0,0
301368,-91.743119266055,3,1,0,90,0,0
301435,-92.5925925925926,3,1,0,90,0,0
301502,-93.4579439252336,3,1,0,90,0,0
301568,-94.3396226415094,3,1,0,90,0,0
301635,-95.2380952380952,3,1,0,90,0,0
301702,-96.1538461538461,3,1,0,90,0,0
301768,-97.0873786407767,3,1,0,90,0,0
301835,-98.0392156862745,3,1,0,90,0,0
301968,-99.009900990099,3,1,0,90,0,0
302102,-100,3,1,0,90,0,0
302207,-100,3,1,0,70,0,0
303702,-76.9230769230769,3,1,0,90,0,0
303768,-78.7401574803149,3,1,0,90,0,0
303835,-80.6451612903226,3,1,0,90,0,0
303902,-82.6446280991736,3,1,0,90,0,0
303968,-84.0336134453781,3,1,0,90,0,0
304035,-85.4700854700855,3,1,0,90,0,0
304102,-86.2068965517241,3,1,0,90,0,0
304168,-86.9565217391304,3,1,0,90,0,0
304235,-87.719298245614,3,1,0,90,0,0
304302,-88.4955752212389,3,1,0,90,0,0
304368,-89.2857142857143,3,1,0,90,0,0
304435,-90.0900900900901,3,1,0,90,0,0
304502,-90.9090909090909,3,1,0,90,0,0
304568,-91.743119266055,3,1,0,90,0,0
304635,-92.5925925925926,3,1,0,90,0,0
304702,-93.4579439252336,3,1,0,90,0,0
304768,-94.3396226415094,3,1,0,90,0,0
304835,-95.2380952380952,3,1,0,90,0,0
304902,-96.1538461538461,3,1,0,90,0,0
304968,-97.0873786407767,3,1,0,90,0,0
305035,-98.0392156862745,3,1,0,90,0,0
305168,-99.009900990099,3,1,0,90,0,0
305302,-100,3,1,0,90,0,0
305407,-100,3,1,0,70,0,0
306902,-74.0740740740741,3,1,0,90,0,0
306968,-75.7575757575758,3,1,0,90,0,0
307035,-77.5193798449612,3,1,0,90,0,0
307102,-79.3650793650794,3,1,0,90,0,0
307168,-81.3008130081301,3,1,0,90,0,0
307235,-82.6446280991736,3,1,0,90,0,0
307302,-84.0336134453781,3,1,0,90,0,0
307368,-85.4700854700855,3,1,0,90,0,0
307435,-86.9565217391304,3,1,0,90,0,0
307502,-88.4955752212389,3,1,0,90,0,0
307568,-89.2857142857143,3,1,0,90,0,0
307635,-90.0900900900901,3,1,0,90,0,0
307702,-90.9090909090909,3,1,0,90,0,0
307768,-91.743119266055,3,1,0,90,0,0
307835,-92.5925925925926,3,1,0,90,0,0
307902,-93.4579439252336,3,1,0,90,0,0
307968,-94.3396226415094,3,1,0,90,0,0
308035,-95.2380952380952,3,1,0,90,0,0
308102,-96.1538461538461,3,1,0,90,0,0
308168,-97.0873786407767,3,1,0,90,0,0
308235,-98.0392156862745,3,1,0,90,0,0
308368,-99.009900990099,3,1,0,90,0,0
308502,-100,3,1,0,90,0,0
308617,-100,3,1,0,70,0,0
310102,-71.4285714285714,3,1,0,90,0,0
310168,-72.992700729927,3,1,0,90,0,0
310235,-74.6268656716418,3,1,0,90,0,0
310302,-76.3358778625954,3,1,0,90,0,0
310368,-78.125,3,1,0,90,0,0
310435,-80,3,1,0,90,0,0
310502,-81.9672131147541,3,1,0,90,0,0
310568,-83.3333333333333,3,1,0,90,0,0
310635,-84.7457627118644,3,1,0,90,0,0
310702,-86.2068965517241,3,1,0,90,0,0
310768,-87.719298245614,3,1,0,90,0,0
310835,-89.2857142857143,3,1,0,90,0,0
310902,-90.9090909090909,3,1,0,90,0,0
310968,-91.743119266055,3,1,0,90,0,0
311035,-92.5925925925926,3,1,0,90,0,0
311102,-93.4579439252336,3,1,0,90,0,0
311168,-94.3396226415094,3,1,0,90,0,0
311235,-95.2380952380952,3,1,0,90,0,0
311302,-96.1538461538461,3,1,0,90,0,0
311368,-97.0873786407767,3,1,0,90,0,0
311435,-98.0392156862745,3,1,0,90,0,0
311568,-99.009900990099,3,1,0,90,0,0
311659,-99.009900990099,3,1,0,80,0,0
311706,400,2,1,0,80,1,0
311706,-66.6666666666667,3,1,0,80,0,0
316635,-67.1140939597315,3,1,0,80,0,0
316768,-67.5675675675676,3,1,0,80,0,0
316902,-68.0272108843537,3,1,0,80,0,0
317035,-68.4931506849315,3,1,0,80,0,0
317302,-68.9655172413793,3,1,0,80,0,0
317435,-69.4444444444444,3,1,0,80,0,0
317568,-69.9300699300699,3,1,0,80,0,0
317702,-70.4225352112676,3,1,0,80,0,0
317966,-70.9219858156028,3,1,0,80,0,0
318102,-71.4285714285714,3,1,0,80,0,0
318304,-71.4285714285714,3,1,0,60,0,0
323170,-69.9300699300699,3,1,0,63,0,0
323570,-68.4931506849315,3,1,0,66,0,0
323970,-67.1140939597315,3,1,0,69,0,0
324104,-66.6666666666667,3,1,0,70,0,0
330906,266.666666666667,3,1,0,90,1,0
330906,-80,3,1,0,90,0,0
330967,-81.3008130081301,3,1,0,90,0,0
331034,-82.6446280991736,3,1,0,90,0,0
331101,-84.0336134453781,3,1,0,90,0,0
331167,-84.7457627118644,3,1,0,90,0,0
331234,-85.4700854700855,3,1,0,90,0,0
331301,-86.2068965517241,3,1,0,90,0,0
331367,-86.9565217391304,3,1,0,90,0,0
331434,-87.719298245614,3,1,0,90,0,0
331501,-88.4955752212389,3,1,0,90,0,0
331567,-89.2857142857143,3,1,0,90,0,0
331634,-90.0900900900901,3,1,0,90,0,0
331701,-90.9090909090909,3,1,0,90,0,0
331767,-91.743119266055,3,1,0,90,0,0
331834,-92.5925925925926,3,1,0,90,0,0
331901,-93.4579439252336,3,1,0,90,0,0
331967,-94.3396226415094,3,1,0,90,0,0
332034,-95.2380952380952,3,1,0,90,0,0
332101,-96.1538461538461,3,1,0,90,0,0
332167,-97.0873786407767,3,1,0,90,0,0
332234,-98.0392156862745,3,1,0,90,0,0
332367,-99.009900990099,3,1,0,90,0,0
332501,-100,3,1,0,90,0,0
332606,-100,3,1,0,70,0,0
334101,-76.9230769230769,3,1,0,90,0,0
334167,-78.7401574803149,3,1,0,90,0,0
334234,-80.6451612903226,3,1,0,90,0,0
334301,-82.6446280991736,3,1,0,90,0,0
334367,-84.0336134453781,3,1,0,90,0,0
334434,-85.4700854700855,3,1,0,90,0,0
334501,-86.2068965517241,3,1,0,90,0,0
334567,-86.9565217391304,3,1,0,90,0,0
334634,-87.719298245614,3,1,0,90,0,0
334701,-88.4955752212389,3,1,0,90,0,0
334767,-89.2857142857143,3,1,0,90,0,0
334834,-90.0900900900901,3,1,0,90,0,0
334901,-90.9090909090909,3,1,0,90,0,0
334967,-91.743119266055,3,1,0,90,0,0
335034,-92.5925925925926,3,1,0,90,0,0
335101,-93.4579439252336,3,1,0,90,0,0
335167,-94.3396226415094,3,1,0,90,0,0
335234,-95.2380952380952,3,1,0,90,0,0
335301,-96.1538461538461,3,1,0,90,0,0
335367,-97.0873786407767,3,1,0,90,0,0
335434,-98.0392156862745,3,1,0,90,0,0
335567,-99.009900990099,3,1,0,90,0,0
335701,-100,3,1,0,90,0,0
335806,-100,3,1,0,70,0,0
337301,-74.0740740740741,3,1,0,90,0,0
337367,-75.7575757575758,3,1,0,90,0,0
337434,-77.5193798449612,3,1,0,90,0,0
337501,-79.3650793650794,3,1,0,90,0,0
337567,-81.3008130081301,3,1,0,90,0,0
337634,-82.6446280991736,3,1,0,90,0,0
337701,-84.0336134453781,3,1,0,90,0,0
337767,-85.4700854700855,3,1,0,90,0,0
337834,-86.9565217391304,3,1,0,90,0,0
337901,-88.4955752212389,3,1,0,90,0,0
337967,-89.2857142857143,3,1,0,90,0,0
338034,-90.0900900900901,3,1,0,90,0,0
338101,-90.9090909090909,3,1,0,90,0,0
338167,-91.743119266055,3,1,0,90,0,0
338234,-92.5925925925926,3,1,0,90,0,0
338301,-93.4579439252336,3,1,0,90,0,0
338367,-94.3396226415094,3,1,0,90,0,0
338434,-95.2380952380952,3,1,0,90,0,0
338501,-96.1538461538461,3,1,0,90,0,0
338567,-97.0873786407767,3,1,0,90,0,0
338634,-98.0392156862745,3,1,0,90,0,0
338767,-99.009900990099,3,1,0,90,0,0
338901,-100,3,1,0,90,0,0
339016,-100,3,1,0,70,0,0
340502,-71.4285714285714,3,1,0,90,0,0
340568,-72.992700729927,3,1,0,90,0,0
340635,-74.6268656716418,3,1,0,90,0,0
340702,-76.3358778625954,3,1,0,90,0,0
340768,-78.125,3,1,0,90,0,0
340835,-79.3650793650794,3,1,0,90,0,0
340902,-80.6451612903226,3,1,0,90,0,0
340968,-81.9672131147541,3,1,0,90,0,0
341035,-83.3333333333333,3,1,0,90,0,0
341102,-84.7457627118644,3,1,0,90,0,0
341168,-86.2068965517241,3,1,0,90,0,0
341235,-86.9565217391304,3,1,0,90,0,0
341302,-87.719298245614,3,1,0,90,0,0
341368,-88.4955752212389,3,1,0,90,0,0
341435,-89.2857142857143,3,1,0,90,0,0
341502,-90.0900900900901,3,1,0,90,0,0
341568,-90.9090909090909,3,1,0,90,0,0
341615,-90.0900900900901,3,1,0,91,0,0
341682,-89.2857142857143,3,1,0,92,0,0
341748,-88.4955752212389,3,1,0,93,0,0
341815,-87.719298245614,3,1,0,94,0,0
341882,-86.9565217391304,3,1,0,95,0,0
341948,-86.2068965517241,3,1,0,96,0,0
342015,-84.7457627118644,3,1,0,98,0,0
342082,-83.3333333333333,3,1,0,100,0,0
342106,400,2,1,0,100,1,1
342106,-55.5555555555556,3,1,0,100,0,1
367706,-55.5555555555556,3,1,0,100,0,0
368102,-57.8034682080925,3,1,0,70,0,0
368235,-59.1715976331361,3,1,0,70,0,0
368368,-60.6060606060606,3,1,0,70,0,0
368502,-62.111801242236,3,1,0,70,0,0
368768,-63.2911392405063,3,1,0,70,0,0
368902,-64.1025641025641,3,1,0,70,0,0
369035,-64.9350649350649,3,1,0,70,0,0
369168,-65.7894736842105,3,1,0,70,0,0
369302,-66.6666666666667,3,1,0,70,0,0
393437,-66.6666666666667,3,1,0,20,0,0
394037,-69.9300699300699,3,1,0,20,0,0
394837,-73.5294117647059,3,1,0,20,0,0
395637,-77.5193798449612,3,1,0,20,0,0
396437,-81.9672131147541,3,1,0,20,0,0
397237,-86.9565217391304,3,1,0,20,0,0
398037,-92.5925925925926,3,1,0,20,0,0
398837,-99.009900990099,3,1,0,20,0,0
399637,-106.382978723404,3,1,0,20,0,0
400437,-114.942528735632,3,1,0,20,0,0
401237,-125,3,1,0,20,0,0
406037,-62.5,3,1,0,100,0,0
406106,-62.5,3,1,0,100,0,1
417568,-59.8802395209581,3,1,0,100,0,1
417702,-58.4795321637427,3,1,0,100,0,1
417835,-57.1428571428571,3,1,0,100,0,1
417968,-55.8659217877095,3,1,0,100,0,1
418102,-54.6448087431694,3,1,0,100,0,1
418235,-53.475935828877,3,1,0,100,0,1
418368,-52.3560209424084,3,1,0,100,0,1
418635,-50.5050505050505,3,1,0,100,0,1
418766,-52.3560209424084,3,1,0,100,0,1
418902,-54.054054054054,3,1,0,100,0,1
419170,-62.5,3,1,0,100,0,1
430368,-59.5238095238095,3,1,0,100,0,1
430502,-57.8034682080925,3,1,0,100,0,1
430768,-56.1797752808989,3,1,0,100,0,1
430902,-54.6448087431694,3,1,0,100,0,1
431035,-53.1914893617021,3,1,0,100,0,1
431168,-51.8134715025907,3,1,0,100,0,1
431568,-49.2610837438424,3,1,0,100,0,1
431702,-48.0769230769231,3,1,0,100,0,1
431706,-48.0769230769231,3,1,0,100,0,0
431968,-49.0196078431373,3,1,0,80,0,0
432102,-49.7512437810945,3,1,0,80,0,0
432235,-50.5050505050505,3,1,0,80,0,0
432502,-51.2820512820513,3,1,0,80,0,0
432635,-52.0833333333333,3,1,0,80,0,0
432768,-52.9100529100529,3,1,0,80,0,0
433035,-53.763440860215,3,1,0,80,0,0
433168,-54.3478260869565,3,1,0,80,0,0
433302,-54.9450549450549,3,1,0,80,0,0
433568,-55.5555555555556,3,1,0,80,0,0
433702,-56.1797752808989,3,1,0,80,0,0
433835,-56.8181818181818,3,1,0,80,0,0
433968,-57.4712643678161,3,1,0,80,0,0
434102,-58.1395348837209,3,1,0,80,0,0
434235,-58.8235294117647,3,1,0,80,0,0
434502,-59.5238095238095,3,1,0,80,0,0
434635,-60.2409638554217,3,1,0,80,0,0
434768,-60.9756097560976,3,1,0,80,0,0
434902,-61.7283950617284,3,1,0,80,0,0
435168,-62.5,3,1,0,80,0,0
437272,-61.7283950617284,3,1,0,82,0,0
437405,-60.9756097560976,3,1,0,84,0,0
437538,-60.2409638554217,3,1,0,86,0,0
437672,-59.5238095238095,3,1,0,88,0,0
437805,-58.8235294117647,3,1,0,90,0,0
438037,-57.1428571428571,3,1,0,90,0,0
441435,-56.4971751412429,3,1,0,90,0,0
441568,-55.8659217877095,3,1,0,90,0,0
441635,-55.2486187845304,3,1,0,90,0,0
441702,-54.6448087431694,3,1,0,90,0,0
441768,-54.054054054054,3,1,0,90,0,0
441835,-53.475935828877,3,1,0,90,0,0
441968,-52.9100529100529,3,1,0,90,0,0
442102,-52.3560209424084,3,1,0,90,0,0
442168,-51.8134715025907,3,1,0,90,0,0
442235,-51.2820512820513,3,1,0,90,0,0
442302,-50.761421319797,3,1,0,90,0,0
442368,-50.251256281407,3,1,0,90,0,0
442435,-49.7512437810945,3,1,0,90,0,0
442502,-49.2610837438424,3,1,0,90,0,0
442568,-48.780487804878,3,1,0,90,0,0
442635,-48.3091787439614,3,1,0,90,0,0
442702,-47.8468899521531,3,1,0,90,0,0
442768,-47.39336492891,3,1,0,90,0,0
442835,-46.9483568075117,3,1,0,90,0,0
442902,-46.5116279069767,3,1,0,90,0,0

[HitObjects]
256,192,25272,5,4,0:0:0:0:
256,192,28272,5,8,0:0:0:0:
256,192,29072,1,0,0:0:0:0:
256,192,29872,1,0,0:0:0:0:
256,192,30672,1,0,0:0:0:0:
256,192,31472,1,8,0:0:0:0:
256,192,32272,1,0,0:0:0:0:
256,192,33072,1,0,0:0:0:0:
256,192,33872,1,0,0:0:0:0:
256,192,34672,1,8,0:0:0:0:
256,192,35472,1,0,0:0:0:0:
256,192,36272,1,0,0:0:0:0:
256,192,37072,1,0,0:0:0:0:
256,192,37872,1,8,0:0:0:0:
256,192,38672,1,0,0:0:0:0:
256,192,39472,1,0,0:0:0:0:
256,192,40272,1,0,0:0:0:0:
256,192,41072,5,4,0:0:0:0:
256,192,41472,1,8,0:0:0:0:
256,192,41605,1,8,0:0:0:0:
256,192,41738,1,0,0:0:0:0:
256,192,41872,1,0,0:0:0:0:
256,192,42272,1,8,0:0:0:0:
256,192,42405,1,0,0:0:0:0:
256,192,42538,1,0,0:0:0:0:
256,192,42672,1,0,0:0:0:0:
256,192,43072,1,8,0:0:0:0:
256,192,43472,1,0,0:0:0:0:
256,192,43605,1,0,0:0:0:0:
256,192,43738,1,0,0:0:0:0:
256,192,43872,1,8,0:0:0:0:
256,192,44272,1,4,0:0:0:0:
256,192,44672,1,8,0:0:0:0:
256,192,44805,1,8,0:0:0:0:
256,192,44938,1,0,0:0:0:0:
256,192,45072,1,0,0:0:0:0:
256,192,45472,1,8,0:0:0:0:
256,192,45605,1,0,0:0:0:0:
256,192,45738,1,0,0:0:0:0:
256,192,45872,1,0,0:0:0:0:
256,192,46272,1,12,0:0:0:0:
256,192,46672,1,0,0:0:0:0:
256,192,47072,1,0,0:0:0:0:
256,192,47472,5,4,0:0:0:0:
256,192,47872,1,8,0:0:0:0:
256,192,48005,1,8,0:0:0:0:
256,192,48138,1,0,0:0:0:0:
256,192,48272,1,0,0:0:0:0:
256,192,48672,1,8,0:0:0:0:
256,192,48805,1,0,0:0:0:0:
256,192,48938,1,0,0:0:0:0:
256,192,49072,1,0,0:0:0:0:
256,192,49472,1,8,0:0:0:0:
256,192,49872,1,0,0:0:0:0:
256,192,50005,1,0,0:0:0:0:
256,192,50138,1,0,0:0:0:0:
256,192,50272,1,8,0:0:0:0:
256,192,50672,1,4,0:0:0:0:
256,192,51072,1,8,0:0:0:0:
256,192,51205,1,8,0:0:0:0:
256,192,51338,1,8,0:0:0:0:
256,192,51472,1,0,0:0:0:0:
256,192,51872,1,8,0:0:0:0:
256,192,52005,1,8,0:0:0:0:
256,192,52138,1,0,0:0:0:0:
256,192,52272,1,0,0:0:0:0:
256,192,52672,1,12,0:0:0:0:
256,192,53072,1,0,0:0:0:0:
256,192,53472,1,0,0:0:0:0:
256,192,53872,5,4,0:0:0:0:
256,192,54272,1,8,0:0:0:0:
256,192,54405,1,8,0:0:0:0:
256,192,54538,1,0,0:0:0:0:
256,192,54672,1,0,0:0:0:0:
256,192,55072,1,8,0:0:0:0:
256,192,55205,1,0,0:0:0:0:
256,192,55338,1,0,0:0:0:0:
256,192,55472,1,0,0:0:0:0:
256,192,55872,1,8,0:0:0:0:
256,192,56272,1,8,0:0:0:0:
256,192,56405,1,0,0:0:0:0:
256,192,56538,1,0,0:0:0:0:
256,192,56672,1,8,0:0:0:0:
256,192,57072,1,4,0:0:0:0:
256,192,57472,1,8,0:0:0:0:
256,192,57605,1,8,0:0:0:0:
256,192,57738,1,0,0:0:0:0:
256,192,57872,1,8,0:0:0:0:
256,192,58272,1,8,0:0:0:0:
256,192,58405,1,0,0:0:0:0:
256,192,58538,1,8,0:0:0:0:
256,192,58672,1,8,0:0:0:0:
256,192,59072,1,12,0:0:0:0:
256,192,59472,1,0,0:0:0:0:
256,192,59872,1,0,0:0:0:0:
256,192,60272,5,4,0:0:0:0:
256,192,60672,1,8,0:0:0:0:
256,192,60805,1,0,0:0:0:0:
256,192,60938,1,0,0:0:0:0:
256,192,61072,1,8,0:0:0:0:
256,192,61472,1,8,0:0:0:0:
256,192,61605,1,0,0:0:0:0:
256,192,61738,1,0,0:0:0:0:
256,192,61872,1,8,0:0:0:0:
256,192,62272,1,8,0:0:0:0:
256,192,62672,1,0,0:0:0:0:
256,192,62805,1,0,0:0:0:0:
256,192,62938,1,0,0:0:0:0:
256,192,63072,1,0,0:0:0:0:
256,192,63472,1,4,0:0:0:0:
256,192,63872,1,8,0:0:0:0:
256,192,64005,1,8,0:0:0:0:
256,192,64138,1,0,0:0:0:0:
256,192,64272,1,8,0:0:0:0:
256,192,64672,1,8,0:0:0:0:
256,192,64805,1,0,0:0:0:0:
256,192,64938,1,8,0:0:0:0:
256,192,65072,1,8,0:0:0:0:
256,192,65472,1,12,0:0:0:0:
256,192,65872,1,0,0:0:0:0:
256,192,66272,1,0,0:0:0:0:
256,192,66672,5,4,0:0:0:0:
256,192,67072,1,8,0:0:0:0:
256,192,67205,1,0,0:0:0:0:
256,192,67338,1,0,0:0:0:0:
256,192,67472,1,8,0:0:0:0:
256,192,67872,1,0,0:0:0:0:
256,192,68005,1,0,0:0:0:0:
256,192,68138,1,0,0:0:0:0:
256,192,68272,1,8,0:0:0:0:
256,192,68672,1,8,0:0:0:0:
256,192,69072,1,0,0:0:0:0:
256,192,69205,1,0,0:0:0:0:
256,192,69338,1,0,0:0:0:0:
256,192,69472,1,0,0:0:0:0:
256,192,69872,1,4,0:0:0:0:
256,192,70272,1,0,0:0:0:0:
256,192,70405,1,0,0:0:0:0:
256,192,70538,1,0,0:0:0:0:
256,192,70672,1,8,0:0:0:0:
256,192,71072,1,8,0:0:0:0:
256,192,71205,1,0,0:0:0:0:
256,192,71338,1,0,0:0:0:0:
256,192,71472,1,8,0:0:0:0:
256,192,71872,1,12,0:0:0:0:
256,192,72272,1,0,0:0:0:0:
256,192,72672,1,0,0:0:0:0:
256,192,73072,5,4,0:0:0:0:
256,192,73472,1,8,0:0:0:0:
256,192,73605,1,0,0:0:0:0:
256,192,73738,1,0,0:0:0:0:
256,192,73872,1,8,0:0:0:0:
256,192,74272,1,8,0:0:0:0:
256,192,74405,1,0,0:0:0:0:
256,192,74538,1,0,0:0:0:0:
256,192,74672,1,8,0:0:0:0:
256,192,75072,1,8,0:0:0:0:
256,192,75472,1,0,0:0:0:0:
256,192,75605,1,0,0:0:0:0:
256,192,75738,1,0,0:0:0:0:
256,192,75872,1,0,0:0:0:0:
256,192,76272,1,4,0:0:0:0:
256,192,76672,1,0,0:0:0:0:
256,192,76805,1,0,0:0:0:0:
256,192,76938,1,0,0:0:0:0:
256,192,77072,1,8,0:0:0:0:
256,192,77472,1,0,0:0:0:0:
256,192,77605,1,0,0:0:0:0:
256,192,77738,1,8,0:0:0:0:
256,192,77872,1,8,0:0:0:0:
256,192,78272,1,12,0:0:0:0:
256,192,78672,1,0,0:0:0:0:
256,192,79072,1,0,0:0:0:0:
256,192,79472,5,4,0:0:0:0:
256,192,79872,1,0,0:0:0:0:
256,192,80005,1,0,0:0:0:0:
256,192,80138,1,0,0:0:0:0:
256,192,80272,1,8,0:0:0:0:
256,192,80672,1,8,0:0:0:0:
256,192,80805,1,0,0:0:0:0:
256,192,80938,1,0,0:0:0:0:
256,192,81072,1,8,0:0:0:0:
256,192,81472,1,8,0:0:0:0:
256,192,81872,1,0,0:0:0:0:
256,192,82005,1,0,0:0:0:0:
256,192,82138,1,0,0:0:0:0:
256,192,82272,1,0,0:0:0:0:
256,192,82672,1,4,0:0:0:0:
256,192,83072,1,0,0:0:0:0:
256,192,83205,1,0,0:0:0:0:
256,192,83338,1,0,0:0:0:0:
256,192,83472,1,8,0:0:0:0:
256,192,83872,1,0,0:0:0:0:
256,192,84005,1,0,0:0:0:0:
256,192,84138,1,8,0:0:0:0:
256,192,84272,1,8,0:0:0:0:
256,192,84672,1,12,0:0:0:0:
256,192,85072,1,0,0:0:0:0:
256,192,85472,1,0,0:0:0:0:
256,192,85846,5,4,0:0:0:0:
256,192,86246,1,8,0:0:0:0:
256,192,86379,1,8,0:0:0:0:
256,192,86512,1,8,0:0:0:0:
256,192,86646,1,8,0:0:0:0:
256,192,87046,1,8,0:0:0:0:
256,192,87179,1,8,0:0:0:0:
256,192,87312,1,8,0:0:0:0:
256,192,87446,1,8,0:0:0:0:
256,192,87846,1,12,0:0:0:0:
256,192,88246,1,0,0:0:0:0:
256,192,88379,1,0,0:0:0:0:
256,192,88512,1,0,0:0:0:0:
256,192,88646,1,0,0:0:0:0:
256,192,88779,1,0,0:0:0:0:
256,192,88912,1,0,0:0:0:0:
256,192,89046,1,8,0:0:0:0:
256,192,89446,1,8,0:0:0:0:
256,192,89579,1,8,0:0:0:0:
256,192,89712,1,8,0:0:0:0:
256,192,89846,1,8,0:0:0:0:
256,192,90246,1,8,0:0:0:0:
256,192,90379,1,8,0:0:0:0:
256,192,90512,1,8,0:0:0:0:
256,192,90646,1,8,0:0:0:0:
256,192,90779,1,8,0:0:0:0:
256,192,90912,1,8,0:0:0:0:
256,192,91046,1,8,0:0:0:0:
256,192,91446,1,0,0:0:0:0:
256,192,91579,1,0,0:0:0:0:
256,192,91712,1,0,0:0:0:0:
256,192,91846,1,0,0:0:0:0:
256,192,91979,1,0,0:0:0:0:
256,192,92112,1,0,0:0:0:0:
256,192,92246,5,12,0:0:0:0:
256,192,92646,1,0,0:0:0:0:
256,192,92779,1,0,0:0:0:0:
256,192,92912,1,0,0:0:0:0:
256,192,93046,1,8,0:0:0:0:
256,192,93446,1,8,0:0:0:0:
256,192,93579,1,0,0:0:0:0:
256,192,93712,1,8,0:0:0:0:
256,192,93846,1,8,0:0:0:0:
256,192,94246,1,8,0:0:0:0:
256,192,94646,1,0,0:0:0:0:
256,192,94779,1,0,0:0:0:0:
256,192,94912,1,0,0:0:0:0:
256,192,95046,1,0,0:0:0:0:
256,192,95446,1,4,0:0:0:0:
256,192,95846,1,0,0:0:0:0:
256,192,95979,1,0,0:0:0:0:
256,192,96112,1,0,0:0:0:0:
256,192,96246,1,8,0:0:0:0:
256,192,96646,1,8,0:0:0:0:
256,192,96779,1,0,0:0:0:0:
256,192,96912,1,0,0:0:0:0:
256,192,97046,1,8,0:0:0:0:
256,192,97446,1,8,0:0:0:0:
256,192,97846,1,0,0:0:0:0:
256,192,97979,1,0,0:0:0:0:
256,192,98112,1,0,0:0:0:0:
256,192,98246,1,0,0:0:0:0:
256,192,98379,1,0,0:0:0:0:
256,192,98512,1,0,0:0:0:0:
256,192,98646,5,12,0:0:0:0:
256,192,99046,1,8,0:0:0:0:
256,192,99179,1,0,0:0:0:0:
256,192,99312,1,0,0:0:0:0:
256,192,99446,1,8,0:0:0:0:
256,192,99846,1,8,0:0:0:0:
256,192,99979,1,0,0:0:0:0:
256,192,100112,1,8,0:0:0:0:
256,192,100246,1,8,0:0:0:0:
256,192,100646,1,8,0:0:0:0:
256,192,101046,1,0,0:0:0:0:
256,192,101179,1,0,0:0:0:0:
256,192,101312,1,0,0:0:0:0:
256,192,101446,1,0,0:0:0:0:
256,192,101846,1,4,0:0:0:0:
256,192,102246,1,0,0:0:0:0:
256,192,102379,1,0,0:0:0:0:
256,192,102512,1,0,0:0:0:0:
256,192,102646,1,8,0:0:0:0:
256,192,103046,1,0,0:0:0:0:
256,192,103179,1,8,0:0:0:0:
256,192,103312,1,8,0:0:0:0:
256,192,103446,1,8,0:0:0:0:
256,192,103579,1,8,0:0:0:0:
256,192,103712,1,8,0:0:0:0:
256,192,103846,1,8,0:0:0:0:
256,192,104246,1,8,0:0:0:0:
256,192,104379,1,8,0:0:0:0:
256,192,104446,1,8,0:0:0:0:
256,192,104512,1,8,0:0:0:0:
256,192,104646,1,8,0:0:0:0:
256,192,104779,1,8,0:0:0:0:
256,192,104912,1,8,0:0:0:0:
256,192,105046,5,4,0:0:0:0:
256,192,105446,1,0,0:0:0:0:
256,192,105579,1,0,0:0:0:0:
256,192,105712,1,8,0:0:0:0:
256,192,105846,1,8,0:0:0:0:
256,192,106246,1,8,0:0:0:0:
256,192,106379,1,0,0:0:0:0:
256,192,106512,1,8,0:0:0:0:
256,192,106646,1,8,0:0:0:0:
256,192,107046,1,8,0:0:0:0:
256,192,107312,1,0,0:0:0:0:
256,192,107379,1,0,0:0:0:0:
256,192,107446,1,8,0:0:0:0:
256,192,107579,1,0,0:0:0:0:
256,192,107712,1,8,0:0:0:0:
256,192,107846,1,8,0:0:0:0:
256,192,107979,1,0,0:0:0:0:
256,192,108112,1,0,0:0:0:0:
256,192,108246,1,4,0:0:0:0:
256,192,108512,1,0,0:0:0:0:
256,192,108646,1,8,0:0:0:0:
256,192,108779,1,8,0:0:0:0:
256,192,108912,1,8,0:0:0:0:
256,192,109046,1,8,0:0:0:0:
256,192,109179,1,0,0:0:0:0:
256,192,109246,1,0,0:0:0:0:
256,192,109312,1,0,0:0:0:0:
256,192,109446,1,8,0:0:0:0:
256,192,109579,1,8,0:0:0:0:
256,192,109712,1,8,0:0:0:0:
256,192,109846,1,8,0:0:0:0:
256,192,110112,1,0,0:0:0:0:
256,192,110179,1,0,0:0:0:0:
256,192,110246,1,8,0:0:0:0:
256,192,110379,1,8,0:0:0:0:
256,192,110512,1,8,0:0:0:0:
256,192,110646,1,8,0:0:0:0:
256,192,110779,1,0,0:0:0:0:
256,192,110846,1,0,0:0:0:0:
256,192,110912,1,8,0:0:0:0:
256,192,111046,1,8,0:0:0:0:
256,192,111112,1,8,0:0:0:0:
256,192,111179,1,0,0:0:0:0:
256,192,111246,1,0,0:0:0:0:
256,192,111312,1,0,0:0:0:0:
256,192,111379,1,0,0:0:0:0:
256,192,111446,1,8,0:0:0:0:
256,192,111579,1,0,0:0:0:0:
256,192,111712,1,0,0:0:0:0:
256,192,111846,1,8,0:0:0:0:
256,192,111912,1,8,0:0:0:0:
256,192,111979,1,8,0:0:0:0:
256,192,112112,1,8,0:0:0:0:
256,192,112246,1,0,0:0:0:0:
256,192,112379,1,0,0:0:0:0:
256,192,112512,1,0,0:0:0:0:
256,192,112646,1,8,0:0:0:0:
256,192,112712,1,8,0:0:0:0:
256,192,112779,1,8,0:0:0:0:
256,192,112912,1,8,0:0:0:0:
256,192,113046,1,0,0:0:0:0:
256,192,113179,1,0,0:0:0:0:
256,192,113312,1,0,0:0:0:0:
256,192,113446,1,8,0:0:0:0:
256,192,113512,1,8,0:0:0:0:
256,192,113579,1,0,0:0:0:0:
256,192,113646,1,0,0:0:0:0:
256,192,113712,1,8,0:0:0:0:
256,192,113779,1,8,0:0:0:0:
256,192,113846,1,0,0:0:0:0:
256,192,113979,1,8,0:0:0:0:
256,192,114112,1,0,0:0:0:0:
256,192,114246,1,8,0:0:0:0:
256,192,114312,1,0,0:0:0:0:
256,192,114379,1,8,0:0:0:0:
256,192,114446,1,8,0:0:0:0:
256,192,114512,1,0,0:0:0:0:
256,192,114646,5,8,0:0:0:0:
256,192,114779,1,0,0:0:0:0:
256,192,114912,1,8,0:0:0:0:
256,192,115046,1,8,0:0:0:0:
256,192,115179,1,8,0:0:0:0:
256,192,115312,1,0,0:0:0:0:
256,192,115446,1,8,0:0:0:0:
256,192,115579,1,8,0:0:0:0:
256,192,115646,1,0,0:0:0:0:
256,192,115712,1,0,0:0:0:0:
256,192,115779,1,0,0:0:0:0:
256,192,115846,1,8,0:0:0:0:
256,192,115912,1,0,0:0:0:0:
256,192,115979,1,0,0:0:0:0:
256,192,116046,1,0,0:0:0:0:
256,192,116112,1,0,0:0:0:0:
256,192,116179,1,0,0:0:0:0:
256,192,116246,1,8,0:0:0:0:
256,192,116512,1,8,0:0:0:0:
256,192,116646,1,8,0:0:0:0:
256,192,117173,5,8,0:0:0:0:
256,192,117306,1,0,0:0:0:0:
256,192,117439,1,8,0:0:0:0:
256,192,117573,1,0,0:0:0:0:
256,192,117706,1,0,0:0:0:0:
256,192,117840,5,8,0:0:0:0:
256,192,117906,1,0,0:0:0:0:
256,192,117973,1,0,0:0:0:0:
256,192,118040,1,0,0:0:0:0:
256,192,118106,1,0,0:0:0:0:
256,192,118173,1,0,0:0:0:0:
256,192,118240,1,8,0:0:0:0:
256,192,118306,1,0,0:0:0:0:
256,192,118373,1,8,0:0:0:0:
256,192,118440,1,0,0:0:0:0:
256,192,118506,1,8,0:0:0:0:
256,192,118573,1,0,0:0:0:0:
256,192,118640,1,8,0:0:0:0:
256,192,118706,1,8,0:0:0:0:
256,192,118773,1,0,0:0:0:0:
256,192,118840,1,0,0:0:0:0:
256,192,118906,1,0,0:0:0:0:
256,192,118973,1,0,0:0:0:0:
256,192,119040,1,8,0:0:0:0:
256,192,119106,1,0,0:0:0:0:
256,192,119173,1,8,0:0:0:0:
256,192,119240,1,0,0:0:0:0:
256,192,119306,1,0,0:0:0:0:
256,192,119373,1,0,0:0:0:0:
256,192,119440,1,8,0:0:0:0:
256,192,119506,1,8,0:0:0:0:
256,192,119573,1,8,0:0:0:0:
256,192,119640,1,8,0:0:0:0:
256,192,119706,1,0,0:0:0:0:
256,192,119773,1,0,0:0:0:0:
256,192,119840,1,8,0:0:0:0:
256,192,119906,1,8,0:0:0:0:
256,192,119973,1,0,0:0:0:0:
256,192,120040,1,0,0:0:0:0:
256,192,120106,1,8,0:0:0:0:
256,192,120173,1,0,0:0:0:0:
256,192,120240,1,8,0:0:0:0:
256,192,120306,1,8,0:0:0:0:
256,192,120373,1,0,0:0:0:0:
256,192,120440,1,0,0:0:0:0:
256,192,120506,1,0,0:0:0:0:
256,192,120573,1,0,0:0:0:0:
256,192,120640,1,8,0:0:0:0:
256,192,120706,1,8,0:0:0:0:
256,192,120773,1,0,0:0:0:0:
256,192,120840,1,0,0:0:0:0:
256,192,120906,1,0,0:0:0:0:
256,192,120973,1,0,0:0:0:0:
256,192,121040,1,8,0:0:0:0:
256,192,121106,1,0,0:0:0:0:
256,192,121173,1,0,0:0:0:0:
256,192,121240,1,0,0:0:0:0:
256,192,121306,1,0,0:0:0:0:
256,192,121373,1,0,0:0:0:0:
256,192,121440,1,8,0:0:0:0:
256,192,121506,1,0,0:0:0:0:
256,192,121573,1,0,0:0:0:0:
256,192,121640,1,0,0:0:0:0:
256,192,121706,1,8,0:0:0:0:
256,192,121773,1,0,0:0:0:0:
256,192,121840,1,8,0:0:0:0:
256,192,121906,1,8,0:0:0:0:
256,192,121973,1,0,0:0:0:0:
256,192,122040,1,0,0:0:0:0:
256,192,122106,1,0,0:0:0:0:
256,192,122173,1,0,0:0:0:0:
256,192,122240,1,8,0:0:0:0:
256,192,122306,1,0,0:0:0:0:
256,192,122373,1,8,0:0:0:0:
256,192,122440,1,0,0:0:0:0:
256,192,122506,1,8,0:0:0:0:
256,192,122573,1,0,0:0:0:0:
256,192,122640,1,8,0:0:0:0:
256,192,122706,1,8,0:0:0:0:
256,192,122773,1,8,0:0:0:0:
256,192,122840,1,8,0:0:0:0:
256,192,122906,1,0,0:0:0:0:
256,192,122973,1,0,0:0:0:0:
256,192,123040,1,8,0:0:0:0:
256,192,123106,1,0,0:0:0:0:
256,192,123173,1,0,0:0:0:0:
256,192,123240,1,0,0:0:0:0:
256,192,123306,1,8,0:0:0:0:
256,192,123373,1,0,0:0:0:0:
256,192,123440,1,8,0:0:0:0:
256,192,123506,1,8,0:0:0:0:
256,192,123573,1,8,0:0:0:0:
256,192,123640,1,0,0:0:0:0:
256,192,123706,1,8,0:0:0:0:
256,192,123773,1,8,0:0:0:0:
256,192,123840,1,0,0:0:0:0:
256,192,123906,1,0,0:0:0:0:
256,192,123973,1,8,0:0:0:0:
256,192,124040,1,8,0:0:0:0:
256,192,124106,1,0,0:0:0:0:
256,192,124173,1,0,0:0:0:0:
256,192,124240,1,8,0:0:0:0:
256,192,124306,1,0,0:0:0:0:
256,192,124373,1,0,0:0:0:0:
256,192,124440,1,0,0:0:0:0:
256,192,124506,1,0,0:0:0:0:
256,192,124573,1,0,0:0:0:0:
256,192,124640,1,8,0:0:0:0:
256,192,124706,1,0,0:0:0:0:
256,192,124773,1,8,0:0:0:0:
256,192,124840,1,0,0:0:0:0:
256,192,124906,1,8,0:0:0:0:
256,192,124973,1,0,0:0:0:0:
256,192,125040,1,8,0:0:0:0:
256,192,125106,1,8,0:0:0:0:
256,192,125173,1,0,0:0:0:0:
256,192,125240,1,0,0:0:0:0:
256,192,125306,1,0,0:0:0:0:
256,192,125373,1,0,0:0:0:0:
256,192,125440,1,8,0:0:0:0:
256,192,125506,1,0,0:0:0:0:
256,192,125573,1,0,0:0:0:0:
256,192,125640,1,0,0:0:0:0:
256,192,125706,1,8,0:0:0:0:
256,192,125773,1,0,0:0:0:0:
256,192,125840,1,8,0:0:0:0:
256,192,125906,1,8,0:0:0:0:
256,192,125973,1,8,0:0:0:0:
256,192,126040,1,8,0:0:0:0:
256,192,126106,1,0,0:0:0:0:
256,192,126173,1,0,0:0:0:0:
256,192,126240,1,8,0:0:0:0:
256,192,126306,1,0,0:0:0:0:
256,192,126373,1,8,0:0:0:0:
256,192,126440,1,0,0:0:0:0:
256,192,126506,1,0,0:0:0:0:
256,192,126573,1,0,0:0:0:0:
256,192,126640,1,8,0:0:0:0:
256,192,126706,1,8,0:0:0:0:
256,192,126773,1,8,0:0:0:0:
256,192,126840,1,0,0:0:0:0:
256,192,126906,1,8,0:0:0:0:
256,192,126973,1,0,0:0:0:0:
256,192,127040,1,8,0:0:0:0:
256,192,127106,1,8,0:0:0:0:
256,192,127173,1,0,0:0:0:0:
256,192,127240,1,0,0:0:0:0:
256,192,127306,1,0,0:0:0:0:
256,192,127373,1,0,0:0:0:0:
256,192,127440,1,8,0:0:0:0:
256,192,127573,5,8,0:0:0:0:
256,192,127706,1,0,0:0:0:0:
256,192,127773,1,0,0:0:0:0:
256,192,127840,1,8,0:0:0:0:
256,192,127973,1,0,0:0:0:0:
256,192,128106,1,8,0:0:0:0:
256,192,128240,1,8,0:0:0:0:
256,192,128306,1,8,0:0:0:0:
256,192,128373,1,0,0:0:0:0:
256,192,128440,1,0,0:0:0:0:
256,192,128506,1,0,0:0:0:0:
256,192,128640,1,8,0:0:0:0:
256,192,128773,1,0,0:0:0:0:
256,192,128840,1,0,0:0:0:0:
256,192,128906,1,0,0:0:0:0:
256,192,129040,1,8,0:0:0:0:
256,192,129173,1,0,0:0:0:0:
256,192,129240,1,0,0:0:0:0:
256,192,129306,1,8,0:0:0:0:
256,192,129440,1,8,0:0:0:0:
256,192,129506,1,8,0:0:0:0:
256,192,129573,1,0,0:0:0:0:
256,192,129706,1,8,0:0:0:0:
256,192,129840,1,8,0:0:0:0:
256,192,129906,1,0,0:0:0:0:
256,192,129973,1,0,0:0:0:0:
256,192,130040,1,0,0:0:0:0:
256,192,130106,1,8,0:0:0:0:
256,192,130173,1,0,0:0:0:0:
256,192,130240,1,0,0:0:0:0:
256,192,130306,1,0,0:0:0:0:
256,192,130373,1,8,0:0:0:0:
256,192,130440,1,0,0:0:0:0:
256,192,130506,1,0,0:0:0:0:
256,192,130573,1,0,0:0:0:0:
256,192,130640,5,8,0:0:0:0:
256,192,130706,1,8,0:0:0:0:
256,192,130773,1,8,0:0:0:0:
256,192,130840,1,8,0:0:0:0:
256,192,130906,1,0,0:0:0:0:
256,192,130973,1,0,0:0:0:0:
256,192,131040,1,8,0:0:0:0:
256,192,131106,1,8,0:0:0:0:
256,192,131173,1,0,0:0:0:0:
256,192,131240,1,0,0:0:0:0:
256,192,131306,1,8,0:0:0:0:
256,192,131373,1,0,0:0:0:0:
256,192,131440,1,8,0:0:0:0:
256,192,131506,1,8,0:0:0:0:
256,192,131573,1,0,0:0:0:0:
256,192,131640,1,0,0:0:0:0:
256,192,131706,1,0,0:0:0:0:
256,192,131773,1,0,0:0:0:0:
256,192,131840,1,8,0:0:0:0:
256,192,131906,1,0,0:0:0:0:
256,192,131973,1,8,0:0:0:0:
256,192,132040,1,0,0:0:0:0:
256,192,132106,1,8,0:0:0:0:
256,192,132173,1,0,0:0:0:0:
256,192,132240,1,8,0:0:0:0:
256,192,132306,1,8,0:0:0:0:
256,192,132373,1,8,0:0:0:0:
256,192,132440,1,8,0:0:0:0:
256,192,132506,1,0,0:0:0:0:
256,192,132573,1,0,0:0:0:0:
256,192,132640,1,8,0:0:0:0:
256,192,132706,1,0,0:0:0:0:
256,192,132773,1,0,0:0:0:0:
256,192,132840,1,0,0:0:0:0:
256,192,132906,1,8,0:0:0:0:
256,192,132973,1,0,0:0:0:0:
256,192,133040,1,8,0:0:0:0:
256,192,133106,1,8,0:0:0:0:
256,192,133173,1,8,0:0:0:0:
256,192,133240,1,8,0:0:0:0:
256,192,133306,1,0,0:0:0:0:
256,192,133373,1,0,0:0:0:0:
256,192,133440,1,8,0:0:0:0:
256,192,133506,1,8,0:0:0:0:
256,192,133573,1,8,0:0:0:0:
256,192,133640,1,8,0:0:0:0:
256,192,133706,1,0,0:0:0:0:
256,192,133773,1,0,0:0:0:0:
256,192,133840,1,8,0:0:0:0:
256,192,133906,1,8,0:0:0:0:
256,192,133973,1,0,0:0:0:0:
256,192,134040,1,0,0:0:0:0:
256,192,134106,1,0,0:0:0:0:
256,192,134173,1,0,0:0:0:0:
256,192,134240,1,8,0:0:0:0:
256,192,134306,1,0,0:0:0:0:
256,192,134373,1,8,0:0:0:0:
256,192,134440,1,0,0:0:0:0:
256,192,134506,1,8,0:0:0:0:
256,192,134573,1,0,0:0:0:0:
256,192,134640,1,8,0:0:0:0:
256,192,134706,1,8,0:0:0:0:
256,192,134773,1,0,0:0:0:0:
256,192,134840,1,0,0:0:0:0:
256,192,134906,1,8,0:0:0:0:
256,192,134973,1,8,0:0:0:0:
256,192,135040,1,0,0:0:0:0:
256,192,135106,1,0,0:0:0:0:
256,192,135173,1,8,0:0:0:0:
256,192,135240,1,0,0:0:0:0:
256,192,135306,1,8,0:0:0:0:
256,192,135373,1,0,0:0:0:0:
256,192,135440,1,8,0:0:0:0:
256,192,135506,1,8,0:0:0:0:
256,192,135573,1,0,0:0:0:0:
256,192,135640,1,0,0:0:0:0:
256,192,135706,1,8,0:0:0:0:
256,192,135773,1,0,0:0:0:0:
256,192,135840,1,0,0:0:0:0:
256,192,135906,1,0,0:0:0:0:
256,192,135973,1,8,0:0:0:0:
256,192,136040,1,0,0:0:0:0:
256,192,136106,1,0,0:0:0:0:
256,192,136173,1,0,0:0:0:0:
256,192,136240,1,8,0:0:0:0:
256,192,136306,1,8,0:0:0:0:
256,192,136373,1,8,0:0:0:0:
256,192,136440,1,0,0:0:0:0:
256,192,136506,1,8,0:0:0:0:
256,192,136573,1,8,0:0:0:0:
256,192,136640,1,8,0:0:0:0:
256,192,136706,1,0,0:0:0:0:
256,192,136773,1,8,0:0:0:0:
256,192,136840,1,8,0:0:0:0:
256,192,136906,1,0,0:0:0:0:
256,192,136973,1,0,0:0:0:0:
256,192,137040,1,8,0:0:0:0:
256,192,137173,5,8,0:0:0:0:
256,192,137306,1,8,0:0:0:0:
256,192,137440,1,0,0:0:0:0:
256,192,137506,1,0,0:0:0:0:
256,192,137573,1,0,0:0:0:0:
256,192,137706,1,0,0:0:0:0:
256,192,137840,1,8,0:0:0:0:
256,192,137973,1,0,0:0:0:0:
256,192,138106,1,8,0:0:0:0:
256,192,138240,1,0,0:0:0:0:
256,192,138306,1,0,0:0:0:0:
256,192,138373,1,0,0:0:0:0:
256,192,138506,1,0,0:0:0:0:
256,192,138640,1,8,0:0:0:0:
256,192,138773,1,0,0:0:0:0:
256,192,138906,1,8,0:0:0:0:
256,192,139040,1,0,0:0:0:0:
256,192,139106,1,0,0:0:0:0:
256,192,139173,1,8,0:0:0:0:
256,192,139306,1,0,0:0:0:0:
256,192,139440,1,8,0:0:0:0:
256,192,139506,1,0,0:0:0:0:
256,192,139573,1,0,0:0:0:0:
256,192,139706,1,8,0:0:0:0:
256,192,139773,1,8,0:0:0:0:
256,192,139840,1,0,0:0:0:0:
256,192,139973,1,8,0:0:0:0:
256,192,140106,1,0,0:0:0:0:
256,192,140240,1,8,0:0:0:0:
256,192,140506,1,8,0:0:0:0:
256,192,140640,1,8,0:0:0:0:
256,192,140773,1,0,0:0:0:0:
256,192,140840,1,0,0:0:0:0:
256,192,140906,1,0,0:0:0:0:
256,192,140973,1,0,0:0:0:0:
256,192,141040,1,8,0:0:0:0:
256,192,141173,1,8,0:0:0:0:
256,192,141306,1,8,0:0:0:0:
256,192,141440,1,8,0:0:0:0:
256,192,141573,1,8,0:0:0:0:
256,192,141640,1,0,0:0:0:0:
256,192,141706,1,8,0:0:0:0:
256,192,141773,1,0,0:0:0:0:
256,192,141840,5,8,0:0:0:0:
256,192,141906,1,8,0:0:0:0:
256,192,141973,1,8,0:0:0:0:
256,192,142040,1,0,0:0:0:0:
256,192,142106,1,8,0:0:0:0:
256,192,142173,1,8,0:0:0:0:
256,192,142240,1,8,0:0:0:0:
256,192,142306,1,0,0:0:0:0:
256,192,142373,1,8,0:0:0:0:
256,192,142440,1,8,0:0:0:0:
256,192,142506,1,0,0:0:0:0:
256,192,142573,1,0,0:0:0:0:
256,192,142640,1,8,0:0:0:0:
256,192,142706,1,8,0:0:0:0:
256,192,142773,1,8,0:0:0:0:
256,192,142840,1,0,0:0:0:0:
256,192,142906,1,8,0:0:0:0:
256,192,142973,1,8,0:0:0:0:
256,192,143040,1,0,0:0:0:0:
256,192,143173,1,8,0:0:0:0:
256,192,143306,1,8,0:0:0:0:
256,192,143440,1,4,0:0:0:0:
256,192,143840,5,8,0:0:0:0:
256,192,144640,1,8,0:0:0:0:
256,192,145040,1,4,0:0:0:0:
256,192,145306,1,0,0:0:0:0:
256,192,145373,1,0,0:0:0:0:
256,192,145440,1,0,0:0:0:0:
256,192,145573,1,0,0:0:0:0:
256,192,145706,1,0,0:0:0:0:
256,192,145840,1,4,0:0:0:0:
256,192,146106,1,0,0:0:0:0:
256,192,146173,1,0,0:0:0:0:
256,192,146240,1,0,0:0:0:0:
256,192,146373,1,0,0:0:0:0:
256,192,146506,1,0,0:0:0:0:
256,192,148240,5,4,0:0:0:0:
256,192,148506,1,0,0:0:0:0:
256,192,148573,1,0,0:0:0:0:
256,192,148640,1,0,0:0:0:0:
256,192,148773,1,0,0:0:0:0:
256,192,148906,1,0,0:0:0:0:
256,192,149040,1,8,0:0:0:0:
256,192,149173,1,8,0:0:0:0:
256,192,149306,1,0,0:0:0:0:
256,192,149440,1,8,0:0:0:0:
256,192,149573,1,8,0:0:0:0:
256,192,149640,1,8,0:0:0:0:
256,192,149706,1,0,0:0:0:0:
256,192,149751,1,0,0:0:0:0:
256,192,149795,1,0,0:0:0:0:
256,192,149840,1,8,0:0:0:0:
256,192,150240,5,8,0:0:0:0:
256,192,150640,1,0,0:0:0:0:
256,192,151040,1,8,0:0:0:0:
256,192,151440,5,4,0:0:0:0:
256,192,151573,1,8,0:0:0:0:
256,192,151706,1,8,0:0:0:0:
256,192,151840,1,8,0:0:0:0:
256,192,151973,1,0,0:0:0:0:
256,192,152106,1,8,0:0:0:0:
256,192,152240,1,4,0:0:0:0:
256,192,152373,1,8,0:0:0:0:
256,192,152506,1,8,0:0:0:0:
256,192,152640,1,8,0:0:0:0:
256,192,152773,1,0,0:0:0:0:
256,192,152906,1,0,0:0:0:0:
256,192,153040,1,8,0:0:0:0:
256,192,153440,1,8,0:0:0:0:
256,192,153840,1,0,0:0:0:0:
256,192,154106,1,0,0:0:0:0:
256,192,154173,1,0,0:0:0:0:
256,192,154240,1,8,0:0:0:0:
256,192,154373,1,8,0:0:0:0:
256,192,154506,1,0,0:0:0:0:
256,192,154551,1,0,0:0:0:0:
256,192,154595,1,0,0:0:0:0:
256,192,154640,1,8,0:0:0:0:
256,192,156240,5,8,0:0:0:0:
256,192,156306,1,0,0:0:0:0:
256,192,156373,1,0,0:0:0:0:
256,192,156440,1,0,0:0:0:0:
256,192,156506,1,0,0:0:0:0:
256,192,156573,1,0,0:0:0:0:
256,192,156640,1,8,0:0:0:0:
256,192,156706,1,0,0:0:0:0:
256,192,156773,1,8,0:0:0:0:
256,192,156840,1,0,0:0:0:0:
256,192,156906,1,0,0:0:0:0:
256,192,156973,1,0,0:0:0:0:
256,192,157040,1,8,0:0:0:0:
256,192,157106,1,8,0:0:0:0:
256,192,157173,1,0,0:0:0:0:
256,192,157240,1,0,0:0:0:0:
256,192,157306,1,0,0:0:0:0:
256,192,157373,1,0,0:0:0:0:
256,192,157440,1,8,0:0:0:0:
256,192,157506,1,0,0:0:0:0:
256,192,157573,1,0,0:0:0:0:
256,192,157640,1,0,0:0:0:0:
256,192,157706,1,0,0:0:0:0:
256,192,157773,1,0,0:0:0:0:
256,192,157840,1,8,0:0:0:0:
256,192,157906,1,8,0:0:0:0:
256,192,157973,1,8,0:0:0:0:
256,192,158040,1,0,0:0:0:0:
256,192,158106,1,8,0:0:0:0:
256,192,158173,1,0,0:0:0:0:
256,192,158240,1,8,0:0:0:0:
256,192,158306,1,0,0:0:0:0:
256,192,158373,1,8,0:0:0:0:
256,192,158440,1,8,0:0:0:0:
256,192,158506,1,0,0:0:0:0:
256,192,158573,1,0,0:0:0:0:
256,192,158640,1,8,0:0:0:0:
256,192,158706,1,8,0:0:0:0:
256,192,158773,1,8,0:0:0:0:
256,192,158840,1,0,0:0:0:0:
256,192,158906,1,8,0:0:0:0:
256,192,158973,1,0,0:0:0:0:
256,192,159040,1,8,0:0:0:0:
256,192,159106,1,8,0:0:0:0:
256,192,159173,1,8,0:0:0:0:
256,192,159240,1,0,0:0:0:0:
256,192,159306,1,8,0:0:0:0:
256,192,159373,1,0,0:0:0:0:
256,192,159440,1,8,0:0:0:0:
256,192,159506,1,8,0:0:0:0:
256,192,159573,1,0,0:0:0:0:
256,192,159640,1,0,0:0:0:0:
256,192,159706,1,0,0:0:0:0:
256,192,159773,1,0,0:0:0:0:
256,192,159840,1,8,0:0:0:0:
256,192,159906,1,0,0:0:0:0:
256,192,159973,1,0,0:0:0:0:
256,192,160040,1,0,0:0:0:0:
256,192,160106,1,8,0:0:0:0:
256,192,160173,1,0,0:0:0:0:
256,192,160240,1,8,0:0:0:0:
256,192,160306,1,8,0:0:0:0:
256,192,160373,1,0,0:0:0:0:
256,192,160440,1,0,0:0:0:0:
256,192,160506,1,0,0:0:0:0:
256,192,160573,1,0,0:0:0:0:
256,192,160640,1,8,0:0:0:0:
256,192,160706,1,8,0:0:0:0:
256,192,160773,1,0,0:0:0:0:
256,192,160840,1,0,0:0:0:0:
256,192,160906,1,0,0:0:0:0:
256,192,160973,1,0,0:0:0:0:
256,192,161040,1,8,0:0:0:0:
256,192,161106,1,8,0:0:0:0:
256,192,161173,1,8,0:0:0:0:
256,192,161240,1,0,0:0:0:0:
256,192,161306,1,8,0:0:0:0:
256,192,161373,1,0,0:0:0:0:
256,192,161440,1,8,0:0:0:0:
256,192,161506,1,0,0:0:0:0:
256,192,161573,1,8,0:0:0:0:
256,192,161640,1,8,0:0:0:0:
256,192,161706,1,0,0:0:0:0:
256,192,161773,1,0,0:0:0:0:
256,192,161840,1,8,0:0:0:0:
256,192,161906,1,0,0:0:0:0:
256,192,161973,1,8,0:0:0:0:
256,192,162040,1,0,0:0:0:0:
256,192,162106,1,8,0:0:0:0:
256,192,162173,1,0,0:0:0:0:
256,192,162240,1,8,0:0:0:0:
256,192,162306,1,8,0:0:0:0:
256,192,162373,1,0,0:0:0:0:
256,192,162440,1,0,0:0:0:0:
256,192,162506,1,0,0:0:0:0:
256,192,162573,1,0,0:0:0:0:
256,192,162640,5,8,0:0:0:0:
256,192,162706,1,0,0:0:0:0:
256,192,162773,1,0,0:0:0:0:
256,192,162840,1,0,0:0:0:0:
256,192,162906,1,0,0:0:0:0:
256,192,162973,1,0,0:0:0:0:
256,192,163040,1,8,0:0:0:0:
256,192,163106,1,0,0:0:0:0:
256,192,163173,1,8,0:0:0:0:
256,192,163240,1,0,0:0:0:0:
256,192,163306,1,0,0:0:0:0:
256,192,163373,1,0,0:0:0:0:
256,192,163440,1,8,0:0:0:0:
256,192,163506,1,8,0:0:0:0:
256,192,163573,1,0,0:0:0:0:
256,192,163640,1,0,0:0:0:0:
256,192,163706,1,0,0:0:0:0:
256,192,163773,1,0,0:0:0:0:
256,192,163840,1,8,0:0:0:0:
256,192,163906,1,0,0:0:0:0:
256,192,163973,1,0,0:0:0:0:
256,192,164040,1,0,0:0:0:0:
256,192,164106,1,0,0:0:0:0:
256,192,164173,1,0,0:0:0:0:
256,192,164240,1,8,0:0:0:0:
256,192,164306,1,8,0:0:0:0:
256,192,164373,1,8,0:0:0:0:
256,192,164440,1,0,0:0:0:0:
256,192,164506,1,8,0:0:0:0:
256,192,164573,1,0,0:0:0:0:
256,192,164640,1,8,0:0:0:0:
256,192,164706,1,0,0:0:0:0:
256,192,164773,1,8,0:0:0:0:
256,192,164840,1,8,0:0:0:0:
256,192,164906,1,0,0:0:0:0:
256,192,164973,1,0,0:0:0:0:
256,192,165040,1,8,0:0:0:0:
256,192,165106,1,8,0:0:0:0:
256,192,165173,1,8,0:0:0:0:
256,192,165240,1,0,0:0:0:0:
256,192,165306,1,8,0:0:0:0:
256,192,165373,1,0,0:0:0:0:
256,192,165440,1,8,0:0:0:0:
256,192,165506,1,8,0:0:0:0:
256,192,165573,1,8,0:0:0:0:
256,192,165640,1,0,0:0:0:0:
256,192,165706,1,8,0:0:0:0:
256,192,165773,1,0,0:0:0:0:
256,192,165840,5,8,0:0:0:0:
256,192,165906,1,8,0:0:0:0:
256,192,165973,1,0,0:0:0:0:
256,192,166040,1,0,0:0:0:0:
256,192,166106,1,0,0:0:0:0:
256,192,166173,1,0,0:0:0:0:
256,192,166240,1,8,0:0:0:0:
256,192,166306,1,0,0:0:0:0:
256,192,166373,1,0,0:0:0:0:
256,192,166440,1,0,0:0:0:0:
256,192,166506,1,8,0:0:0:0:
256,192,166573,1,0,0:0:0:0:
256,192,166640,1,8,0:0:0:0:
256,192,166706,1,8,0:0:0:0:
256,192,166773,1,0,0:0:0:0:
256,192,166840,1,0,0:0:0:0:
256,192,166906,1,0,0:0:0:0:
256,192,166973,1,0,0:0:0:0:
256,192,167040,1,8,0:0:0:0:
256,192,167106,1,8,0:0:0:0:
256,192,167173,1,0,0:0:0:0:
256,192,167240,1,0,0:0:0:0:
256,192,167306,1,8,0:0:0:0:
256,192,167373,1,0,0:0:0:0:
256,192,167440,1,8,0:0:0:0:
256,192,167506,1,8,0:0:0:0:
256,192,167573,1,8,0:0:0:0:
256,192,167640,1,8,0:0:0:0:
256,192,167706,1,0,0:0:0:0:
256,192,167840,1,0,0:0:0:0:
256,192,167973,1,0,0:0:0:0:
256,192,168106,1,0,0:0:0:0:
256,192,168240,5,4,0:0:0:0:
256,192,168506,1,8,0:0:0:0:
256,192,168640,1,8,0:0:0:0:
256,192,168773,1,0,0:0:0:0:
256,192,168906,1,8,0:0:0:0:
256,192,169040,1,8,0:0:0:0:
256,192,169306,1,8,0:0:0:0:
256,192,169440,1,0,0:0:0:0:
256,192,169573,1,0,0:0:0:0:
256,192,169840,5,8,0:0:0:0:
256,192,169906,1,8,0:0:0:0:
256,192,169973,1,8,0:0:0:0:
256,192,170040,1,8,0:0:0:0:
256,192,170106,1,0,0:0:0:0:
256,192,170173,1,0,0:0:0:0:
256,192,170240,1,8,0:0:0:0:
256,192,170373,1,8,0:0:0:0:
256,192,170506,1,0,0:0:0:0:
256,192,170640,1,8,0:0:0:0:
256,192,170706,1,8,0:0:0:0:
256,192,170773,1,8,0:0:0:0:
256,192,170840,1,8,0:0:0:0:
256,192,170906,1,0,0:0:0:0:
256,192,170973,1,0,0:0:0:0:
256,192,171040,1,8,0:0:0:0:
256,192,171173,1,0,0:0:0:0:
256,192,171306,1,0,0:0:0:0:
256,192,171440,5,4,0:0:0:0:
256,192,171573,1,0,0:0:0:0:
256,192,171706,1,8,0:0:0:0:
256,192,171840,1,8,0:0:0:0:
256,192,171973,1,0,0:0:0:0:
256,192,172106,1,8,0:0:0:0:
256,192,172240,1,8,0:0:0:0:
256,192,172373,1,0,0:0:0:0:
256,192,172506,1,8,0:0:0:0:
256,192,172640,1,8,0:0:0:0:
256,192,172773,1,0,0:0:0:0:
256,192,172906,1,8,0:0:0:0:
256,192,173040,5,8,0:0:0:0:
256,192,173106,1,8,0:0:0:0:
256,192,173173,1,0,0:0:0:0:
256,192,173240,1,0,0:0:0:0:
256,192,173306,1,0,0:0:0:0:
256,192,173373,1,0,0:0:0:0:
256,192,173440,1,8,0:0:0:0:
256,192,173573,1,0,0:0:0:0:
256,192,173706,1,0,0:0:0:0:
256,192,173840,1,8,0:0:0:0:
256,192,173906,1,0,0:0:0:0:
256,192,173973,1,8,0:0:0:0:
256,192,174040,1,0,0:0:0:0:
256,192,174106,1,8,0:0:0:0:
256,192,174173,1,0,0:0:0:0:
256,192,174240,1,8,0:0:0:0:
256,192,174306,1,8,0:0:0:0:
256,192,174373,1,0,0:0:0:0:
256,192,174440,1,0,0:0:0:0:
256,192,174506,1,8,0:0:0:0:
256,192,174640,5,4,0:0:0:0:
256,192,174773,1,0,0:0:0:0:
256,192,174906,1,8,0:0:0:0:
256,192,175040,1,8,0:0:0:0:
256,192,175173,1,0,0:0:0:0:
256,192,175306,1,8,0:0:0:0:
256,192,175440,1,8,0:0:0:0:
256,192,175573,1,8,0:0:0:0:
256,192,175706,1,0,0:0:0:0:
256,192,175840,1,0,0:0:0:0:
256,192,175973,1,0,0:0:0:0:
256,192,176106,1,8,0:0:0:0:
256,192,176240,5,8,0:0:0:0:
256,192,176306,1,8,0:0:0:0:
256,192,176373,1,8,0:0:0:0:
256,192,176440,1,8,0:0:0:0:
256,192,176506,1,0,0:0:0:0:
256,192,176573,1,0,0:0:0:0:
256,192,176640,1,8,0:0:0:0:
256,192,176773,1,8,0:0:0:0:
256,192,176906,1,0,0:0:0:0:
256,192,177040,1,8,0:0:0:0:
256,192,177106,1,8,0:0:0:0:
256,192,177173,1,8,0:0:0:0:
256,192,177240,1,8,0:0:0:0:
256,192,177306,1,0,0:0:0:0:
256,192,177373,1,0,0:0:0:0:
256,192,177440,1,8,0:0:0:0:
256,192,177573,1,8,0:0:0:0:
256,192,177706,1,0,0:0:0:0:
256,192,177840,5,4,0:0:0:0:
256,192,177973,1,0,0:0:0:0:
256,192,178106,1,8,0:0:0:0:
256,192,178240,1,8,0:0:0:0:
256,192,178373,1,0,0:0:0:0:
256,192,178506,1,8,0:0:0:0:
256,192,178640,1,8,0:0:0:0:
256,192,178773,1,0,0:0:0:0:
256,192,178906,1,8,0:0:0:0:
256,192,179040,1,8,0:0:0:0:
256,192,179173,1,0,0:0:0:0:
256,192,179306,1,8,0:0:0:0:
256,192,179440,5,8,0:0:0:0:
256,192,179573,1,0,0:0:0:0:
256,192,179640,1,0,0:0:0:0:
256,192,179706,1,8,0:0:0:0:
256,192,179840,1,8,0:0:0:0:
256,192,179973,1,0,0:0:0:0:
256,192,180106,1,8,0:0:0:0:
256,192,180240,1,8,0:0:0:0:
256,192,180306,1,0,0:0:0:0:
256,192,180373,1,0,0:0:0:0:
256,192,180506,1,8,0:0:0:0:
256,192,180640,1,8,0:0:0:0:
256,192,180706,1,8,0:0:0:0:
256,192,180773,1,0,0:0:0:0:
256,192,180840,1,0,0:0:0:0:
256,192,180906,1,8,0:0:0:0:
256,192,181040,5,4,0:0:0:0:
256,192,181173,1,0,0:0:0:0:
256,192,181306,1,8,0:0:0:0:
256,192,181440,1,8,0:0:0:0:
256,192,181573,1,0,0:0:0:0:
256,192,181706,1,8,0:0:0:0:
256,192,181840,1,8,0:0:0:0:
256,192,181973,1,0,0:0:0:0:
256,192,182106,1,8,0:0:0:0:
256,192,182240,1,0,0:0:0:0:
256,192,182373,1,8,0:0:0:0:
256,192,182506,1,0,0:0:0:0:
256,192,182640,5,8,0:0:0:0:
256,192,182706,1,8,0:0:0:0:
256,192,182773,1,8,0:0:0:0:
256,192,182840,1,8,0:0:0:0:
256,192,182906,1,0,0:0:0:0:
256,192,182973,1,0,0:0:0:0:
256,192,183040,1,8,0:0:0:0:
256,192,183106,1,0,0:0:0:0:
256,192,183173,1,8,0:0:0:0:
256,192,183240,1,0,0:0:0:0:
256,192,183306,1,8,0:0:0:0:
256,192,183373,1,0,0:0:0:0:
256,192,183440,1,8,0:0:0:0:
256,192,183506,1,8,0:0:0:0:
256,192,183573,1,8,0:0:0:0:
256,192,183640,1,8,0:0:0:0:
256,192,183706,1,0,0:0:0:0:
256,192,183773,1,0,0:0:0:0:
256,192,183840,1,8,0:0:0:0:
256,192,183973,1,8,0:0:0:0:
256,192,184106,1,0,0:0:0:0:
256,192,184240,5,4,0:0:0:0:
256,192,184373,1,0,0:0:0:0:
256,192,184506,1,8,0:0:0:0:
256,192,184640,1,8,0:0:0:0:
256,192,184773,1,0,0:0:0:0:
256,192,184906,1,8,0:0:0:0:
256,192,185040,1,8,0:0:0:0:
256,192,185173,1,0,0:0:0:0:
256,192,185306,1,8,0:0:0:0:
256,192,185440,1,8,0:0:0:0:
256,192,185573,1,0,0:0:0:0:
256,192,185706,1,8,0:0:0:0:
256,192,185840,5,8,0:0:0:0:
256,192,185906,1,8,0:0:0:0:
256,192,185973,1,8,0:0:0:0:
256,192,186040,1,8,0:0:0:0:
256,192,186106,1,0,0:0:0:0:
256,192,186173,1,0,0:0:0:0:
256,192,186240,1,8,0:0:0:0:
256,192,186306,1,0,0:0:0:0:
256,192,186373,1,8,0:0:0:0:
256,192,186440,1,0,0:0:0:0:
256,192,186506,1,8,0:0:0:0:
256,192,186573,1,0,0:0:0:0:
256,192,186640,1,8,0:0:0:0:
256,192,186706,1,8,0:0:0:0:
256,192,186773,1,0,0:0:0:0:
256,192,186840,1,0,0:0:0:0:
256,192,186906,1,8,0:0:0:0:
256,192,186973,1,0,0:0:0:0:
256,192,187040,1,8,0:0:0:0:
256,192,187106,1,8,0:0:0:0:
256,192,187173,1,0,0:0:0:0:
256,192,187240,1,0,0:0:0:0:
256,192,187306,1,8,0:0:0:0:
256,192,187440,5,4,0:0:0:0:
256,192,187573,1,0,0:0:0:0:
256,192,187706,1,8,0:0:0:0:
256,192,187840,1,8,0:0:0:0:
256,192,187973,1,0,0:0:0:0:
256,192,188106,1,8,0:0:0:0:
256,192,188240,1,8,0:0:0:0:
256,192,188373,1,0,0:0:0:0:
256,192,188506,1,8,0:0:0:0:
256,192,188640,1,0,0:0:0:0:
256,192,188773,1,0,0:0:0:0:
256,192,188906,1,8,0:0:0:0:
256,192,189040,5,8,0:0:0:0:
256,192,189106,1,8,0:0:0:0:
256,192,189173,1,8,0:0:0:0:
256,192,189240,1,8,0:0:0:0:
256,192,189306,1,0,0:0:0:0:
256,192,189373,1,0,0:0:0:0:
256,192,189440,1,8,0:0:0:0:
256,192,189506,1,0,0:0:0:0:
256,192,189573,1,8,0:0:0:0:
256,192,189640,1,0,0:0:0:0:
256,192,189706,1,8,0:0:0:0:
256,192,189773,1,0,0:0:0:0:
256,192,189840,1,8,0:0:0:0:
256,192,189906,1,8,0:0:0:0:
256,192,189973,1,8,0:0:0:0:
256,192,190040,1,8,0:0:0:0:
256,192,190106,1,0,0:0:0:0:
256,192,190173,1,0,0:0:0:0:
256,192,190240,1,8,0:0:0:0:
256,192,190306,1,0,0:0:0:0:
256,192,190373,1,8,0:0:0:0:
256,192,190440,1,8,0:0:0:0:
256,192,190506,1,0,0:0:0:0:
256,192,190640,5,4,0:0:0:0:
256,192,190773,1,0,0:0:0:0:
256,192,190906,1,8,0:0:0:0:
256,192,191040,1,8,0:0:0:0:
256,192,191173,1,0,0:0:0:0:
256,192,191306,1,8,0:0:0:0:
256,192,191440,1,8,0:0:0:0:
256,192,191573,1,0,0:0:0:0:
256,192,191706,1,8,0:0:0:0:
256,192,191840,1,0,0:0:0:0:
256,192,191973,1,0,0:0:0:0:
256,192,192106,1,8,0:0:0:0:
256,192,192240,5,8,0:0:0:0:
256,192,192306,1,0,0:0:0:0:
256,192,192373,1,8,0:0:0:0:
256,192,192440,1,8,0:0:0:0:
256,192,192506,1,0,0:0:0:0:
256,192,192640,1,8,0:0:0:0:
256,192,192773,1,0,0:0:0:0:
256,192,192906,1,8,0:0:0:0:
256,192,193040,5,8,0:0:0:0:
256,192,193106,1,8,0:0:0:0:
256,192,193173,1,8,0:0:0:0:
256,192,193240,1,8,0:0:0:0:
256,192,193306,1,8,0:0:0:0:
256,192,193373,1,8,0:0:0:0:
256,192,193440,1,8,0:0:0:0:
256,192,193506,1,8,0:0:0:0:
256,192,193573,1,0,0:0:0:0:
256,192,193640,1,0,0:0:0:0:
256,192,193706,1,8,0:0:0:0:
256,192,193773,1,0,0:0:0:0:
256,192,193840,1,8,0:0:0:0:
256,192,193906,1,0,0:0:0:0:
256,192,193973,1,0,0:0:0:0:
256,192,194040,1,0,0:0:0:0:
256,192,194106,1,0,0:0:0:0:
256,192,194173,1,0,0:0:0:0:
256,192,194240,1,8,0:0:0:0:
256,192,194306,1,0,0:0:0:0:
256,192,194373,1,0,0:0:0:0:
256,192,194440,1,0,0:0:0:0:
256,192,194506,1,0,0:0:0:0:
256,192,194573,1,0,0:0:0:0:
256,192,194640,5,8,0:0:0:0:
256,192,194773,1,8,0:0:0:0:
256,192,195040,1,8,0:0:0:0:
256,192,195173,1,8,0:0:0:0:
256,192,195306,1,0,0:0:0:0:
256,192,195373,1,0,0:0:0:0:
256,192,195440,1,8,0:0:0:0:
256,192,195573,1,8,0:0:0:0:
256,192,195706,1,8,0:0:0:0:
256,192,195840,1,8,0:0:0:0:
256,192,195973,1,8,0:0:0:0:
256,192,196240,5,8,0:0:0:0:
256,192,196306,1,8,0:0:0:0:
256,192,196373,1,0,0:0:0:0:
256,192,196440,1,0,0:0:0:0:
256,192,196506,1,0,0:0:0:0:
256,192,196640,1,8,0:0:0:0:
256,192,196773,1,8,0:0:0:0:
256,192,196906,1,0,0:0:0:0:
256,192,196973,1,0,0:0:0:0:
256,192,197040,1,8,0:0:0:0:
256,192,197106,1,0,0:0:0:0:
256,192,197173,1,8,0:0:0:0:
256,192,197240,1,8,0:0:0:0:
256,192,197306,1,0,0:0:0:0:
256,192,197373,1,0,0:0:0:0:
256,192,197440,1,8,0:0:0:0:
256,192,197506,1,8,0:0:0:0:
256,192,197573,1,0,0:0:0:0:
256,192,197640,1,0,0:0:0:0:
256,192,197706,1,0,0:0:0:0:
256,192,197773,1,0,0:0:0:0:
256,192,197840,1,8,0:0:0:0:
256,192,197973,5,0,0:0:0:0:
256,192,198106,1,8,0:0:0:0:
256,192,198240,1,8,0:0:0:0:
256,192,198373,1,0,0:0:0:0:
256,192,198506,1,8,0:0:0:0:
256,192,198640,1,8,0:0:0:0:
256,192,198773,1,0,0:0:0:0:
256,192,198906,1,8,0:0:0:0:
256,192,199040,1,0,0:0:0:0:
256,192,199173,1,8,0:0:0:0:
256,192,199306,1,8,0:0:0:0:
256,192,199440,1,0,0:0:0:0:
256,192,199506,1,0,0:0:0:0:
256,192,199573,1,0,0:0:0:0:
256,192,199640,1,0,0:0:0:0:
256,192,199706,1,8,0:0:0:0:
256,192,199773,1,0,0:0:0:0:
256,192,199840,1,8,0:0:0:0:
256,192,199906,1,8,0:0:0:0:
256,192,199973,1,0,0:0:0:0:
256,192,200040,1,0,0:0:0:0:
256,192,200106,1,8,0:0:0:0:
256,192,200173,1,0,0:0:0:0:
256,192,200240,1,8,0:0:0:0:
256,192,200306,1,0,0:0:0:0:
256,192,200373,1,0,0:0:0:0:
256,192,200440,1,0,0:0:0:0:
256,192,200506,1,8,0:0:0:0:
256,192,200573,1,0,0:0:0:0:
256,192,200640,1,8,0:0:0:0:
256,192,200706,1,0,0:0:0:0:
256,192,200773,1,8,0:0:0:0:
256,192,200840,1,8,0:0:0:0:
256,192,200906,1,0,0:0:0:0:
256,192,200973,1,0,0:0:0:0:
256,192,201040,5,8,0:0:0:0:
256,192,201173,1,8,0:0:0:0:
256,192,201306,1,0,0:0:0:0:
256,192,201373,1,0,0:0:0:0:
256,192,201440,1,8,0:0:0:0:
256,192,201573,1,8,0:0:0:0:
256,192,201640,1,0,0:0:0:0:
256,192,201706,1,0,0:0:0:0:
256,192,201773,1,0,0:0:0:0:
256,192,201840,1,8,0:0:0:0:
256,192,201973,1,8,0:0:0:0:
256,192,202040,1,0,0:0:0:0:
256,192,202106,1,8,0:0:0:0:
256,192,202240,1,8,0:0:0:0:
256,192,202373,1,8,0:0:0:0:
256,192,202440,1,0,0:0:0:0:
256,192,202506,1,0,0:0:0:0:
256,192,202640,1,12,0:0:0:0:
256,192,202906,5,0,0:0:0:0:
256,192,203040,1,0,0:0:0:0:
256,192,203173,1,0,0:0:0:0:
256,192,203306,1,0,0:0:0:0:
256,192,203440,1,8,0:0:0:0:
256,192,203573,1,8,0:0:0:0:
256,192,203640,1,8,0:0:0:0:
256,192,203706,1,0,0:0:0:0:
256,192,203773,1,0,0:0:0:0:
256,192,203840,1,8,0:0:0:0:
256,192,203906,1,0,0:0:0:0:
256,192,203973,1,0,0:0:0:0:
256,192,204040,1,0,0:0:0:0:
256,192,204106,1,0,0:0:0:0:
256,192,204173,1,0,0:0:0:0:
256,192,204240,5,8,0:0:0:0:
256,192,204306,1,0,0:0:0:0:
256,192,204373,1,0,0:0:0:0:
256,192,204440,1,0,0:0:0:0:
256,192,204506,1,8,0:0:0:0:
256,192,204573,1,0,0:0:0:0:
256,192,204640,1,8,0:0:0:0:
256,192,204706,1,0,0:0:0:0:
256,192,204773,1,0,0:0:0:0:
256,192,204840,1,0,0:0:0:0:
256,192,204906,1,8,0:0:0:0:
256,192,204973,1,0,0:0:0:0:
256,192,205040,1,8,0:0:0:0:
256,192,205106,1,8,0:0:0:0:
256,192,205173,1,0,0:0:0:0:
256,192,205240,1,0,0:0:0:0:
256,192,205306,1,8,0:0:0:0:
256,192,205373,1,0,0:0:0:0:
256,192,205440,1,8,0:0:0:0:
256,192,205506,1,0,0:0:0:0:
256,192,205573,1,0,0:0:0:0:
256,192,205640,1,0,0:0:0:0:
256,192,205706,1,0,0:0:0:0:
256,192,205773,1,0,0:0:0:0:
256,192,205840,1,8,0:0:0:0:
256,192,205906,1,8,0:0:0:0:
256,192,205973,1,8,0:0:0:0:
256,192,206040,1,0,0:0:0:0:
256,192,206106,1,8,0:0:0:0:
256,192,206173,1,0,0:0:0:0:
256,192,206240,1,8,0:0:0:0:
256,192,206306,1,0,0:0:0:0:
256,192,206373,1,8,0:0:0:0:
256,192,206440,1,8,0:0:0:0:
256,192,206506,1,0,0:0:0:0:
256,192,206573,1,0,0:0:0:0:
256,192,206640,1,8,0:0:0:0:
256,192,206706,1,8,0:0:0:0:
256,192,206773,1,8,0:0:0:0:
256,192,206840,1,0,0:0:0:0:
256,192,206906,1,8,0:0:0:0:
256,192,206973,1,0,0:0:0:0:
256,192,207040,1,8,0:0:0:0:
256,192,207106,1,8,0:0:0:0:
256,192,207173,1,8,0:0:0:0:
256,192,207240,1,0,0:0:0:0:
256,192,207306,1,8,0:0:0:0:
256,192,207373,1,0,0:0:0:0:
256,192,207440,1,8,0:0:0:0:
256,192,207506,1,8,0:0:0:0:
256,192,207573,1,0,0:0:0:0:
256,192,207640,1,0,0:0:0:0:
256,192,207706,1,8,0:0:0:0:
256,192,207773,1,0,0:0:0:0:
256,192,207840,1,8,0:0:0:0:
256,192,207906,1,0,0:0:0:0:
256,192,207973,1,8,0:0:0:0:
256,192,208040,1,0,0:0:0:0:
256,192,208106,1,0,0:0:0:0:
256,192,208173,1,0,0:0:0:0:
256,192,208240,1,8,0:0:0:0:
256,192,208306,1,8,0:0:0:0:
256,192,208373,1,0,0:0:0:0:
256,192,208440,1,0,0:0:0:0:
256,192,208506,1,8,0:0:0:0:
256,192,208573,1,0,0:0:0:0:
256,192,208640,1,8,0:0:0:0:
256,192,208706,1,0,0:0:0:0:
256,192,208773,1,0,0:0:0:0:
256,192,208840,1,0,0:0:0:0:
256,192,208906,1,0,0:0:0:0:
256,192,208973,1,0,0:0:0:0:
256,192,209040,1,8,0:0:0:0:
256,192,209106,1,8,0:0:0:0:
256,192,209173,1,8,0:0:0:0:
256,192,209240,1,0,0:0:0:0:
256,192,209306,1,8,0:0:0:0:
256,192,209373,1,0,0:0:0:0:
256,192,209440,1,8,0:0:0:0:
256,192,209506,1,0,0:0:0:0:
256,192,209573,1,8,0:0:0:0:
256,192,209640,1,8,0:0:0:0:
256,192,209706,1,0,0:0:0:0:
256,192,209773,1,0,0:0:0:0:
256,192,209840,1,8,0:0:0:0:
256,192,209906,1,0,0:0:0:0:
256,192,209973,1,8,0:0:0:0:
256,192,210040,1,0,0:0:0:0:
256,192,210106,1,8,0:0:0:0:
256,192,210173,1,0,0:0:0:0:
256,192,210240,1,8,0:0:0:0:
256,192,210306,1,8,0:0:0:0:
256,192,210373,1,0,0:0:0:0:
256,192,210440,1,0,0:0:0:0:
256,192,210506,1,8,0:0:0:0:
256,192,210573,1,8,0:0:0:0:
256,192,210640,5,8,0:0:0:0:
256,192,210706,1,8,0:0:0:0:
256,192,210773,1,0,0:0:0:0:
256,192,210840,1,0,0:0:0:0:
256,192,210906,1,8,0:0:0:0:
256,192,210973,1,0,0:0:0:0:
256,192,211040,1,8,0:0:0:0:
256,192,211106,1,8,0:0:0:0:
256,192,211173,1,0,0:0:0:0:
256,192,211240,1,0,0:0:0:0:
256,192,211306,1,0,0:0:0:0:
256,192,211373,1,0,0:0:0:0:
256,192,211440,1,8,0:0:0:0:
256,192,211506,1,8,0:0:0:0:
256,192,211573,1,0,0:0:0:0:
256,192,211640,1,0,0:0:0:0:
256,192,211706,1,8,0:0:0:0:
256,192,211773,1,8,0:0:0:0:
256,192,211840,1,8,0:0:0:0:
256,192,211906,1,0,0:0:0:0:
256,192,211973,1,0,0:0:0:0:
256,192,212040,1,0,0:0:0:0:
256,192,212106,1,0,0:0:0:0:
256,192,212173,1,0,0:0:0:0:
256,192,212240,1,8,0:0:0:0:
256,192,212306,1,8,0:0:0:0:
256,192,212373,1,8,0:0:0:0:
256,192,212440,1,8,0:0:0:0:
256,192,212506,1,0,0:0:0:0:
256,192,212573,1,0,0:0:0:0:
256,192,212640,1,8,0:0:0:0:
256,192,212706,1,0,0:0:0:0:
256,192,212773,1,8,0:0:0:0:
256,192,212840,1,0,0:0:0:0:
256,192,212906,1,0,0:0:0:0:
256,192,212973,1,0,0:0:0:0:
256,192,213040,1,8,0:0:0:0:
256,192,213106,1,8,0:0:0:0:
256,192,213173,1,8,0:0:0:0:
256,192,213240,1,8,0:0:0:0:
256,192,213306,1,0,0:0:0:0:
256,192,213373,1,0,0:0:0:0:
256,192,213440,1,8,0:0:0:0:
256,192,213506,1,0,0:0:0:0:
256,192,213573,1,8,0:0:0:0:
256,192,213640,1,8,0:0:0:0:
256,192,213706,1,0,0:0:0:0:
256,192,213773,1,0,0:0:0:0:
256,192,213840,1,8,0:0:0:0:
256,192,213906,1,8,0:0:0:0:
256,192,213973,1,0,0:0:0:0:
256,192,214040,1,0,0:0:0:0:
256,192,214106,1,0,0:0:0:0:
256,192,214173,1,0,0:0:0:0:
256,192,214240,1,8,0:0:0:0:
256,192,214306,1,8,0:0:0:0:
256,192,214373,1,0,0:0:0:0:
256,192,214440,1,0,0:0:0:0:
256,192,214506,1,0,0:0:0:0:
256,192,214573,1,0,0:0:0:0:
256,192,214640,1,8,0:0:0:0:
256,192,214706,1,8,0:0:0:0:
256,192,214773,1,0,0:0:0:0:
256,192,214840,1,0,0:0:0:0:
256,192,214906,1,8,0:0:0:0:
256,192,214973,1,8,0:0:0:0:
256,192,215040,1,8,0:0:0:0:
256,192,215106,1,0,0:0:0:0:
256,192,215173,1,0,0:0:0:0:
256,192,215240,1,0,0:0:0:0:
256,192,215306,1,0,0:0:0:0:
256,192,215373,1,0,0:0:0:0:
256,192,215440,1,8,0:0:0:0:
256,192,215506,1,8,0:0:0:0:
256,192,215573,1,8,0:0:0:0:
256,192,215640,1,8,0:0:0:0:
256,192,215706,1,8,0:0:0:0:
256,192,215773,1,8,0:0:0:0:
256,192,215840,1,0,0:0:0:0:
256,192,215906,1,0,0:0:0:0:
256,192,215973,1,0,0:0:0:0:
256,192,216040,1,0,0:0:0:0:
256,192,216106,1,0,0:0:0:0:
256,192,216173,1,0,0:0:0:0:
256,192,216240,5,8,0:0:0:0:
256,192,216506,1,8,0:0:0:0:
256,192,216640,1,0,0:0:0:0:
256,192,216706,1,0,0:0:0:0:
256,192,216773,1,8,0:0:0:0:
256,192,216906,1,0,0:0:0:0:
256,192,217040,1,8,0:0:0:0:
256,192,217306,1,8,0:0:0:0:
256,192,217440,1,0,0:0:0:0:
256,192,217506,1,0,0:0:0:0:
256,192,217573,1,8,0:0:0:0:
256,192,217706,1,0,0:0:0:0:
256,192,217840,5,8,0:0:0:0:
256,192,217906,1,8,0:0:0:0:
256,192,217973,1,8,0:0:0:0:
256,192,218040,1,8,0:0:0:0:
256,192,218106,1,0,0:0:0:0:
256,192,218173,1,0,0:0:0:0:
256,192,218240,1,8,0:0:0:0:
256,192,218373,1,8,0:0:0:0:
256,192,218506,1,0,0:0:0:0:
256,192,218640,1,8,0:0:0:0:
256,192,218706,1,8,0:0:0:0:
256,192,218773,1,8,0:0:0:0:
256,192,218840,1,8,0:0:0:0:
256,192,218906,1,0,0:0:0:0:
256,192,218973,1,0,0:0:0:0:
256,192,219040,1,8,0:0:0:0:
256,192,219173,1,8,0:0:0:0:
256,192,219306,1,0,0:0:0:0:
256,192,219440,5,4,0:0:0:0:
256,192,219573,1,0,0:0:0:0:
256,192,219706,1,8,0:0:0:0:
256,192,219840,1,8,0:0:0:0:
256,192,219906,1,8,0:0:0:0:
256,192,219973,1,0,0:0:0:0:
256,192,220106,1,8,0:0:0:0:
256,192,220240,1,8,0:0:0:0:
256,192,220373,1,0,0:0:0:0:
256,192,220506,1,8,0:0:0:0:
256,192,220640,1,0,0:0:0:0:
256,192,220706,1,0,0:0:0:0:
256,192,220773,1,0,0:0:0:0:
256,192,220906,1,8,0:0:0:0:
256,192,221040,5,8,0:0:0:0:
256,192,221106,1,8,0:0:0:0:
256,192,221173,1,8,0:0:0:0:
256,192,221240,1,8,0:0:0:0:
256,192,221306,1,0,0:0:0:0:
256,192,221373,1,0,0:0:0:0:
256,192,221440,1,8,0:0:0:0:
256,192,221573,1,0,0:0:0:0:
256,192,221706,1,8,0:0:0:0:
256,192,221840,1,8,0:0:0:0:
256,192,221906,1,0,0:0:0:0:
256,192,221973,1,8,0:0:0:0:
256,192,222040,1,0,0:0:0:0:
256,192,222106,1,8,0:0:0:0:
256,192,222173,1,0,0:0:0:0:
256,192,222240,1,8,0:0:0:0:
256,192,222306,1,8,0:0:0:0:
256,192,222373,1,0,0:0:0:0:
256,192,222440,1,0,0:0:0:0:
256,192,222506,1,8,0:0:0:0:
256,192,222640,5,4,0:0:0:0:
256,192,222773,1,0,0:0:0:0:
256,192,222906,1,8,0:0:0:0:
256,192,223040,1,8,0:0:0:0:
256,192,223106,1,8,0:0:0:0:
256,192,223173,1,0,0:0:0:0:
256,192,223306,1,8,0:0:0:0:
256,192,223440,1,8,0:0:0:0:
256,192,223573,1,0,0:0:0:0:
256,192,223706,1,8,0:0:0:0:
256,192,223840,1,0,0:0:0:0:
256,192,223906,1,0,0:0:0:0:
256,192,223973,1,0,0:0:0:0:
256,192,224106,1,0,0:0:0:0:
256,192,224240,5,8,0:0:0:0:
256,192,224306,1,8,0:0:0:0:
256,192,224373,1,8,0:0:0:0:
256,192,224440,1,8,0:0:0:0:
256,192,224506,1,0,0:0:0:0:
256,192,224573,1,0,0:0:0:0:
256,192,224640,1,8,0:0:0:0:
256,192,224773,1,0,0:0:0:0:
256,192,224906,1,0,0:0:0:0:
256,192,225040,1,8,0:0:0:0:
256,192,225106,1,8,0:0:0:0:
256,192,225173,1,0,0:0:0:0:
256,192,225240,1,0,0:0:0:0:
256,192,225306,1,8,0:0:0:0:
256,192,225373,1,0,0:0:0:0:
256,192,225440,1,0,0:0:0:0:
256,192,225506,1,0,0:0:0:0:
256,192,225573,1,8,0:0:0:0:
256,192,225640,1,0,0:0:0:0:
256,192,225706,1,8,0:0:0:0:
256,192,225840,5,4,0:0:0:0:
256,192,225973,1,0,0:0:0:0:
256,192,226106,1,8,0:0:0:0:
256,192,226240,1,8,0:0:0:0:
256,192,226306,1,8,0:0:0:0:
256,192,226373,1,0,0:0:0:0:
256,192,226506,1,8,0:0:0:0:
256,192,226640,1,8,0:0:0:0:
256,192,226773,1,0,0:0:0:0:
256,192,226840,1,0,0:0:0:0:
256,192,226906,1,8,0:0:0:0:
256,192,227040,1,8,0:0:0:0:
256,192,227173,1,0,0:0:0:0:
256,192,227306,1,8,0:0:0:0:
256,192,227440,5,8,0:0:0:0:
256,192,227573,1,0,0:0:0:0:
256,192,227640,1,0,0:0:0:0:
256,192,227706,1,8,0:0:0:0:
256,192,227840,1,8,0:0:0:0:
256,192,227973,1,0,0:0:0:0:
256,192,228040,1,0,0:0:0:0:
256,192,228106,1,8,0:0:0:0:
256,192,228173,1,0,0:0:0:0:
256,192,228240,1,8,0:0:0:0:
256,192,228373,1,0,0:0:0:0:
256,192,228440,1,0,0:0:0:0:
256,192,228506,1,8,0:0:0:0:
256,192,228573,1,0,0:0:0:0:
256,192,228640,1,8,0:0:0:0:
256,192,228706,1,8,0:0:0:0:
256,192,228773,1,0,0:0:0:0:
256,192,228840,1,0,0:0:0:0:
256,192,228906,1,8,0:0:0:0:
256,192,229040,5,4,0:0:0:0:
256,192,229173,1,0,0:0:0:0:
256,192,229306,1,8,0:0:0:0:
256,192,229440,1,8,0:0:0:0:
256,192,229573,1,0,0:0:0:0:
256,192,229640,1,0,0:0:0:0:
256,192,229706,1,8,0:0:0:0:
256,192,229840,1,8,0:0:0:0:
256,192,229973,1,0,0:0:0:0:
256,192,230106,1,8,0:0:0:0:
256,192,230173,1,8,0:0:0:0:
256,192,230240,1,0,0:0:0:0:
256,192,230306,1,0,0:0:0:0:
256,192,230373,1,0,0:0:0:0:
256,192,230506,1,8,0:0:0:0:
256,192,230640,5,8,0:0:0:0:
256,192,230706,1,8,0:0:0:0:
256,192,230773,1,8,0:0:0:0:
256,192,230840,1,8,0:0:0:0:
256,192,230906,1,0,0:0:0:0:
256,192,230973,1,0,0:0:0:0:
256,192,231040,1,8,0:0:0:0:
256,192,231106,1,0,0:0:0:0:
256,192,231173,1,8,0:0:0:0:
256,192,231240,1,8,0:0:0:0:
256,192,231306,1,8,0:0:0:0:
256,192,231373,1,0,0:0:0:0:
256,192,231440,1,8,0:0:0:0:
256,192,231506,1,8,0:0:0:0:
256,192,231573,1,8,0:0:0:0:
256,192,231640,1,8,0:0:0:0:
256,192,231706,1,0,0:0:0:0:
256,192,231773,1,0,0:0:0:0:
256,192,231840,1,8,0:0:0:0:
256,192,231906,1,0,0:0:0:0:
256,192,231973,1,8,0:0:0:0:
256,192,232040,1,0,0:0:0:0:
256,192,232106,1,8,0:0:0:0:
256,192,232240,5,4,0:0:0:0:
256,192,232373,1,0,0:0:0:0:
256,192,232506,1,8,0:0:0:0:
256,192,232640,1,8,0:0:0:0:
256,192,232773,1,0,0:0:0:0:
256,192,232840,1,0,0:0:0:0:
256,192,232906,1,8,0:0:0:0:
256,192,233040,1,8,0:0:0:0:
256,192,233173,1,0,0:0:0:0:
256,192,233306,1,0,0:0:0:0:
256,192,233373,1,0,0:0:0:0:
256,192,233440,1,8,0:0:0:0:
256,192,233506,1,8,0:0:0:0:
256,192,233573,1,0,0:0:0:0:
256,192,233706,1,8,0:0:0:0:
256,192,233840,5,12,0:0:0:0:
256,192,233973,1,0,0:0:0:0:
256,192,234106,1,0,0:0:0:0:
256,192,234240,1,8,0:0:0:0:
256,192,234306,1,8,0:0:0:0:
256,192,234373,1,0,0:0:0:0:
256,192,234506,1,8,0:0:0:0:
256,192,234640,1,8,0:0:0:0:
256,192,234706,1,0,0:0:0:0:
256,192,234773,1,8,0:0:0:0:
256,192,234840,1,0,0:0:0:0:
256,192,234906,1,8,0:0:0:0:
256,192,234973,1,0,0:0:0:0:
256,192,235040,1,8,0:0:0:0:
256,192,235106,1,8,0:0:0:0:
256,192,235173,1,0,0:0:0:0:
256,192,235240,1,0,0:0:0:0:
256,192,235306,1,8,0:0:0:0:
256,192,235373,1,0,0:0:0:0:
256,192,235440,5,8,0:0:0:0:
256,192,235506,1,0,0:0:0:0:
256,192,235573,1,0,0:0:0:0:
256,192,235640,1,0,0:0:0:0:
256,192,235706,1,8,0:0:0:0:
256,192,235773,1,0,0:0:0:0:
256,192,235840,1,8,0:0:0:0:
256,192,235906,1,8,0:0:0:0:
256,192,235973,1,0,0:0:0:0:
256,192,236040,1,0,0:0:0:0:
256,192,236106,1,8,0:0:0:0:
256,192,236173,1,0,0:0:0:0:
256,192,236240,1,8,0:0:0:0:
256,192,236306,1,8,0:0:0:0:
256,192,236373,1,8,0:0:0:0:
256,192,236440,1,8,0:0:0:0:
256,192,236506,1,0,0:0:0:0:
256,192,236573,1,0,0:0:0:0:
256,192,236640,1,8,0:0:0:0:
256,192,236706,1,0,0:0:0:0:
256,192,236773,1,0,0:0:0:0:
256,192,236840,1,0,0:0:0:0:
256,192,236906,1,8,0:0:0:0:
256,192,236973,1,0,0:0:0:0:
256,192,237040,1,8,0:0:0:0:
256,192,237106,1,8,0:0:0:0:
256,192,237173,1,8,0:0:0:0:
256,192,237240,1,8,0:0:0:0:
256,192,237306,1,0,0:0:0:0:
256,192,237373,1,0,0:0:0:0:
256,192,237440,1,8,0:0:0:0:
256,192,237506,1,8,0:0:0:0:
256,192,237573,1,0,0:0:0:0:
256,192,237640,1,0,0:0:0:0:
256,192,237706,1,8,0:0:0:0:
256,192,237773,1,0,0:0:0:0:
256,192,237840,1,8,0:0:0:0:
256,192,237906,1,8,0:0:0:0:
256,192,237973,1,8,0:0:0:0:
256,192,238040,1,8,0:0:0:0:
256,192,238106,1,0,0:0:0:0:
256,192,238173,1,0,0:0:0:0:
256,192,238240,1,8,0:0:0:0:
256,192,238373,1,0,0:0:0:0:
256,192,238440,1,8,0:0:0:0:
256,192,238506,1,8,0:0:0:0:
256,192,238640,5,0,0:0:0:0:
256,192,238906,1,0,0:0:0:0:
256,192,239040,1,0,0:0:0:0:
256,192,239173,1,0,0:0:0:0:
256,192,239440,1,8,0:0:0:0:
256,192,239706,1,0,0:0:0:0:
256,192,239840,1,0,0:0:0:0:
256,192,239973,1,0,0:0:0:0:
256,192,240240,5,8,0:0:0:0:
256,192,240373,1,8,0:0:0:0:
256,192,240506,1,8,0:0:0:0:
256,192,240640,1,0,0:0:0:0:
256,192,240773,1,0,0:0:0:0:
256,192,240906,1,0,0:0:0:0:
256,192,241040,1,8,0:0:0:0:
256,192,241173,1,0,0:0:0:0:
256,192,241240,1,0,0:0:0:0:
256,192,241306,1,0,0:0:0:0:
256,192,241440,1,8,0:0:0:0:
256,192,241573,1,0,0:0:0:0:
256,192,241706,1,0,0:0:0:0:
256,192,241840,5,12,0:0:0:0:
256,192,242106,1,0,0:0:0:0:
256,192,242240,1,8,0:0:0:0:
256,192,242373,1,0,0:0:0:0:
256,192,242506,1,0,0:0:0:0:
256,192,242640,1,8,0:0:0:0:
256,192,242773,1,0,0:0:0:0:
256,192,242906,1,0,0:0:0:0:
256,192,243040,1,8,0:0:0:0:
256,192,243173,1,0,0:0:0:0:
256,192,243306,1,0,0:0:0:0:
256,192,243440,1,12,0:0:0:0:
256,192,243706,1,0,0:0:0:0:
256,192,243840,1,8,0:0:0:0:
256,192,243973,1,0,0:0:0:0:
256,192,244106,1,0,0:0:0:0:
256,192,244240,1,8,0:0:0:0:
256,192,244373,1,0,0:0:0:0:
256,192,244506,1,0,0:0:0:0:
256,192,244640,1,8,0:0:0:0:
256,192,244773,1,8,0:0:0:0:
256,192,244906,1,0,0:0:0:0:
256,192,245040,1,12,0:0:0:0:
256,192,245306,1,0,0:0:0:0:
256,192,245373,1,0,0:0:0:0:
256,192,245440,1,8,0:0:0:0:
256,192,245573,1,0,0:0:0:0:
256,192,245706,1,0,0:0:0:0:
256,192,245840,1,8,0:0:0:0:
256,192,245973,1,8,0:0:0:0:
256,192,246106,1,0,0:0:0:0:
256,192,246240,1,8,0:0:0:0:
256,192,246373,1,0,0:0:0:0:
256,192,246506,1,0,0:0:0:0:
256,192,246640,1,12,0:0:0:0:
256,192,246906,1,0,0:0:0:0:
256,192,247040,1,8,0:0:0:0:
256,192,247106,1,0,0:0:0:0:
256,192,247173,1,0,0:0:0:0:
256,192,247306,1,0,0:0:0:0:
256,192,247440,1,8,0:0:0:0:
256,192,247573,1,8,0:0:0:0:
256,192,247706,1,0,0:0:0:0:
256,192,247840,1,8,0:0:0:0:
256,192,247973,1,8,0:0:0:0:
256,192,248106,1,0,0:0:0:0:
256,192,248240,1,12,0:0:0:0:
256,192,248506,1,0,0:0:0:0:
256,192,248640,1,8,0:0:0:0:
256,192,248773,1,0,0:0:0:0:
256,192,248906,1,0,0:0:0:0:
256,192,249040,1,8,0:0:0:0:
256,192,249173,1,0,0:0:0:0:
256,192,249306,1,8,0:0:0:0:
256,192,249440,1,8,0:0:0:0:
256,192,249573,1,0,0:0:0:0:
256,192,249706,1,0,0:0:0:0:
256,192,249840,1,12,0:0:0:0:
256,192,250106,1,0,0:0:0:0:
256,192,250240,1,8,0:0:0:0:
256,192,250373,1,0,0:0:0:0:
256,192,250506,1,0,0:0:0:0:
256,192,250640,1,8,0:0:0:0:
256,192,250773,1,8,0:0:0:0:
256,192,250906,1,0,0:0:0:0:
256,192,251040,1,8,0:0:0:0:
256,192,251173,1,0,0:0:0:0:
256,192,251306,1,0,0:0:0:0:
256,192,251440,1,12,0:0:0:0:
256,192,251706,1,0,0:0:0:0:
256,192,251840,1,8,0:0:0:0:
256,192,251973,1,8,0:0:0:0:
256,192,252106,1,0,0:0:0:0:
256,192,252240,1,8,0:0:0:0:
256,192,252373,1,0,0:0:0:0:
256,192,252440,1,0,0:0:0:0:
256,192,252506,1,0,0:0:0:0:
256,192,252640,1,8,0:0:0:0:
256,192,252773,1,0,0:0:0:0:
256,192,252906,1,0,0:0:0:0:
256,192,253040,5,12,0:0:0:0:
256,192,253306,1,12,0:0:0:0:
256,192,253573,1,12,0:0:0:0:
256,192,253840,1,12,0:0:0:0:
256,192,253973,1,0,0:0:0:0:
256,192,254106,1,8,0:0:0:0:
256,192,254373,1,12,0:0:0:0:
256,192,254640,5,4,0:0:0:0:
256,192,254906,1,0,0:0:0:0:
256,192,255040,1,8,0:0:0:0:
256,192,255173,1,0,0:0:0:0:
256,192,255306,1,0,0:0:0:0:
256,192,255440,1,8,0:0:0:0:
256,192,255573,1,0,0:0:0:0:
256,192,255706,1,0,0:0:0:0:
256,192,255840,1,8,0:0:0:0:
256,192,255973,1,0,0:0:0:0:
256,192,256106,1,0,0:0:0:0:
256,192,256240,1,12,0:0:0:0:
256,192,256506,1,0,0:0:0:0:
256,192,256640,1,8,0:0:0:0:
256,192,256773,1,0,0:0:0:0:
256,192,256906,1,0,0:0:0:0:
256,192,257040,1,8,0:0:0:0:
256,192,257173,1,0,0:0:0:0:
256,192,257306,1,8,0:0:0:0:
256,192,257440,1,8,0:0:0:0:
256,192,257573,1,0,0:0:0:0:
256,192,257706,1,0,0:0:0:0:
256,192,257840,1,12,0:0:0:0:
256,192,258106,1,0,0:0:0:0:
256,192,258240,1,8,0:0:0:0:
256,192,258373,1,0,0:0:0:0:
256,192,258506,1,8,0:0:0:0:
256,192,258640,1,8,0:0:0:0:
256,192,258773,1,0,0:0:0:0:
256,192,258906,1,0,0:0:0:0:
256,192,259040,1,8,0:0:0:0:
256,192,259173,1,0,0:0:0:0:
256,192,259306,1,0,0:0:0:0:
256,192,259440,1,12,0:0:0:0:
256,192,259706,1,0,0:0:0:0:
256,192,259840,1,8,0:0:0:0:
256,192,259973,1,0,0:0:0:0:
256,192,260106,1,0,0:0:0:0:
256,192,260240,1,8,0:0:0:0:
256,192,260373,1,0,0:0:0:0:
256,192,260506,1,0,0:0:0:0:
256,192,260640,1,8,0:0:0:0:
256,192,260773,1,8,0:0:0:0:
256,192,260906,1,0,0:0:0:0:
256,192,261040,1,0,0:0:0:0:
256,192,261306,1,12,0:0:0:0:
256,192,261573,1,0,0:0:0:0:
256,192,261706,1,0,0:0:0:0:
256,192,261840,1,8,0:0:0:0:
256,192,261973,1,0,0:0:0:0:
256,192,262106,1,0,0:0:0:0:
256,192,262240,1,8,0:0:0:0:
256,192,262373,1,0,0:0:0:0:
256,192,262506,1,0,0:0:0:0:
256,192,262640,1,12,0:0:0:0:
256,192,262906,1,0,0:0:0:0:
256,192,263040,1,8,0:0:0:0:
256,192,263173,1,0,0:0:0:0:
256,192,263306,1,0,0:0:0:0:
256,192,263440,1,0,0:0:0:0:
256,192,263573,1,8,0:0:0:0:
256,192,263706,1,8,0:0:0:0:
256,192,263840,1,8,0:0:0:0:
256,192,263973,1,0,0:0:0:0:
256,192,264106,1,0,0:0:0:0:
256,192,264240,1,12,0:0:0:0:
256,192,264506,1,0,0:0:0:0:
256,192,264640,1,8,0:0:0:0:
256,192,264773,1,0,0:0:0:0:
256,192,264906,1,0,0:0:0:0:
256,192,265040,1,8,0:0:0:0:
256,192,265173,1,0,0:0:0:0:
256,192,265306,1,8,0:0:0:0:
256,192,265440,1,8,0:0:0:0:
256,192,265573,1,0,0:0:0:0:
256,192,265706,1,0,0:0:0:0:
256,192,265840,1,12,0:0:0:0:
256,192,266106,5,12,0:0:0:0:
256,192,266373,1,12,0:0:0:0:
256,192,266506,1,0,0:0:0:0:
256,192,266640,1,12,0:0:0:0:
256,192,266906,1,12,0:0:0:0:
256,192,267040,1,0,0:0:0:0:
256,192,267106,1,0,0:0:0:0:
256,192,267173,1,8,0:0:0:0:
256,192,267306,1,8,0:0:0:0:
256,192,267440,5,4,0:0:0:0:
256,192,267706,1,0,0:0:0:0:
256,192,267840,1,0,0:0:0:0:
256,192,267973,1,0,0:0:0:0:
256,192,268240,1,8,0:0:0:0:
256,192,268373,1,0,0:0:0:0:
256,192,268506,1,0,0:0:0:0:
256,192,268773,1,0,0:0:0:0:
256,192,268906,1,0,0:0:0:0:
256,192,269040,1,12,0:0:0:0:
256,192,269306,1,0,0:0:0:0:
256,192,269440,1,0,0:0:0:0:
256,192,269573,1,0,0:0:0:0:
256,192,269706,1,0,0:0:0:0:
256,192,269840,1,8,0:0:0:0:
256,192,270106,1,0,0:0:0:0:
256,192,270240,1,0,0:0:0:0:
256,192,270373,1,8,0:0:0:0:
256,192,270506,1,0,0:0:0:0:
256,192,270640,1,4,0:0:0:0:
256,192,270906,1,0,0:0:0:0:
256,192,271040,1,0,0:0:0:0:
256,192,271173,1,0,0:0:0:0:
256,192,271440,1,8,0:0:0:0:
256,192,271573,1,0,0:0:0:0:
256,192,271706,1,0,0:0:0:0:
256,192,271973,1,0,0:0:0:0:
256,192,272040,1,0,0:0:0:0:
256,192,272106,1,0,0:0:0:0:
256,192,272173,1,0,0:0:0:0:
256,192,272240,1,12,0:0:0:0:
256,192,272506,1,0,0:0:0:0:
256,192,272640,1,0,0:0:0:0:
256,192,272773,1,0,0:0:0:0:
256,192,272906,1,0,0:0:0:0:
256,192,273040,1,8,0:0:0:0:
256,192,273306,1,0,0:0:0:0:
256,192,273440,1,0,0:0:0:0:
256,192,273573,1,8,0:0:0:0:
256,192,273706,1,8,0:0:0:0:
256,192,273840,5,0,0:0:0:0:
256,192,273906,1,0,0:0:0:0:
256,192,273973,1,0,0:0:0:0:
256,192,274040,1,0,0:0:0:0:
256,192,274106,1,8,0:0:0:0:
256,192,274173,1,0,0:0:0:0:
256,192,274240,1,8,0:0:0:0:
256,192,274306,1,0,0:0:0:0:
256,192,274373,1,8,0:0:0:0:
256,192,274440,1,0,0:0:0:0:
256,192,274506,1,0,0:0:0:0:
256,192,274573,1,0,0:0:0:0:
256,192,274640,1,8,0:0:0:0:
256,192,274706,1,8,0:0:0:0:
256,192,274773,1,0,0:0:0:0:
256,192,274840,1,0,0:0:0:0:
256,192,274906,1,8,0:0:0:0:
256,192,274973,1,0,0:0:0:0:
256,192,275040,1,0,0:0:0:0:
256,192,275106,1,0,0:0:0:0:
256,192,275173,1,8,0:0:0:0:
256,192,275240,1,0,0:0:0:0:
256,192,275306,1,8,0:0:0:0:
256,192,275373,1,0,0:0:0:0:
256,192,275440,1,8,0:0:0:0:
256,192,275506,1,8,0:0:0:0:
256,192,275573,1,8,0:0:0:0:
256,192,275640,1,8,0:0:0:0:
256,192,275706,1,0,0:0:0:0:
256,192,275773,1,0,0:0:0:0:
256,192,275840,1,8,0:0:0:0:
256,192,275906,1,0,0:0:0:0:
256,192,275973,1,8,0:0:0:0:
256,192,276040,1,0,0:0:0:0:
256,192,276106,1,0,0:0:0:0:
256,192,276173,1,0,0:0:0:0:
256,192,276240,1,8,0:0:0:0:
256,192,276306,1,8,0:0:0:0:
256,192,276373,1,8,0:0:0:0:
256,192,276440,1,8,0:0:0:0:
256,192,276506,1,0,0:0:0:0:
256,192,276573,1,0,0:0:0:0:
256,192,276640,1,8,0:0:0:0:
256,192,276706,1,0,0:0:0:0:
256,192,276773,1,8,0:0:0:0:
256,192,276840,1,8,0:0:0:0:
256,192,276906,1,0,0:0:0:0:
256,192,276973,1,0,0:0:0:0:
256,192,277040,1,8,0:0:0:0:
256,192,277173,5,0,0:0:0:0:
256,192,277306,1,8,0:0:0:0:
256,192,277373,1,8,0:0:0:0:
256,192,277440,1,0,0:0:0:0:
256,192,277506,1,0,0:0:0:0:
256,192,277573,1,8,0:0:0:0:
256,192,277640,1,8,0:0:0:0:
256,192,277706,1,8,0:0:0:0:
256,192,277773,1,8,0:0:0:0:
256,192,277840,1,0,0:0:0:0:
256,192,277906,1,0,0:0:0:0:
256,192,277973,1,0,0:0:0:0:
256,192,278040,1,0,0:0:0:0:
256,192,278106,1,8,0:0:0:0:
256,192,278173,1,8,0:0:0:0:
256,192,278240,1,8,0:0:0:0:
256,192,278306,1,8,0:0:0:0:
256,192,278373,1,0,0:0:0:0:
256,192,278440,1,0,0:0:0:0:
256,192,278506,1,0,0:0:0:0:
256,192,278573,1,0,0:0:0:0:
256,192,278640,1,8,0:0:0:0:
256,192,278906,1,12,0:0:0:0:
256,192,279173,5,4,0:0:0:0:
256,192,279306,1,0,0:0:0:0:
256,192,279373,1,0,0:0:0:0:
256,192,279439,1,8,0:0:0:0:
256,192,279573,1,8,0:0:0:0:
256,192,279706,1,8,0:0:0:0:
256,192,279839,1,0,0:0:0:0:
256,192,279906,1,0,0:0:0:0:
256,192,279973,1,8,0:0:0:0:
256,192,280106,1,8,0:0:0:0:
256,192,280239,1,8,0:0:0:0:
256,192,280373,1,0,0:0:0:0:
256,192,280439,1,0,0:0:0:0:
256,192,280506,1,8,0:0:0:0:
256,192,280639,1,8,0:0:0:0:
256,192,280773,1,8,0:0:0:0:
256,192,280906,1,8,0:0:0:0:
256,192,280973,1,8,0:0:0:0:
256,192,281039,1,0,0:0:0:0:
256,192,281106,1,0,0:0:0:0:
256,192,281173,1,0,0:0:0:0:
256,192,281306,5,4,0:0:0:0:
256,192,281439,1,0,0:0:0:0:
256,192,281506,1,0,0:0:0:0:
256,192,281573,1,8,0:0:0:0:
256,192,281706,1,8,0:0:0:0:
256,192,281839,1,8,0:0:0:0:
256,192,281973,1,0,0:0:0:0:
256,192,282039,1,0,0:0:0:0:
256,192,282106,1,8,0:0:0:0:
256,192,282239,1,8,0:0:0:0:
256,192,282373,1,8,0:0:0:0:
256,192,282506,1,8,0:0:0:0:
256,192,282573,1,8,0:0:0:0:
256,192,282639,1,0,0:0:0:0:
256,192,282706,1,0,0:0:0:0:
256,192,282773,1,0,0:0:0:0:
256,192,282906,1,8,0:0:0:0:
256,192,283039,1,8,0:0:0:0:
256,192,283106,1,8,0:0:0:0:
256,192,283173,1,8,0:0:0:0:
256,192,283239,1,8,0:0:0:0:
256,192,283306,1,8,0:0:0:0:
256,192,283439,5,4,0:0:0:0:
256,192,283573,1,0,0:0:0:0:
256,192,283639,1,0,0:0:0:0:
256,192,283706,1,8,0:0:0:0:
256,192,283839,1,8,0:0:0:0:
256,192,283973,1,8,0:0:0:0:
256,192,284106,1,0,0:0:0:0:
256,192,284173,1,0,0:0:0:0:
256,192,284239,1,8,0:0:0:0:
256,192,284373,1,8,0:0:0:0:
256,192,284506,1,8,0:0:0:0:
256,192,284639,1,0,0:0:0:0:
256,192,284706,1,0,0:0:0:0:
256,192,284773,1,8,0:0:0:0:
256,192,284906,1,8,0:0:0:0:
256,192,285039,1,8,0:0:0:0:
256,192,285173,1,8,0:0:0:0:
256,192,285239,1,8,0:0:0:0:
256,192,285306,1,0,0:0:0:0:
256,192,285373,1,0,0:0:0:0:
256,192,285439,1,0,0:0:0:0:
256,192,285573,1,4,0:0:0:0:
256,192,285706,1,0,0:0:0:0:
256,192,285773,1,0,0:0:0:0:
256,192,285839,1,8,0:0:0:0:
256,192,285973,1,8,0:0:0:0:
256,192,286106,1,8,0:0:0:0:
256,192,286239,1,0,0:0:0:0:
256,192,286306,1,0,0:0:0:0:
256,192,286373,1,8,0:0:0:0:
256,192,286506,1,8,0:0:0:0:
256,192,286639,1,12,0:0:0:0:
256,192,287706,5,4,0:0:0:0:
256,192,287839,1,0,0:0:0:0:
256,192,287972,1,8,0:0:0:0:
256,192,288106,1,8,0:0:0:0:
256,192,288239,1,8,0:0:0:0:
256,192,288372,1,0,0:0:0:0:
256,192,288506,1,8,0:0:0:0:
256,192,288639,1,8,0:0:0:0:
256,192,288772,1,8,0:0:0:0:
256,192,288906,1,8,0:0:0:0:
256,192,288972,1,8,0:0:0:0:
256,192,289039,1,0,0:0:0:0:
256,192,289106,1,0,0:0:0:0:
256,192,289172,1,0,0:0:0:0:
256,192,289306,1,8,0:0:0:0:
256,192,289439,1,0,0:0:0:0:
256,192,289572,1,8,0:0:0:0:
256,192,289706,1,8,0:0:0:0:
256,192,289839,1,8,0:0:0:0:
256,192,289972,1,0,0:0:0:0:
256,192,290106,1,8,0:0:0:0:
256,192,290239,1,8,0:0:0:0:
256,192,290372,1,8,0:0:0:0:
256,192,290506,1,8,0:0:0:0:
256,192,290572,1,8,0:0:0:0:
256,192,290639,1,8,0:0:0:0:
256,192,290706,1,8,0:0:0:0:
256,192,290772,1,0,0:0:0:0:
256,192,290906,5,4,0:0:0:0:
256,192,291039,1,0,0:0:0:0:
256,192,291172,1,8,0:0:0:0:
256,192,291306,1,8,0:0:0:0:
256,192,291439,1,8,0:0:0:0:
256,192,291572,1,0,0:0:0:0:
256,192,291706,1,8,0:0:0:0:
256,192,291839,1,8,0:0:0:0:
256,192,291972,1,8,0:0:0:0:
256,192,292106,1,8,0:0:0:0:
256,192,292172,1,8,0:0:0:0:
256,192,292239,1,0,0:0:0:0:
256,192,292306,1,0,0:0:0:0:
256,192,292372,1,0,0:0:0:0:
256,192,292506,1,8,0:0:0:0:
256,192,292639,1,0,0:0:0:0:
256,192,292772,1,8,0:0:0:0:
256,192,292906,1,8,0:0:0:0:
256,192,293039,1,8,0:0:0:0:
256,192,293172,1,0,0:0:0:0:
256,192,293306,1,8,0:0:0:0:
256,192,293372,1,0,0:0:0:0:
256,192,293439,1,8,0:0:0:0:
256,192,293506,1,8,0:0:0:0:
256,192,293572,1,0,0:0:0:0:
256,192,293639,1,0,0:0:0:0:
256,192,293706,1,0,0:0:0:0:
256,192,293772,1,0,0:0:0:0:
256,192,293839,1,8,0:0:0:0:
256,192,293906,1,8,0:0:0:0:
256,192,293972,1,8,0:0:0:0:
256,192,294039,1,8,0:0:0:0:
256,192,294106,5,4,0:0:0:0:
256,192,294239,1,0,0:0:0:0:
256,192,294372,1,8,0:0:0:0:
256,192,294506,1,8,0:0:0:0:
256,192,294639,1,8,0:0:0:0:
256,192,294772,1,0,0:0:0:0:
256,192,294906,1,8,0:0:0:0:
256,192,295039,1,8,0:0:0:0:
256,192,295172,1,8,0:0:0:0:
256,192,295306,1,8,0:0:0:0:
256,192,295372,1,8,0:0:0:0:
256,192,295439,1,0,0:0:0:0:
256,192,295506,1,0,0:0:0:0:
256,192,295572,1,0,0:0:0:0:
256,192,295706,1,8,0:0:0:0:
256,192,295839,1,0,0:0:0:0:
256,192,295972,1,8,0:0:0:0:
256,192,296106,1,8,0:0:0:0:
256,192,296239,1,8,0:0:0:0:
256,192,296372,1,0,0:0:0:0:
256,192,296506,1,8,0:0:0:0:
256,192,296639,1,8,0:0:0:0:
256,192,296772,1,8,0:0:0:0:
256,192,296906,1,8,0:0:0:0:
256,192,296972,1,8,0:0:0:0:
256,192,297039,1,8,0:0:0:0:
256,192,297106,1,8,0:0:0:0:
256,192,297172,1,0,0:0:0:0:
256,192,297306,5,4,0:0:0:0:
256,192,297439,1,0,0:0:0:0:
256,192,297572,1,8,0:0:0:0:
256,192,297706,1,8,0:0:0:0:
256,192,297839,1,8,0:0:0:0:
256,192,297972,1,0,0:0:0:0:
256,192,298106,1,8,0:0:0:0:
256,192,298239,1,8,0:0:0:0:
256,192,298372,1,8,0:0:0:0:
256,192,298506,1,8,0:0:0:0:
256,192,298572,1,8,0:0:0:0:
256,192,298639,1,0,0:0:0:0:
256,192,298706,1,0,0:0:0:0:
256,192,298772,1,0,0:0:0:0:
256,192,298906,1,8,0:0:0:0:
256,192,299039,1,0,0:0:0:0:
256,192,299172,1,8,0:0:0:0:
256,192,299306,1,8,0:0:0:0:
256,192,299439,1,0,0:0:0:0:
256,192,299506,1,0,0:0:0:0:
256,192,299572,1,0,0:0:0:0:
256,192,299706,1,8,0:0:0:0:
256,192,299772,1,8,0:0:0:0:
256,192,299839,1,8,0:0:0:0:
256,192,299906,1,8,0:0:0:0:
256,192,299972,1,0,0:0:0:0:
256,192,300039,1,0,0:0:0:0:
256,192,300106,1,0,0:0:0:0:
256,192,300172,1,0,0:0:0:0:
256,192,300239,1,8,0:0:0:0:
256,192,300306,1,8,0:0:0:0:
256,192,300372,1,0,0:0:0:0:
256,192,300506,5,8,0:0:0:0:
256,192,300572,1,8,0:0:0:0:
256,192,300639,1,8,0:0:0:0:
256,192,300706,1,0,0:0:0:0:
256,192,300772,1,8,0:0:0:0:
256,192,300839,1,8,0:0:0:0:
256,192,300906,1,8,0:0:0:0:
256,192,300972,1,0,0:0:0:0:
256,192,301039,1,8,0:0:0:0:
256,192,301106,1,8,0:0:0:0:
256,192,301172,1,0,0:0:0:0:
256,192,301239,1,0,0:0:0:0:
256,192,301306,1,8,0:0:0:0:
256,192,301372,1,8,0:0:0:0:
256,192,301439,1,0,0:0:0:0:
256,192,301506,1,0,0:0:0:0:
256,192,301572,1,8,0:0:0:0:
256,192,301639,1,0,0:0:0:0:
256,192,301706,1,0,0:0:0:0:
256,192,301772,1,0,0:0:0:0:
256,192,301839,1,8,0:0:0:0:
256,192,301972,1,0,0:0:0:0:
256,192,302106,1,8,0:0:0:0:
256,192,302239,5,0,0:0:0:0:
256,192,302372,1,8,0:0:0:0:
256,192,302506,1,0,0:0:0:0:
256,192,302572,1,0,0:0:0:0:
256,192,302639,1,8,0:0:0:0:
256,192,302772,1,0,0:0:0:0:
256,192,302906,1,8,0:0:0:0:
256,192,303039,1,0,0:0:0:0:
256,192,303172,1,8,0:0:0:0:
256,192,303306,1,8,0:0:0:0:
256,192,303372,1,0,0:0:0:0:
256,192,303439,1,0,0:0:0:0:
256,192,303572,1,0,0:0:0:0:
256,192,303706,5,8,0:0:0:0:
256,192,303772,1,8,0:0:0:0:
256,192,303839,1,8,0:0:0:0:
256,192,303906,1,0,0:0:0:0:
256,192,303972,1,8,0:0:0:0:
256,192,304039,1,8,0:0:0:0:
256,192,304106,1,8,0:0:0:0:
256,192,304172,1,0,0:0:0:0:
256,192,304239,1,8,0:0:0:0:
256,192,304306,1,8,0:0:0:0:
256,192,304372,1,0,0:0:0:0:
256,192,304439,1,0,0:0:0:0:
256,192,304506,1,8,0:0:0:0:
256,192,304572,1,8,0:0:0:0:
256,192,304639,1,0,0:0:0:0:
256,192,304706,1,0,0:0:0:0:
256,192,304772,1,8,0:0:0:0:
256,192,304839,1,8,0:0:0:0:
256,192,304906,1,0,0:0:0:0:
256,192,304972,1,0,0:0:0:0:
256,192,305039,1,8,0:0:0:0:
256,192,305172,1,0,0:0:0:0:
256,192,305306,1,8,0:0:0:0:
256,192,305439,5,0,0:0:0:0:
256,192,305572,1,8,0:0:0:0:
256,192,305706,1,0,0:0:0:0:
256,192,305839,1,8,0:0:0:0:
256,192,305972,1,0,0:0:0:0:
256,192,306106,1,8,0:0:0:0:
256,192,306239,1,8,0:0:0:0:
256,192,306306,1,8,0:0:0:0:
256,192,306372,1,0,0:0:0:0:
256,192,306506,1,8,0:0:0:0:
256,192,306639,1,0,0:0:0:0:
256,192,306706,1,0,0:0:0:0:
256,192,306772,1,8,0:0:0:0:
256,192,306906,5,8,0:0:0:0:
256,192,306972,1,8,0:0:0:0:
256,192,307039,1,8,0:0:0:0:
256,192,307106,1,0,0:0:0:0:
256,192,307172,1,8,0:0:0:0:
256,192,307239,1,8,0:0:0:0:
256,192,307306,1,8,0:0:0:0:
256,192,307372,1,0,0:0:0:0:
256,192,307439,1,8,0:0:0:0:
256,192,307506,1,8,0:0:0:0:
256,192,307572,1,8,0:0:0:0:
256,192,307639,1,0,0:0:0:0:
256,192,307706,1,8,0:0:0:0:
256,192,307772,1,8,0:0:0:0:
256,192,307839,1,0,0:0:0:0:
256,192,307906,1,0,0:0:0:0:
256,192,307972,1,8,0:0:0:0:
256,192,308039,1,8,0:0:0:0:
256,192,308106,1,0,0:0:0:0:
256,192,308172,1,0,0:0:0:0:
256,192,308239,1,8,0:0:0:0:
256,192,308372,1,0,0:0:0:0:
256,192,308506,1,8,0:0:0:0:
256,192,308639,5,0,0:0:0:0:
256,192,308772,1,8,0:0:0:0:
256,192,308906,1,0,0:0:0:0:
256,192,309039,1,8,0:0:0:0:
256,192,309172,1,0,0:0:0:0:
256,192,309239,1,0,0:0:0:0:
256,192,309306,1,8,0:0:0:0:
256,192,309439,1,0,0:0:0:0:
256,192,309572,1,8,0:0:0:0:
256,192,309706,1,8,0:0:0:0:
256,192,309772,1,8,0:0:0:0:
256,192,309839,1,0,0:0:0:0:
256,192,309906,1,0,0:0:0:0:
256,192,309972,1,0,0:0:0:0:
256,192,310106,5,8,0:0:0:0:
256,192,310172,1,8,0:0:0:0:
256,192,310239,1,8,0:0:0:0:
256,192,310306,1,0,0:0:0:0:
256,192,310372,1,8,0:0:0:0:
256,192,310439,1,8,0:0:0:0:
256,192,310506,1,8,0:0:0:0:
256,192,310572,1,0,0:0:0:0:
256,192,310639,1,8,0:0:0:0:
256,192,310706,1,8,0:0:0:0:
256,192,310772,1,8,0:0:0:0:
256,192,310839,1,0,0:0:0:0:
256,192,310906,1,8,0:0:0:0:
256,192,310972,1,8,0:0:0:0:
256,192,311039,1,8,0:0:0:0:
256,192,311106,1,0,0:0:0:0:
256,192,311172,1,8,0:0:0:0:
256,192,311239,1,8,0:0:0:0:
256,192,311306,1,0,0:0:0:0:
256,192,311372,1,0,0:0:0:0:
256,192,311439,1,8,0:0:0:0:
256,192,311572,1,0,0:0:0:0:
256,192,311706,5,8,0:0:0:0:
256,192,311772,1,0,0:0:0:0:
256,192,311839,1,0,0:0:0:0:
256,192,311906,1,0,0:0:0:0:
256,192,311972,1,8,0:0:0:0:
256,192,312039,1,0,0:0:0:0:
256,192,312106,1,8,0:0:0:0:
256,192,312172,1,8,0:0:0:0:
256,192,312239,1,0,0:0:0:0:
256,192,312306,1,0,0:0:0:0:
256,192,312372,1,0,0:0:0:0:
256,192,312439,1,0,0:0:0:0:
256,192,312506,1,8,0:0:0:0:
256,192,312572,1,0,0:0:0:0:
256,192,312639,1,8,0:0:0:0:
256,192,312706,1,0,0:0:0:0:
256,192,312772,1,8,0:0:0:0:
256,192,312839,1,0,0:0:0:0:
256,192,312906,1,8,0:0:0:0:
256,192,312972,1,8,0:0:0:0:
256,192,313039,1,8,0:0:0:0:
256,192,313106,1,8,0:0:0:0:
256,192,313172,1,0,0:0:0:0:
256,192,313239,1,0,0:0:0:0:
256,192,313306,1,8,0:0:0:0:
256,192,313372,1,0,0:0:0:0:
256,192,313439,1,0,0:0:0:0:
256,192,313506,1,0,0:0:0:0:
256,192,313572,1,8,0:0:0:0:
256,192,313639,1,0,0:0:0:0:
256,192,313706,1,8,0:0:0:0:
256,192,313772,1,0,0:0:0:0:
256,192,313839,1,8,0:0:0:0:
256,192,313906,1,8,0:0:0:0:
256,192,313972,1,0,0:0:0:0:
256,192,314039,1,0,0:0:0:0:
256,192,314106,1,8,0:0:0:0:
256,192,314172,1,8,0:0:0:0:
256,192,314239,1,0,0:0:0:0:
256,192,314306,1,0,0:0:0:0:
256,192,314372,1,8,0:0:0:0:
256,192,314439,1,0,0:0:0:0:
256,192,314506,1,8,0:0:0:0:
256,192,314572,1,8,0:0:0:0:
256,192,314639,1,8,0:0:0:0:
256,192,314706,1,8,0:0:0:0:
256,192,314772,1,0,0:0:0:0:
256,192,314839,1,0,0:0:0:0:
256,192,314906,1,8,0:0:0:0:
256,192,314972,1,0,0:0:0:0:
256,192,315039,1,0,0:0:0:0:
256,192,315106,1,0,0:0:0:0:
256,192,315172,1,8,0:0:0:0:
256,192,315239,1,0,0:0:0:0:
256,192,315306,1,8,0:0:0:0:
256,192,315372,1,0,0:0:0:0:
256,192,315439,1,8,0:0:0:0:
256,192,315506,1,8,0:0:0:0:
256,192,315572,1,0,0:0:0:0:
256,192,315639,1,0,0:0:0:0:
256,192,315706,1,8,0:0:0:0:
256,192,315772,1,0,0:0:0:0:
256,192,315839,1,8,0:0:0:0:
256,192,315906,1,0,0:0:0:0:
256,192,315972,1,8,0:0:0:0:
256,192,316039,1,0,0:0:0:0:
256,192,316106,1,8,0:0:0:0:
256,192,316172,1,8,0:0:0:0:
256,192,316239,1,8,0:0:0:0:
256,192,316306,1,8,0:0:0:0:
256,192,316372,1,8,0:0:0:0:
256,192,316439,1,8,0:0:0:0:
256,192,316506,5,0,0:0:0:0:
256,192,316639,1,0,0:0:0:0:
256,192,316772,1,8,0:0:0:0:
256,192,316906,1,8,0:0:0:0:
256,192,317039,1,0,0:0:0:0:
256,192,317106,1,0,0:0:0:0:
256,192,317172,1,8,0:0:0:0:
256,192,317306,1,8,0:0:0:0:
256,192,317439,1,0,0:0:0:0:
256,192,317572,1,8,0:0:0:0:
256,192,317706,1,8,0:0:0:0:
256,192,317972,1,8,0:0:0:0:
256,192,318106,5,4,0:0:0:0:
256,192,318372,1,8,0:0:0:0:
256,192,318506,1,0,0:0:0:0:
256,192,318639,1,8,0:0:0:0:
256,192,318906,1,8,0:0:0:0:
256,192,319039,1,0,0:0:0:0:
256,192,319172,1,8,0:0:0:0:
256,192,319306,1,8,0:0:0:0:
256,192,319372,1,8,0:0:0:0:
256,192,319439,1,0,0:0:0:0:
256,192,319506,1,0,0:0:0:0:
256,192,319572,1,0,0:0:0:0:
256,192,319639,1,0,0:0:0:0:
256,192,319706,1,8,0:0:0:0:
256,192,319972,1,8,0:0:0:0:
256,192,320106,1,0,0:0:0:0:
256,192,320239,1,8,0:0:0:0:
256,192,320506,1,8,0:0:0:0:
256,192,320639,1,8,0:0:0:0:
256,192,320772,1,0,0:0:0:0:
256,192,320906,1,8,0:0:0:0:
256,192,321039,1,0,0:0:0:0:
256,192,321172,1,8,0:0:0:0:
256,192,321306,5,4,0:0:0:0:
256,192,321572,1,8,0:0:0:0:
256,192,321706,1,0,0:0:0:0:
256,192,321839,1,8,0:0:0:0:
256,192,322106,1,8,0:0:0:0:
256,192,322239,1,0,0:0:0:0:
256,192,322372,1,0,0:0:0:0:
256,192,322506,1,8,0:0:0:0:
256,192,322572,1,8,0:0:0:0:
256,192,322639,1,0,0:0:0:0:
256,192,322706,1,0,0:0:0:0:
256,192,322772,1,0,0:0:0:0:
256,192,322839,1,0,0:0:0:0:
256,192,322906,1,8,0:0:0:0:
256,192,323172,1,8,0:0:0:0:
256,192,323306,1,8,0:0:0:0:
256,192,323572,1,8,0:0:0:0:
256,192,323706,1,8,0:0:0:0:
256,192,323972,1,8,0:0:0:0:
256,192,324106,1,8,0:0:0:0:
256,192,324172,1,8,0:0:0:0:
256,192,324239,1,8,0:0:0:0:
256,192,324306,1,8,0:0:0:0:
256,192,324372,1,8,0:0:0:0:
256,192,324439,1,8,0:0:0:0:
256,192,324506,5,0,0:0:0:0:
256,192,324772,1,8,0:0:0:0:
256,192,324906,1,8,0:0:0:0:
256,192,325039,1,0,0:0:0:0:
256,192,325306,1,8,0:0:0:0:
256,192,325439,1,8,0:0:0:0:
256,192,325572,1,0,0:0:0:0:
256,192,325706,1,8,0:0:0:0:
256,192,325772,1,8,0:0:0:0:
256,192,325839,1,8,0:0:0:0:
256,192,325906,1,8,0:0:0:0:
256,192,325972,1,8,0:0:0:0:
256,192,326039,1,8,0:0:0:0:
256,192,326106,1,0,0:0:0:0:
256,192,326372,1,8,0:0:0:0:
256,192,326506,1,8,0:0:0:0:
256,192,326639,1,0,0:0:0:0:
256,192,326906,1,8,0:0:0:0:
256,192,327039,1,8,0:0:0:0:
256,192,327172,1,0,0:0:0:0:
256,192,327306,1,8,0:0:0:0:
256,192,327372,1,8,0:0:0:0:
256,192,327439,1,8,0:0:0:0:
256,192,327506,1,8,0:0:0:0:
256,192,327572,1,8,0:0:0:0:
256,192,327639,1,8,0:0:0:0:
256,192,327706,5,0,0:0:0:0:
256,192,327972,1,8,0:0:0:0:
256,192,328106,1,0,0:0:0:0:
256,192,328239,1,8,0:0:0:0:
256,192,328506,1,8,0:0:0:0:
256,192,328639,1,0,0:0:0:0:
256,192,328772,1,8,0:0:0:0:
256,192,328906,1,0,0:0:0:0:
256,192,329039,1,8,0:0:0:0:
256,192,329172,1,8,0:0:0:0:
256,192,329306,1,8,0:0:0:0:
256,192,329572,1,8,0:0:0:0:
256,192,329706,1,8,0:0:0:0:
256,192,329972,1,0,0:0:0:0:
256,192,330106,1,8,0:0:0:0:
256,192,330372,1,8,0:0:0:0:
256,192,330506,1,8,0:0:0:0:
256,192,330639,1,0,0:0:0:0:
256,192,330772,1,8,0:0:0:0:
256,192,330906,5,8,0:0:0:0:
256,192,330972,1,8,0:0:0:0:
256,192,331039,1,8,0:0:0:0:
256,192,331106,1,0,0:0:0:0:
256,192,331172,1,8,0:0:0:0:
256,192,331239,1,8,0:0:0:0:
256,192,331306,1,8,0:0:0:0:
256,192,331372,1,0,0:0:0:0:
256,192,331439,1,8,0:0:0:0:
256,192,331506,1,8,0:0:0:0:
256,192,331572,1,0,0:0:0:0:
256,192,331639,1,0,0:0:0:0:
256,192,331706,1,8,0:0:0:0:
256,192,331772,1,8,0:0:0:0:
256,192,331839,1,0,0:0:0:0:
256,192,331906,1,0,0:0:0:0:
256,192,331972,1,8,0:0:0:0:
256,192,332039,1,0,0:0:0:0:
256,192,332106,1,0,0:0:0:0:
256,192,332172,1,0,0:0:0:0:
256,192,332239,1,8,0:0:0:0:
256,192,332372,1,0,0:0:0:0:
256,192,332506,1,8,0:0:0:0:
256,192,332639,5,0,0:0:0:0:
256,192,332772,1,8,0:0:0:0:
256,192,332906,1,0,0:0:0:0:
256,192,332972,1,0,0:0:0:0:
256,192,333039,1,8,0:0:0:0:
256,192,333172,1,0,0:0:0:0:
256,192,333306,1,8,0:0:0:0:
256,192,333439,1,0,0:0:0:0:
256,192,333572,1,8,0:0:0:0:
256,192,333706,1,8,0:0:0:0:
256,192,333772,1,0,0:0:0:0:
256,192,333839,1,0,0:0:0:0:
256,192,333972,1,0,0:0:0:0:
256,192,334106,5,8,0:0:0:0:
256,192,334172,1,8,0:0:0:0:
256,192,334239,1,8,0:0:0:0:
256,192,334306,1,0,0:0:0:0:
256,192,334372,1,8,0:0:0:0:
256,192,334439,1,8,0:0:0:0:
256,192,334506,1,8,0:0:0:0:
256,192,334572,1,0,0:0:0:0:
256,192,334639,1,8,0:0:0:0:
256,192,334706,1,8,0:0:0:0:
256,192,334772,1,0,0:0:0:0:
256,192,334839,1,0,0:0:0:0:
256,192,334906,1,8,0:0:0:0:
256,192,334972,1,8,0:0:0:0:
256,192,335039,1,0,0:0:0:0:
256,192,335106,1,0,0:0:0:0:
256,192,335172,1,8,0:0:0:0:
256,192,335239,1,8,0:0:0:0:
256,192,335306,1,0,0:0:0:0:
256,192,335372,1,0,0:0:0:0:
256,192,335439,1,8,0:0:0:0:
256,192,335572,1,0,0:0:0:0:
256,192,335706,1,8,0:0:0:0:
256,192,335839,5,0,0:0:0:0:
256,192,335972,1,8,0:0:0:0:
256,192,336106,1,8,0:0:0:0:
256,192,336239,1,8,0:0:0:0:
256,192,336372,1,0,0:0:0:0:
256,192,336506,1,8,0:0:0:0:
256,192,336572,1,8,0:0:0:0:
256,192,336639,1,0,0:0:0:0:
256,192,336772,1,8,0:0:0:0:
256,192,336906,1,8,0:0:0:0:
256,192,337039,1,0,0:0:0:0:
256,192,337106,1,0,0:0:0:0:
256,192,337172,1,8,0:0:0:0:
256,192,337306,5,8,0:0:0:0:
256,192,337372,1,8,0:0:0:0:
256,192,337439,1,8,0:0:0:0:
256,192,337506,1,0,0:0:0:0:
256,192,337572,1,8,0:0:0:0:
256,192,337639,1,8,0:0:0:0:
256,192,337706,1,8,0:0:0:0:
256,192,337772,1,0,0:0:0:0:
256,192,337839,1,8,0:0:0:0:
256,192,337906,1,8,0:0:0:0:
256,192,337972,1,8,0:0:0:0:
256,192,338039,1,0,0:0:0:0:
256,192,338106,1,8,0:0:0:0:
256,192,338172,1,8,0:0:0:0:
256,192,338239,1,0,0:0:0:0:
256,192,338306,1,0,0:0:0:0:
256,192,338372,1,8,0:0:0:0:
256,192,338439,1,8,0:0:0:0:
256,192,338506,1,0,0:0:0:0:
256,192,338572,1,0,0:0:0:0:
256,192,338639,1,8,0:0:0:0:
256,192,338772,1,0,0:0:0:0:
256,192,338906,1,8,0:0:0:0:
256,192,339039,5,0,0:0:0:0:
256,192,339172,1,8,0:0:0:0:
256,192,339306,1,0,0:0:0:0:
256,192,339439,1,8,0:0:0:0:
256,192,339572,1,0,0:0:0:0:
256,192,339639,1,0,0:0:0:0:
256,192,339706,1,8,0:0:0:0:
256,192,339839,1,0,0:0:0:0:
256,192,339972,1,8,0:0:0:0:
256,192,340106,1,8,0:0:0:0:
256,192,340172,1,8,0:0:0:0:
256,192,340239,1,0,0:0:0:0:
256,192,340306,1,0,0:0:0:0:
256,192,340372,1,0,0:0:0:0:
256,192,340506,5,8,0:0:0:0:
256,192,340572,1,8,0:0:0:0:
256,192,340639,1,8,0:0:0:0:
256,192,340706,1,0,0:0:0:0:
256,192,340772,1,8,0:0:0:0:
256,192,340839,1,8,0:0:0:0:
256,192,340906,1,8,0:0:0:0:
256,192,340972,1,0,0:0:0:0:
256,192,341039,1,8,0:0:0:0:
256,192,341106,1,8,0:0:0:0:
256,192,341172,1,8,0:0:0:0:
256,192,341239,1,0,0:0:0:0:
256,192,341306,1,8,0:0:0:0:
256,192,341372,1,8,0:0:0:0:
256,192,341439,1,8,0:0:0:0:
256,192,341506,1,0,0:0:0:0:
256,192,341572,1,8,0:0:0:0:
256,192,341639,1,8,0:0:0:0:
256,192,341706,1,0,0:0:0:0:
256,192,341772,1,0,0:0:0:0:
256,192,341839,1,8,0:0:0:0:
256,192,341906,1,0,0:0:0:0:
256,192,341972,1,8,0:0:0:0:
256,192,342039,1,0,0:0:0:0:
256,192,342106,5,8,0:0:0:0:
256,192,342172,1,8,0:0:0:0:
256,192,342239,1,8,0:0:0:0:
256,192,342306,1,8,0:0:0:0:
256,192,342372,1,8,0:0:0:0:
256,192,342439,1,8,0:0:0:0:
256,192,342506,1,8,0:0:0:0:
256,192,342572,1,8,0:0:0:0:
256,192,342639,1,0,0:0:0:0:
256,192,342706,1,0,0:0:0:0:
256,192,342772,1,8,0:0:0:0:
256,192,342839,1,0,0:0:0:0:
256,192,342906,1,8,0:0:0:0:
256,192,342972,1,8,0:0:0:0:
256,192,343039,1,0,0:0:0:0:
256,192,343106,1,0,0:0:0:0:
256,192,343172,1,0,0:0:0:0:
256,192,343239,1,0,0:0:0:0:
256,192,343306,1,8,0:0:0:0:
256,192,343372,1,0,0:0:0:0:
256,192,343439,1,8,0:0:0:0:
256,192,343506,1,0,0:0:0:0:
256,192,343572,1,0,0:0:0:0:
256,192,343639,1,0,0:0:0:0:
256,192,343706,1,8,0:0:0:0:
256,192,343772,1,8,0:0:0:0:
256,192,343839,1,8,0:0:0:0:
256,192,343906,1,8,0:0:0:0:
256,192,343972,1,0,0:0:0:0:
256,192,344039,1,0,0:0:0:0:
256,192,344106,1,8,0:0:0:0:
256,192,344172,1,0,0:0:0:0:
256,192,344239,1,0,0:0:0:0:
256,192,344306,1,0,0:0:0:0:
256,192,344372,1,8,0:0:0:0:
256,192,344439,1,0,0:0:0:0:
256,192,344506,1,8,0:0:0:0:
256,192,344572,1,8,0:0:0:0:
256,192,344639,1,0,0:0:0:0:
256,192,344706,1,0,0:0:0:0:
256,192,344772,1,0,0:0:0:0:
256,192,344839,1,0,0:0:0:0:
256,192,344906,1,8,0:0:0:0:
256,192,344972,1,8,0:0:0:0:
256,192,345039,1,0,0:0:0:0:
256,192,345106,1,0,0:0:0:0:
256,192,345172,1,0,0:0:0:0:
256,192,345239,1,0,0:0:0:0:
256,192,345306,1,8,0:0:0:0:
256,192,345372,1,8,0:0:0:0:
256,192,345439,1,0,0:0:0:0:
256,192,345506,1,0,0:0:0:0:
256,192,345572,1,0,0:0:0:0:
256,192,345639,1,0,0:0:0:0:
256,192,345706,1,8,0:0:0:0:
256,192,345772,1,0,0:0:0:0:
256,192,345839,1,0,0:0:0:0:
256,192,345906,1,0,0:0:0:0:
256,192,345972,1,8,0:0:0:0:
256,192,346039,1,0,0:0:0:0:
256,192,346106,1,8,0:0:0:0:
256,192,346172,1,8,0:0:0:0:
256,192,346239,1,0,0:0:0:0:
256,192,346306,1,0,0:0:0:0:
256,192,346372,1,8,0:0:0:0:
256,192,346439,1,8,0:0:0:0:
256,192,346506,1,0,0:0:0:0:
256,192,346572,1,0,0:0:0:0:
256,192,346639,1,8,0:0:0:0:
256,192,346706,1,8,0:0:0:0:
256,192,346772,1,8,0:0:0:0:
256,192,346839,1,8,0:0:0:0:
256,192,346906,1,0,0:0:0:0:
256,192,346972,1,0,0:0:0:0:
256,192,347039,1,0,0:0:0:0:
256,192,347106,1,0,0:0:0:0:
256,192,347172,1,8,0:0:0:0:
256,192,347239,1,8,0:0:0:0:
256,192,347306,1,8,0:0:0:0:
256,192,347372,1,8,0:0:0:0:
256,192,347439,1,8,0:0:0:0:
256,192,347506,1,8,0:0:0:0:
256,192,347572,1,0,0:0:0:0:
256,192,347639,1,0,0:0:0:0:
256,192,347706,1,8,0:0:0:0:
256,192,347772,1,8,0:0:0:0:
256,192,347839,1,8,0:0:0:0:
256,192,347906,1,0,0:0:0:0:
256,192,347972,1,8,0:0:0:0:
256,192,348039,1,8,0:0:0:0:
256,192,348106,1,0,0:0:0:0:
256,192,348172,1,0,0:0:0:0:
256,192,348239,1,8,0:0:0:0:
256,192,348306,1,8,0:0:0:0:
256,192,348372,1,0,0:0:0:0:
256,192,348439,1,0,0:0:0:0:
256,192,348506,1,8,0:0:0:0:
256,192,348572,1,0,0:0:0:0:
256,192,348639,1,0,0:0:0:0:
256,192,348706,1,0,0:0:0:0:
256,192,348772,1,8,0:0:0:0:
256,192,348839,1,8,0:0:0:0:
256,192,348906,1,0,0:0:0:0:
256,192,348972,1,0,0:0:0:0:
256,192,349039,1,8,0:0:0:0:
256,192,349106,1,8,0:0:0:0:
256,192,349172,1,0,0:0:0:0:
256,192,349239,1,0,0:0:0:0:
256,192,349306,1,8,0:0:0:0:
256,192,349372,1,8,0:0:0:0:
256,192,349439,1,8,0:0:0:0:
256,192,349506,1,0,0:0:0:0:
256,192,349572,1,8,0:0:0:0:
256,192,349639,1,8,0:0:0:0:
256,192,349706,1,0,0:0:0:0:
256,192,349772,1,0,0:0:0:0:
256,192,349839,1,8,0:0:0:0:
256,192,349906,1,0,0:0:0:0:
256,192,349972,1,0,0:0:0:0:
256,192,350039,1,0,0:0:0:0:
256,192,350106,1,8,0:0:0:0:
256,192,350172,1,8,0:0:0:0:
256,192,350239,1,0,0:0:0:0:
256,192,350306,1,0,0:0:0:0:
256,192,350372,1,8,0:0:0:0:
256,192,350439,1,8,0:0:0:0:
256,192,350506,1,0,0:0:0:0:
256,192,350572,1,0,0:0:0:0:
256,192,350639,1,8,0:0:0:0:
256,192,350706,1,8,0:0:0:0:
256,192,350772,1,8,0:0:0:0:
256,192,350839,1,8,0:0:0:0:
256,192,350906,1,8,0:0:0:0:
256,192,350972,1,8,0:0:0:0:
256,192,351039,1,0,0:0:0:0:
256,192,351106,1,0,0:0:0:0:
256,192,351172,1,8,0:0:0:0:
256,192,351239,1,0,0:0:0:0:
256,192,351306,1,8,0:0:0:0:
256,192,351372,1,8,0:0:0:0:
256,192,351439,1,0,0:0:0:0:
256,192,351506,1,0,0:0:0:0:
256,192,351572,1,0,0:0:0:0:
256,192,351639,1,0,0:0:0:0:
256,192,351706,1,8,0:0:0:0:
256,192,351839,5,8,0:0:0:0:
256,192,351972,1,8,0:0:0:0:
256,192,352039,1,8,0:0:0:0:
256,192,352106,1,0,0:0:0:0:
256,192,352239,1,8,0:0:0:0:
256,192,352372,1,0,0:0:0:0:
256,192,352506,1,8,0:0:0:0:
256,192,352572,1,8,0:0:0:0:
256,192,352639,1,8,0:0:0:0:
256,192,352706,1,8,0:0:0:0:
256,192,352772,1,0,0:0:0:0:
256,192,352906,1,0,0:0:0:0:
256,192,353039,1,8,0:0:0:0:
256,192,353172,1,0,0:0:0:0:
256,192,353239,1,0,0:0:0:0:
256,192,353306,1,8,0:0:0:0:
256,192,353372,1,8,0:0:0:0:
256,192,353439,1,0,0:0:0:0:
256,192,353572,1,0,0:0:0:0:
256,192,353706,1,0,0:0:0:0:
256,192,353772,1,0,0:0:0:0:
256,192,353839,1,8,0:0:0:0:
256,192,353972,1,8,0:0:0:0:
256,192,354106,1,8,0:0:0:0:
256,192,354172,1,8,0:0:0:0:
256,192,354239,1,0,0:0:0:0:
256,192,354306,1,0,0:0:0:0:
256,192,354372,1,8,0:0:0:0:
256,192,354439,1,0,0:0:0:0:
256,192,354506,1,0,0:0:0:0:
256,192,354572,1,0,0:0:0:0:
256,192,354639,1,8,0:0:0:0:
256,192,354706,1,8,0:0:0:0:
256,192,354772,1,0,0:0:0:0:
256,192,354839,1,0,0:0:0:0:
256,192,354906,5,8,0:0:0:0:
256,192,354972,1,8,0:0:0:0:
256,192,355039,1,8,0:0:0:0:
256,192,355106,1,8,0:0:0:0:
256,192,355172,1,8,0:0:0:0:
256,192,355239,1,8,0:0:0:0:
256,192,355306,1,0,0:0:0:0:
256,192,355372,1,0,0:0:0:0:
256,192,355439,1,8,0:0:0:0:
256,192,355506,1,0,0:0:0:0:
256,192,355572,1,8,0:0:0:0:
256,192,355639,1,0,0:0:0:0:
256,192,355706,1,8,0:0:0:0:
256,192,355772,1,8,0:0:0:0:
256,192,355839,1,0,0:0:0:0:
256,192,355906,1,0,0:0:0:0:
256,192,355972,1,8,0:0:0:0:
256,192,356039,1,8,0:0:0:0:
256,192,356106,1,0,0:0:0:0:
256,192,356172,1,0,0:0:0:0:
256,192,356239,1,8,0:0:0:0:
256,192,356306,1,8,0:0:0:0:
256,192,356372,1,0,0:0:0:0:
256,192,356439,1,0,0:0:0:0:
256,192,356506,1,8,0:0:0:0:
256,192,356572,1,8,0:0:0:0:
256,192,356639,1,8,0:0:0:0:
256,192,356706,1,0,0:0:0:0:
256,192,356772,1,8,0:0:0:0:
256,192,356839,1,8,0:0:0:0:
256,192,356906,1,0,0:0:0:0:
256,192,356972,1,0,0:0:0:0:
256,192,357039,1,8,0:0:0:0:
256,192,357106,1,0,0:0:0:0:
256,192,357172,1,0,0:0:0:0:
256,192,357239,1,0,0:0:0:0:
256,192,357306,1,8,0:0:0:0:
256,192,357372,1,8,0:0:0:0:
256,192,357439,1,8,0:0:0:0:
256,192,357506,1,8,0:0:0:0:
256,192,357572,1,0,0:0:0:0:
256,192,357639,1,0,0:0:0:0:
256,192,357706,1,8,0:0:0:0:
256,192,357772,1,0,0:0:0:0:
256,192,357839,1,8,0:0:0:0:
256,192,357906,1,0,0:0:0:0:
256,192,357972,1,0,0:0:0:0:
256,192,358039,1,0,0:0:0:0:
256,192,358106,1,8,0:0:0:0:
256,192,358172,1,0,0:0:0:0:
256,192,358239,1,0,0:0:0:0:
256,192,358306,1,0,0:0:0:0:
256,192,358372,1,8,0:0:0:0:
256,192,358439,1,8,0:0:0:0:
256,192,358506,1,0,0:0:0:0:
256,192,358572,1,0,0:0:0:0:
256,192,358639,1,8,0:0:0:0:
256,192,358706,1,8,0:0:0:0:
256,192,358772,1,0,0:0:0:0:
256,192,358839,1,0,0:0:0:0:
256,192,358906,1,8,0:0:0:0:
256,192,358972,1,8,0:0:0:0:
256,192,359039,1,8,0:0:0:0:
256,192,359106,1,0,0:0:0:0:
256,192,359172,1,8,0:0:0:0:
256,192,359239,1,8,0:0:0:0:
256,192,359306,1,0,0:0:0:0:
256,192,359372,1,0,0:0:0:0:
256,192,359439,1,8,0:0:0:0:
256,192,359506,1,8,0:0:0:0:
256,192,359572,1,0,0:0:0:0:
256,192,359639,1,0,0:0:0:0:
256,192,359706,1,8,0:0:0:0:
256,192,359772,1,8,0:0:0:0:
256,192,359839,1,8,0:0:0:0:
256,192,359906,1,8,0:0:0:0:
256,192,359972,1,0,0:0:0:0:
256,192,360039,1,0,0:0:0:0:
256,192,360106,1,8,0:0:0:0:
256,192,360172,1,8,0:0:0:0:
256,192,360239,1,8,0:0:0:0:
256,192,360306,1,8,0:0:0:0:
256,192,360372,1,0,0:0:0:0:
256,192,360439,1,0,0:0:0:0:
256,192,360506,1,8,0:0:0:0:
256,192,360572,1,8,0:0:0:0:
256,192,360639,1,8,0:0:0:0:
256,192,360706,1,0,0:0:0:0:
256,192,360772,1,8,0:0:0:0:
256,192,360839,1,8,0:0:0:0:
256,192,360906,1,8,0:0:0:0:
256,192,360972,1,0,0:0:0:0:
256,192,361039,1,8,0:0:0:0:
256,192,361106,1,8,0:0:0:0:
256,192,361172,1,0,0:0:0:0:
256,192,361239,1,0,0:0:0:0:
256,192,361306,1,8,0:0:0:0:
256,192,361439,5,8,0:0:0:0:
256,192,361572,1,8,0:0:0:0:
256,192,361706,1,0,0:0:0:0:
256,192,361772,1,0,0:0:0:0:
256,192,361839,1,0,0:0:0:0:
256,192,361972,1,0,0:0:0:0:
256,192,362106,1,8,0:0:0:0:
256,192,362239,1,0,0:0:0:0:
256,192,362372,1,8,0:0:0:0:
256,192,362506,1,0,0:0:0:0:
256,192,362572,1,0,0:0:0:0:
256,192,362639,1,8,0:0:0:0:
256,192,362772,1,0,0:0:0:0:
256,192,362906,1,8,0:0:0:0:
256,192,363039,1,0,0:0:0:0:
256,192,363172,1,8,0:0:0:0:
256,192,363239,1,8,0:0:0:0:
256,192,363306,1,0,0:0:0:0:
256,192,363372,1,0,0:0:0:0:
256,192,363439,1,8,0:0:0:0:
256,192,363572,1,8,0:0:0:0:
256,192,363706,1,0,0:0:0:0:
256,192,363839,1,0,0:0:0:0:
256,192,363906,1,0,0:0:0:0:
256,192,363972,1,8,0:0:0:0:
256,192,364039,1,8,0:0:0:0:
256,192,364106,1,8,0:0:0:0:
256,192,364172,1,8,0:0:0:0:
256,192,364239,1,0,0:0:0:0:
256,192,364372,1,0,0:0:0:0:
256,192,364506,1,8,0:0:0:0:
256,192,364772,1,8,0:0:0:0:
256,192,364906,1,8,0:0:0:0:
256,192,365039,1,0,0:0:0:0:
256,192,365106,1,0,0:0:0:0:
256,192,365172,1,0,0:0:0:0:
256,192,365239,1,0,0:0:0:0:
256,192,365306,1,8,0:0:0:0:
256,192,365439,1,8,0:0:0:0:
256,192,365572,1,8,0:0:0:0:
256,192,365706,1,8,0:0:0:0:
256,192,365839,1,8,0:0:0:0:
256,192,365906,1,0,0:0:0:0:
256,192,365972,1,8,0:0:0:0:
256,192,366039,1,0,0:0:0:0:
256,192,366106,5,8,0:0:0:0:
256,192,366172,1,8,0:0:0:0:
256,192,366239,1,8,0:0:0:0:
256,192,366306,1,0,0:0:0:0:
256,192,366372,1,8,0:0:0:0:
256,192,366439,1,8,0:0:0:0:
256,192,366506,1,8,0:0:0:0:
256,192,366572,1,0,0:0:0:0:
256,192,366639,1,8,0:0:0:0:
256,192,366706,1,8,0:0:0:0:
256,192,366772,1,0,0:0:0:0:
256,192,366839,1,0,0:0:0:0:
256,192,366906,1,8,0:0:0:0:
256,192,366972,1,8,0:0:0:0:
256,192,367039,1,8,0:0:0:0:
256,192,367106,1,0,0:0:0:0:
256,192,367172,1,8,0:0:0:0:
256,192,367239,1,8,0:0:0:0:
256,192,367306,1,0,0:0:0:0:
256,192,367372,1,0,0:0:0:0:
256,192,367439,1,8,0:0:0:0:
256,192,367506,1,0,0:0:0:0:
256,192,367572,1,8,0:0:0:0:
256,192,367639,1,8,0:0:0:0:
256,192,367706,1,4,0:0:0:0:
256,192,368106,5,8,0:0:0:0:
256,192,368239,1,0,0:0:0:0:
256,192,368372,1,0,0:0:0:0:
256,192,368506,1,8,0:0:0:0:
256,192,368772,1,0,0:0:0:0:
256,192,368906,1,8,0:0:0:0:
256,192,369039,1,0,0:0:0:0:
256,192,369172,1,8,0:0:0:0:
256,192,369306,1,12,0:0:0:0:
256,192,369572,1,0,0:0:0:0:
256,192,369706,1,8,0:0:0:0:
256,192,369839,1,0,0:0:0:0:
256,192,369972,1,8,0:0:0:0:
256,192,370106,1,8,0:0:0:0:
256,192,370239,1,8,0:0:0:0:
256,192,370372,1,0,0:0:0:0:
256,192,370506,1,8,0:0:0:0:
256,192,370772,1,0,0:0:0:0:
256,192,370906,1,4,0:0:0:0:
256,192,371172,1,0,0:0:0:0:
256,192,371306,1,8,0:0:0:0:
256,192,371439,1,0,0:0:0:0:
256,192,371572,1,8,0:0:0:0:
256,192,371706,1,8,0:0:0:0:
256,192,371972,1,0,0:0:0:0:
256,192,372106,1,8,0:0:0:0:
256,192,372239,1,8,0:0:0:0:
256,192,372372,1,8,0:0:0:0:
256,192,372506,1,12,0:0:0:0:
256,192,372772,1,8,0:0:0:0:
256,192,372906,1,8,0:0:0:0:
256,192,373039,1,0,0:0:0:0:
256,192,373172,1,8,0:0:0:0:
256,192,373306,1,12,0:0:0:0:
256,192,373572,1,4,0:0:0:0:
256,192,373839,1,0,0:0:0:0:
256,192,374106,1,8,0:0:0:0:
256,192,374372,1,12,0:0:0:0:
256,192,374639,1,0,0:0:0:0:
256,192,374772,1,0,0:0:0:0:
256,192,374906,1,0,0:0:0:0:
256,192,375172,1,8,0:0:0:0:
256,192,375439,1,8,0:0:0:0:
256,192,375706,1,12,0:0:0:0:
256,192,375972,1,8,0:0:0:0:
256,192,376239,1,8,0:0:0:0:
256,192,376372,1,8,0:0:0:0:
256,192,376506,1,0,0:0:0:0:
256,192,376639,1,0,0:0:0:0:
256,192,376772,1,8,0:0:0:0:
256,192,377039,1,8,0:0:0:0:
256,192,377306,1,4,0:0:0:0:
256,192,377572,1,8,0:0:0:0:
256,192,377839,1,0,0:0:0:0:
256,192,377972,1,0,0:0:0:0:
256,192,378106,1,8,0:0:0:0:
256,192,378372,1,0,0:0:0:0:
256,192,378506,1,8,0:0:0:0:
256,192,378572,1,0,0:0:0:0:
256,192,378639,1,8,0:0:0:0:
256,192,378706,1,8,0:0:0:0:
256,192,378772,1,0,0:0:0:0:
256,192,378839,1,0,0:0:0:0:
256,192,378906,1,8,0:0:0:0:
256,192,378972,1,0,0:0:0:0:
256,192,379039,1,8,0:0:0:0:
256,192,379106,1,8,0:0:0:0:
256,192,379172,1,8,0:0:0:0:
256,192,379239,1,0,0:0:0:0:
256,192,379306,1,8,0:0:0:0:
256,192,379372,1,0,0:0:0:0:
256,192,379439,1,8,0:0:0:0:
256,192,379506,1,8,0:0:0:0:
256,192,379572,1,0,0:0:0:0:
256,192,379639,1,0,0:0:0:0:
256,192,379706,1,8,0:0:0:0:
256,192,379772,1,8,0:0:0:0:
256,192,379839,1,0,0:0:0:0:
256,192,379906,1,0,0:0:0:0:
256,192,379972,1,8,0:0:0:0:
256,192,380039,1,0,0:0:0:0:
256,192,380106,1,8,0:0:0:0:
256,192,380172,1,0,0:0:0:0:
256,192,380239,1,8,0:0:0:0:
256,192,380306,1,8,0:0:0:0:
256,192,380372,1,0,0:0:0:0:
256,192,380506,5,4,0:0:0:0:
256,192,380906,1,8,0:0:0:0:
256,192,381039,1,0,0:0:0:0:
256,192,381172,1,0,0:0:0:0:
256,192,381306,1,8,0:0:0:0:
256,192,381439,1,0,0:0:0:0:
256,192,381572,1,0,0:0:0:0:
256,192,381706,1,8,0:0:0:0:
256,192,381839,1,0,0:0:0:0:
256,192,381972,1,8,0:0:0:0:
256,192,382106,1,12,0:0:0:0:
256,192,382372,1,8,0:0:0:0:
256,192,382506,1,8,0:0:0:0:
256,192,382639,1,0,0:0:0:0:
256,192,382772,1,8,0:0:0:0:
256,192,382906,1,8,0:0:0:0:
256,192,383039,1,0,0:0:0:0:
256,192,383172,1,8,0:0:0:0:
256,192,383306,1,8,0:0:0:0:
256,192,383439,1,0,0:0:0:0:
256,192,383572,1,8,0:0:0:0:
256,192,383706,1,4,0:0:0:0:
256,192,384106,1,8,0:0:0:0:
256,192,384239,1,0,0:0:0:0:
256,192,384372,1,8,0:0:0:0:
256,192,384506,1,8,0:0:0:0:
256,192,384639,1,0,0:0:0:0:
256,192,384772,1,0,0:0:0:0:
256,192,384906,1,8,0:0:0:0:
256,192,385039,1,0,0:0:0:0:
256,192,385172,1,8,0:0:0:0:
256,192,385306,1,12,0:0:0:0:
256,192,385572,1,0,0:0:0:0:
256,192,385706,1,8,0:0:0:0:
256,192,385839,1,0,0:0:0:0:
256,192,385972,1,8,0:0:0:0:
256,192,386106,1,12,0:0:0:0:
256,192,386372,1,0,0:0:0:0:
256,192,386506,1,12,0:0:0:0:
256,192,386772,1,4,0:0:0:0:
256,192,387172,1,0,0:0:0:0:
256,192,387306,1,8,0:0:0:0:
256,192,387439,1,0,0:0:0:0:
256,192,387572,1,8,0:0:0:0:
256,192,387706,1,8,0:0:0:0:
256,192,387839,1,0,0:0:0:0:
256,192,387906,1,0,0:0:0:0:
256,192,387972,1,0,0:0:0:0:
256,192,388106,1,8,0:0:0:0:
256,192,388172,1,8,0:0:0:0:
256,192,388239,1,0,0:0:0:0:
256,192,388372,1,0,0:0:0:0:
256,192,388506,1,12,0:0:0:0:
256,192,388639,1,0,0:0:0:0:
256,192,388706,1,0,0:0:0:0:
256,192,388772,1,0,0:0:0:0:
256,192,388906,1,8,0:0:0:0:
256,192,388972,1,0,0:0:0:0:
256,192,389039,1,8,0:0:0:0:
256,192,389106,1,8,0:0:0:0:
256,192,389172,1,0,0:0:0:0:
256,192,389239,1,0,0:0:0:0:
256,192,389306,1,8,0:0:0:0:
256,192,389572,1,8,0:0:0:0:
256,192,389706,1,0,0:0:0:0:
256,192,389839,1,8,0:0:0:0:
256,192,389972,1,8,0:0:0:0:
256,192,390106,1,4,0:0:0:0:
256,192,390372,5,8,0:0:0:0:
256,192,390506,1,8,0:0:0:0:
256,192,390572,1,0,0:0:0:0:
256,192,390639,1,0,0:0:0:0:
256,192,390772,1,0,0:0:0:0:
256,192,390906,1,8,0:0:0:0:
256,192,390972,1,8,0:0:0:0:
256,192,391039,1,0,0:0:0:0:
256,192,391106,1,0,0:0:0:0:
256,192,391172,1,8,0:0:0:0:
256,192,391306,1,0,0:0:0:0:
256,192,391372,1,0,0:0:0:0:
256,192,391439,1,8,0:0:0:0:
256,192,391572,1,8,0:0:0:0:
256,192,391706,1,8,0:0:0:0:
256,192,391772,1,8,0:0:0:0:
256,192,391839,1,0,0:0:0:0:
256,192,391906,1,8,0:0:0:0:
256,192,391972,1,0,0:0:0:0:
256,192,392106,1,8,0:0:0:0:
256,192,392239,1,8,0:0:0:0:
256,192,392306,1,8,0:0:0:0:
256,192,392373,1,0,0:0:0:0:
256,192,392439,1,0,0:0:0:0:
256,192,392506,1,8,0:0:0:0:
256,192,392573,1,0,0:0:0:0:
256,192,392639,1,8,0:0:0:0:
256,192,392706,1,0,0:0:0:0:
256,192,392772,1,8,0:0:0:0:
256,192,392839,1,8,0:0:0:0:
256,192,392906,1,0,0:0:0:0:
256,192,392972,1,0,0:0:0:0:
256,192,393039,1,8,0:0:0:0:
256,192,393106,1,8,0:0:0:0:
256,192,393172,1,8,0:0:0:0:
256,192,393306,1,0,0:0:0:0:
256,192,406106,5,12,0:0:0:0:
256,192,406372,1,0,0:0:0:0:
256,192,406506,1,8,0:0:0:0:
256,192,406639,1,0,0:0:0:0:
256,192,406772,1,0,0:0:0:0:
256,192,406906,1,8,0:0:0:0:
256,192,407039,1,0,0:0:0:0:
256,192,407172,1,0,0:0:0:0:
256,192,407306,1,8,0:0:0:0:
256,192,407439,1,0,0:0:0:0:
256,192,407572,1,0,0:0:0:0:
256,192,407706,1,12,0:0:0:0:
256,192,407972,1,0,0:0:0:0:
256,192,408106,1,8,0:0:0:0:
256,192,408239,1,0,0:0:0:0:
256,192,408372,1,0,0:0:0:0:
256,192,408506,1,8,0:0:0:0:
256,192,408639,1,8,0:0:0:0:
256,192,408772,1,0,0:0:0:0:
256,192,408906,1,8,0:0:0:0:
256,192,409039,1,8,0:0:0:0:
256,192,409172,1,0,0:0:0:0:
256,192,409306,1,12,0:0:0:0:
256,192,409572,1,0,0:0:0:0:
256,192,409639,1,0,0:0:0:0:
256,192,409706,1,8,0:0:0:0:
256,192,409839,1,0,0:0:0:0:
256,192,409972,1,0,0:0:0:0:
256,192,410106,1,8,0:0:0:0:
256,192,410239,1,0,0:0:0:0:
256,192,410372,1,0,0:0:0:0:
256,192,410506,1,8,0:0:0:0:
256,192,410572,1,8,0:0:0:0:
256,192,410639,1,0,0:0:0:0:
256,192,410772,1,0,0:0:0:0:
256,192,410906,1,12,0:0:0:0:
256,192,411172,1,0,0:0:0:0:
256,192,411306,1,8,0:0:0:0:
256,192,411439,1,0,0:0:0:0:
256,192,411506,1,0,0:0:0:0:
256,192,411572,1,0,0:0:0:0:
256,192,411706,1,8,0:0:0:0:
256,192,411839,1,8,0:0:0:0:
256,192,411972,1,0,0:0:0:0:
256,192,412106,1,8,0:0:0:0:
256,192,412239,1,8,0:0:0:0:
256,192,412372,1,0,0:0:0:0:
256,192,412506,1,12,0:0:0:0:
256,192,412772,1,0,0:0:0:0:
256,192,412906,1,8,0:0:0:0:
256,192,413039,1,8,0:0:0:0:
256,192,413172,1,0,0:0:0:0:
256,192,413306,1,8,0:0:0:0:
256,192,413439,1,0,0:0:0:0:
256,192,413572,1,8,0:0:0:0:
256,192,413706,1,8,0:0:0:0:
256,192,413772,1,8,0:0:0:0:
256,192,413839,1,8,0:0:0:0:
256,192,413972,1,0,0:0:0:0:
256,192,414106,1,12,0:0:0:0:
256,192,414372,1,0,0:0:0:0:
256,192,414506,1,8,0:0:0:0:
256,192,414639,1,0,0:0:0:0:
256,192,414772,1,8,0:0:0:0:
256,192,414906,1,8,0:0:0:0:
256,192,415039,1,0,0:0:0:0:
256,192,415172,1,8,0:0:0:0:
256,192,415306,1,8,0:0:0:0:
256,192,415439,1,8,0:0:0:0:
256,192,415572,1,0,0:0:0:0:
256,192,415706,1,12,0:0:0:0:
256,192,415972,1,0,0:0:0:0:
256,192,416106,1,8,0:0:0:0:
256,192,416239,1,8,0:0:0:0:
256,192,416372,1,0,0:0:0:0:
256,192,416506,1,8,0:0:0:0:
256,192,416639,1,8,0:0:0:0:
256,192,416706,1,8,0:0:0:0:
256,192,416772,1,0,0:0:0:0:
256,192,416906,1,8,0:0:0:0:
256,192,417039,1,8,0:0:0:0:
256,192,417172,1,0,0:0:0:0:
256,192,417306,5,12,0:0:0:0:
256,192,417572,1,12,0:0:0:0:
256,192,417706,1,0,0:0:0:0:
256,192,417839,1,12,0:0:0:0:
256,192,417972,1,8,0:0:0:0:
256,192,418106,1,0,0:0:0:0:
256,192,418239,1,8,0:0:0:0:
256,192,418372,1,12,0:0:0:0:
256,192,418639,1,4,0:0:0:0:
256,192,418772,1,0,0:0:0:0:
256,192,418906,5,12,0:0:0:0:
256,192,419172,1,8,0:0:0:0:
256,192,419306,1,0,0:0:0:0:
256,192,419439,1,0,0:0:0:0:
256,192,419572,1,0,0:0:0:0:
256,192,419706,1,8,0:0:0:0:
256,192,419839,1,0,0:0:0:0:
256,192,419972,1,8,0:0:0:0:
256,192,420106,1,8,0:0:0:0:
256,192,420239,1,0,0:0:0:0:
256,192,420372,1,0,0:0:0:0:
256,192,420506,1,12,0:0:0:0:
256,192,420772,1,0,0:0:0:0:
256,192,420906,1,8,0:0:0:0:
256,192,421039,1,8,0:0:0:0:
256,192,421172,1,0,0:0:0:0:
256,192,421306,1,8,0:0:0:0:
256,192,421439,1,0,0:0:0:0:
256,192,421572,1,8,0:0:0:0:
256,192,421706,1,8,0:0:0:0:
256,192,421839,1,8,0:0:0:0:
256,192,421972,1,0,0:0:0:0:
256,192,422106,1,12,0:0:0:0:
256,192,422372,1,8,0:0:0:0:
256,192,422506,1,8,0:0:0:0:
256,192,422572,1,8,0:0:0:0:
256,192,422639,1,0,0:0:0:0:
256,192,422772,1,0,0:0:0:0:
256,192,422906,1,8,0:0:0:0:
256,192,423039,1,0,0:0:0:0:
256,192,423106,1,0,0:0:0:0:
256,192,423172,1,8,0:0:0:0:
256,192,423306,1,8,0:0:0:0:
256,192,423439,1,0,0:0:0:0:
256,192,423572,1,0,0:0:0:0:
256,192,423706,1,12,0:0:0:0:
256,192,423972,1,0,0:0:0:0:
256,192,424106,1,8,0:0:0:0:
256,192,424239,1,8,0:0:0:0:
256,192,424372,1,0,0:0:0:0:
256,192,424506,1,8,0:0:0:0:
256,192,424639,1,0,0:0:0:0:
256,192,424706,1,0,0:0:0:0:
256,192,424772,1,8,0:0:0:0:
256,192,424906,1,8,0:0:0:0:
256,192,425039,1,8,0:0:0:0:
256,192,425172,1,0,0:0:0:0:
256,192,425306,1,0,0:0:0:0:
256,192,425572,1,12,0:0:0:0:
256,192,425839,1,8,0:0:0:0:
256,192,425972,1,0,0:0:0:0:
256,192,426039,1,0,0:0:0:0:
256,192,426106,1,8,0:0:0:0:
256,192,426239,1,0,0:0:0:0:
256,192,426372,1,8,0:0:0:0:
256,192,426506,1,8,0:0:0:0:
256,192,426639,1,8,0:0:0:0:
256,192,426706,1,8,0:0:0:0:
256,192,426772,1,0,0:0:0:0:
256,192,426906,1,12,0:0:0:0:
256,192,427172,1,0,0:0:0:0:
256,192,427306,1,8,0:0:0:0:
256,192,427439,1,8,0:0:0:0:
256,192,427572,1,0,0:0:0:0:
256,192,427639,1,0,0:0:0:0:
256,192,427706,1,8,0:0:0:0:
256,192,427839,1,0,0:0:0:0:
256,192,427972,1,8,0:0:0:0:
256,192,428106,1,8,0:0:0:0:
256,192,428239,1,8,0:0:0:0:
256,192,428372,1,0,0:0:0:0:
256,192,428506,1,12,0:0:0:0:
256,192,428772,1,0,0:0:0:0:
256,192,428906,1,8,0:0:0:0:
256,192,429039,1,8,0:0:0:0:
256,192,429172,1,8,0:0:0:0:
256,192,429306,1,8,0:0:0:0:
256,192,429439,1,0,0:0:0:0:
256,192,429572,1,8,0:0:0:0:
256,192,429706,1,8,0:0:0:0:
256,192,429839,1,8,0:0:0:0:
256,192,429972,1,0,0:0:0:0:
256,192,430106,1,12,0:0:0:0:
256,192,430372,5,12,0:0:0:0:
256,192,430506,1,0,0:0:0:0:
256,192,430572,1,0,0:0:0:0:
256,192,430639,1,8,0:0:0:0:
256,192,430772,1,4,0:0:0:0:
256,192,430906,1,12,0:0:0:0:
256,192,431039,1,0,0:0:0:0:
256,192,431172,1,8,0:0:0:0:
256,192,431239,1,8,0:0:0:0:
256,192,431306,1,0,0:0:0:0:
256,192,431372,1,0,0:0:0:0:
256,192,431439,1,8,0:0:0:0:
256,192,431572,1,12,0:0:0:0:
256,192,431706,5,4,0:0:0:0:
256,192,431972,1,0,0:0:0:0:
256,192,432106,1,0,0:0:0:0:
256,192,432239,1,0,0:0:0:0:
256,192,432506,1,8,0:0:0:0:
256,192,432639,1,0,0:0:0:0:
256,192,432772,1,0,0:0:0:0:
256,192,433039,1,0,0:0:0:0:
256,192,433172,1,0,0:0:0:0:
256,192,433306,1,12,0:0:0:0:
256,192,433572,1,0,0:0:0:0:
256,192,433706,1,0,0:0:0:0:
256,192,433839,1,0,0:0:0:0:
256,192,433972,1,0,0:0:0:0:
256,192,434106,1,8,0:0:0:0:
256,192,434239,1,0,0:0:0:0:
256,192,434306,1,0,0:0:0:0:
256,192,434372,1,0,0:0:0:0:
256,192,434506,1,0,0:0:0:0:
256,192,434639,1,8,0:0:0:0:
256,192,434772,1,0,0:0:0:0:
256,192,434906,1,4,0:0:0:0:
256,192,435172,1,0,0:0:0:0:
256,192,435306,1,0,0:0:0:0:
256,192,435439,1,0,0:0:0:0:
256,192,435706,1,8,0:0:0:0:
256,192,435839,1,0,0:0:0:0:
256,192,435972,1,0,0:0:0:0:
256,192,436239,1,0,0:0:0:0:
256,192,436306,1,0,0:0:0:0:
256,192,436372,1,0,0:0:0:0:
256,192,436439,1,0,0:0:0:0:
256,192,436506,1,8,0:0:0:0:
256,192,436639,1,8,0:0:0:0:
256,192,436772,1,0,0:0:0:0:
256,192,436906,1,0,0:0:0:0:
256,192,437039,1,0,0:0:0:0:
256,192,437172,1,0,0:0:0:0:
256,192,437306,1,8,0:0:0:0:
256,192,437439,1,8,0:0:0:0:
256,192,437572,1,0,0:0:0:0:
256,192,437706,1,0,0:0:0:0:
256,192,437839,1,12,0:0:0:0:
256,192,438106,5,8,0:0:0:0:
256,192,438172,1,0,0:0:0:0:
256,192,438239,1,0,0:0:0:0:
256,192,438306,1,0,0:0:0:0:
256,192,438372,1,8,0:0:0:0:
256,192,438439,1,0,0:0:0:0:
256,192,438506,1,8,0:0:0:0:
256,192,438572,1,0,0:0:0:0:
256,192,438639,1,8,0:0:0:0:
256,192,438706,1,0,0:0:0:0:
256,192,438772,1,0,0:0:0:0:
256,192,438839,1,0,0:0:0:0:
256,192,438906,1,8,0:0:0:0:
256,192,438972,1,8,0:0:0:0:
256,192,439039,1,0,0:0:0:0:
256,192,439106,1,0,0:0:0:0:
256,192,439172,1,8,0:0:0:0:
256,192,439239,1,0,0:0:0:0:
256,192,439306,1,0,0:0:0:0:
256,192,439372,1,0,0:0:0:0:
256,192,439439,1,8,0:0:0:0:
256,192,439506,1,0,0:0:0:0:
256,192,439572,1,8,0:0:0:0:
256,192,439639,1,0,0:0:0:0:
256,192,439706,1,8,0:0:0:0:
256,192,439772,1,8,0:0:0:0:
256,192,439839,1,8,0:0:0:0:
256,192,439906,1,8,0:0:0:0:
256,192,439972,1,0,0:0:0:0:
256,192,440039,1,0,0:0:0:0:
256,192,440106,1,8,0:0:0:0:
256,192,440172,1,0,0:0:0:0:
256,192,440239,1,8,0:0:0:0:
256,192,440306,1,8,0:0:0:0:
256,192,440372,1,0,0:0:0:0:
256,192,440439,1,0,0:0:0:0:
256,192,440506,1,8,0:0:0:0:
256,192,440572,1,8,0:0:0:0:
256,192,440639,1,8,0:0:0:0:
256,192,440706,1,8,0:0:0:0:
256,192,440772,1,8,0:0:0:0:
256,192,440839,1,8,0:0:0:0:
256,192,440906,1,0,0:0:0:0:
256,192,440972,1,0,0:0:0:0:
256,192,441039,1,8,0:0:0:0:
256,192,441106,1,0,0:0:0:0:
256,192,441172,1,0,0:0:0:0:
256,192,441239,1,0,0:0:0:0:
256,192,441306,1,8,0:0:0:0:
256,192,441439,5,0,0:0:0:0:
256,192,441572,1,8,0:0:0:0:
256,192,441639,1,0,0:0:0:0:
256,192,441706,1,0,0:0:0:0:
256,192,441772,1,0,0:0:0:0:
256,192,441839,1,8,0:0:0:0:
256,192,441972,1,0,0:0:0:0:
256,192,442106,1,8,0:0:0:0:
256,192,442172,1,8,0:0:0:0:
256,192,442239,1,0,0:0:0:0:
256,192,442306,1,0,0:0:0:0:
256,192,442372,1,8,0:0:0:0:
256,192,442439,1,8,0:0:0:0:
256,192,442506,1,0,0:0:0:0:
256,192,442572,1,0,0:0:0:0:
256,192,442639,1,8,0:0:0:0:
256,192,442706,1,0,0:0:0:0:
256,192,442772,1,8,0:0:0:0:
256,192,442839,1,0,0:0:0:0:
256,192,442906,1,8,0:0:0:0:
