osu file format v14

[General]
AudioFilename: audio.mp3
AudioLeadIn: 0
PreviewTime: -1
Countdown: 0
SampleSet: None
StackLeniency: 0.8
Mode: 3
LetterboxInBreaks: 0
SpecialStyle: 1
WidescreenStoryboard: 0

[Editor]
DistanceSpacing: 0.8
BeatDivisor: 4
GridSize: 32
TimelineZoom: 2.3

[Metadata]
Title:In Aeternum
TitleUnicode:In Aeternum
Artist:Fleshgod Apocalypse
ArtistUnicode:Fleshgod Apocalypse
Creator:Herkkupala
Version:Evermore
Source:
Tags:the king nuclear blast records technical death metal
BeatmapID:1795993
BeatmapSetID:751362

[Difficulty]
HPDrainRate:8.6
CircleSize:4
OverallDifficulty:9
ApproachRate:5
SliderMultiplier:1.4
SliderTickRate:1

[Events]
//Background and Video events
0,0,"bg.png",0,0
//Break Periods
//Storyboard Layer 0 (Background)
//Storyboard Layer 1 (Fail)
//Storyboard Layer 2 (Pass)
//Storyboard Layer 3 (Foreground)
//Storyboard Sound Samples

[TimingPoints]
100,266.666667,4,3,0,30,1,0
38500,-100,4,3,0,30,0,1
50500,-100,4,3,0,30,0,0
75300,-100,4,3,0,30,0,1
76900,-100,4,3,0,30,0,0
78500,-100,4,3,0,30,0,1
80233,-100,4,3,0,30,0,0
84900,-100,4,3,0,30,0,1
85700,-100,4,3,0,30,0,0
86500,-100,4,3,0,30,0,1
92100,-100,4,3,0,30,0,0
92900,-100,4,3,0,30,0,1
98500,-100,4,3,0,30,0,0
124100,-100,4,3,0,30,0,1
149700,-100,4,3,0,30,0,0
161433,-100,4,3,0,30,0,1
169966,-100,4,3,0,30,0,0
183033,-100,4,3,0,30,0,1
184366,-100,4,3,0,30,0,0
185966,-100,4,3,0,30,0,1
187566,-100,4,3,0,30,0,0
189166,-100,4,3,0,30,0,1
190766,-100,4,3,0,30,0,0
192366,-100,4,3,0,30,0,1
193966,-100,4,3,0,30,0,0
213166,-100,4,3,0,30,0,1
214766,-100,4,3,0,30,0,0
216366,-100,4,3,0,30,0,1
217966,-100,4,3,0,30,0,0
219566,-100,4,3,0,30,0,1
221166,-100,4,3,0,30,0,0
222766,-100,4,3,0,30,0,1
224366,-100,4,3,0,30,0,0
249966,-100,4,3,0,30,0,1
275566,-100,4,3,0,30,0,0
288366,-100,4,3,0,30,0,1
313966,-100,4,3,0,30,0,0
320366,-100,4,3,0,30,0,1
325166,-100,4,3,0,30,0,0

[HitObjects]
64,192,100,5,0,0:0:0:0:
320,192,100,1,0,0:0:0:0:
448,192,100,1,0,0:0:0:0:
192,192,166,1,0,0:0:0:0:
448,192,233,1,0,0:0:0:0:
64,192,300,1,0,0:0:0:0:
320,192,366,1,0,0:0:0:0:
192,192,433,1,0,0:0:0:0:
320,192,500,1,0,0:0:0:0:
448,192,500,1,0,0:0:0:0:
64,192,566,1,0,0:0:0:0:
192,192,633,1,0,0:0:0:0:
448,192,633,1,0,0:0:0:0:
64,192,700,1,0,0:0:0:0:
320,192,766,1,0,0:0:0:0:
448,192,766,1,0,0:0:0:0:
192,192,833,1,0,0:0:0:0:
64,192,900,1,0,0:0:0:0:
320,192,900,1,0,0:0:0:0:
448,192,900,1,0,0:0:0:0:
192,192,966,1,0,0:0:0:0:
64,192,1033,1,0,0:0:0:0:
320,192,1100,1,0,0:0:0:0:
448,192,1166,1,0,0:0:0:0:
320,192,1233,1,0,0:0:0:0:
64,192,1300,1,0,0:0:0:0:
192,192,1300,1,0,0:0:0:0:
448,192,1366,1,0,0:0:0:0:
64,192,1433,1,0,0:0:0:0:
320,192,1433,1,0,0:0:0:0:
448,192,1500,1,0,0:0:0:0:
64,192,1566,1,0,0:0:0:0:
192,192,1566,1,0,0:0:0:0:
320,192,1633,1,0,0:0:0:0:
64,192,1700,1,0,0:0:0:0:
192,192,1700,1,0,0:0:0:0:
448,192,1700,1,0,0:0:0:0:
320,192,1766,1,0,0:0:0:0:
448,192,1833,1,0,0:0:0:0:
192,192,1900,1,0,0:0:0:0:
64,192,1966,1,0,0:0:0:0:
192,192,2033,1,0,0:0:0:0:
320,192,2100,1,0,0:0:0:0:
448,192,2100,1,0,0:0:0:0:
64,192,2166,1,0,0:0:0:0:
192,192,2233,1,0,0:0:0:0:
448,192,2233,1,0,0:0:0:0:
64,192,2300,1,0,0:0:0:0:
320,192,2366,1,0,0:0:0:0:
448,192,2366,1,0,0:0:0:0:
192,192,2433,1,0,0:0:0:0:
64,192,2500,1,0,0:0:0:0:
320,192,2500,1,0,0:0:0:0:
448,192,2500,1,0,0:0:0:0:
192,192,2566,1,0,0:0:0:0:
64,192,2633,1,0,0:0:0:0:
320,192,2700,1,0,0:0:0:0:
192,192,2766,1,0,0:0:0:0:
448,192,2833,1,0,0:0:0:0:
64,192,2900,1,0,0:0:0:0:
192,192,2900,1,0,0:0:0:0:
320,192,2900,1,0,0:0:0:0:
448,192,2966,1,0,0:0:0:0:
192,192,3033,1,0,0:0:0:0:
320,192,3100,1,0,0:0:0:0:
64,192,3166,1,0,0:0:0:0:
192,192,3233,1,0,0:0:0:0:
64,192,3300,1,0,0:0:0:0:
320,192,3300,1,0,0:0:0:0:
448,192,3300,1,0,0:0:0:0:
192,192,3366,1,0,0:0:0:0:
320,192,3433,1,0,0:0:0:0:
64,192,3500,1,0,0:0:0:0:
192,192,3566,1,0,0:0:0:0:
320,192,3633,1,0,0:0:0:0:
64,192,3700,1,0,0:0:0:0:
192,192,3700,1,0,0:0:0:0:
448,192,3766,1,0,0:0:0:0:
64,192,3833,1,0,0:0:0:0:
320,192,3833,1,0,0:0:0:0:
448,192,3900,1,0,0:0:0:0:
64,192,3966,1,0,0:0:0:0:
192,192,3966,1,0,0:0:0:0:
320,192,4033,1,0,0:0:0:0:
64,192,4100,1,0,0:0:0:0:
192,192,4100,1,0,0:0:0:0:
448,192,4100,1,0,0:0:0:0:
320,192,4166,1,0,0:0:0:0:
448,192,4233,1,0,0:0:0:0:
192,192,4300,1,0,0:0:0:0:
64,192,4366,1,0,0:0:0:0:
192,192,4433,1,0,0:0:0:0:
320,192,4500,1,0,0:0:0:0:
448,192,4500,1,0,0:0:0:0:
64,192,4566,1,0,0:0:0:0:
192,192,4633,1,0,0:0:0:0:
448,192,4633,1,0,0:0:0:0:
64,192,4700,1,0,0:0:0:0:
320,192,4766,1,0,0:0:0:0:
448,192,4766,1,0,0:0:0:0:
192,192,4833,1,0,0:0:0:0:
64,192,4900,1,0,0:0:0:0:
320,192,4900,1,0,0:0:0:0:
448,192,4900,1,0,0:0:0:0:
192,192,4966,1,0,0:0:0:0:
64,192,5033,1,0,0:0:0:0:
320,192,5100,1,0,0:0:0:0:
448,192,5166,1,0,0:0:0:0:
320,192,5233,1,0,0:0:0:0:
64,192,5300,1,0,0:0:0:0:
192,192,5300,1,0,0:0:0:0:
448,192,5366,1,0,0:0:0:0:
64,192,5433,1,0,0:0:0:0:
320,192,5433,1,0,0:0:0:0:
448,192,5500,1,0,0:0:0:0:
64,192,5566,1,0,0:0:0:0:
192,192,5566,1,0,0:0:0:0:
320,192,5633,1,0,0:0:0:0:
64,192,5700,1,0,0:0:0:0:
192,192,5700,1,0,0:0:0:0:
448,192,5700,1,0,0:0:0:0:
320,192,5766,1,0,0:0:0:0:
448,192,5833,1,0,0:0:0:0:
192,192,5900,1,0,0:0:0:0:
64,192,5966,1,0,0:0:0:0:
320,192,5966,1,0,0:0:0:0:
448,192,5966,1,0,0:0:0:0:
192,192,6033,1,0,0:0:0:0:
64,192,6100,1,0,0:0:0:0:
448,192,6166,1,0,0:0:0:0:
64,192,6233,1,0,0:0:0:0:
192,192,6233,1,0,0:0:0:0:
320,192,6233,1,0,0:0:0:0:
448,192,6300,1,0,0:0:0:0:
320,192,6366,1,0,0:0:0:0:
64,192,6433,1,0,0:0:0:0:
192,192,6500,1,0,0:0:0:0:
320,192,6500,1,0,0:0:0:0:
448,192,6500,1,0,0:0:0:0:
64,192,6566,1,0,0:0:0:0:
192,192,6633,1,0,0:0:0:0:
320,192,6700,1,0,0:0:0:0:
64,192,6766,1,0,0:0:0:0:
192,192,6833,1,0,0:0:0:0:
320,192,6900,1,0,0:0:0:0:
448,192,6900,1,0,0:0:0:0:
64,192,6966,1,0,0:0:0:0:
192,192,7033,1,0,0:0:0:0:
448,192,7033,1,0,0:0:0:0:
64,192,7100,1,0,0:0:0:0:
320,192,7166,1,0,0:0:0:0:
448,192,7166,1,0,0:0:0:0:
192,192,7233,1,0,0:0:0:0:
64,192,7300,1,0,0:0:0:0:
320,192,7300,1,0,0:0:0:0:
448,192,7300,1,0,0:0:0:0:
192,192,7366,1,0,0:0:0:0:
64,192,7433,1,0,0:0:0:0:
320,192,7500,1,0,0:0:0:0:
448,192,7566,1,0,0:0:0:0:
320,192,7633,1,0,0:0:0:0:
64,192,7700,1,0,0:0:0:0:
192,192,7700,1,0,0:0:0:0:
448,192,7766,1,0,0:0:0:0:
64,192,7833,1,0,0:0:0:0:
320,192,7833,1,0,0:0:0:0:
448,192,7900,1,0,0:0:0:0:
64,192,7966,1,0,0:0:0:0:
192,192,7966,1,0,0:0:0:0:
320,192,8033,1,0,0:0:0:0:
64,192,8100,1,0,0:0:0:0:
192,192,8100,1,0,0:0:0:0:
448,192,8100,1,0,0:0:0:0:
320,192,8166,1,0,0:0:0:0:
448,192,8233,1,0,0:0:0:0:
192,192,8300,1,0,0:0:0:0:
64,192,8366,1,0,0:0:0:0:
192,192,8433,1,0,0:0:0:0:
320,192,8500,1,0,0:0:0:0:
448,192,8500,1,0,0:0:0:0:
64,192,8566,1,0,0:0:0:0:
192,192,8633,1,0,0:0:0:0:
448,192,8633,1,0,0:0:0:0:
64,192,8700,1,0,0:0:0:0:
320,192,8766,1,0,0:0:0:0:
448,192,8766,1,0,0:0:0:0:
192,192,8833,1,0,0:0:0:0:
64,192,8900,1,0,0:0:0:0:
320,192,8900,1,0,0:0:0:0:
448,192,8900,1,0,0:0:0:0:
192,192,8966,1,0,0:0:0:0:
64,192,9033,1,0,0:0:0:0:
320,192,9100,1,0,0:0:0:0:
192,192,9166,1,0,0:0:0:0:
448,192,9233,1,0,0:0:0:0:
64,192,9300,1,0,0:0:0:0:
320,192,9300,1,0,0:0:0:0:
192,192,9366,1,0,0:0:0:0:
320,192,9433,1,0,0:0:0:0:
448,192,9433,1,0,0:0:0:0:
64,192,9500,1,0,0:0:0:0:
192,192,9566,1,0,0:0:0:0:
448,192,9566,1,0,0:0:0:0:
320,192,9633,1,0,0:0:0:0:
64,192,9700,1,0,0:0:0:0:
192,192,9700,1,0,0:0:0:0:
64,192,9833,1,0,0:0:0:0:
448,192,9833,1,0,0:0:0:0:
192,192,9966,1,0,0:0:0:0:
320,192,9966,1,0,0:0:0:0:
64,192,10100,1,0,0:0:0:0:
320,192,10100,1,0,0:0:0:0:
448,192,10100,1,0,0:0:0:0:
64,192,10233,1,0,0:0:0:0:
320,192,10233,1,0,0:0:0:0:
448,192,10233,1,0,0:0:0:0:
64,192,10366,1,0,0:0:0:0:
320,192,10366,1,0,0:0:0:0:
448,192,10366,1,0,0:0:0:0:
64,192,10500,1,0,0:0:0:0:
192,192,10500,1,0,0:0:0:0:
448,192,10500,1,0,0:0:0:0:
320,192,10633,1,0,0:0:0:0:
448,192,10633,1,0,0:0:0:0:
64,192,10766,1,0,0:0:0:0:
192,192,10766,1,0,0:0:0:0:
64,192,10900,1,0,0:0:0:0:
320,192,10900,1,0,0:0:0:0:
448,192,10900,1,0,0:0:0:0:
64,192,11033,1,0,0:0:0:0:
320,192,11033,1,0,0:0:0:0:
448,192,11033,1,0,0:0:0:0:
64,192,11166,1,0,0:0:0:0:
320,192,11166,1,0,0:0:0:0:
448,192,11166,1,0,0:0:0:0:
64,192,11300,1,0,0:0:0:0:
192,192,11300,1,0,0:0:0:0:
448,192,11300,1,0,0:0:0:0:
192,192,11433,1,0,0:0:0:0:
320,192,11433,1,0,0:0:0:0:
320,192,11566,1,0,0:0:0:0:
448,192,11566,1,0,0:0:0:0:
64,192,11700,1,0,0:0:0:0:
192,192,11700,1,0,0:0:0:0:
448,192,11700,1,0,0:0:0:0:
192,192,11833,1,0,0:0:0:0:
320,192,11833,1,0,0:0:0:0:
448,192,11833,1,0,0:0:0:0:
64,192,11966,1,0,0:0:0:0:
320,192,11966,1,0,0:0:0:0:
448,192,11966,1,0,0:0:0:0:
64,192,12100,1,0,0:0:0:0:
192,192,12100,1,0,0:0:0:0:
448,192,12166,1,0,0:0:0:0:
320,192,12233,1,0,0:0:0:0:
64,192,12300,1,0,0:0:0:0:
192,192,12366,1,0,0:0:0:0:
320,192,12366,1,0,0:0:0:0:
448,192,12433,1,0,0:0:0:0:
192,192,12500,1,0,0:0:0:0:
64,192,12566,1,0,0:0:0:0:
320,192,12633,1,0,0:0:0:0:
448,192,12633,1,0,0:0:0:0:
192,192,12700,1,0,0:0:0:0:
320,192,12766,1,0,0:0:0:0:
192,192,12833,1,0,0:0:0:0:
64,192,12900,1,0,0:0:0:0:
320,192,12900,1,0,0:0:0:0:
448,192,12900,1,0,0:0:0:0:
192,192,12966,1,0,0:0:0:0:
64,192,13033,1,0,0:0:0:0:
320,192,13100,1,0,0:0:0:0:
192,192,13166,1,0,0:0:0:0:
64,192,13233,1,0,0:0:0:0:
320,192,13300,1,0,0:0:0:0:
448,192,13300,1,0,0:0:0:0:
64,192,13366,1,0,0:0:0:0:
192,192,13433,1,0,0:0:0:0:
448,192,13433,1,0,0:0:0:0:
64,192,13500,1,0,0:0:0:0:
320,192,13566,1,0,0:0:0:0:
448,192,13566,1,0,0:0:0:0:
192,192,13633,1,0,0:0:0:0:
64,192,13700,1,0,0:0:0:0:
320,192,13700,1,0,0:0:0:0:
448,192,13700,1,0,0:0:0:0:
192,192,13766,1,0,0:0:0:0:
64,192,13833,1,0,0:0:0:0:
320,192,13900,1,0,0:0:0:0:
448,192,13966,1,0,0:0:0:0:
320,192,14033,1,0,0:0:0:0:
64,192,14100,1,0,0:0:0:0:
192,192,14100,1,0,0:0:0:0:
448,192,14166,1,0,0:0:0:0:
64,192,14233,1,0,0:0:0:0:
320,192,14233,1,0,0:0:0:0:
448,192,14300,1,0,0:0:0:0:
64,192,14366,1,0,0:0:0:0:
192,192,14366,1,0,0:0:0:0:
320,192,14433,1,0,0:0:0:0:
64,192,14500,1,0,0:0:0:0:
192,192,14500,1,0,0:0:0:0:
448,192,14500,1,0,0:0:0:0:
320,192,14566,1,0,0:0:0:0:
448,192,14633,1,0,0:0:0:0:
192,192,14700,1,0,0:0:0:0:
64,192,14766,1,0,0:0:0:0:
192,192,14833,1,0,0:0:0:0:
320,192,14900,1,0,0:0:0:0:
448,192,14900,1,0,0:0:0:0:
64,192,14966,1,0,0:0:0:0:
192,192,15033,1,0,0:0:0:0:
448,192,15033,1,0,0:0:0:0:
64,192,15100,1,0,0:0:0:0:
320,192,15166,1,0,0:0:0:0:
448,192,15166,1,0,0:0:0:0:
192,192,15233,1,0,0:0:0:0:
64,192,15300,1,0,0:0:0:0:
320,192,15300,1,0,0:0:0:0:
448,192,15300,1,0,0:0:0:0:
192,192,15366,1,0,0:0:0:0:
320,192,15433,1,0,0:0:0:0:
64,192,15500,1,0,0:0:0:0:
448,192,15566,1,0,0:0:0:0:
320,192,15633,1,0,0:0:0:0:
64,192,15700,1,0,0:0:0:0:
192,192,15700,1,0,0:0:0:0:
448,192,15700,1,0,0:0:0:0:
320,192,15766,1,0,0:0:0:0:
64,192,15833,1,0,0:0:0:0:
448,192,15900,1,0,0:0:0:0:
192,192,15966,1,0,0:0:0:0:
64,192,16033,1,0,0:0:0:0:
192,192,16100,1,0,0:0:0:0:
320,192,16100,1,0,0:0:0:0:
448,192,16100,1,0,0:0:0:0:
64,192,16166,1,0,0:0:0:0:
320,192,16233,1,0,0:0:0:0:
192,192,16300,1,0,0:0:0:0:
448,192,16366,1,0,0:0:0:0:
320,192,16433,1,0,0:0:0:0:
64,192,16500,1,0,0:0:0:0:
192,192,16500,1,0,0:0:0:0:
448,192,16566,1,0,0:0:0:0:
64,192,16633,1,0,0:0:0:0:
192,192,16633,1,0,0:0:0:0:
320,192,16700,1,0,0:0:0:0:
64,192,16766,1,0,0:0:0:0:
192,192,16766,1,0,0:0:0:0:
448,192,16833,1,0,0:0:0:0:
64,192,16900,1,0,0:0:0:0:
192,192,16900,1,0,0:0:0:0:
320,192,16900,1,0,0:0:0:0:
448,192,16966,1,0,0:0:0:0:
320,192,17033,1,0,0:0:0:0:
64,192,17100,1,0,0:0:0:0:
192,192,17166,1,0,0:0:0:0:
320,192,17166,1,0,0:0:0:0:
448,192,17166,1,0,0:0:0:0:
64,192,17233,1,0,0:0:0:0:
192,192,17300,1,0,0:0:0:0:
320,192,17366,1,0,0:0:0:0:
64,192,17433,1,0,0:0:0:0:
192,192,17433,1,0,0:0:0:0:
448,192,17433,1,0,0:0:0:0:
320,192,17500,1,0,0:0:0:0:
64,192,17566,1,0,0:0:0:0:
192,192,17566,1,0,0:0:0:0:
448,192,17566,1,0,0:0:0:0:
320,192,17633,1,0,0:0:0:0:
64,192,17700,1,0,0:0:0:0:
192,192,17700,1,0,0:0:0:0:
448,192,17700,1,0,0:0:0:0:
320,192,17766,1,0,0:0:0:0:
64,192,17833,1,0,0:0:0:0:
192,192,17900,1,0,0:0:0:0:
320,192,17966,1,0,0:0:0:0:
448,192,17966,1,0,0:0:0:0:
192,192,18033,1,0,0:0:0:0:
320,192,18100,1,0,0:0:0:0:
448,192,18166,1,0,0:0:0:0:
64,192,18233,1,0,0:0:0:0:
320,192,18233,1,0,0:0:0:0:
192,192,18300,1,0,0:0:0:0:
64,192,18366,1,0,0:0:0:0:
448,192,18366,1,0,0:0:0:0:
320,192,18433,1,0,0:0:0:0:
64,192,18500,1,0,0:0:0:0:
192,192,18500,1,0,0:0:0:0:
320,192,18566,1,0,0:0:0:0:
448,192,18633,1,0,0:0:0:0:
192,192,18700,1,0,0:0:0:0:
320,192,18766,1,0,0:0:0:0:
64,192,18833,1,0,0:0:0:0:
320,192,18900,1,0,0:0:0:0:
448,192,18966,1,0,0:0:0:0:
192,192,19033,1,0,0:0:0:0:
64,192,19100,1,0,0:0:0:0:
448,192,19166,1,0,0:0:0:0:
320,192,19233,1,0,0:0:0:0:
64,192,19300,1,0,0:0:0:0:
192,192,19300,1,0,0:0:0:0:
448,192,19300,1,0,0:0:0:0:
320,192,19433,1,0,0:0:0:0:
448,192,19433,1,0,0:0:0:0:
64,192,19566,1,0,0:0:0:0:
320,192,19566,1,0,0:0:0:0:
64,192,19700,1,0,0:0:0:0:
192,192,19700,1,0,0:0:0:0:
448,192,19700,1,0,0:0:0:0:
64,192,19833,1,0,0:0:0:0:
192,192,19833,1,0,0:0:0:0:
448,192,19833,1,0,0:0:0:0:
64,192,19966,1,0,0:0:0:0:
192,192,19966,1,0,0:0:0:0:
448,192,19966,1,0,0:0:0:0:
64,192,20100,1,0,0:0:0:0:
320,192,20100,1,0,0:0:0:0:
448,192,20100,1,0,0:0:0:0:
192,192,20233,1,0,0:0:0:0:
320,192,20233,1,0,0:0:0:0:
192,192,20366,1,0,0:0:0:0:
448,192,20366,1,0,0:0:0:0:
64,192,20500,1,0,0:0:0:0:
320,192,20500,1,0,0:0:0:0:
448,192,20500,1,0,0:0:0:0:
64,192,20633,1,0,0:0:0:0:
320,192,20633,1,0,0:0:0:0:
448,192,20633,1,0,0:0:0:0:
64,192,20766,1,0,0:0:0:0:
320,192,20766,1,0,0:0:0:0:
448,192,20766,1,0,0:0:0:0:
64,192,20900,1,0,0:0:0:0:
192,192,20900,1,0,0:0:0:0:
448,192,20900,1,0,0:0:0:0:
192,192,21033,1,0,0:0:0:0:
320,192,21033,1,0,0:0:0:0:
64,192,21166,1,0,0:0:0:0:
448,192,21166,1,0,0:0:0:0:
192,192,21300,1,0,0:0:0:0:
320,192,21300,1,0,0:0:0:0:
448,192,21300,1,0,0:0:0:0:
192,192,21433,1,0,0:0:0:0:
320,192,21433,1,0,0:0:0:0:
448,192,21433,1,0,0:0:0:0:
192,192,21566,1,0,0:0:0:0:
320,192,21566,1,0,0:0:0:0:
448,192,21566,1,0,0:0:0:0:
64,192,21700,1,0,0:0:0:0:
320,192,21700,1,0,0:0:0:0:
448,192,21700,1,0,0:0:0:0:
192,192,21833,1,0,0:0:0:0:
320,192,21833,1,0,0:0:0:0:
192,192,21966,1,0,0:0:0:0:
448,192,21966,1,0,0:0:0:0:
64,192,22100,1,0,0:0:0:0:
320,192,22100,1,0,0:0:0:0:
448,192,22100,1,0,0:0:0:0:
192,192,22233,1,0,0:0:0:0:
320,192,22233,1,0,0:0:0:0:
448,192,22233,1,0,0:0:0:0:
64,192,22366,1,0,0:0:0:0:
320,192,22366,1,0,0:0:0:0:
448,192,22366,1,0,0:0:0:0:
64,192,22500,1,0,0:0:0:0:
192,192,22500,1,0,0:0:0:0:
448,192,22500,1,0,0:0:0:0:
320,192,22566,1,0,0:0:0:0:
192,192,22633,1,0,0:0:0:0:
448,192,22700,1,0,0:0:0:0:
64,192,22766,1,0,0:0:0:0:
192,192,22833,1,0,0:0:0:0:
320,192,22900,1,0,0:0:0:0:
448,192,22900,1,0,0:0:0:0:
64,192,22966,1,0,0:0:0:0:
192,192,23033,1,0,0:0:0:0:
448,192,23100,1,0,0:0:0:0:
320,192,23166,1,0,0:0:0:0:
448,192,23233,1,0,0:0:0:0:
64,192,23300,1,0,0:0:0:0:
192,192,23300,1,0,0:0:0:0:
320,192,23300,1,0,0:0:0:0:
64,192,23433,1,0,0:0:0:0:
192,192,23433,1,0,0:0:0:0:
448,192,23433,1,0,0:0:0:0:
64,192,23566,1,0,0:0:0:0:
192,192,23566,1,0,0:0:0:0:
448,192,23566,1,0,0:0:0:0:
64,192,23700,1,0,0:0:0:0:
192,192,23700,1,0,0:0:0:0:
448,192,23700,1,0,0:0:0:0:
64,192,23833,1,0,0:0:0:0:
320,192,23833,1,0,0:0:0:0:
448,192,23833,1,0,0:0:0:0:
192,192,23900,1,0,0:0:0:0:
320,192,23966,1,0,0:0:0:0:
64,192,24033,1,0,0:0:0:0:
448,192,24100,1,0,0:0:0:0:
192,192,24166,1,0,0:0:0:0:
320,192,24233,1,0,0:0:0:0:
64,192,24300,1,0,0:0:0:0:
448,192,24366,1,0,0:0:0:0:
320,192,24433,1,0,0:0:0:0:
64,192,24500,1,0,0:0:0:0:
192,192,24500,1,0,0:0:0:0:
448,192,24566,1,0,0:0:0:0:
320,192,24633,1,0,0:0:0:0:
192,192,24700,1,0,0:0:0:0:
320,192,24766,1,0,0:0:0:0:
192,192,24833,1,0,0:0:0:0:
64,192,24900,1,0,0:0:0:0:
448,192,24900,1,0,0:0:0:0:
320,192,24966,1,0,0:0:0:0:
192,192,25033,1,0,0:0:0:0:
320,192,25100,1,0,0:0:0:0:
448,192,25166,1,0,0:0:0:0:
320,192,25233,1,0,0:0:0:0:
64,192,25300,1,0,0:0:0:0:
192,192,25300,1,0,0:0:0:0:
448,192,25300,1,0,0:0:0:0:
64,192,25433,1,0,0:0:0:0:
192,192,25433,1,0,0:0:0:0:
320,192,25433,1,0,0:0:0:0:
64,192,25566,1,0,0:0:0:0:
192,192,25566,1,0,0:0:0:0:
448,192,25566,1,0,0:0:0:0:
64,192,25700,128,0,27300:0:0:0:0:
192,192,25700,1,0,0:0:0:0:
320,192,25700,1,0,0:0:0:0:
192,192,26100,1,0,0:0:0:0:
448,192,26100,1,0,0:0:0:0:
192,192,26900,1,0,0:0:0:0:
448,192,26900,1,0,0:0:0:0:
192,192,27300,1,0,0:0:0:0:
448,192,27300,1,0,0:0:0:0:
320,192,27366,1,0,0:0:0:0:
192,192,27433,1,0,0:0:0:0:
320,192,27500,1,0,0:0:0:0:
64,192,27566,1,0,0:0:0:0:
192,192,27633,1,0,0:0:0:0:
64,192,27700,1,0,0:0:0:0:
320,192,27700,1,0,0:0:0:0:
448,192,27700,1,0,0:0:0:0:
64,192,27833,1,0,0:0:0:0:
320,192,27833,1,0,0:0:0:0:
448,192,27833,1,0,0:0:0:0:
64,192,27966,1,0,0:0:0:0:
320,192,27966,1,0,0:0:0:0:
448,192,27966,1,0,0:0:0:0:
64,192,28100,1,0,0:0:0:0:
192,192,28100,1,0,0:0:0:0:
448,192,28100,1,0,0:0:0:0:
320,192,28166,1,0,0:0:0:0:
192,192,28233,1,0,0:0:0:0:
320,192,28300,1,0,0:0:0:0:
64,192,28366,1,0,0:0:0:0:
192,192,28433,1,0,0:0:0:0:
64,192,28500,1,0,0:0:0:0:
320,192,28500,1,0,0:0:0:0:
448,192,28500,1,0,0:0:0:0:
64,192,28633,1,0,0:0:0:0:
320,192,28633,1,0,0:0:0:0:
448,192,28633,1,0,0:0:0:0:
64,192,28766,1,0,0:0:0:0:
320,192,28766,1,0,0:0:0:0:
448,192,28766,1,0,0:0:0:0:
192,192,28900,128,0,28933:0:0:0:0:
320,192,29033,128,0,29066:0:0:0:0:
192,192,29166,128,0,29200:0:0:0:0:
64,192,29300,128,0,29333:0:0:0:0:
320,192,29433,128,0,29466:0:0:0:0:
64,192,29566,128,0,29600:0:0:0:0:
448,192,29700,128,0,29733:0:0:0:0:
192,192,29833,128,0,29866:0:0:0:0:
448,192,29966,128,0,30000:0:0:0:0:
64,192,30100,128,0,30233:0:0:0:0:
64,192,30366,1,0,0:0:0:0:
64,192,30500,1,0,0:0:0:0:
320,192,30500,1,0,0:0:0:0:
448,192,30500,1,0,0:0:0:0:
192,192,30566,1,0,0:0:0:0:
320,192,30633,1,0,0:0:0:0:
192,192,30700,1,0,0:0:0:0:
448,192,30766,1,0,0:0:0:0:
320,192,30833,1,0,0:0:0:0:
64,192,30900,1,0,0:0:0:0:
192,192,30900,1,0,0:0:0:0:
448,192,30900,1,0,0:0:0:0:
64,192,31033,1,0,0:0:0:0:
192,192,31033,1,0,0:0:0:0:
448,192,31033,1,0,0:0:0:0:
64,192,31166,1,0,0:0:0:0:
192,192,31166,1,0,0:0:0:0:
448,192,31166,1,0,0:0:0:0:
64,192,31300,1,0,0:0:0:0:
320,192,31300,1,0,0:0:0:0:
448,192,31300,1,0,0:0:0:0:
192,192,31433,1,0,0:0:0:0:
448,192,31433,1,0,0:0:0:0:
192,192,31566,1,0,0:0:0:0:
320,192,31566,1,0,0:0:0:0:
192,192,31700,1,0,0:0:0:0:
448,192,31700,1,0,0:0:0:0:
448,192,31833,1,0,0:0:0:0:
320,192,31900,1,0,0:0:0:0:
64,192,31966,1,0,0:0:0:0:
192,192,32033,1,0,0:0:0:0:
64,192,32100,1,0,0:0:0:0:
320,192,32100,1,0,0:0:0:0:
448,192,32100,1,0,0:0:0:0:
192,192,32233,1,0,0:0:0:0:
448,192,32233,1,0,0:0:0:0:
320,192,32366,1,0,0:0:0:0:
64,192,32500,1,0,0:0:0:0:
192,192,32500,1,0,0:0:0:0:
448,192,32500,1,0,0:0:0:0:
64,192,32633,1,0,0:0:0:0:
320,192,32633,1,0,0:0:0:0:
192,192,32766,1,0,0:0:0:0:
64,192,32900,1,0,0:0:0:0:
320,192,32900,1,0,0:0:0:0:
448,192,32900,1,0,0:0:0:0:
192,192,33033,1,0,0:0:0:0:
448,192,33033,1,0,0:0:0:0:
320,192,33166,1,0,0:0:0:0:
64,192,33300,1,0,0:0:0:0:
192,192,33300,128,0,33700:0:0:0:0:
448,192,33300,1,0,0:0:0:0:
320,192,33433,1,0,0:0:0:0:
64,192,33700,1,0,0:0:0:0:
320,192,33700,1,0,0:0:0:0:
448,192,33700,1,0,0:0:0:0:
64,192,33833,1,0,0:0:0:0:
320,192,33833,1,0,0:0:0:0:
448,192,33833,1,0,0:0:0:0:
64,192,33966,1,0,0:0:0:0:
320,192,33966,1,0,0:0:0:0:
448,192,33966,1,0,0:0:0:0:
192,192,34100,1,0,0:0:0:0:
320,192,34100,1,0,0:0:0:0:
192,192,34233,1,0,0:0:0:0:
320,192,34233,1,0,0:0:0:0:
192,192,34366,1,0,0:0:0:0:
320,192,34366,1,0,0:0:0:0:
64,192,34500,1,0,0:0:0:0:
192,192,34500,1,0,0:0:0:0:
448,192,34500,1,0,0:0:0:0:
64,192,34633,1,0,0:0:0:0:
192,192,34633,1,0,0:0:0:0:
448,192,34633,1,0,0:0:0:0:
64,192,34766,1,0,0:0:0:0:
192,192,34766,1,0,0:0:0:0:
448,192,34766,1,0,0:0:0:0:
192,192,34900,1,0,0:0:0:0:
320,192,34900,1,0,0:0:0:0:
192,192,35033,1,0,0:0:0:0:
320,192,35033,1,0,0:0:0:0:
192,192,35166,1,0,0:0:0:0:
320,192,35166,1,0,0:0:0:0:
64,192,35300,1,0,0:0:0:0:
320,192,35300,1,0,0:0:0:0:
448,192,35300,1,0,0:0:0:0:
192,192,35433,1,0,0:0:0:0:
320,192,35566,1,0,0:0:0:0:
64,192,35700,1,0,0:0:0:0:
192,192,35700,1,0,0:0:0:0:
448,192,35833,1,0,0:0:0:0:
64,192,35966,1,0,0:0:0:0:
320,192,36100,1,0,0:0:0:0:
448,192,36100,1,0,0:0:0:0:
192,192,36233,1,0,0:0:0:0:
448,192,36366,1,0,0:0:0:0:
320,192,36433,1,0,0:0:0:0:
64,192,36500,1,0,0:0:0:0:
192,192,36500,1,0,0:0:0:0:
448,192,36566,1,0,0:0:0:0:
64,192,36633,1,0,0:0:0:0:
320,192,36633,1,0,0:0:0:0:
192,192,36700,1,0,0:0:0:0:
320,192,36766,1,0,0:0:0:0:
448,192,36766,1,0,0:0:0:0:
64,192,36833,1,0,0:0:0:0:
192,192,36833,1,0,0:0:0:0:
320,192,36900,1,0,0:0:0:0:
448,192,36900,128,0,37300:0:0:0:0:
64,192,37300,1,0,0:0:0:0:
192,192,37300,1,0,0:0:0:0:
64,192,37433,1,0,0:0:0:0:
192,192,37433,1,0,0:0:0:0:
64,192,37566,1,0,0:0:0:0:
192,192,37566,1,0,0:0:0:0:
448,192,37700,1,0,0:0:0:0:
64,192,37833,1,0,0:0:0:0:
64,192,37966,1,0,0:0:0:0:
64,192,38100,1,0,0:0:0:0:
448,192,38233,1,0,0:0:0:0:
448,192,38366,1,0,0:0:0:0:
64,192,38500,1,0,0:0:0:0:
192,192,38500,1,0,0:0:0:0:
448,192,38500,1,0,0:0:0:0:
320,192,38566,1,0,0:0:0:0:
64,192,38633,1,0,0:0:0:0:
192,192,38633,1,0,0:0:0:0:
448,192,38700,1,0,0:0:0:0:
320,192,38766,1,0,0:0:0:0:
192,192,38833,1,0,0:0:0:0:
320,192,38900,1,0,0:0:0:0:
448,192,38900,1,0,0:0:0:0:
64,192,38966,1,0,0:0:0:0:
192,192,39033,1,0,0:0:0:0:
448,192,39033,1,0,0:0:0:0:
320,192,39100,1,0,0:0:0:0:
64,192,39166,1,0,0:0:0:0:
192,192,39166,1,0,0:0:0:0:
448,192,39233,1,0,0:0:0:0:
64,192,39300,1,0,0:0:0:0:
192,192,39300,1,0,0:0:0:0:
320,192,39300,1,0,0:0:0:0:
448,192,39366,1,0,0:0:0:0:
320,192,39433,1,0,0:0:0:0:
64,192,39500,1,0,0:0:0:0:
192,192,39566,1,0,0:0:0:0:
448,192,39633,1,0,0:0:0:0:
64,192,39700,1,0,0:0:0:0:
320,192,39700,1,0,0:0:0:0:
192,192,39766,1,0,0:0:0:0:
320,192,39833,1,0,0:0:0:0:
448,192,39833,1,0,0:0:0:0:
64,192,39900,1,0,0:0:0:0:
192,192,39966,1,0,0:0:0:0:
448,192,39966,1,0,0:0:0:0:
320,192,40033,1,0,0:0:0:0:
64,192,40100,1,0,0:0:0:0:
192,192,40100,1,0,0:0:0:0:
320,192,40166,1,0,0:0:0:0:
448,192,40166,1,0,0:0:0:0:
64,192,40233,1,0,0:0:0:0:
192,192,40233,1,0,0:0:0:0:
320,192,40300,1,0,0:0:0:0:
448,192,40300,1,0,0:0:0:0:
64,192,40366,1,0,0:0:0:0:
192,192,40366,1,0,0:0:0:0:
320,192,40433,1,0,0:0:0:0:
448,192,40433,1,0,0:0:0:0:
64,192,40500,1,0,0:0:0:0:
192,192,40500,1,0,0:0:0:0:
448,192,40566,1,0,0:0:0:0:
192,192,40633,1,0,0:0:0:0:
320,192,40633,1,0,0:0:0:0:
64,192,40700,1,0,0:0:0:0:
320,192,40766,1,0,0:0:0:0:
448,192,40766,1,0,0:0:0:0:
192,192,40833,1,0,0:0:0:0:
64,192,40900,1,0,0:0:0:0:
448,192,40900,1,0,0:0:0:0:
192,192,40966,1,0,0:0:0:0:
320,192,40966,1,0,0:0:0:0:
64,192,41033,1,0,0:0:0:0:
448,192,41033,1,0,0:0:0:0:
192,192,41100,1,0,0:0:0:0:
320,192,41100,1,0,0:0:0:0:
64,192,41166,1,0,0:0:0:0:
448,192,41166,1,0,0:0:0:0:
192,192,41233,1,0,0:0:0:0:
320,192,41233,1,0,0:0:0:0:
64,192,41300,1,0,0:0:0:0:
448,192,41300,1,0,0:0:0:0:
320,192,41366,1,0,0:0:0:0:
64,192,41433,1,0,0:0:0:0:
192,192,41433,1,0,0:0:0:0:
448,192,41500,1,0,0:0:0:0:
192,192,41566,1,0,0:0:0:0:
320,192,41566,1,0,0:0:0:0:
64,192,41633,1,0,0:0:0:0:
192,192,41700,1,0,0:0:0:0:
320,192,41700,1,0,0:0:0:0:
448,192,41700,1,0,0:0:0:0:
64,192,41766,1,0,0:0:0:0:
192,192,41833,1,0,0:0:0:0:
448,192,41900,1,0,0:0:0:0:
320,192,41966,1,0,0:0:0:0:
192,192,42033,1,0,0:0:0:0:
64,192,42100,1,0,0:0:0:0:
448,192,42100,1,0,0:0:0:0:
320,192,42166,1,0,0:0:0:0:
64,192,42233,1,0,0:0:0:0:
192,192,42233,1,0,0:0:0:0:
320,192,42300,1,0,0:0:0:0:
192,192,42366,1,0,0:0:0:0:
448,192,42366,1,0,0:0:0:0:
64,192,42433,1,0,0:0:0:0:
192,192,42500,1,0,0:0:0:0:
320,192,42500,1,0,0:0:0:0:
448,192,42500,1,0,0:0:0:0:
64,192,42566,1,0,0:0:0:0:
320,192,42633,1,0,0:0:0:0:
448,192,42700,1,0,0:0:0:0:
192,192,42766,1,0,0:0:0:0:
320,192,42833,1,0,0:0:0:0:
64,192,42900,1,0,0:0:0:0:
448,192,42900,1,0,0:0:0:0:
192,192,42966,1,0,0:0:0:0:
320,192,43033,1,0,0:0:0:0:
448,192,43033,1,0,0:0:0:0:
64,192,43100,1,0,0:0:0:0:
192,192,43166,1,0,0:0:0:0:
320,192,43166,1,0,0:0:0:0:
448,192,43233,1,0,0:0:0:0:
64,192,43300,1,0,0:0:0:0:
192,192,43300,1,0,0:0:0:0:
320,192,43366,1,0,0:0:0:0:
448,192,43366,1,0,0:0:0:0:
64,192,43433,1,0,0:0:0:0:
192,192,43433,1,0,0:0:0:0:
320,192,43500,1,0,0:0:0:0:
448,192,43500,1,0,0:0:0:0:
64,192,43566,1,0,0:0:0:0:
192,192,43566,1,0,0:0:0:0:
320,192,43633,1,0,0:0:0:0:
448,192,43633,1,0,0:0:0:0:
64,192,43700,1,0,0:0:0:0:
192,192,43700,1,0,0:0:0:0:
448,192,43766,1,0,0:0:0:0:
64,192,43833,1,0,0:0:0:0:
320,192,43833,1,0,0:0:0:0:
192,192,43900,1,0,0:0:0:0:
320,192,43966,1,0,0:0:0:0:
448,192,43966,1,0,0:0:0:0:
64,192,44033,1,0,0:0:0:0:
192,192,44100,1,0,0:0:0:0:
320,192,44100,1,0,0:0:0:0:
448,192,44100,1,0,0:0:0:0:
64,192,44166,1,0,0:0:0:0:
192,192,44233,1,0,0:0:0:0:
448,192,44233,1,0,0:0:0:0:
320,192,44300,1,0,0:0:0:0:
192,192,44366,1,0,0:0:0:0:
448,192,44366,1,0,0:0:0:0:
64,192,44433,1,0,0:0:0:0:
192,192,44500,1,0,0:0:0:0:
320,192,44500,1,0,0:0:0:0:
448,192,44500,1,0,0:0:0:0:
64,192,44566,1,0,0:0:0:0:
320,192,44633,1,0,0:0:0:0:
448,192,44700,1,0,0:0:0:0:
192,192,44766,1,0,0:0:0:0:
320,192,44833,1,0,0:0:0:0:
64,192,44900,1,0,0:0:0:0:
192,192,44900,1,0,0:0:0:0:
448,192,44900,1,0,0:0:0:0:
320,192,44966,1,0,0:0:0:0:
448,192,45033,1,0,0:0:0:0:
192,192,45100,1,0,0:0:0:0:
320,192,45166,1,0,0:0:0:0:
64,192,45233,1,0,0:0:0:0:
192,192,45300,1,0,0:0:0:0:
448,192,45300,1,0,0:0:0:0:
320,192,45366,1,0,0:0:0:0:
64,192,45433,1,0,0:0:0:0:
192,192,45433,1,0,0:0:0:0:
448,192,45500,1,0,0:0:0:0:
64,192,45566,1,0,0:0:0:0:
320,192,45566,1,0,0:0:0:0:
192,192,45633,1,0,0:0:0:0:
64,192,45700,1,0,0:0:0:0:
320,192,45700,1,0,0:0:0:0:
448,192,45700,1,0,0:0:0:0:
192,192,45766,1,0,0:0:0:0:
320,192,45833,1,0,0:0:0:0:
192,192,45900,1,0,0:0:0:0:
64,192,45966,1,0,0:0:0:0:
448,192,45966,1,0,0:0:0:0:
320,192,46033,1,0,0:0:0:0:
192,192,46100,1,0,0:0:0:0:
448,192,46100,1,0,0:0:0:0:
320,192,46166,1,0,0:0:0:0:
64,192,46233,1,0,0:0:0:0:
192,192,46233,1,0,0:0:0:0:
448,192,46300,1,0,0:0:0:0:
64,192,46366,1,0,0:0:0:0:
320,192,46366,1,0,0:0:0:0:
192,192,46433,1,0,0:0:0:0:
320,192,46500,1,0,0:0:0:0:
448,192,46500,1,0,0:0:0:0:
64,192,46566,1,0,0:0:0:0:
192,192,46566,1,0,0:0:0:0:
320,192,46633,1,0,0:0:0:0:
448,192,46633,1,0,0:0:0:0:
64,192,46700,1,0,0:0:0:0:
192,192,46700,1,0,0:0:0:0:
320,192,46766,1,0,0:0:0:0:
448,192,46766,1,0,0:0:0:0:
64,192,46833,1,0,0:0:0:0:
192,192,46833,1,0,0:0:0:0:
320,192,46900,1,0,0:0:0:0:
448,192,46900,1,0,0:0:0:0:
64,192,46966,1,0,0:0:0:0:
192,192,47033,1,0,0:0:0:0:
448,192,47033,1,0,0:0:0:0:
320,192,47100,1,0,0:0:0:0:
64,192,47166,1,0,0:0:0:0:
192,192,47166,1,0,0:0:0:0:
448,192,47233,1,0,0:0:0:0:
64,192,47300,1,0,0:0:0:0:
192,192,47300,1,0,0:0:0:0:
320,192,47300,1,0,0:0:0:0:
448,192,47366,1,0,0:0:0:0:
320,192,47433,1,0,0:0:0:0:
192,192,47500,1,0,0:0:0:0:
64,192,47566,1,0,0:0:0:0:
192,192,47633,1,0,0:0:0:0:
320,192,47700,1,0,0:0:0:0:
448,192,47700,1,0,0:0:0:0:
64,192,47766,1,0,0:0:0:0:
192,192,47833,1,0,0:0:0:0:
320,192,47833,1,0,0:0:0:0:
448,192,47900,1,0,0:0:0:0:
64,192,47966,1,0,0:0:0:0:
192,192,47966,1,0,0:0:0:0:
320,192,48033,1,0,0:0:0:0:
64,192,48100,1,0,0:0:0:0:
192,192,48100,1,0,0:0:0:0:
448,192,48100,1,0,0:0:0:0:
320,192,48166,1,0,0:0:0:0:
448,192,48233,1,0,0:0:0:0:
64,192,48300,1,0,0:0:0:0:
320,192,48366,1,0,0:0:0:0:
192,192,48433,1,0,0:0:0:0:
64,192,48500,1,0,0:0:0:0:
448,192,48500,1,0,0:0:0:0:
320,192,48566,1,0,0:0:0:0:
64,192,48633,1,0,0:0:0:0:
192,192,48633,1,0,0:0:0:0:
448,192,48700,1,0,0:0:0:0:
192,192,48766,1,0,0:0:0:0:
320,192,48766,1,0,0:0:0:0:
64,192,48833,1,0,0:0:0:0:
192,192,48900,1,0,0:0:0:0:
320,192,48900,1,0,0:0:0:0:
448,192,48900,1,0,0:0:0:0:
64,192,48966,1,0,0:0:0:0:
448,192,49033,1,0,0:0:0:0:
192,192,49100,1,0,0:0:0:0:
320,192,49166,1,0,0:0:0:0:
64,192,49233,1,0,0:0:0:0:
192,192,49300,1,0,0:0:0:0:
448,192,49300,1,0,0:0:0:0:
320,192,49366,1,0,0:0:0:0:
64,192,49433,1,0,0:0:0:0:
192,192,49433,1,0,0:0:0:0:
448,192,49500,1,0,0:0:0:0:
64,192,49566,1,0,0:0:0:0:
320,192,49566,1,0,0:0:0:0:
192,192,49633,1,0,0:0:0:0:
64,192,49700,1,0,0:0:0:0:
320,192,49700,1,0,0:0:0:0:
448,192,49700,1,0,0:0:0:0:
192,192,49766,1,0,0:0:0:0:
448,192,49833,1,0,0:0:0:0:
64,192,49900,1,0,0:0:0:0:
320,192,49966,1,0,0:0:0:0:
448,192,50033,1,0,0:0:0:0:
64,192,50100,1,0,0:0:0:0:
192,192,50100,1,0,0:0:0:0:
64,192,50233,1,0,0:0:0:0:
192,192,50233,1,0,0:0:0:0:
64,192,50366,1,0,0:0:0:0:
192,192,50366,1,0,0:0:0:0:
64,192,50500,1,0,0:0:0:0:
320,192,50500,1,0,0:0:0:0:
448,192,50500,1,0,0:0:0:0:
192,192,50766,1,0,0:0:0:0:
64,192,50900,1,0,0:0:0:0:
320,192,50900,1,0,0:0:0:0:
448,192,50900,1,0,0:0:0:0:
320,192,51033,1,0,0:0:0:0:
448,192,51033,1,0,0:0:0:0:
64,192,51300,1,0,0:0:0:0:
320,192,51300,1,0,0:0:0:0:
448,192,51300,1,0,0:0:0:0:
320,192,51566,1,0,0:0:0:0:
448,192,51566,1,0,0:0:0:0:
64,192,51700,1,0,0:0:0:0:
320,192,51700,1,0,0:0:0:0:
448,192,51700,1,0,0:0:0:0:
320,192,51833,1,0,0:0:0:0:
448,192,51833,1,0,0:0:0:0:
64,192,52100,1,0,0:0:0:0:
192,192,52100,1,0,0:0:0:0:
320,192,52166,1,0,0:0:0:0:
448,192,52166,1,0,0:0:0:0:
64,192,52233,1,0,0:0:0:0:
192,192,52233,1,0,0:0:0:0:
320,192,52300,1,0,0:0:0:0:
448,192,52300,1,0,0:0:0:0:
64,192,52366,1,0,0:0:0:0:
192,192,52366,1,0,0:0:0:0:
320,192,52433,1,0,0:0:0:0:
448,192,52433,1,0,0:0:0:0:
64,192,52500,1,0,0:0:0:0:
192,192,52500,1,0,0:0:0:0:
448,192,52566,1,0,0:0:0:0:
64,192,52633,1,0,0:0:0:0:
320,192,52633,1,0,0:0:0:0:
448,192,52700,1,0,0:0:0:0:
192,192,52766,1,0,0:0:0:0:
320,192,52766,1,0,0:0:0:0:
64,192,52833,1,0,0:0:0:0:
320,192,52900,1,0,0:0:0:0:
448,192,52900,1,0,0:0:0:0:
64,192,52966,1,0,0:0:0:0:
192,192,52966,1,0,0:0:0:0:
320,192,53033,1,0,0:0:0:0:
448,192,53033,1,0,0:0:0:0:
64,192,53100,1,0,0:0:0:0:
192,192,53100,1,0,0:0:0:0:
320,192,53166,1,0,0:0:0:0:
448,192,53166,1,0,0:0:0:0:
64,192,53233,1,0,0:0:0:0:
192,192,53233,1,0,0:0:0:0:
320,192,53300,1,0,0:0:0:0:
448,192,53300,1,0,0:0:0:0:
64,192,53366,1,0,0:0:0:0:
192,192,53433,1,0,0:0:0:0:
448,192,53433,1,0,0:0:0:0:
64,192,53500,1,0,0:0:0:0:
192,192,53566,1,0,0:0:0:0:
320,192,53566,1,0,0:0:0:0:
448,192,53633,1,0,0:0:0:0:
64,192,53700,1,0,0:0:0:0:
192,192,53700,1,0,0:0:0:0:
320,192,53700,1,0,0:0:0:0:
448,192,53766,1,0,0:0:0:0:
320,192,53833,1,0,0:0:0:0:
64,192,53900,1,0,0:0:0:0:
192,192,53966,1,0,0:0:0:0:
448,192,53966,1,0,0:0:0:0:
320,192,54033,1,0,0:0:0:0:
64,192,54100,1,0,0:0:0:0:
192,192,54100,1,0,0:0:0:0:
448,192,54100,1,0,0:0:0:0:
320,192,54166,1,0,0:0:0:0:
64,192,54233,1,0,0:0:0:0:
192,192,54300,1,0,0:0:0:0:
320,192,54366,1,0,0:0:0:0:
448,192,54366,1,0,0:0:0:0:
192,192,54433,1,0,0:0:0:0:
64,192,54500,1,0,0:0:0:0:
320,192,54500,1,0,0:0:0:0:
448,192,54500,1,0,0:0:0:0:
192,192,54566,1,0,0:0:0:0:
448,192,54633,1,0,0:0:0:0:
320,192,54700,1,0,0:0:0:0:
64,192,54766,1,0,0:0:0:0:
192,192,54766,1,0,0:0:0:0:
448,192,54833,1,0,0:0:0:0:
64,192,54900,1,0,0:0:0:0:
192,192,54900,1,0,0:0:0:0:
320,192,54900,1,0,0:0:0:0:
448,192,54966,1,0,0:0:0:0:
320,192,55033,1,0,0:0:0:0:
64,192,55100,1,0,0:0:0:0:
192,192,55100,1,0,0:0:0:0:
320,192,55166,1,0,0:0:0:0:
448,192,55233,1,0,0:0:0:0:
64,192,55300,1,0,0:0:0:0:
192,192,55300,1,0,0:0:0:0:
320,192,55366,1,0,0:0:0:0:
448,192,55366,1,0,0:0:0:0:
64,192,55433,1,0,0:0:0:0:
192,192,55433,1,0,0:0:0:0:
320,192,55500,1,0,0:0:0:0:
448,192,55500,1,0,0:0:0:0:
64,192,55566,1,0,0:0:0:0:
192,192,55566,1,0,0:0:0:0:
320,192,55633,1,0,0:0:0:0:
448,192,55633,1,0,0:0:0:0:
64,192,55700,1,0,0:0:0:0:
192,192,55700,1,0,0:0:0:0:
448,192,55766,1,0,0:0:0:0:
64,192,55833,1,0,0:0:0:0:
320,192,55833,1,0,0:0:0:0:
192,192,55900,1,0,0:0:0:0:
320,192,55966,1,0,0:0:0:0:
448,192,55966,1,0,0:0:0:0:
64,192,56033,1,0,0:0:0:0:
192,192,56100,1,0,0:0:0:0:
320,192,56100,1,0,0:0:0:0:
448,192,56100,1,0,0:0:0:0:
64,192,56166,1,0,0:0:0:0:
192,192,56233,1,0,0:0:0:0:
448,192,56233,1,0,0:0:0:0:
320,192,56300,1,0,0:0:0:0:
64,192,56366,1,0,0:0:0:0:
192,192,56366,1,0,0:0:0:0:
448,192,56433,1,0,0:0:0:0:
64,192,56500,1,0,0:0:0:0:
192,192,56500,1,0,0:0:0:0:
320,192,56500,1,0,0:0:0:0:
448,192,56566,1,0,0:0:0:0:
64,192,56633,1,0,0:0:0:0:
320,192,56633,1,0,0:0:0:0:
192,192,56700,1,0,0:0:0:0:
320,192,56766,1,0,0:0:0:0:
448,192,56766,1,0,0:0:0:0:
192,192,56833,1,0,0:0:0:0:
64,192,56900,1,0,0:0:0:0:
320,192,56900,1,0,0:0:0:0:
448,192,56900,1,0,0:0:0:0:
192,192,56966,1,0,0:0:0:0:
320,192,57033,1,0,0:0:0:0:
64,192,57100,1,0,0:0:0:0:
192,192,57166,1,0,0:0:0:0:
448,192,57166,1,0,0:0:0:0:
320,192,57233,1,0,0:0:0:0:
64,192,57300,1,0,0:0:0:0:
192,192,57300,1,0,0:0:0:0:
448,192,57300,1,0,0:0:0:0:
320,192,57366,1,0,0:0:0:0:
64,192,57433,1,0,0:0:0:0:
192,192,57500,1,0,0:0:0:0:
448,192,57566,1,0,0:0:0:0:
192,192,57633,1,0,0:0:0:0:
64,192,57700,1,0,0:0:0:0:
320,192,57700,1,0,0:0:0:0:
448,192,57700,1,0,0:0:0:0:
192,192,57766,1,0,0:0:0:0:
320,192,57833,1,0,0:0:0:0:
448,192,57900,1,0,0:0:0:0:
192,192,57966,1,0,0:0:0:0:
320,192,57966,1,0,0:0:0:0:
64,192,58033,1,0,0:0:0:0:
320,192,58100,1,0,0:0:0:0:
448,192,58100,1,0,0:0:0:0:
192,192,58166,1,0,0:0:0:0:
320,192,58233,1,0,0:0:0:0:
448,192,58233,1,0,0:0:0:0:
64,192,58300,1,0,0:0:0:0:
192,192,58366,1,0,0:0:0:0:
320,192,58433,1,0,0:0:0:0:
64,192,58500,1,0,0:0:0:0:
192,192,58500,1,0,0:0:0:0:
320,192,58566,1,0,0:0:0:0:
448,192,58566,1,0,0:0:0:0:
64,192,58633,1,0,0:0:0:0:
192,192,58633,1,0,0:0:0:0:
320,192,58700,1,0,0:0:0:0:
448,192,58700,1,0,0:0:0:0:
64,192,58766,1,0,0:0:0:0:
192,192,58766,1,0,0:0:0:0:
320,192,58833,1,0,0:0:0:0:
448,192,58833,1,0,0:0:0:0:
64,192,58900,1,0,0:0:0:0:
192,192,58900,1,0,0:0:0:0:
448,192,58966,1,0,0:0:0:0:
64,192,59033,1,0,0:0:0:0:
320,192,59033,1,0,0:0:0:0:
192,192,59100,1,0,0:0:0:0:
320,192,59166,1,0,0:0:0:0:
448,192,59166,1,0,0:0:0:0:
64,192,59233,1,0,0:0:0:0:
192,192,59300,1,0,0:0:0:0:
320,192,59300,1,0,0:0:0:0:
64,192,59366,1,0,0:0:0:0:
448,192,59366,1,0,0:0:0:0:
192,192,59433,1,0,0:0:0:0:
320,192,59433,1,0,0:0:0:0:
64,192,59500,1,0,0:0:0:0:
448,192,59500,1,0,0:0:0:0:
192,192,59566,1,0,0:0:0:0:
320,192,59566,1,0,0:0:0:0:
64,192,59633,1,0,0:0:0:0:
448,192,59633,1,0,0:0:0:0:
192,192,59700,1,0,0:0:0:0:
320,192,59700,1,0,0:0:0:0:
448,192,59766,1,0,0:0:0:0:
64,192,59833,1,0,0:0:0:0:
320,192,59833,1,0,0:0:0:0:
192,192,59900,1,0,0:0:0:0:
320,192,59966,1,0,0:0:0:0:
448,192,59966,1,0,0:0:0:0:
64,192,60033,1,0,0:0:0:0:
192,192,60100,1,0,0:0:0:0:
320,192,60100,1,0,0:0:0:0:
448,192,60100,1,0,0:0:0:0:
64,192,60166,1,0,0:0:0:0:
192,192,60233,1,0,0:0:0:0:
448,192,60300,1,0,0:0:0:0:
64,192,60366,1,0,0:0:0:0:
320,192,60366,1,0,0:0:0:0:
192,192,60433,1,0,0:0:0:0:
64,192,60500,1,0,0:0:0:0:
320,192,60500,1,0,0:0:0:0:
448,192,60500,1,0,0:0:0:0:
192,192,60566,1,0,0:0:0:0:
448,192,60633,1,0,0:0:0:0:
320,192,60700,1,0,0:0:0:0:
64,192,60766,1,0,0:0:0:0:
192,192,60766,1,0,0:0:0:0:
448,192,60833,1,0,0:0:0:0:
64,192,60900,1,0,0:0:0:0:
192,192,60900,1,0,0:0:0:0:
320,192,60900,1,0,0:0:0:0:
448,192,60966,1,0,0:0:0:0:
320,192,61033,1,0,0:0:0:0:
64,192,61100,1,0,0:0:0:0:
192,192,61166,1,0,0:0:0:0:
448,192,61166,1,0,0:0:0:0:
320,192,61233,1,0,0:0:0:0:
64,192,61300,1,0,0:0:0:0:
192,192,61300,1,0,0:0:0:0:
448,192,61300,1,0,0:0:0:0:
320,192,61366,1,0,0:0:0:0:
64,192,61433,1,0,0:0:0:0:
192,192,61433,1,0,0:0:0:0:
448,192,61500,1,0,0:0:0:0:
320,192,61566,1,0,0:0:0:0:
192,192,61633,1,0,0:0:0:0:
64,192,61700,1,0,0:0:0:0:
448,192,61700,1,0,0:0:0:0:
192,192,61766,1,0,0:0:0:0:
320,192,61766,1,0,0:0:0:0:
64,192,61833,1,0,0:0:0:0:
448,192,61833,1,0,0:0:0:0:
320,192,61900,1,0,0:0:0:0:
64,192,61966,1,0,0:0:0:0:
192,192,61966,1,0,0:0:0:0:
448,192,61966,1,0,0:0:0:0:
64,192,62100,1,0,0:0:0:0:
320,192,62100,1,0,0:0:0:0:
448,192,62100,1,0,0:0:0:0:
192,192,62233,1,0,0:0:0:0:
320,192,62233,1,0,0:0:0:0:
192,192,62366,1,0,0:0:0:0:
448,192,62366,1,0,0:0:0:0:
64,192,62500,1,0,0:0:0:0:
320,192,62500,1,0,0:0:0:0:
448,192,62500,1,0,0:0:0:0:
64,192,62633,1,0,0:0:0:0:
192,192,62633,1,0,0:0:0:0:
192,192,62766,1,0,0:0:0:0:
448,192,62766,1,0,0:0:0:0:
64,192,62900,1,0,0:0:0:0:
320,192,62900,1,0,0:0:0:0:
448,192,62900,1,0,0:0:0:0:
192,192,63033,1,0,0:0:0:0:
320,192,63033,1,0,0:0:0:0:
64,192,63166,1,0,0:0:0:0:
192,192,63166,1,0,0:0:0:0:
64,192,63300,1,0,0:0:0:0:
320,192,63300,1,0,0:0:0:0:
448,192,63300,1,0,0:0:0:0:
192,192,63366,1,0,0:0:0:0:
320,192,63433,1,0,0:0:0:0:
64,192,63500,1,0,0:0:0:0:
192,192,63566,1,0,0:0:0:0:
448,192,63566,1,0,0:0:0:0:
320,192,63633,1,0,0:0:0:0:
64,192,63700,1,0,0:0:0:0:
192,192,63700,1,0,0:0:0:0:
320,192,63766,1,0,0:0:0:0:
64,192,63833,1,0,0:0:0:0:
448,192,63833,1,0,0:0:0:0:
192,192,63900,1,0,0:0:0:0:
320,192,63966,1,0,0:0:0:0:
448,192,63966,1,0,0:0:0:0:
64,192,64033,1,0,0:0:0:0:
192,192,64100,1,0,0:0:0:0:
448,192,64100,1,0,0:0:0:0:
320,192,64166,1,0,0:0:0:0:
192,192,64233,1,0,0:0:0:0:
448,192,64300,1,0,0:0:0:0:
64,192,64366,1,0,0:0:0:0:
320,192,64366,1,0,0:0:0:0:
192,192,64433,1,0,0:0:0:0:
64,192,64500,1,0,0:0:0:0:
320,192,64500,1,0,0:0:0:0:
448,192,64500,1,0,0:0:0:0:
192,192,64566,1,0,0:0:0:0:
320,192,64633,1,0,0:0:0:0:
448,192,64633,1,0,0:0:0:0:
64,192,64700,1,0,0:0:0:0:
192,192,64766,1,0,0:0:0:0:
448,192,64766,1,0,0:0:0:0:
320,192,64833,1,0,0:0:0:0:
64,192,64900,1,0,0:0:0:0:
192,192,64900,1,0,0:0:0:0:
320,192,64966,1,0,0:0:0:0:
448,192,64966,1,0,0:0:0:0:
64,192,65033,1,0,0:0:0:0:
192,192,65033,1,0,0:0:0:0:
320,192,65100,1,0,0:0:0:0:
448,192,65100,1,0,0:0:0:0:
64,192,65166,1,0,0:0:0:0:
192,192,65166,1,0,0:0:0:0:
320,192,65233,1,0,0:0:0:0:
448,192,65233,1,0,0:0:0:0:
64,192,65300,1,0,0:0:0:0:
192,192,65300,1,0,0:0:0:0:
448,192,65366,1,0,0:0:0:0:
64,192,65433,1,0,0:0:0:0:
320,192,65433,1,0,0:0:0:0:
192,192,65500,1,0,0:0:0:0:
320,192,65566,1,0,0:0:0:0:
448,192,65566,1,0,0:0:0:0:
64,192,65633,1,0,0:0:0:0:
320,192,65700,1,0,0:0:0:0:
448,192,65700,1,0,0:0:0:0:
64,192,65766,1,0,0:0:0:0:
192,192,65766,1,0,0:0:0:0:
320,192,65833,1,0,0:0:0:0:
448,192,65833,1,0,0:0:0:0:
64,192,65900,1,0,0:0:0:0:
192,192,65900,1,0,0:0:0:0:
320,192,65966,1,0,0:0:0:0:
448,192,65966,1,0,0:0:0:0:
64,192,66033,1,0,0:0:0:0:
192,192,66033,1,0,0:0:0:0:
320,192,66100,1,0,0:0:0:0:
448,192,66100,1,0,0:0:0:0:
192,192,66166,1,0,0:0:0:0:
64,192,66233,1,0,0:0:0:0:
448,192,66233,1,0,0:0:0:0:
320,192,66300,1,0,0:0:0:0:
64,192,66366,1,0,0:0:0:0:
192,192,66366,1,0,0:0:0:0:
448,192,66433,1,0,0:0:0:0:
64,192,66500,1,0,0:0:0:0:
192,192,66500,1,0,0:0:0:0:
320,192,66500,1,0,0:0:0:0:
448,192,66566,1,0,0:0:0:0:
320,192,66633,1,0,0:0:0:0:
64,192,66700,1,0,0:0:0:0:
192,192,66766,1,0,0:0:0:0:
320,192,66766,1,0,0:0:0:0:
448,192,66833,1,0,0:0:0:0:
64,192,66900,1,0,0:0:0:0:
192,192,66900,1,0,0:0:0:0:
320,192,66900,1,0,0:0:0:0:
448,192,66966,1,0,0:0:0:0:
64,192,67033,1,0,0:0:0:0:
192,192,67100,1,0,0:0:0:0:
320,192,67166,1,0,0:0:0:0:
448,192,67166,1,0,0:0:0:0:
64,192,67233,1,0,0:0:0:0:
192,192,67300,1,0,0:0:0:0:
320,192,67300,1,0,0:0:0:0:
448,192,67300,1,0,0:0:0:0:
64,192,67366,1,0,0:0:0:0:
192,192,67433,1,0,0:0:0:0:
448,192,67500,1,0,0:0:0:0:
64,192,67566,1,0,0:0:0:0:
320,192,67566,1,0,0:0:0:0:
192,192,67633,1,0,0:0:0:0:
64,192,67700,1,0,0:0:0:0:
320,192,67700,1,0,0:0:0:0:
448,192,67700,1,0,0:0:0:0:
192,192,67766,1,0,0:0:0:0:
64,192,67833,1,0,0:0:0:0:
448,192,67900,1,0,0:0:0:0:
192,192,67966,1,0,0:0:0:0:
320,192,67966,1,0,0:0:0:0:
64,192,68033,1,0,0:0:0:0:
320,192,68100,1,0,0:0:0:0:
448,192,68100,1,0,0:0:0:0:
64,192,68166,1,0,0:0:0:0:
192,192,68166,1,0,0:0:0:0:
320,192,68233,1,0,0:0:0:0:
448,192,68233,1,0,0:0:0:0:
64,192,68300,1,0,0:0:0:0:
192,192,68300,1,0,0:0:0:0:
320,192,68366,1,0,0:0:0:0:
448,192,68366,1,0,0:0:0:0:
192,192,68433,1,0,0:0:0:0:
64,192,68500,1,0,0:0:0:0:
320,192,68500,1,0,0:0:0:0:
448,192,68500,1,0,0:0:0:0:
192,192,68566,1,0,0:0:0:0:
64,192,68633,1,0,0:0:0:0:
448,192,68633,1,0,0:0:0:0:
320,192,68700,1,0,0:0:0:0:
64,192,68766,1,0,0:0:0:0:
192,192,68766,1,0,0:0:0:0:
320,192,68833,1,0,0:0:0:0:
64,192,68900,1,0,0:0:0:0:
192,192,68900,1,0,0:0:0:0:
448,192,68900,1,0,0:0:0:0:
320,192,68966,1,0,0:0:0:0:
448,192,69033,1,0,0:0:0:0:
64,192,69100,1,0,0:0:0:0:
192,192,69166,1,0,0:0:0:0:
320,192,69233,1,0,0:0:0:0:
64,192,69300,1,0,0:0:0:0:
192,192,69300,1,0,0:0:0:0:
448,192,69300,1,0,0:0:0:0:
320,192,69366,1,0,0:0:0:0:
64,192,69433,1,0,0:0:0:0:
448,192,69500,1,0,0:0:0:0:
192,192,69566,1,0,0:0:0:0:
320,192,69633,1,0,0:0:0:0:
64,192,69700,1,0,0:0:0:0:
192,192,69700,1,0,0:0:0:0:
448,192,69766,1,0,0:0:0:0:
192,192,69833,1,0,0:0:0:0:
320,192,69833,1,0,0:0:0:0:
64,192,69900,1,0,0:0:0:0:
320,192,69966,1,0,0:0:0:0:
448,192,69966,1,0,0:0:0:0:
192,192,70033,1,0,0:0:0:0:
64,192,70100,1,0,0:0:0:0:
320,192,70100,1,0,0:0:0:0:
448,192,70100,1,0,0:0:0:0:
192,192,70166,1,0,0:0:0:0:
64,192,70233,1,0,0:0:0:0:
448,192,70233,1,0,0:0:0:0:
320,192,70300,1,0,0:0:0:0:
64,192,70366,1,0,0:0:0:0:
192,192,70366,1,0,0:0:0:0:
320,192,70433,1,0,0:0:0:0:
64,192,70500,1,0,0:0:0:0:
192,192,70500,1,0,0:0:0:0:
448,192,70500,1,0,0:0:0:0:
320,192,70566,1,0,0:0:0:0:
448,192,70633,1,0,0:0:0:0:
64,192,70700,1,0,0:0:0:0:
192,192,70766,1,0,0:0:0:0:
320,192,70766,1,0,0:0:0:0:
448,192,70833,1,0,0:0:0:0:
64,192,70900,1,0,0:0:0:0:
192,192,70900,1,0,0:0:0:0:
320,192,70900,1,0,0:0:0:0:
448,192,70966,1,0,0:0:0:0:
320,192,71033,1,0,0:0:0:0:
64,192,71100,1,0,0:0:0:0:
192,192,71166,1,0,0:0:0:0:
448,192,71166,1,0,0:0:0:0:
320,192,71233,1,0,0:0:0:0:
64,192,71300,1,0,0:0:0:0:
192,192,71300,1,0,0:0:0:0:
320,192,71366,1,0,0:0:0:0:
448,192,71366,1,0,0:0:0:0:
64,192,71433,1,0,0:0:0:0:
192,192,71433,1,0,0:0:0:0:
320,192,71500,1,0,0:0:0:0:
448,192,71500,1,0,0:0:0:0:
64,192,71566,1,0,0:0:0:0:
192,192,71566,1,0,0:0:0:0:
320,192,71633,1,0,0:0:0:0:
448,192,71633,1,0,0:0:0:0:
64,192,71700,1,0,0:0:0:0:
192,192,71700,1,0,0:0:0:0:
448,192,71766,1,0,0:0:0:0:
64,192,71833,1,0,0:0:0:0:
320,192,71833,1,0,0:0:0:0:
192,192,71900,1,0,0:0:0:0:
320,192,71966,1,0,0:0:0:0:
448,192,71966,1,0,0:0:0:0:
64,192,72033,1,0,0:0:0:0:
192,192,72100,1,0,0:0:0:0:
320,192,72100,1,0,0:0:0:0:
64,192,72166,1,0,0:0:0:0:
448,192,72166,1,0,0:0:0:0:
192,192,72233,1,0,0:0:0:0:
320,192,72233,1,0,0:0:0:0:
64,192,72300,1,0,0:0:0:0:
448,192,72300,1,0,0:0:0:0:
192,192,72366,1,0,0:0:0:0:
320,192,72366,1,0,0:0:0:0:
64,192,72433,1,0,0:0:0:0:
448,192,72433,1,0,0:0:0:0:
192,192,72500,1,0,0:0:0:0:
320,192,72500,1,0,0:0:0:0:
448,192,72566,1,0,0:0:0:0:
64,192,72633,1,0,0:0:0:0:
192,192,72633,1,0,0:0:0:0:
320,192,72700,1,0,0:0:0:0:
64,192,72766,1,0,0:0:0:0:
448,192,72766,1,0,0:0:0:0:
192,192,72833,1,0,0:0:0:0:
64,192,72900,1,0,0:0:0:0:
320,192,72900,1,0,0:0:0:0:
448,192,72900,1,0,0:0:0:0:
192,192,72966,1,0,0:0:0:0:
448,192,73033,1,0,0:0:0:0:
320,192,73100,1,0,0:0:0:0:
64,192,73166,1,0,0:0:0:0:
192,192,73166,1,0,0:0:0:0:
448,192,73233,1,0,0:0:0:0:
64,192,73300,1,0,0:0:0:0:
192,192,73300,1,0,0:0:0:0:
320,192,73300,1,0,0:0:0:0:
448,192,73366,1,0,0:0:0:0:
64,192,73433,1,0,0:0:0:0:
320,192,73433,1,0,0:0:0:0:
192,192,73500,1,0,0:0:0:0:
320,192,73566,1,0,0:0:0:0:
448,192,73566,1,0,0:0:0:0:
64,192,73633,1,0,0:0:0:0:
192,192,73700,1,0,0:0:0:0:
320,192,73700,1,0,0:0:0:0:
448,192,73700,1,0,0:0:0:0:
64,192,73766,1,0,0:0:0:0:
192,192,73833,1,0,0:0:0:0:
320,192,73900,1,0,0:0:0:0:
64,192,73966,1,0,0:0:0:0:
192,192,73966,1,0,0:0:0:0:
448,192,74033,1,0,0:0:0:0:
64,192,74100,1,0,0:0:0:0:
192,192,74100,1,0,0:0:0:0:
320,192,74100,1,0,0:0:0:0:
448,192,74166,1,0,0:0:0:0:
320,192,74233,1,0,0:0:0:0:
64,192,74300,1,0,0:0:0:0:
192,192,74366,1,0,0:0:0:0:
448,192,74433,1,0,0:0:0:0:
64,192,74500,1,0,0:0:0:0:
192,192,74500,1,0,0:0:0:0:
320,192,74500,1,0,0:0:0:0:
448,192,74566,1,0,0:0:0:0:
64,192,74633,1,0,0:0:0:0:
320,192,74633,1,0,0:0:0:0:
192,192,74700,1,0,0:0:0:0:
320,192,74766,1,0,0:0:0:0:
448,192,74766,1,0,0:0:0:0:
64,192,74833,1,0,0:0:0:0:
192,192,74900,1,0,0:0:0:0:
448,192,74900,1,0,0:0:0:0:
192,192,75033,1,0,0:0:0:0:
320,192,75033,1,0,0:0:0:0:
64,192,75166,1,0,0:0:0:0:
320,192,75166,1,0,0:0:0:0:
64,192,75300,1,0,0:0:0:0:
192,192,75300,1,0,0:0:0:0:
448,192,75300,1,0,0:0:0:0:
320,192,75366,1,0,0:0:0:0:
64,192,75433,1,0,0:0:0:0:
192,192,75433,1,0,0:0:0:0:
448,192,75500,1,0,0:0:0:0:
64,192,75566,1,0,0:0:0:0:
320,192,75566,1,0,0:0:0:0:
192,192,75633,1,0,0:0:0:0:
320,192,75700,1,0,0:0:0:0:
448,192,75700,1,0,0:0:0:0:
64,192,75766,1,0,0:0:0:0:
192,192,75833,1,0,0:0:0:0:
320,192,75833,1,0,0:0:0:0:
448,192,75900,1,0,0:0:0:0:
64,192,75966,1,0,0:0:0:0:
192,192,75966,1,0,0:0:0:0:
320,192,76033,1,0,0:0:0:0:
64,192,76100,1,0,0:0:0:0:
448,192,76100,1,0,0:0:0:0:
192,192,76166,1,0,0:0:0:0:
320,192,76233,1,0,0:0:0:0:
448,192,76233,1,0,0:0:0:0:
64,192,76300,1,0,0:0:0:0:
192,192,76366,1,0,0:0:0:0:
448,192,76366,1,0,0:0:0:0:
320,192,76433,1,0,0:0:0:0:
64,192,76500,1,0,0:0:0:0:
192,192,76500,1,0,0:0:0:0:
448,192,76566,1,0,0:0:0:0:
192,192,76633,1,0,0:0:0:0:
320,192,76633,1,0,0:0:0:0:
64,192,76700,1,0,0:0:0:0:
320,192,76766,1,0,0:0:0:0:
448,192,76766,1,0,0:0:0:0:
192,192,76833,1,0,0:0:0:0:
64,192,76900,128,0,76966:0:0:0:0:
320,192,76900,128,0,76966:0:0:0:0:
448,192,76900,128,0,76966:0:0:0:0:
64,192,77033,1,0,0:0:0:0:
192,192,77033,1,0,0:0:0:0:
320,192,77033,1,0,0:0:0:0:
64,192,77300,128,0,77366:0:0:0:0:
192,192,77300,128,0,77366:0:0:0:0:
448,192,77300,128,0,77366:0:0:0:0:
64,192,77433,1,0,0:0:0:0:
320,192,77433,1,0,0:0:0:0:
448,192,77433,1,0,0:0:0:0:
192,192,77500,1,0,0:0:0:0:
320,192,77566,1,0,0:0:0:0:
192,192,77633,1,0,0:0:0:0:
64,192,77700,1,0,0:0:0:0:
320,192,77700,1,0,0:0:0:0:
448,192,77700,1,0,0:0:0:0:
192,192,77833,1,0,0:0:0:0:
320,192,77833,1,0,0:0:0:0:
192,192,77966,1,0,0:0:0:0:
448,192,77966,1,0,0:0:0:0:
64,192,78100,128,0,78166:0:0:0:0:
320,192,78100,128,0,78166:0:0:0:0:
448,192,78100,128,0,78166:0:0:0:0:
64,192,78233,1,0,0:0:0:0:
192,192,78233,1,0,0:0:0:0:
448,192,78233,1,0,0:0:0:0:
64,192,78500,1,0,0:0:0:0:
448,192,78500,1,0,0:0:0:0:
192,192,78566,1,0,0:0:0:0:
320,192,78566,1,0,0:0:0:0:
64,192,78633,1,0,0:0:0:0:
448,192,78633,1,0,0:0:0:0:
192,192,78700,1,0,0:0:0:0:
320,192,78700,1,0,0:0:0:0:
64,192,78766,1,0,0:0:0:0:
448,192,78766,1,0,0:0:0:0:
320,192,78833,1,0,0:0:0:0:
64,192,78900,1,0,0:0:0:0:
192,192,78900,1,0,0:0:0:0:
448,192,78966,1,0,0:0:0:0:
192,192,79033,1,0,0:0:0:0:
320,192,79033,1,0,0:0:0:0:
64,192,79100,1,0,0:0:0:0:
320,192,79166,1,0,0:0:0:0:
448,192,79166,1,0,0:0:0:0:
192,192,79233,1,0,0:0:0:0:
64,192,79300,1,0,0:0:0:0:
448,192,79300,1,0,0:0:0:0:
320,192,79366,1,0,0:0:0:0:
64,192,79433,1,0,0:0:0:0:
192,192,79433,1,0,0:0:0:0:
320,192,79500,1,0,0:0:0:0:
64,192,79566,1,0,0:0:0:0:
448,192,79566,1,0,0:0:0:0:
192,192,79633,1,0,0:0:0:0:
320,192,79700,1,0,0:0:0:0:
448,192,79700,1,0,0:0:0:0:
64,192,79766,1,0,0:0:0:0:
192,192,79766,1,0,0:0:0:0:
320,192,79833,1,0,0:0:0:0:
448,192,79833,1,0,0:0:0:0:
64,192,79900,1,0,0:0:0:0:
192,192,79900,1,0,0:0:0:0:
448,192,79966,1,0,0:0:0:0:
192,192,80016,1,0,0:0:0:0:
64,192,80077,1,0,0:0:0:0:
320,192,80116,1,0,0:0:0:0:
192,192,80166,1,0,0:0:0:0:
448,192,80200,1,0,0:0:0:0:
64,192,80233,1,0,0:0:0:0:
320,192,80233,1,0,0:0:0:0:
192,192,80366,1,0,0:0:0:0:
64,192,80500,1,0,0:0:0:0:
192,192,80500,1,0,0:0:0:0:
448,192,80500,1,0,0:0:0:0:
320,192,80633,1,0,0:0:0:0:
64,192,80766,1,0,0:0:0:0:
192,192,80766,1,0,0:0:0:0:
64,192,80900,1,0,0:0:0:0:
192,192,80900,1,0,0:0:0:0:
448,192,80900,1,0,0:0:0:0:
320,192,81033,1,0,0:0:0:0:
64,192,81166,1,0,0:0:0:0:
448,192,81166,1,0,0:0:0:0:
192,192,81300,1,0,0:0:0:0:
448,192,81300,1,0,0:0:0:0:
192,192,81433,1,0,0:0:0:0:
320,192,81433,1,0,0:0:0:0:
64,192,81566,1,0,0:0:0:0:
320,192,81566,1,0,0:0:0:0:
448,192,81566,1,0,0:0:0:0:
192,192,81633,1,0,0:0:0:0:
320,192,81700,1,0,0:0:0:0:
448,192,81700,1,0,0:0:0:0:
192,192,81766,1,0,0:0:0:0:
320,192,81833,1,0,0:0:0:0:
448,192,81833,1,0,0:0:0:0:
192,192,81900,1,0,0:0:0:0:
64,192,81966,1,0,0:0:0:0:
320,192,81966,1,0,0:0:0:0:
448,192,81966,1,0,0:0:0:0:
192,192,82033,1,0,0:0:0:0:
64,192,82100,1,0,0:0:0:0:
448,192,82100,1,0,0:0:0:0:
320,192,82166,1,0,0:0:0:0:
64,192,82233,1,0,0:0:0:0:
192,192,82233,1,0,0:0:0:0:
448,192,82300,1,0,0:0:0:0:
192,192,82366,1,0,0:0:0:0:
320,192,82366,1,0,0:0:0:0:
64,192,82433,1,0,0:0:0:0:
192,192,82500,1,0,0:0:0:0:
320,192,82500,1,0,0:0:0:0:
448,192,82500,1,0,0:0:0:0:
64,192,82566,1,0,0:0:0:0:
320,192,82633,1,0,0:0:0:0:
448,192,82633,1,0,0:0:0:0:
192,192,82700,1,0,0:0:0:0:
64,192,82766,1,0,0:0:0:0:
448,192,82766,1,0,0:0:0:0:
320,192,82833,1,0,0:0:0:0:
64,192,82900,1,0,0:0:0:0:
192,192,82900,1,0,0:0:0:0:
320,192,82966,1,0,0:0:0:0:
64,192,83033,1,0,0:0:0:0:
192,192,83033,1,0,0:0:0:0:
448,192,83033,1,0,0:0:0:0:
64,192,83166,1,0,0:0:0:0:
320,192,83166,1,0,0:0:0:0:
448,192,83166,1,0,0:0:0:0:
64,192,83300,1,0,0:0:0:0:
320,192,83300,1,0,0:0:0:0:
192,192,83366,1,0,0:0:0:0:
64,192,83433,1,0,0:0:0:0:
320,192,83433,1,0,0:0:0:0:
448,192,83433,1,0,0:0:0:0:
192,192,83500,1,0,0:0:0:0:
448,192,83566,1,0,0:0:0:0:
320,192,83633,1,0,0:0:0:0:
64,192,83700,1,0,0:0:0:0:
192,192,83700,1,0,0:0:0:0:
448,192,83766,1,0,0:0:0:0:
64,192,83833,1,0,0:0:0:0:
192,192,83833,1,0,0:0:0:0:
320,192,83833,1,0,0:0:0:0:
448,192,83900,1,0,0:0:0:0:
64,192,83966,1,0,0:0:0:0:
192,192,84033,1,0,0:0:0:0:
320,192,84100,1,0,0:0:0:0:
448,192,84100,1,0,0:0:0:0:
192,192,84166,1,0,0:0:0:0:
320,192,84233,1,0,0:0:0:0:
448,192,84233,1,0,0:0:0:0:
64,192,84300,1,0,0:0:0:0:
192,192,84366,1,0,0:0:0:0:
448,192,84366,1,0,0:0:0:0:
320,192,84433,1,0,0:0:0:0:
64,192,84500,1,0,0:0:0:0:
192,192,84500,1,0,0:0:0:0:
448,192,84566,1,0,0:0:0:0:
64,192,84633,1,0,0:0:0:0:
320,192,84633,1,0,0:0:0:0:
192,192,84700,1,0,0:0:0:0:
320,192,84766,1,0,0:0:0:0:
448,192,84833,1,0,0:0:0:0:
64,192,84900,1,0,0:0:0:0:
192,192,84900,1,0,0:0:0:0:
320,192,84966,1,0,0:0:0:0:
448,192,84966,1,0,0:0:0:0:
64,192,85033,1,0,0:0:0:0:
192,192,85033,1,0,0:0:0:0:
320,192,85100,1,0,0:0:0:0:
448,192,85100,1,0,0:0:0:0:
64,192,85166,1,0,0:0:0:0:
192,192,85166,1,0,0:0:0:0:
448,192,85233,1,0,0:0:0:0:
64,192,85300,1,0,0:0:0:0:
320,192,85300,1,0,0:0:0:0:
192,192,85366,1,0,0:0:0:0:
320,192,85433,1,0,0:0:0:0:
448,192,85433,1,0,0:0:0:0:
64,192,85500,1,0,0:0:0:0:
192,192,85566,1,0,0:0:0:0:
320,192,85566,1,0,0:0:0:0:
448,192,85633,1,0,0:0:0:0:
64,192,85700,1,0,0:0:0:0:
192,192,85700,1,0,0:0:0:0:
320,192,85700,1,0,0:0:0:0:
448,192,85766,1,0,0:0:0:0:
64,192,85833,1,0,0:0:0:0:
192,192,85900,1,0,0:0:0:0:
448,192,85966,1,0,0:0:0:0:
320,192,86033,1,0,0:0:0:0:
64,192,86100,1,0,0:0:0:0:
192,192,86100,1,0,0:0:0:0:
448,192,86100,1,0,0:0:0:0:
320,192,86166,1,0,0:0:0:0:
192,192,86233,1,0,0:0:0:0:
448,192,86300,1,0,0:0:0:0:
192,192,86366,1,0,0:0:0:0:
64,192,86433,1,0,0:0:0:0:
320,192,86500,1,0,0:0:0:0:
448,192,86500,1,0,0:0:0:0:
64,192,86566,1,0,0:0:0:0:
192,192,86566,1,0,0:0:0:0:
320,192,86633,1,0,0:0:0:0:
448,192,86633,1,0,0:0:0:0:
64,192,86700,1,0,0:0:0:0:
192,192,86700,1,0,0:0:0:0:
320,192,86766,1,0,0:0:0:0:
448,192,86766,1,0,0:0:0:0:
64,192,86833,1,0,0:0:0:0:
192,192,86900,1,0,0:0:0:0:
320,192,86900,1,0,0:0:0:0:
448,192,86966,1,0,0:0:0:0:
64,192,87033,1,0,0:0:0:0:
192,192,87033,1,0,0:0:0:0:
320,192,87100,1,0,0:0:0:0:
64,192,87166,1,0,0:0:0:0:
448,192,87166,1,0,0:0:0:0:
192,192,87233,1,0,0:0:0:0:
320,192,87300,1,0,0:0:0:0:
448,192,87300,1,0,0:0:0:0:
64,192,87366,1,0,0:0:0:0:
192,192,87366,1,0,0:0:0:0:
320,192,87433,1,0,0:0:0:0:
448,192,87433,1,0,0:0:0:0:
64,192,87500,1,0,0:0:0:0:
192,192,87500,1,0,0:0:0:0:
320,192,87566,1,0,0:0:0:0:
448,192,87566,1,0,0:0:0:0:
192,192,87633,1,0,0:0:0:0:
64,192,87700,1,0,0:0:0:0:
448,192,87700,1,0,0:0:0:0:
320,192,87766,1,0,0:0:0:0:
64,192,87833,1,0,0:0:0:0:
192,192,87833,1,0,0:0:0:0:
320,192,87900,1,0,0:0:0:0:
192,192,87966,1,0,0:0:0:0:
448,192,87966,1,0,0:0:0:0:
64,192,88033,1,0,0:0:0:0:
320,192,88100,1,0,0:0:0:0:
448,192,88100,1,0,0:0:0:0:
64,192,88166,1,0,0:0:0:0:
192,192,88166,1,0,0:0:0:0:
320,192,88233,1,0,0:0:0:0:
448,192,88233,1,0,0:0:0:0:
64,192,88300,1,0,0:0:0:0:
192,192,88300,1,0,0:0:0:0:
320,192,88366,1,0,0:0:0:0:
448,192,88366,1,0,0:0:0:0:
64,192,88433,1,0,0:0:0:0:
192,192,88500,1,0,0:0:0:0:
320,192,88500,1,0,0:0:0:0:
448,192,88500,1,0,0:0:0:0:
64,192,88633,1,0,0:0:0:0:
320,192,88633,1,0,0:0:0:0:
448,192,88633,1,0,0:0:0:0:
64,192,88766,1,0,0:0:0:0:
192,192,88766,1,0,0:0:0:0:
320,192,88766,1,0,0:0:0:0:
64,192,88900,1,0,0:0:0:0:
192,192,88900,1,0,0:0:0:0:
448,192,88900,1,0,0:0:0:0:
320,192,88966,1,0,0:0:0:0:
64,192,89033,1,0,0:0:0:0:
192,192,89033,1,0,0:0:0:0:
448,192,89100,1,0,0:0:0:0:
64,192,89166,1,0,0:0:0:0:
320,192,89166,1,0,0:0:0:0:
192,192,89233,1,0,0:0:0:0:
320,192,89300,1,0,0:0:0:0:
448,192,89300,1,0,0:0:0:0:
64,192,89366,1,0,0:0:0:0:
192,192,89433,1,0,0:0:0:0:
448,192,89433,1,0,0:0:0:0:
320,192,89500,1,0,0:0:0:0:
64,192,89566,1,0,0:0:0:0:
192,192,89566,1,0,0:0:0:0:
448,192,89633,1,0,0:0:0:0:
64,192,89700,1,0,0:0:0:0:
192,192,89700,1,0,0:0:0:0:
320,192,89700,1,0,0:0:0:0:
448,192,89766,1,0,0:0:0:0:
64,192,89833,1,0,0:0:0:0:
320,192,89833,1,0,0:0:0:0:
192,192,89900,1,0,0:0:0:0:
320,192,89966,1,0,0:0:0:0:
448,192,89966,1,0,0:0:0:0:
64,192,90033,1,0,0:0:0:0:
192,192,90100,1,0,0:0:0:0:
320,192,90100,1,0,0:0:0:0:
448,192,90100,1,0,0:0:0:0:
64,192,90166,1,0,0:0:0:0:
192,192,90233,1,0,0:0:0:0:
448,192,90233,1,0,0:0:0:0:
320,192,90300,1,0,0:0:0:0:
64,192,90366,1,0,0:0:0:0:
192,192,90366,1,0,0:0:0:0:
448,192,90433,1,0,0:0:0:0:
64,192,90500,1,0,0:0:0:0:
192,192,90500,1,0,0:0:0:0:
320,192,90500,1,0,0:0:0:0:
448,192,90566,1,0,0:0:0:0:
64,192,90633,1,0,0:0:0:0:
320,192,90633,1,0,0:0:0:0:
192,192,90700,1,0,0:0:0:0:
320,192,90766,1,0,0:0:0:0:
448,192,90766,1,0,0:0:0:0:
64,192,90833,1,0,0:0:0:0:
192,192,90900,1,0,0:0:0:0:
320,192,90900,1,0,0:0:0:0:
448,192,90900,1,0,0:0:0:0:
64,192,90966,1,0,0:0:0:0:
192,192,91033,1,0,0:0:0:0:
448,192,91033,1,0,0:0:0:0:
320,192,91100,1,0,0:0:0:0:
64,192,91166,1,0,0:0:0:0:
192,192,91166,1,0,0:0:0:0:
448,192,91233,1,0,0:0:0:0:
192,192,91300,1,0,0:0:0:0:
320,192,91300,1,0,0:0:0:0:
64,192,91366,1,0,0:0:0:0:
448,192,91366,1,0,0:0:0:0:
192,192,91433,1,0,0:0:0:0:
320,192,91433,1,0,0:0:0:0:
64,192,91500,1,0,0:0:0:0:
448,192,91500,1,0,0:0:0:0:
192,192,91566,1,0,0:0:0:0:
320,192,91566,1,0,0:0:0:0:
64,192,91633,1,0,0:0:0:0:
192,192,91700,1,0,0:0:0:0:
448,192,91700,1,0,0:0:0:0:
320,192,91766,1,0,0:0:0:0:
64,192,91833,1,0,0:0:0:0:
192,192,91833,1,0,0:0:0:0:
448,192,91900,1,0,0:0:0:0:
64,192,91966,1,0,0:0:0:0:
320,192,91966,1,0,0:0:0:0:
192,192,92033,1,0,0:0:0:0:
64,192,92100,1,0,0:0:0:0:
320,192,92100,1,0,0:0:0:0:
448,192,92100,1,0,0:0:0:0:
192,192,92233,1,0,0:0:0:0:
448,192,92233,1,0,0:0:0:0:
64,192,92366,1,0,0:0:0:0:
192,192,92366,1,0,0:0:0:0:
448,192,92366,1,0,0:0:0:0:
64,192,92500,1,0,0:0:0:0:
320,192,92500,1,0,0:0:0:0:
448,192,92500,1,0,0:0:0:0:
192,192,92566,1,0,0:0:0:0:
320,192,92633,1,0,0:0:0:0:
448,192,92683,1,0,0:0:0:0:
192,192,92733,1,0,0:0:0:0:
320,192,92783,1,0,0:0:0:0:
64,192,92816,1,0,0:0:0:0:
192,192,92866,1,0,0:0:0:0:
320,192,92900,1,0,0:0:0:0:
448,192,92900,1,0,0:0:0:0:
64,192,92966,1,0,0:0:0:0:
192,192,93033,1,0,0:0:0:0:
448,192,93033,1,0,0:0:0:0:
320,192,93100,1,0,0:0:0:0:
64,192,93166,1,0,0:0:0:0:
192,192,93166,1,0,0:0:0:0:
320,192,93233,1,0,0:0:0:0:
64,192,93300,1,0,0:0:0:0:
192,192,93300,1,0,0:0:0:0:
448,192,93300,1,0,0:0:0:0:
320,192,93366,1,0,0:0:0:0:
64,192,93433,1,0,0:0:0:0:
448,192,93433,1,0,0:0:0:0:
192,192,93500,1,0,0:0:0:0:
320,192,93566,1,0,0:0:0:0:
448,192,93566,1,0,0:0:0:0:
64,192,93633,1,0,0:0:0:0:
192,192,93700,1,0,0:0:0:0:
320,192,93700,1,0,0:0:0:0:
448,192,93766,1,0,0:0:0:0:
64,192,93833,1,0,0:0:0:0:
320,192,93833,1,0,0:0:0:0:
192,192,93900,1,0,0:0:0:0:
320,192,93966,1,0,0:0:0:0:
448,192,93966,1,0,0:0:0:0:
64,192,94033,1,0,0:0:0:0:
192,192,94100,1,0,0:0:0:0:
320,192,94100,1,0,0:0:0:0:
448,192,94100,1,0,0:0:0:0:
64,192,94166,1,0,0:0:0:0:
192,192,94233,1,0,0:0:0:0:
448,192,94233,1,0,0:0:0:0:
320,192,94300,1,0,0:0:0:0:
64,192,94366,1,0,0:0:0:0:
448,192,94366,1,0,0:0:0:0:
192,192,94433,1,0,0:0:0:0:
320,192,94500,1,0,0:0:0:0:
448,192,94500,1,0,0:0:0:0:
64,192,94566,1,0,0:0:0:0:
192,192,94566,1,0,0:0:0:0:
320,192,94633,1,0,0:0:0:0:
448,192,94633,1,0,0:0:0:0:
64,192,94700,1,0,0:0:0:0:
192,192,94700,1,0,0:0:0:0:
320,192,94766,1,0,0:0:0:0:
448,192,94766,1,0,0:0:0:0:
64,192,94833,1,0,0:0:0:0:
192,192,94833,1,0,0:0:0:0:
320,192,94900,1,0,0:0:0:0:
448,192,94900,1,0,0:0:0:0:
64,192,94966,1,0,0:0:0:0:
192,192,95033,1,0,0:0:0:0:
320,192,95033,1,0,0:0:0:0:
448,192,95100,1,0,0:0:0:0:
64,192,95166,1,0,0:0:0:0:
320,192,95166,1,0,0:0:0:0:
192,192,95233,1,0,0:0:0:0:
64,192,95300,1,0,0:0:0:0:
320,192,95300,1,0,0:0:0:0:
448,192,95300,1,0,0:0:0:0:
192,192,95366,1,0,0:0:0:0:
320,192,95433,1,0,0:0:0:0:
448,192,95433,1,0,0:0:0:0:
192,192,95500,1,0,0:0:0:0:
64,192,95566,1,0,0:0:0:0:
448,192,95566,1,0,0:0:0:0:
320,192,95633,1,0,0:0:0:0:
64,192,95700,1,0,0:0:0:0:
192,192,95700,1,0,0:0:0:0:
448,192,95766,1,0,0:0:0:0:
192,192,95833,1,0,0:0:0:0:
320,192,95833,1,0,0:0:0:0:
64,192,95900,1,0,0:0:0:0:
320,192,95966,1,0,0:0:0:0:
448,192,95966,1,0,0:0:0:0:
192,192,96033,1,0,0:0:0:0:
64,192,96100,1,0,0:0:0:0:
448,192,96100,1,0,0:0:0:0:
192,192,96166,1,0,0:0:0:0:
320,192,96166,1,0,0:0:0:0:
64,192,96233,1,0,0:0:0:0:
448,192,96233,1,0,0:0:0:0:
192,192,96300,1,0,0:0:0:0:
320,192,96300,1,0,0:0:0:0:
64,192,96366,1,0,0:0:0:0:
448,192,96366,1,0,0:0:0:0:
320,192,96433,1,0,0:0:0:0:
64,192,96500,1,0,0:0:0:0:
192,192,96500,1,0,0:0:0:0:
320,192,96566,1,0,0:0:0:0:
448,192,96566,1,0,0:0:0:0:
64,192,96633,1,0,0:0:0:0:
192,192,96633,1,0,0:0:0:0:
320,192,96700,1,0,0:0:0:0:
448,192,96700,1,0,0:0:0:0:
64,192,96766,1,0,0:0:0:0:
192,192,96766,1,0,0:0:0:0:
448,192,96833,1,0,0:0:0:0:
64,192,96900,1,0,0:0:0:0:
192,192,96900,1,0,0:0:0:0:
320,192,96900,1,0,0:0:0:0:
448,192,96966,1,0,0:0:0:0:
64,192,97033,1,0,0:0:0:0:
320,192,97033,1,0,0:0:0:0:
192,192,97100,1,0,0:0:0:0:
320,192,97166,1,0,0:0:0:0:
448,192,97166,1,0,0:0:0:0:
64,192,97233,1,0,0:0:0:0:
192,192,97300,1,0,0:0:0:0:
448,192,97300,1,0,0:0:0:0:
320,192,97366,1,0,0:0:0:0:
64,192,97433,1,0,0:0:0:0:
192,192,97433,1,0,0:0:0:0:
448,192,97500,1,0,0:0:0:0:
64,192,97566,1,0,0:0:0:0:
320,192,97566,1,0,0:0:0:0:
192,192,97633,1,0,0:0:0:0:
320,192,97700,1,0,0:0:0:0:
448,192,97700,1,0,0:0:0:0:
64,192,97766,1,0,0:0:0:0:
192,192,97833,1,0,0:0:0:0:
448,192,97833,1,0,0:0:0:0:
320,192,97900,1,0,0:0:0:0:
64,192,97966,1,0,0:0:0:0:
192,192,97966,1,0,0:0:0:0:
448,192,98033,1,0,0:0:0:0:
192,192,98100,1,0,0:0:0:0:
320,192,98100,1,0,0:0:0:0:
64,192,98166,1,0,0:0:0:0:
320,192,98233,1,0,0:0:0:0:
448,192,98233,1,0,0:0:0:0:
192,192,98300,1,0,0:0:0:0:
64,192,98366,1,0,0:0:0:0:
320,192,98366,1,0,0:0:0:0:
448,192,98366,1,0,0:0:0:0:
192,192,98433,1,0,0:0:0:0:
64,192,98500,128,0,98566:0:0:0:0:
320,192,98500,128,0,98566:0:0:0:0:
448,192,98500,128,0,98566:0:0:0:0:
64,192,98766,1,0,0:0:0:0:
320,192,98766,1,0,0:0:0:0:
448,192,98766,1,0,0:0:0:0:
192,192,98833,1,0,0:0:0:0:
320,192,98900,1,0,0:0:0:0:
448,192,98900,1,0,0:0:0:0:
64,192,98966,1,0,0:0:0:0:
192,192,98966,1,0,0:0:0:0:
320,192,99033,1,0,0:0:0:0:
448,192,99033,1,0,0:0:0:0:
64,192,99300,128,0,99366:0:0:0:0:
192,192,99300,128,0,99366:0:0:0:0:
448,192,99300,128,0,99366:0:0:0:0:
64,192,99566,1,0,0:0:0:0:
192,192,99566,1,0,0:0:0:0:
448,192,99566,1,0,0:0:0:0:
320,192,99633,1,0,0:0:0:0:
64,192,99700,1,0,0:0:0:0:
192,192,99700,1,0,0:0:0:0:
320,192,99766,1,0,0:0:0:0:
448,192,99766,1,0,0:0:0:0:
64,192,99833,1,0,0:0:0:0:
192,192,99833,1,0,0:0:0:0:
320,192,100100,1,0,0:0:0:0:
448,192,100100,1,0,0:0:0:0:
64,192,100166,1,0,0:0:0:0:
192,192,100166,1,0,0:0:0:0:
320,192,100233,1,0,0:0:0:0:
448,192,100233,1,0,0:0:0:0:
64,192,100300,1,0,0:0:0:0:
192,192,100300,1,0,0:0:0:0:
320,192,100366,1,0,0:0:0:0:
448,192,100366,1,0,0:0:0:0:
192,192,100433,1,0,0:0:0:0:
64,192,100500,1,0,0:0:0:0:
448,192,100566,1,0,0:0:0:0:
192,192,100633,1,0,0:0:0:0:
320,192,100633,1,0,0:0:0:0:
192,192,100766,1,0,0:0:0:0:
320,192,100766,1,0,0:0:0:0:
64,192,100900,1,0,0:0:0:0:
192,192,100900,1,0,0:0:0:0:
320,192,100966,1,0,0:0:0:0:
448,192,100966,1,0,0:0:0:0:
64,192,101033,1,0,0:0:0:0:
192,192,101033,1,0,0:0:0:0:
320,192,101100,1,0,0:0:0:0:
448,192,101100,1,0,0:0:0:0:
64,192,101166,1,0,0:0:0:0:
192,192,101166,1,0,0:0:0:0:
320,192,101233,1,0,0:0:0:0:
448,192,101300,1,0,0:0:0:0:
64,192,101366,1,0,0:0:0:0:
192,192,101433,1,0,0:0:0:0:
320,192,101433,1,0,0:0:0:0:
192,192,101566,1,0,0:0:0:0:
320,192,101566,1,0,0:0:0:0:
64,192,101700,128,0,101766:0:0:0:0:
320,192,101700,128,0,101766:0:0:0:0:
448,192,101700,128,0,101766:0:0:0:0:
64,192,101966,1,0,0:0:0:0:
320,192,101966,1,0,0:0:0:0:
448,192,101966,1,0,0:0:0:0:
192,192,102033,1,0,0:0:0:0:
320,192,102100,1,0,0:0:0:0:
448,192,102100,1,0,0:0:0:0:
64,192,102166,1,0,0:0:0:0:
192,192,102166,1,0,0:0:0:0:
320,192,102233,1,0,0:0:0:0:
448,192,102233,1,0,0:0:0:0:
64,192,102500,128,0,102566:0:0:0:0:
192,192,102500,128,0,102566:0:0:0:0:
448,192,102500,128,0,102566:0:0:0:0:
64,192,102766,1,0,0:0:0:0:
192,192,102766,1,0,0:0:0:0:
448,192,102766,1,0,0:0:0:0:
320,192,102833,1,0,0:0:0:0:
64,192,102900,1,0,0:0:0:0:
192,192,102900,1,0,0:0:0:0:
320,192,102966,1,0,0:0:0:0:
448,192,102966,1,0,0:0:0:0:
64,192,103033,1,0,0:0:0:0:
192,192,103033,1,0,0:0:0:0:
320,192,103300,1,0,0:0:0:0:
448,192,103300,1,0,0:0:0:0:
64,192,103366,1,0,0:0:0:0:
192,192,103366,1,0,0:0:0:0:
320,192,103433,1,0,0:0:0:0:
448,192,103433,1,0,0:0:0:0:
64,192,103500,1,0,0:0:0:0:
192,192,103500,1,0,0:0:0:0:
320,192,103566,1,0,0:0:0:0:
448,192,103566,1,0,0:0:0:0:
192,192,103633,1,0,0:0:0:0:
64,192,103700,1,0,0:0:0:0:
448,192,103766,1,0,0:0:0:0:
192,192,103833,1,0,0:0:0:0:
320,192,103833,1,0,0:0:0:0:
192,192,103966,1,0,0:0:0:0:
320,192,103966,1,0,0:0:0:0:
64,192,104100,1,0,0:0:0:0:
192,192,104100,1,0,0:0:0:0:
448,192,104100,1,0,0:0:0:0:
320,192,104166,1,0,0:0:0:0:
64,192,104233,1,0,0:0:0:0:
192,192,104233,1,0,0:0:0:0:
448,192,104300,1,0,0:0:0:0:
64,192,104366,1,0,0:0:0:0:
320,192,104366,1,0,0:0:0:0:
192,192,104433,1,0,0:0:0:0:
64,192,104500,1,0,0:0:0:0:
320,192,104500,1,0,0:0:0:0:
448,192,104500,1,0,0:0:0:0:
192,192,104566,1,0,0:0:0:0:
320,192,104633,1,0,0:0:0:0:
448,192,104633,1,0,0:0:0:0:
64,192,104700,1,0,0:0:0:0:
192,192,104766,1,0,0:0:0:0:
448,192,104766,1,0,0:0:0:0:
320,192,104833,1,0,0:0:0:0:
64,192,104900,128,0,104966:0:0:0:0:
192,192,104900,128,0,104966:0:0:0:0:
448,192,104900,128,0,104966:0:0:0:0:
64,192,105166,1,0,0:0:0:0:
192,192,105166,1,0,0:0:0:0:
448,192,105166,1,0,0:0:0:0:
320,192,105233,1,0,0:0:0:0:
64,192,105300,1,0,0:0:0:0:
192,192,105300,1,0,0:0:0:0:
320,192,105366,1,0,0:0:0:0:
448,192,105366,1,0,0:0:0:0:
64,192,105433,1,0,0:0:0:0:
192,192,105433,1,0,0:0:0:0:
192,192,105700,128,0,105766:0:0:0:0:
320,192,105700,128,0,105766:0:0:0:0:
448,192,105700,128,0,105766:0:0:0:0:
64,192,105966,1,0,0:0:0:0:
320,192,105966,1,0,0:0:0:0:
448,192,105966,1,0,0:0:0:0:
192,192,106033,1,0,0:0:0:0:
320,192,106100,1,0,0:0:0:0:
448,192,106100,1,0,0:0:0:0:
64,192,106166,1,0,0:0:0:0:
192,192,106166,1,0,0:0:0:0:
320,192,106233,1,0,0:0:0:0:
448,192,106233,1,0,0:0:0:0:
64,192,106500,1,0,0:0:0:0:
192,192,106500,1,0,0:0:0:0:
320,192,106566,1,0,0:0:0:0:
448,192,106566,1,0,0:0:0:0:
64,192,106633,1,0,0:0:0:0:
192,192,106633,1,0,0:0:0:0:
320,192,106700,1,0,0:0:0:0:
448,192,106700,1,0,0:0:0:0:
64,192,106766,1,0,0:0:0:0:
192,192,106766,1,0,0:0:0:0:
320,192,106833,1,0,0:0:0:0:
448,192,106900,1,0,0:0:0:0:
64,192,106966,1,0,0:0:0:0:
192,192,107033,1,0,0:0:0:0:
320,192,107033,1,0,0:0:0:0:
192,192,107166,1,0,0:0:0:0:
320,192,107166,1,0,0:0:0:0:
64,192,107300,1,0,0:0:0:0:
192,192,107300,1,0,0:0:0:0:
320,192,107366,1,0,0:0:0:0:
448,192,107366,1,0,0:0:0:0:
64,192,107433,1,0,0:0:0:0:
192,192,107433,1,0,0:0:0:0:
320,192,107500,1,0,0:0:0:0:
448,192,107500,1,0,0:0:0:0:
64,192,107566,1,0,0:0:0:0:
192,192,107566,1,0,0:0:0:0:
320,192,107633,1,0,0:0:0:0:
448,192,107700,1,0,0:0:0:0:
64,192,107766,1,0,0:0:0:0:
192,192,107833,1,0,0:0:0:0:
320,192,107833,1,0,0:0:0:0:
192,192,107966,1,0,0:0:0:0:
320,192,107966,1,0,0:0:0:0:
64,192,108100,128,0,108166:0:0:0:0:
320,192,108100,128,0,108166:0:0:0:0:
448,192,108100,128,0,108166:0:0:0:0:
64,192,108366,1,0,0:0:0:0:
320,192,108366,1,0,0:0:0:0:
448,192,108366,1,0,0:0:0:0:
192,192,108433,1,0,0:0:0:0:
320,192,108500,1,0,0:0:0:0:
448,192,108500,1,0,0:0:0:0:
64,192,108566,1,0,0:0:0:0:
192,192,108566,1,0,0:0:0:0:
320,192,108633,1,0,0:0:0:0:
448,192,108633,1,0,0:0:0:0:
64,192,108900,128,0,108966:0:0:0:0:
192,192,108900,128,0,108966:0:0:0:0:
448,192,108900,128,0,108966:0:0:0:0:
64,192,109166,1,0,0:0:0:0:
192,192,109166,1,0,0:0:0:0:
448,192,109166,1,0,0:0:0:0:
320,192,109233,1,0,0:0:0:0:
64,192,109300,1,0,0:0:0:0:
192,192,109300,1,0,0:0:0:0:
320,192,109366,1,0,0:0:0:0:
448,192,109366,1,0,0:0:0:0:
64,192,109433,1,0,0:0:0:0:
192,192,109433,1,0,0:0:0:0:
64,192,109700,1,0,0:0:0:0:
320,192,109700,1,0,0:0:0:0:
448,192,109700,1,0,0:0:0:0:
64,192,109833,1,0,0:0:0:0:
192,192,109833,1,0,0:0:0:0:
448,192,109833,1,0,0:0:0:0:
192,192,109966,1,0,0:0:0:0:
320,192,109966,1,0,0:0:0:0:
64,192,110100,1,0,0:0:0:0:
448,192,110100,1,0,0:0:0:0:
320,192,110233,1,0,0:0:0:0:
448,192,110233,1,0,0:0:0:0:
192,192,110300,1,0,0:0:0:0:
64,192,110366,1,0,0:0:0:0:
320,192,110433,1,0,0:0:0:0:
192,192,110500,1,0,0:0:0:0:
320,192,110566,1,0,0:0:0:0:
448,192,110633,1,0,0:0:0:0:
192,192,110700,1,0,0:0:0:0:
64,192,110766,1,0,0:0:0:0:
320,192,110833,1,0,0:0:0:0:
448,192,110900,1,0,0:0:0:0:
192,192,110966,1,0,0:0:0:0:
320,192,111033,1,0,0:0:0:0:
192,192,111100,1,0,0:0:0:0:
64,192,111166,1,0,0:0:0:0:
448,192,111233,1,0,0:0:0:0:
192,192,111300,1,0,0:0:0:0:
320,192,111300,1,0,0:0:0:0:
192,192,111433,1,0,0:0:0:0:
320,192,111433,1,0,0:0:0:0:
64,192,111566,1,0,0:0:0:0:
320,192,111566,1,0,0:0:0:0:
448,192,111566,1,0,0:0:0:0:
64,192,111700,1,0,0:0:0:0:
192,192,111700,1,0,0:0:0:0:
448,192,111700,1,0,0:0:0:0:
192,192,111833,1,0,0:0:0:0:
320,192,111833,1,0,0:0:0:0:
64,192,111966,1,0,0:0:0:0:
320,192,111966,1,0,0:0:0:0:
448,192,111966,1,0,0:0:0:0:
64,192,112100,1,0,0:0:0:0:
192,192,112100,1,0,0:0:0:0:
448,192,112100,1,0,0:0:0:0:
320,192,112233,1,0,0:0:0:0:
448,192,112233,1,0,0:0:0:0:
64,192,112366,1,0,0:0:0:0:
192,192,112366,1,0,0:0:0:0:
64,192,112500,1,0,0:0:0:0:
320,192,112500,1,0,0:0:0:0:
448,192,112500,1,0,0:0:0:0:
192,192,112633,1,0,0:0:0:0:
448,192,112633,1,0,0:0:0:0:
320,192,112700,1,0,0:0:0:0:
64,192,112766,1,0,0:0:0:0:
192,192,112833,1,0,0:0:0:0:
320,192,112900,1,0,0:0:0:0:
448,192,112900,1,0,0:0:0:0:
64,192,112966,1,0,0:0:0:0:
192,192,112966,1,0,0:0:0:0:
320,192,113033,1,0,0:0:0:0:
448,192,113033,1,0,0:0:0:0:
64,192,113100,1,0,0:0:0:0:
192,192,113100,1,0,0:0:0:0:
320,192,113166,1,0,0:0:0:0:
448,192,113166,1,0,0:0:0:0:
64,192,113233,1,0,0:0:0:0:
192,192,113233,1,0,0:0:0:0:
320,192,113300,1,0,0:0:0:0:
448,192,113300,1,0,0:0:0:0:
64,192,113366,1,0,0:0:0:0:
192,192,113433,1,0,0:0:0:0:
320,192,113433,1,0,0:0:0:0:
448,192,113500,1,0,0:0:0:0:
64,192,113566,1,0,0:0:0:0:
192,192,113566,1,0,0:0:0:0:
320,192,113633,1,0,0:0:0:0:
64,192,113700,1,0,0:0:0:0:
448,192,113700,1,0,0:0:0:0:
192,192,113766,1,0,0:0:0:0:
320,192,113766,1,0,0:0:0:0:
64,192,113833,1,0,0:0:0:0:
448,192,113833,1,0,0:0:0:0:
192,192,113900,1,0,0:0:0:0:
320,192,113900,1,0,0:0:0:0:
64,192,113966,1,0,0:0:0:0:
448,192,113966,1,0,0:0:0:0:
192,192,114033,1,0,0:0:0:0:
320,192,114033,1,0,0:0:0:0:
64,192,114100,1,0,0:0:0:0:
448,192,114100,1,0,0:0:0:0:
192,192,114166,1,0,0:0:0:0:
320,192,114233,1,0,0:0:0:0:
448,192,114233,1,0,0:0:0:0:
64,192,114300,1,0,0:0:0:0:
192,192,114366,1,0,0:0:0:0:
320,192,114366,1,0,0:0:0:0:
448,192,114433,1,0,0:0:0:0:
64,192,114500,1,0,0:0:0:0:
320,192,114500,1,0,0:0:0:0:
64,192,114633,1,0,0:0:0:0:
192,192,114633,1,0,0:0:0:0:
192,192,114766,1,0,0:0:0:0:
320,192,114766,1,0,0:0:0:0:
448,192,114766,1,0,0:0:0:0:
64,192,114900,1,0,0:0:0:0:
320,192,114900,1,0,0:0:0:0:
448,192,114900,1,0,0:0:0:0:
192,192,115033,1,0,0:0:0:0:
448,192,115033,1,0,0:0:0:0:
64,192,115166,1,0,0:0:0:0:
192,192,115166,1,0,0:0:0:0:
320,192,115166,1,0,0:0:0:0:
64,192,115300,1,0,0:0:0:0:
320,192,115300,1,0,0:0:0:0:
448,192,115300,1,0,0:0:0:0:
192,192,115433,1,0,0:0:0:0:
448,192,115433,1,0,0:0:0:0:
64,192,115566,1,0,0:0:0:0:
320,192,115566,1,0,0:0:0:0:
64,192,115700,1,0,0:0:0:0:
192,192,115700,1,0,0:0:0:0:
448,192,115700,1,0,0:0:0:0:
192,192,115833,1,0,0:0:0:0:
64,192,115966,1,0,0:0:0:0:
448,192,115966,1,0,0:0:0:0:
320,192,116100,1,0,0:0:0:0:
448,192,116100,1,0,0:0:0:0:
64,192,116166,1,0,0:0:0:0:
192,192,116166,1,0,0:0:0:0:
320,192,116233,1,0,0:0:0:0:
448,192,116233,1,0,0:0:0:0:
64,192,116300,1,0,0:0:0:0:
192,192,116300,1,0,0:0:0:0:
320,192,116366,1,0,0:0:0:0:
448,192,116366,1,0,0:0:0:0:
192,192,116433,1,0,0:0:0:0:
64,192,116500,1,0,0:0:0:0:
320,192,116500,1,0,0:0:0:0:
448,192,116500,1,0,0:0:0:0:
192,192,116566,1,0,0:0:0:0:
448,192,116633,1,0,0:0:0:0:
320,192,116700,1,0,0:0:0:0:
64,192,116766,1,0,0:0:0:0:
192,192,116766,1,0,0:0:0:0:
64,192,116900,1,0,0:0:0:0:
320,192,116900,1,0,0:0:0:0:
448,192,116900,1,0,0:0:0:0:
192,192,116966,1,0,0:0:0:0:
64,192,117033,1,0,0:0:0:0:
320,192,117033,1,0,0:0:0:0:
448,192,117100,1,0,0:0:0:0:
192,192,117166,1,0,0:0:0:0:
320,192,117166,1,0,0:0:0:0:
64,192,117233,1,0,0:0:0:0:
192,192,117300,1,0,0:0:0:0:
448,192,117300,1,0,0:0:0:0:
320,192,117366,1,0,0:0:0:0:
64,192,117433,1,0,0:0:0:0:
448,192,117433,1,0,0:0:0:0:
320,192,117500,1,0,0:0:0:0:
64,192,117566,1,0,0:0:0:0:
192,192,117566,1,0,0:0:0:0:
448,192,117633,1,0,0:0:0:0:
64,192,117700,1,0,0:0:0:0:
192,192,117700,1,0,0:0:0:0:
320,192,117700,1,0,0:0:0:0:
448,192,117766,1,0,0:0:0:0:
320,192,117833,1,0,0:0:0:0:
64,192,117900,1,0,0:0:0:0:
192,192,117966,1,0,0:0:0:0:
448,192,117966,1,0,0:0:0:0:
320,192,118033,1,0,0:0:0:0:
64,192,118100,1,0,0:0:0:0:
448,192,118100,1,0,0:0:0:0:
192,192,118166,1,0,0:0:0:0:
320,192,118233,1,0,0:0:0:0:
448,192,118300,1,0,0:0:0:0:
64,192,118366,1,0,0:0:0:0:
192,192,118366,1,0,0:0:0:0:
320,192,118433,1,0,0:0:0:0:
64,192,118500,1,0,0:0:0:0:
192,192,118500,1,0,0:0:0:0:
448,192,118566,1,0,0:0:0:0:
64,192,118633,1,0,0:0:0:0:
320,192,118633,1,0,0:0:0:0:
192,192,118700,1,0,0:0:0:0:
448,192,118766,1,0,0:0:0:0:
64,192,118833,1,0,0:0:0:0:
192,192,118900,1,0,0:0:0:0:
448,192,118900,1,0,0:0:0:0:
320,192,118966,1,0,0:0:0:0:
64,192,119033,1,0,0:0:0:0:
448,192,119100,1,0,0:0:0:0:
192,192,119166,1,0,0:0:0:0:
320,192,119166,1,0,0:0:0:0:
64,192,119233,1,0,0:0:0:0:
320,192,119300,1,0,0:0:0:0:
448,192,119300,1,0,0:0:0:0:
64,192,119366,1,0,0:0:0:0:
192,192,119366,1,0,0:0:0:0:
320,192,119433,1,0,0:0:0:0:
448,192,119433,1,0,0:0:0:0:
64,192,119500,1,0,0:0:0:0:
192,192,119500,1,0,0:0:0:0:
320,192,119566,1,0,0:0:0:0:
448,192,119566,1,0,0:0:0:0:
64,192,119633,1,0,0:0:0:0:
192,192,119633,1,0,0:0:0:0:
320,192,119700,1,0,0:0:0:0:
448,192,119700,1,0,0:0:0:0:
64,192,119766,1,0,0:0:0:0:
192,192,119833,1,0,0:0:0:0:
448,192,119833,1,0,0:0:0:0:
320,192,119900,1,0,0:0:0:0:
192,192,119966,1,0,0:0:0:0:
448,192,119966,1,0,0:0:0:0:
320,192,120033,1,0,0:0:0:0:
64,192,120100,1,0,0:0:0:0:
192,192,120100,1,0,0:0:0:0:
320,192,120166,1,0,0:0:0:0:
448,192,120166,1,0,0:0:0:0:
64,192,120233,1,0,0:0:0:0:
192,192,120233,1,0,0:0:0:0:
320,192,120300,1,0,0:0:0:0:
448,192,120300,1,0,0:0:0:0:
64,192,120366,1,0,0:0:0:0:
192,192,120366,1,0,0:0:0:0:
320,192,120433,1,0,0:0:0:0:
64,192,120500,1,0,0:0:0:0:
192,192,120500,1,0,0:0:0:0:
448,192,120500,1,0,0:0:0:0:
320,192,120633,1,0,0:0:0:0:
448,192,120633,1,0,0:0:0:0:
64,192,120700,1,0,0:0:0:0:
192,192,120700,1,0,0:0:0:0:
320,192,120766,1,0,0:0:0:0:
448,192,120766,1,0,0:0:0:0:
64,192,120900,1,0,0:0:0:0:
192,192,120900,1,0,0:0:0:0:
320,192,120900,1,0,0:0:0:0:
448,192,120900,1,0,0:0:0:0:
64,192,121166,1,0,0:0:0:0:
192,192,121166,1,0,0:0:0:0:
320,192,121166,1,0,0:0:0:0:
448,192,121166,1,0,0:0:0:0:
64,192,121300,1,0,0:0:0:0:
192,192,121300,1,0,0:0:0:0:
448,192,121300,1,0,0:0:0:0:
64,192,121433,1,0,0:0:0:0:
192,192,121433,1,0,0:0:0:0:
320,192,121433,1,0,0:0:0:0:
448,192,121433,1,0,0:0:0:0:
64,192,121700,1,0,0:0:0:0:
192,192,121700,1,0,0:0:0:0:
320,192,121700,1,0,0:0:0:0:
448,192,121700,1,0,0:0:0:0:
64,192,121966,1,0,0:0:0:0:
192,192,121966,1,0,0:0:0:0:
320,192,121966,1,0,0:0:0:0:
448,192,121966,1,0,0:0:0:0:
64,192,122100,1,0,0:0:0:0:
320,192,122100,1,0,0:0:0:0:
448,192,122100,1,0,0:0:0:0:
64,192,122233,1,0,0:0:0:0:
192,192,122233,1,0,0:0:0:0:
320,192,122233,1,0,0:0:0:0:
448,192,122233,1,0,0:0:0:0:
64,192,122500,1,0,0:0:0:0:
448,192,122500,1,0,0:0:0:0:
192,192,122500,1,0,0:0:0:0:
448,192,122633,1,0,0:0:0:0:
192,192,122633,1,0,0:0:0:0:
448,192,122766,1,0,0:0:0:0:
192,192,122766,1,0,0:0:0:0:
64,192,122900,1,0,0:0:0:0:
448,192,122900,1,0,0:0:0:0:
320,192,122900,1,0,0:0:0:0:
64,192,123033,1,0,0:0:0:0:
320,192,123033,1,0,0:0:0:0:
64,192,123166,1,0,0:0:0:0:
448,192,123166,1,0,0:0:0:0:
320,192,123166,1,0,0:0:0:0:
64,192,123300,1,0,0:0:0:0:
192,192,123300,1,0,0:0:0:0:
448,192,123300,1,0,0:0:0:0:
192,192,123433,1,0,0:0:0:0:
320,192,123433,1,0,0:0:0:0:
448,192,123566,1,0,0:0:0:0:
64,192,123566,1,0,0:0:0:0:
320,192,123700,1,0,0:0:0:0:
448,192,123700,1,0,0:0:0:0:
192,192,123700,1,0,0:0:0:0:
192,192,123833,1,0,0:0:0:0:
64,192,123833,1,0,0:0:0:0:
64,192,123966,1,0,0:0:0:0:
320,192,123966,1,0,0:0:0:0:
64,192,124100,1,0,0:0:0:0:
192,192,124100,1,0,0:0:0:0:
320,192,124100,1,0,0:0:0:0:
448,192,124100,1,0,0:0:0:0:
192,192,124233,1,0,0:0:0:0:
448,192,124233,1,0,0:0:0:0:
64,192,124366,1,0,0:0:0:0:
320,192,124366,1,0,0:0:0:0:
64,192,124500,1,0,0:0:0:0:
192,192,124500,1,0,0:0:0:0:
320,192,124633,1,0,0:0:0:0:
448,192,124633,1,0,0:0:0:0:
192,192,124766,1,0,0:0:0:0:
320,192,124766,1,0,0:0:0:0:
64,192,124900,1,0,0:0:0:0:
192,192,124900,1,0,0:0:0:0:
448,192,124900,1,0,0:0:0:0:
64,192,125033,1,0,0:0:0:0:
192,192,125033,1,0,0:0:0:0:
64,192,125166,1,0,0:0:0:0:
192,192,125166,1,0,0:0:0:0:
320,192,125300,1,0,0:0:0:0:
448,192,125300,1,0,0:0:0:0:
64,192,125433,1,0,0:0:0:0:
448,192,125433,1,0,0:0:0:0:
64,192,125566,1,0,0:0:0:0:
320,192,125566,1,0,0:0:0:0:
192,192,125700,1,0,0:0:0:0:
320,192,125700,1,0,0:0:0:0:
448,192,125700,1,0,0:0:0:0:
64,192,125833,1,0,0:0:0:0:
448,192,125833,1,0,0:0:0:0:
192,192,125966,1,0,0:0:0:0:
320,192,125966,1,0,0:0:0:0:
64,192,126100,1,0,0:0:0:0:
320,192,126100,1,0,0:0:0:0:
192,192,126233,1,0,0:0:0:0:
448,192,126233,1,0,0:0:0:0:
320,192,126366,1,0,0:0:0:0:
448,192,126366,1,0,0:0:0:0:
64,192,126500,1,0,0:0:0:0:
192,192,126500,1,0,0:0:0:0:
320,192,126500,1,0,0:0:0:0:
192,192,126633,1,0,0:0:0:0:
448,192,126633,1,0,0:0:0:0:
64,192,126766,1,0,0:0:0:0:
320,192,126766,1,0,0:0:0:0:
320,192,126900,1,0,0:0:0:0:
448,192,126900,1,0,0:0:0:0:
64,192,127033,1,0,0:0:0:0:
192,192,127033,1,0,0:0:0:0:
64,192,127166,1,0,0:0:0:0:
448,192,127166,1,0,0:0:0:0:
192,192,127300,1,0,0:0:0:0:
320,192,127300,1,0,0:0:0:0:
448,192,127300,1,0,0:0:0:0:
192,192,127433,1,0,0:0:0:0:
320,192,127433,1,0,0:0:0:0:
64,192,127566,1,0,0:0:0:0:
192,192,127566,1,0,0:0:0:0:
448,192,127566,1,0,0:0:0:0:
320,192,127700,1,0,0:0:0:0:
448,192,127700,1,0,0:0:0:0:
64,192,127833,1,0,0:0:0:0:
192,192,127833,1,0,0:0:0:0:
320,192,127833,1,0,0:0:0:0:
64,192,127966,1,0,0:0:0:0:
448,192,127966,1,0,0:0:0:0:
192,192,128100,1,0,0:0:0:0:
320,192,128100,1,0,0:0:0:0:
448,192,128100,1,0,0:0:0:0:
64,192,128233,1,0,0:0:0:0:
320,192,128233,1,0,0:0:0:0:
192,192,128366,1,0,0:0:0:0:
448,192,128366,1,0,0:0:0:0:
320,192,128500,1,0,0:0:0:0:
448,192,128500,1,0,0:0:0:0:
64,192,128633,1,0,0:0:0:0:
192,192,128633,1,0,0:0:0:0:
320,192,128766,1,0,0:0:0:0:
448,192,128766,1,0,0:0:0:0:
64,192,128900,1,0,0:0:0:0:
320,192,128900,1,0,0:0:0:0:
448,192,128900,1,0,0:0:0:0:
64,192,129033,1,0,0:0:0:0:
192,192,129033,1,0,0:0:0:0:
320,192,129166,1,0,0:0:0:0:
448,192,129166,1,0,0:0:0:0:
64,192,129300,1,0,0:0:0:0:
320,192,129300,1,0,0:0:0:0:
192,192,129433,1,0,0:0:0:0:
448,192,129433,1,0,0:0:0:0:
192,192,129566,1,0,0:0:0:0:
320,192,129566,1,0,0:0:0:0:
64,192,129700,1,0,0:0:0:0:
320,192,129700,1,0,0:0:0:0:
448,192,129700,1,0,0:0:0:0:
64,192,129833,1,0,0:0:0:0:
192,192,129833,1,0,0:0:0:0:
320,192,129966,1,0,0:0:0:0:
448,192,129966,1,0,0:0:0:0:
64,192,130100,1,0,0:0:0:0:
448,192,130100,1,0,0:0:0:0:
192,192,130233,1,0,0:0:0:0:
320,192,130233,1,0,0:0:0:0:
192,192,130366,1,0,0:0:0:0:
320,192,130366,1,0,0:0:0:0:
64,192,130500,1,0,0:0:0:0:
192,192,130500,1,0,0:0:0:0:
448,192,130500,1,0,0:0:0:0:
320,192,130633,1,0,0:0:0:0:
448,192,130633,1,0,0:0:0:0:
64,192,130766,1,0,0:0:0:0:
192,192,130766,1,0,0:0:0:0:
64,192,130900,1,0,0:0:0:0:
448,192,130900,1,0,0:0:0:0:
192,192,131033,1,0,0:0:0:0:
320,192,131033,1,0,0:0:0:0:
64,192,131166,1,0,0:0:0:0:
320,192,131166,1,0,0:0:0:0:
192,192,131300,1,0,0:0:0:0:
448,192,131300,1,0,0:0:0:0:
64,192,131433,1,0,0:0:0:0:
320,192,131433,1,0,0:0:0:0:
448,192,131433,1,0,0:0:0:0:
64,192,131566,1,0,0:0:0:0:
192,192,131566,1,0,0:0:0:0:
320,192,131700,1,0,0:0:0:0:
448,192,131700,1,0,0:0:0:0:
64,192,131833,1,0,0:0:0:0:
320,192,131833,1,0,0:0:0:0:
192,192,131966,1,0,0:0:0:0:
448,192,131966,1,0,0:0:0:0:
64,192,132100,1,0,0:0:0:0:
192,192,132100,1,0,0:0:0:0:
320,192,132100,1,0,0:0:0:0:
320,192,132233,1,0,0:0:0:0:
448,192,132233,1,0,0:0:0:0:
64,192,132366,1,0,0:0:0:0:
192,192,132366,1,0,0:0:0:0:
192,192,132500,1,0,0:0:0:0:
448,192,132500,1,0,0:0:0:0:
64,192,132633,1,0,0:0:0:0:
320,192,132633,1,0,0:0:0:0:
192,192,132766,1,0,0:0:0:0:
320,192,132766,1,0,0:0:0:0:
64,192,132900,1,0,0:0:0:0:
192,192,132900,1,0,0:0:0:0:
448,192,132900,1,0,0:0:0:0:
320,192,133033,1,0,0:0:0:0:
448,192,133033,1,0,0:0:0:0:
64,192,133166,1,0,0:0:0:0:
192,192,133166,1,0,0:0:0:0:
192,192,133300,1,0,0:0:0:0:
448,192,133300,1,0,0:0:0:0:
64,192,133433,1,0,0:0:0:0:
320,192,133433,1,0,0:0:0:0:
192,192,133566,1,0,0:0:0:0:
320,192,133566,1,0,0:0:0:0:
64,192,133700,1,0,0:0:0:0:
448,192,133700,1,0,0:0:0:0:
64,192,133833,1,0,0:0:0:0:
320,192,133833,1,0,0:0:0:0:
192,192,133966,1,0,0:0:0:0:
320,192,133966,1,0,0:0:0:0:
448,192,133966,1,0,0:0:0:0:
64,192,134100,1,0,0:0:0:0:
448,192,134100,1,0,0:0:0:0:
64,192,134233,1,0,0:0:0:0:
192,192,134233,1,0,0:0:0:0:
320,192,134233,1,0,0:0:0:0:
192,192,134366,1,0,0:0:0:0:
448,192,134366,1,0,0:0:0:0:
64,192,134500,1,0,0:0:0:0:
320,192,134500,1,0,0:0:0:0:
448,192,134500,1,0,0:0:0:0:
192,192,134633,1,0,0:0:0:0:
320,192,134633,1,0,0:0:0:0:
64,192,134766,1,0,0:0:0:0:
448,192,134766,1,0,0:0:0:0:
64,192,134900,1,0,0:0:0:0:
192,192,134900,1,0,0:0:0:0:
320,192,135033,1,0,0:0:0:0:
448,192,135033,1,0,0:0:0:0:
64,192,135166,1,0,0:0:0:0:
320,192,135166,1,0,0:0:0:0:
64,192,135300,1,0,0:0:0:0:
320,192,135300,1,0,0:0:0:0:
192,192,135433,1,0,0:0:0:0:
448,192,135433,1,0,0:0:0:0:
64,192,135566,1,0,0:0:0:0:
320,192,135566,1,0,0:0:0:0:
448,192,135566,1,0,0:0:0:0:
192,192,135655,1,0,0:0:0:0:
448,192,135744,1,0,0:0:0:0:
64,192,135833,1,0,0:0:0:0:
192,192,135833,1,0,0:0:0:0:
320,192,135833,1,0,0:0:0:0:
448,192,135922,1,0,0:0:0:0:
64,192,136011,1,0,0:0:0:0:
192,192,136100,1,0,0:0:0:0:
320,192,136100,1,0,0:0:0:0:
448,192,136100,1,0,0:0:0:0:
64,192,136188,1,0,0:0:0:0:
320,192,136277,1,0,0:0:0:0:
64,192,136366,1,0,0:0:0:0:
192,192,136366,1,0,0:0:0:0:
448,192,136366,1,0,0:0:0:0:
320,192,136455,1,0,0:0:0:0:
192,192,136544,1,0,0:0:0:0:
64,192,136633,1,0,0:0:0:0:
320,192,136633,1,0,0:0:0:0:
448,192,136633,1,0,0:0:0:0:
64,192,136766,1,0,0:0:0:0:
320,192,136766,1,0,0:0:0:0:
448,192,136766,1,0,0:0:0:0:
64,192,136900,1,0,0:0:0:0:
320,192,136900,1,0,0:0:0:0:
448,192,136900,1,0,0:0:0:0:
192,192,137033,1,0,0:0:0:0:
448,192,137033,1,0,0:0:0:0:
64,192,137166,1,0,0:0:0:0:
192,192,137166,1,0,0:0:0:0:
320,192,137166,1,0,0:0:0:0:
320,192,137300,1,0,0:0:0:0:
448,192,137300,1,0,0:0:0:0:
64,192,137433,1,0,0:0:0:0:
192,192,137433,1,0,0:0:0:0:
64,192,137566,1,0,0:0:0:0:
448,192,137566,1,0,0:0:0:0:
192,192,137700,1,0,0:0:0:0:
320,192,137700,1,0,0:0:0:0:
64,192,137833,1,0,0:0:0:0:
320,192,137833,1,0,0:0:0:0:
192,192,137966,1,0,0:0:0:0:
448,192,137966,1,0,0:0:0:0:
320,192,138100,1,0,0:0:0:0:
448,192,138100,1,0,0:0:0:0:
64,192,138233,1,0,0:0:0:0:
192,192,138233,1,0,0:0:0:0:
320,192,138366,1,0,0:0:0:0:
448,192,138366,1,0,0:0:0:0:
64,192,138500,1,0,0:0:0:0:
320,192,138500,1,0,0:0:0:0:
448,192,138500,1,0,0:0:0:0:
64,192,138633,1,0,0:0:0:0:
192,192,138633,1,0,0:0:0:0:
320,192,138766,1,0,0:0:0:0:
448,192,138766,1,0,0:0:0:0:
64,192,138900,1,0,0:0:0:0:
320,192,138900,1,0,0:0:0:0:
192,192,139033,1,0,0:0:0:0:
448,192,139033,1,0,0:0:0:0:
192,192,139166,1,0,0:0:0:0:
320,192,139166,1,0,0:0:0:0:
64,192,139300,1,0,0:0:0:0:
320,192,139300,1,0,0:0:0:0:
448,192,139300,1,0,0:0:0:0:
64,192,139433,1,0,0:0:0:0:
192,192,139433,1,0,0:0:0:0:
320,192,139566,1,0,0:0:0:0:
448,192,139566,1,0,0:0:0:0:
64,192,139700,1,0,0:0:0:0:
192,192,139700,1,0,0:0:0:0:
448,192,139700,1,0,0:0:0:0:
192,192,139833,1,0,0:0:0:0:
320,192,139833,1,0,0:0:0:0:
64,192,139966,1,0,0:0:0:0:
448,192,139966,1,0,0:0:0:0:
192,192,140100,1,0,0:0:0:0:
320,192,140100,1,0,0:0:0:0:
448,192,140100,1,0,0:0:0:0:
64,192,140233,1,0,0:0:0:0:
320,192,140233,1,0,0:0:0:0:
64,192,140366,1,0,0:0:0:0:
192,192,140366,1,0,0:0:0:0:
448,192,140366,1,0,0:0:0:0:
320,192,140500,1,0,0:0:0:0:
448,192,140500,1,0,0:0:0:0:
64,192,140633,1,0,0:0:0:0:
192,192,140633,1,0,0:0:0:0:
320,192,140633,1,0,0:0:0:0:
64,192,140766,1,0,0:0:0:0:
448,192,140766,1,0,0:0:0:0:
192,192,140900,1,0,0:0:0:0:
320,192,140900,1,0,0:0:0:0:
192,192,141033,1,0,0:0:0:0:
448,192,141033,1,0,0:0:0:0:
64,192,141166,1,0,0:0:0:0:
320,192,141166,1,0,0:0:0:0:
64,192,141300,1,0,0:0:0:0:
192,192,141300,1,0,0:0:0:0:
320,192,141433,1,0,0:0:0:0:
448,192,141433,1,0,0:0:0:0:
64,192,141566,1,0,0:0:0:0:
192,192,141566,1,0,0:0:0:0:
64,192,141700,1,0,0:0:0:0:
192,192,141700,1,0,0:0:0:0:
448,192,141700,1,0,0:0:0:0:
320,192,141833,1,0,0:0:0:0:
448,192,141833,1,0,0:0:0:0:
64,192,141966,1,0,0:0:0:0:
320,192,141966,1,0,0:0:0:0:
64,192,142100,1,0,0:0:0:0:
192,192,142100,1,0,0:0:0:0:
192,192,142233,1,0,0:0:0:0:
448,192,142233,1,0,0:0:0:0:
64,192,142366,1,0,0:0:0:0:
320,192,142366,1,0,0:0:0:0:
448,192,142366,1,0,0:0:0:0:
64,192,142500,1,0,0:0:0:0:
192,192,142500,1,0,0:0:0:0:
320,192,142633,1,0,0:0:0:0:
448,192,142633,1,0,0:0:0:0:
64,192,142766,1,0,0:0:0:0:
320,192,142766,1,0,0:0:0:0:
64,192,142900,1,0,0:0:0:0:
192,192,142900,1,0,0:0:0:0:
448,192,142900,1,0,0:0:0:0:
192,192,143033,1,0,0:0:0:0:
320,192,143033,1,0,0:0:0:0:
64,192,143166,1,0,0:0:0:0:
448,192,143166,1,0,0:0:0:0:
320,192,143300,1,0,0:0:0:0:
448,192,143300,1,0,0:0:0:0:
64,192,143433,1,0,0:0:0:0:
192,192,143433,1,0,0:0:0:0:
192,192,143566,1,0,0:0:0:0:
320,192,143566,1,0,0:0:0:0:
448,192,143566,1,0,0:0:0:0:
64,192,143700,1,0,0:0:0:0:
320,192,143700,1,0,0:0:0:0:
192,192,143833,1,0,0:0:0:0:
448,192,143833,1,0,0:0:0:0:
320,192,143966,1,0,0:0:0:0:
448,192,143966,1,0,0:0:0:0:
64,192,144100,1,0,0:0:0:0:
192,192,144100,1,0,0:0:0:0:
320,192,144100,1,0,0:0:0:0:
64,192,144233,1,0,0:0:0:0:
448,192,144233,1,0,0:0:0:0:
192,192,144366,1,0,0:0:0:0:
320,192,144366,1,0,0:0:0:0:
64,192,144500,1,0,0:0:0:0:
320,192,144500,1,0,0:0:0:0:
64,192,144633,1,0,0:0:0:0:
192,192,144633,1,0,0:0:0:0:
320,192,144766,1,0,0:0:0:0:
448,192,144766,1,0,0:0:0:0:
64,192,144900,1,0,0:0:0:0:
320,192,144900,1,0,0:0:0:0:
448,192,144900,1,0,0:0:0:0:
64,192,145033,1,0,0:0:0:0:
192,192,145033,1,0,0:0:0:0:
320,192,145166,1,0,0:0:0:0:
448,192,145166,1,0,0:0:0:0:
64,192,145300,1,0,0:0:0:0:
448,192,145300,1,0,0:0:0:0:
192,192,145433,1,0,0:0:0:0:
320,192,145433,1,0,0:0:0:0:
192,192,145566,1,0,0:0:0:0:
448,192,145566,1,0,0:0:0:0:
64,192,145700,1,0,0:0:0:0:
320,192,145700,1,0,0:0:0:0:
192,192,145833,1,0,0:0:0:0:
320,192,145833,1,0,0:0:0:0:
448,192,145833,1,0,0:0:0:0:
64,192,145966,1,0,0:0:0:0:
192,192,145966,1,0,0:0:0:0:
320,192,146100,1,0,0:0:0:0:
448,192,146100,1,0,0:0:0:0:
192,192,146233,1,0,0:0:0:0:
448,192,146233,1,0,0:0:0:0:
64,192,146366,1,0,0:0:0:0:
320,192,146366,1,0,0:0:0:0:
64,192,146500,1,0,0:0:0:0:
192,192,146500,1,0,0:0:0:0:
320,192,146500,1,0,0:0:0:0:
192,192,146633,1,0,0:0:0:0:
448,192,146633,1,0,0:0:0:0:
64,192,146766,1,0,0:0:0:0:
320,192,146766,1,0,0:0:0:0:
448,192,146766,1,0,0:0:0:0:
192,192,146900,1,0,0:0:0:0:
448,192,146900,1,0,0:0:0:0:
64,192,147033,1,0,0:0:0:0:
192,192,147033,1,0,0:0:0:0:
320,192,147033,1,0,0:0:0:0:
320,192,147166,1,0,0:0:0:0:
448,192,147166,1,0,0:0:0:0:
64,192,147300,1,0,0:0:0:0:
192,192,147300,1,0,0:0:0:0:
448,192,147300,1,0,0:0:0:0:
64,192,147433,1,0,0:0:0:0:
320,192,147433,1,0,0:0:0:0:
192,192,147566,1,0,0:0:0:0:
320,192,147566,1,0,0:0:0:0:
448,192,147566,1,0,0:0:0:0:
64,192,147700,1,0,0:0:0:0:
448,192,147700,1,0,0:0:0:0:
64,192,147833,1,0,0:0:0:0:
192,192,147833,1,0,0:0:0:0:
320,192,147833,1,0,0:0:0:0:
320,192,147966,1,0,0:0:0:0:
448,192,147966,1,0,0:0:0:0:
64,192,148100,1,0,0:0:0:0:
192,192,148100,1,0,0:0:0:0:
448,192,148100,1,0,0:0:0:0:
192,192,148233,1,0,0:0:0:0:
320,192,148233,1,0,0:0:0:0:
64,192,148366,1,0,0:0:0:0:
320,192,148366,1,0,0:0:0:0:
448,192,148366,1,0,0:0:0:0:
64,192,148500,1,0,0:0:0:0:
320,192,148500,1,0,0:0:0:0:
448,192,148500,1,0,0:0:0:0:
64,192,148633,1,0,0:0:0:0:
320,192,148633,1,0,0:0:0:0:
448,192,148633,1,0,0:0:0:0:
320,192,148766,1,0,0:0:0:0:
64,192,148900,1,0,0:0:0:0:
192,192,148900,1,0,0:0:0:0:
448,192,148900,1,0,0:0:0:0:
64,192,149033,1,0,0:0:0:0:
192,192,149033,1,0,0:0:0:0:
448,192,149033,1,0,0:0:0:0:
64,192,149166,1,0,0:0:0:0:
192,192,149166,1,0,0:0:0:0:
448,192,149166,1,0,0:0:0:0:
64,192,149300,1,0,0:0:0:0:
192,192,149433,1,0,0:0:0:0:
320,192,149433,1,0,0:0:0:0:
448,192,149433,1,0,0:0:0:0:
192,192,149566,1,0,0:0:0:0:
320,192,149566,1,0,0:0:0:0:
448,192,149566,1,0,0:0:0:0:
64,192,149700,1,0,0:0:0:0:
192,192,149700,1,0,0:0:0:0:
448,192,149700,1,0,0:0:0:0:
64,192,149833,1,0,0:0:0:0:
192,192,149833,1,0,0:0:0:0:
64,192,149966,1,0,0:0:0:0:
192,192,149966,1,0,0:0:0:0:
320,192,150100,1,0,0:0:0:0:
448,192,150100,1,0,0:0:0:0:
320,192,150233,1,0,0:0:0:0:
448,192,150233,1,0,0:0:0:0:
192,192,150366,1,0,0:0:0:0:
64,192,150500,1,0,0:0:0:0:
320,192,150500,1,0,0:0:0:0:
64,192,150633,1,0,0:0:0:0:
320,192,150633,1,0,0:0:0:0:
64,192,150766,1,0,0:0:0:0:
320,192,150766,1,0,0:0:0:0:
448,192,150900,1,0,0:0:0:0:
64,192,151033,1,0,0:0:0:0:
192,192,151033,1,0,0:0:0:0:
64,192,151166,1,0,0:0:0:0:
192,192,151166,1,0,0:0:0:0:
64,192,151300,1,0,0:0:0:0:
320,192,151300,1,0,0:0:0:0:
448,192,151300,1,0,0:0:0:0:
320,192,151433,1,0,0:0:0:0:
448,192,151433,1,0,0:0:0:0:
320,192,151566,1,0,0:0:0:0:
448,192,151566,1,0,0:0:0:0:
192,192,151700,1,0,0:0:0:0:
448,192,151700,1,0,0:0:0:0:
64,192,151833,1,0,0:0:0:0:
320,192,151833,1,0,0:0:0:0:
64,192,151966,1,0,0:0:0:0:
192,192,151966,1,0,0:0:0:0:
64,192,152100,1,0,0:0:0:0:
320,192,152100,1,0,0:0:0:0:
448,192,152100,1,0,0:0:0:0:
320,192,152233,1,0,0:0:0:0:
448,192,152233,1,0,0:0:0:0:
320,192,152366,1,0,0:0:0:0:
448,192,152366,1,0,0:0:0:0:
192,192,152500,1,0,0:0:0:0:
448,192,152500,1,0,0:0:0:0:
64,192,152633,1,0,0:0:0:0:
320,192,152633,1,0,0:0:0:0:
64,192,152766,1,0,0:0:0:0:
192,192,152766,1,0,0:0:0:0:
64,192,152900,1,0,0:0:0:0:
192,192,152900,1,0,0:0:0:0:
448,192,152900,1,0,0:0:0:0:
320,192,153033,1,0,0:0:0:0:
192,192,153166,1,0,0:0:0:0:
448,192,153166,1,0,0:0:0:0:
192,192,153300,1,0,0:0:0:0:
448,192,153300,1,0,0:0:0:0:
192,192,153433,1,0,0:0:0:0:
448,192,153433,1,0,0:0:0:0:
320,192,153566,1,0,0:0:0:0:
64,192,153700,1,0,0:0:0:0:
192,192,153700,1,0,0:0:0:0:
64,192,153833,1,0,0:0:0:0:
192,192,153833,1,0,0:0:0:0:
64,192,153966,1,0,0:0:0:0:
192,192,153966,1,0,0:0:0:0:
448,192,154100,1,0,0:0:0:0:
320,192,154233,1,0,0:0:0:0:
192,192,154300,1,0,0:0:0:0:
320,192,154366,1,0,0:0:0:0:
192,192,154433,1,0,0:0:0:0:
320,192,154500,1,0,0:0:0:0:
448,192,154500,1,0,0:0:0:0:
192,192,154633,1,0,0:0:0:0:
320,192,154766,1,0,0:0:0:0:
448,192,154766,1,0,0:0:0:0:
320,192,154900,1,0,0:0:0:0:
448,192,154900,1,0,0:0:0:0:
192,192,155033,1,0,0:0:0:0:
320,192,155033,1,0,0:0:0:0:
64,192,155166,1,0,0:0:0:0:
192,192,155166,1,0,0:0:0:0:
64,192,155300,1,0,0:0:0:0:
320,192,155300,1,0,0:0:0:0:
448,192,155300,1,0,0:0:0:0:
192,192,155433,1,0,0:0:0:0:
320,192,155566,1,0,0:0:0:0:
448,192,155566,1,0,0:0:0:0:
320,192,155700,1,0,0:0:0:0:
448,192,155700,1,0,0:0:0:0:
192,192,155833,1,0,0:0:0:0:
320,192,155833,1,0,0:0:0:0:
64,192,155966,1,0,0:0:0:0:
192,192,155966,1,0,0:0:0:0:
64,192,156100,1,0,0:0:0:0:
320,192,156100,1,0,0:0:0:0:
448,192,156100,1,0,0:0:0:0:
192,192,156166,1,0,0:0:0:0:
320,192,156233,1,0,0:0:0:0:
64,192,156300,1,0,0:0:0:0:
192,192,156366,1,0,0:0:0:0:
448,192,156366,1,0,0:0:0:0:
320,192,156433,1,0,0:0:0:0:
64,192,156500,1,0,0:0:0:0:
192,192,156500,1,0,0:0:0:0:
448,192,156566,1,0,0:0:0:0:
64,192,156633,1,0,0:0:0:0:
320,192,156633,1,0,0:0:0:0:
192,192,156700,1,0,0:0:0:0:
448,192,156766,1,0,0:0:0:0:
64,192,156833,1,0,0:0:0:0:
192,192,156900,1,0,0:0:0:0:
320,192,156900,1,0,0:0:0:0:
448,192,156966,1,0,0:0:0:0:
192,192,157033,1,0,0:0:0:0:
320,192,157033,1,0,0:0:0:0:
64,192,157100,1,0,0:0:0:0:
192,192,157166,1,0,0:0:0:0:
320,192,157166,1,0,0:0:0:0:
448,192,157233,1,0,0:0:0:0:
64,192,157300,1,0,0:0:0:0:
192,192,157366,1,0,0:0:0:0:
320,192,157433,1,0,0:0:0:0:
448,192,157433,1,0,0:0:0:0:
64,192,157500,1,0,0:0:0:0:
192,192,157566,1,0,0:0:0:0:
320,192,157566,1,0,0:0:0:0:
448,192,157633,1,0,0:0:0:0:
64,192,157700,1,0,0:0:0:0:
192,192,157700,1,0,0:0:0:0:
320,192,157766,1,0,0:0:0:0:
192,192,157833,1,0,0:0:0:0:
320,192,157900,1,0,0:0:0:0:
192,192,157966,1,0,0:0:0:0:
448,192,158033,1,0,0:0:0:0:
320,192,158100,1,0,0:0:0:0:
192,192,158166,1,0,0:0:0:0:
64,192,158233,1,0,0:0:0:0:
448,192,158233,1,0,0:0:0:0:
320,192,158300,1,0,0:0:0:0:
192,192,158366,1,0,0:0:0:0:
320,192,158433,1,0,0:0:0:0:
64,192,158500,1,0,0:0:0:0:
192,192,158500,1,0,0:0:0:0:
448,192,158500,1,0,0:0:0:0:
320,192,158566,1,0,0:0:0:0:
448,192,158633,1,0,0:0:0:0:
64,192,158700,1,0,0:0:0:0:
192,192,158766,1,0,0:0:0:0:
320,192,158833,1,0,0:0:0:0:
64,192,158900,1,0,0:0:0:0:
192,192,158966,1,0,0:0:0:0:
320,192,159033,1,0,0:0:0:0:
448,192,159033,1,0,0:0:0:0:
192,192,159100,1,0,0:0:0:0:
320,192,159166,1,0,0:0:0:0:
448,192,159166,1,0,0:0:0:0:
64,192,159233,1,0,0:0:0:0:
192,192,159300,1,0,0:0:0:0:
320,192,159300,1,0,0:0:0:0:
448,192,159300,1,0,0:0:0:0:
64,192,159366,1,0,0:0:0:0:
192,192,159433,1,0,0:0:0:0:
320,192,159500,1,0,0:0:0:0:
64,192,159566,1,0,0:0:0:0:
192,192,159566,1,0,0:0:0:0:
320,192,159633,1,0,0:0:0:0:
64,192,159700,1,0,0:0:0:0:
192,192,159700,1,0,0:0:0:0:
448,192,159766,1,0,0:0:0:0:
64,192,159833,1,0,0:0:0:0:
192,192,159833,1,0,0:0:0:0:
320,192,159833,1,0,0:0:0:0:
448,192,159900,1,0,0:0:0:0:
320,192,159966,1,0,0:0:0:0:
192,192,160033,1,0,0:0:0:0:
320,192,160100,1,0,0:0:0:0:
448,192,160100,1,0,0:0:0:0:
192,192,160166,1,0,0:0:0:0:
320,192,160233,1,0,0:0:0:0:
448,192,160233,1,0,0:0:0:0:
64,192,160300,1,0,0:0:0:0:
192,192,160366,1,0,0:0:0:0:
320,192,160366,1,0,0:0:0:0:
448,192,160366,1,0,0:0:0:0:
64,192,160433,1,0,0:0:0:0:
192,192,160500,1,0,0:0:0:0:
320,192,160566,1,0,0:0:0:0:
64,192,160633,1,0,0:0:0:0:
192,192,160633,1,0,0:0:0:0:
320,192,160700,1,0,0:0:0:0:
64,192,160766,1,0,0:0:0:0:
192,192,160766,1,0,0:0:0:0:
448,192,160833,1,0,0:0:0:0:
64,192,160900,1,0,0:0:0:0:
192,192,160900,1,0,0:0:0:0:
320,192,160900,1,0,0:0:0:0:
448,192,161033,1,0,0:0:0:0:
64,192,161166,1,0,0:0:0:0:
320,192,161166,1,0,0:0:0:0:
192,192,161300,1,0,0:0:0:0:
64,192,161433,1,0,0:0:0:0:
192,192,161433,1,0,0:0:0:0:
448,192,161433,1,0,0:0:0:0:
320,192,161566,1,0,0:0:0:0:
64,192,161700,1,0,0:0:0:0:
320,192,161750,1,0,0:0:0:0:
448,192,161800,1,0,0:0:0:0:
64,192,161855,1,0,0:0:0:0:
192,192,161916,1,0,0:0:0:0:
320,192,161966,1,0,0:0:0:0:
448,192,161966,1,0,0:0:0:0:
192,192,162100,1,0,0:0:0:0:
448,192,162233,1,0,0:0:0:0:
320,192,162283,1,0,0:0:0:0:
64,192,162344,1,0,0:0:0:0:
192,192,162388,1,0,0:0:0:0:
320,192,162433,1,0,0:0:0:0:
64,192,162500,1,0,0:0:0:0:
192,192,162500,1,0,0:0:0:0:
448,192,162566,1,0,0:0:0:0:
320,192,162633,1,0,0:0:0:0:
64,192,162700,1,0,0:0:0:0:
192,192,162766,1,0,0:0:0:0:
320,192,162816,1,0,0:0:0:0:
64,192,162877,1,0,0:0:0:0:
448,192,162922,1,0,0:0:0:0:
320,192,162983,1,0,0:0:0:0:
192,192,163033,1,0,0:0:0:0:
320,192,163166,1,0,0:0:0:0:
448,192,163166,1,0,0:0:0:0:
192,192,163216,1,0,0:0:0:0:
64,192,163277,1,0,0:0:0:0:
320,192,163333,1,0,0:0:0:0:
192,192,163388,1,0,0:0:0:0:
448,192,163450,1,0,0:0:0:0:
320,192,163500,1,0,0:0:0:0:
64,192,163544,1,0,0:0:0:0:
192,192,163566,1,0,0:0:0:0:
192,192,163700,1,0,0:0:0:0:
320,192,163833,1,0,0:0:0:0:
448,192,163833,1,0,0:0:0:0:
320,192,163966,1,0,0:0:0:0:
448,192,163966,1,0,0:0:0:0:
64,192,164100,1,0,0:0:0:0:
192,192,164100,1,0,0:0:0:0:
448,192,164100,1,0,0:0:0:0:
320,192,164233,1,0,0:0:0:0:
64,192,164366,1,0,0:0:0:0:
192,192,164366,1,0,0:0:0:0:
64,192,164500,1,0,0:0:0:0:
192,192,164500,1,0,0:0:0:0:
64,192,164633,1,0,0:0:0:0:
320,192,164633,1,0,0:0:0:0:
448,192,164633,1,0,0:0:0:0:
192,192,164766,1,0,0:0:0:0:
320,192,164816,1,0,0:0:0:0:
64,192,164877,1,0,0:0:0:0:
448,192,164922,1,0,0:0:0:0:
320,192,164983,1,0,0:0:0:0:
192,192,165033,1,0,0:0:0:0:
64,192,165083,1,0,0:0:0:0:
320,192,165144,1,0,0:0:0:0:
448,192,165166,1,0,0:0:0:0:
64,192,165300,1,0,0:0:0:0:
192,192,165300,1,0,0:0:0:0:
320,192,165350,1,0,0:0:0:0:
448,192,165400,1,0,0:0:0:0:
64,192,165450,1,0,0:0:0:0:
192,192,165500,1,0,0:0:0:0:
320,192,165544,1,0,0:0:0:0:
448,192,165588,1,0,0:0:0:0:
64,192,165633,1,0,0:0:0:0:
320,192,165700,1,0,0:0:0:0:
448,192,165700,1,0,0:0:0:0:
64,192,165833,1,0,0:0:0:0:
192,192,165966,1,0,0:0:0:0:
320,192,165966,1,0,0:0:0:0:
192,192,166100,1,0,0:0:0:0:
320,192,166100,1,0,0:0:0:0:
192,192,166233,1,0,0:0:0:0:
320,192,166233,1,0,0:0:0:0:
448,192,166366,1,0,0:0:0:0:
64,192,166500,1,0,0:0:0:0:
320,192,166500,1,0,0:0:0:0:
64,192,166633,1,0,0:0:0:0:
320,192,166633,1,0,0:0:0:0:
192,192,166700,1,0,0:0:0:0:
448,192,166766,1,0,0:0:0:0:
64,192,166833,1,0,0:0:0:0:
192,192,166883,1,0,0:0:0:0:
320,192,166944,1,0,0:0:0:0:
64,192,166988,1,0,0:0:0:0:
192,192,167033,1,0,0:0:0:0:
448,192,167077,1,0,0:0:0:0:
320,192,167122,1,0,0:0:0:0:
192,192,167166,1,0,0:0:0:0:
448,192,167211,1,0,0:0:0:0:
64,192,167255,1,0,0:0:0:0:
320,192,167300,1,0,0:0:0:0:
64,192,167433,1,0,0:0:0:0:
192,192,167433,1,0,0:0:0:0:
448,192,167433,1,0,0:0:0:0:
320,192,167500,1,0,0:0:0:0:
192,192,167566,1,0,0:0:0:0:
448,192,167616,1,0,0:0:0:0:
64,192,167677,1,0,0:0:0:0:
448,192,167722,1,0,0:0:0:0:
320,192,167766,1,0,0:0:0:0:
64,192,167833,1,0,0:0:0:0:
192,192,167833,1,0,0:0:0:0:
448,192,167966,1,0,0:0:0:0:
64,192,168100,1,0,0:0:0:0:
320,192,168100,1,0,0:0:0:0:
64,192,168233,1,0,0:0:0:0:
320,192,168233,1,0,0:0:0:0:
192,192,168366,1,0,0:0:0:0:
448,192,168366,1,0,0:0:0:0:
320,192,168433,1,0,0:0:0:0:
192,192,168500,1,0,0:0:0:0:
448,192,168566,1,0,0:0:0:0:
320,192,168616,1,0,0:0:0:0:
192,192,168666,1,0,0:0:0:0:
448,192,168716,1,0,0:0:0:0:
64,192,168766,1,0,0:0:0:0:
320,192,168816,1,0,0:0:0:0:
448,192,168866,1,0,0:0:0:0:
192,192,168900,1,0,0:0:0:0:
320,192,168988,1,0,0:0:0:0:
192,192,169066,1,0,0:0:0:0:
448,192,169122,1,0,0:0:0:0:
64,192,169183,1,0,0:0:0:0:
320,192,169216,1,0,0:0:0:0:
192,192,169266,1,0,0:0:0:0:
448,192,169316,1,0,0:0:0:0:
64,192,169366,1,0,0:0:0:0:
320,192,169433,1,0,0:0:0:0:
192,192,169483,1,0,0:0:0:0:
448,192,169522,1,0,0:0:0:0:
320,192,169566,1,0,0:0:0:0:
192,192,169616,1,0,0:0:0:0:
64,192,169677,1,0,0:0:0:0:
448,192,169722,1,0,0:0:0:0:
320,192,169783,1,0,0:0:0:0:
64,192,169833,1,0,0:0:0:0:
192,192,169900,1,0,0:0:0:0:
64,192,169966,1,0,0:0:0:0:
320,192,169966,1,0,0:0:0:0:
448,192,169966,1,0,0:0:0:0:
320,192,170100,1,0,0:0:0:0:
64,192,170233,1,0,0:0:0:0:
192,192,170233,1,0,0:0:0:0:
448,192,170233,1,0,0:0:0:0:
64,192,170366,1,0,0:0:0:0:
192,192,170366,1,0,0:0:0:0:
64,192,170500,1,0,0:0:0:0:
192,192,170500,1,0,0:0:0:0:
320,192,170500,1,0,0:0:0:0:
320,192,170633,1,0,0:0:0:0:
192,192,170766,1,0,0:0:0:0:
320,192,170766,1,0,0:0:0:0:
448,192,170766,1,0,0:0:0:0:
192,192,170900,1,0,0:0:0:0:
448,192,170900,1,0,0:0:0:0:
64,192,171033,1,0,0:0:0:0:
192,192,171033,1,0,0:0:0:0:
448,192,171033,1,0,0:0:0:0:
64,192,171166,1,0,0:0:0:0:
320,192,171166,1,0,0:0:0:0:
192,192,171233,1,0,0:0:0:0:
320,192,171300,1,0,0:0:0:0:
448,192,171300,1,0,0:0:0:0:
64,192,171366,1,0,0:0:0:0:
192,192,171433,1,0,0:0:0:0:
320,192,171433,1,0,0:0:0:0:
448,192,171500,1,0,0:0:0:0:
64,192,171566,1,0,0:0:0:0:
192,192,171566,1,0,0:0:0:0:
320,192,171566,1,0,0:0:0:0:
64,192,171700,1,0,0:0:0:0:
192,192,171833,1,0,0:0:0:0:
320,192,171833,1,0,0:0:0:0:
448,192,171833,1,0,0:0:0:0:
320,192,171966,1,0,0:0:0:0:
448,192,171966,1,0,0:0:0:0:
64,192,172100,1,0,0:0:0:0:
320,192,172100,1,0,0:0:0:0:
448,192,172100,1,0,0:0:0:0:
64,192,172233,1,0,0:0:0:0:
192,192,172366,1,0,0:0:0:0:
320,192,172366,1,0,0:0:0:0:
448,192,172366,1,0,0:0:0:0:
192,192,172500,1,0,0:0:0:0:
320,192,172500,1,0,0:0:0:0:
64,192,172633,1,0,0:0:0:0:
192,192,172633,1,0,0:0:0:0:
320,192,172633,1,0,0:0:0:0:
64,192,172766,1,0,0:0:0:0:
448,192,172766,1,0,0:0:0:0:
320,192,172900,1,0,0:0:0:0:
448,192,172900,1,0,0:0:0:0:
192,192,172966,1,0,0:0:0:0:
320,192,173033,1,0,0:0:0:0:
448,192,173033,1,0,0:0:0:0:
192,192,173100,1,0,0:0:0:0:
64,192,173166,1,0,0:0:0:0:
448,192,173166,1,0,0:0:0:0:
320,192,173300,1,0,0:0:0:0:
64,192,173433,1,0,0:0:0:0:
192,192,173433,1,0,0:0:0:0:
448,192,173433,1,0,0:0:0:0:
64,192,173566,1,0,0:0:0:0:
192,192,173566,1,0,0:0:0:0:
64,192,173700,1,0,0:0:0:0:
192,192,173700,1,0,0:0:0:0:
320,192,173700,1,0,0:0:0:0:
320,192,173833,1,0,0:0:0:0:
64,192,173966,1,0,0:0:0:0:
192,192,173966,1,0,0:0:0:0:
448,192,173966,1,0,0:0:0:0:
192,192,174100,1,0,0:0:0:0:
448,192,174100,1,0,0:0:0:0:
192,192,174233,1,0,0:0:0:0:
320,192,174233,1,0,0:0:0:0:
448,192,174233,1,0,0:0:0:0:
64,192,174366,1,0,0:0:0:0:
320,192,174366,1,0,0:0:0:0:
192,192,174433,1,0,0:0:0:0:
320,192,174500,1,0,0:0:0:0:
448,192,174500,1,0,0:0:0:0:
192,192,174566,1,0,0:0:0:0:
64,192,174633,1,0,0:0:0:0:
448,192,174633,1,0,0:0:0:0:
192,192,174700,1,0,0:0:0:0:
320,192,174766,1,0,0:0:0:0:
448,192,174766,1,0,0:0:0:0:
64,192,174900,1,0,0:0:0:0:
192,192,175033,1,0,0:0:0:0:
320,192,175033,1,0,0:0:0:0:
448,192,175033,1,0,0:0:0:0:
320,192,175166,1,0,0:0:0:0:
448,192,175166,1,0,0:0:0:0:
64,192,175300,1,0,0:0:0:0:
320,192,175300,1,0,0:0:0:0:
448,192,175300,1,0,0:0:0:0:
192,192,175366,1,0,0:0:0:0:
320,192,175433,1,0,0:0:0:0:
64,192,175500,1,0,0:0:0:0:
192,192,175566,1,0,0:0:0:0:
448,192,175566,1,0,0:0:0:0:
320,192,175616,1,0,0:0:0:0:
64,192,175677,1,0,0:0:0:0:
192,192,175722,1,0,0:0:0:0:
448,192,175766,1,0,0:0:0:0:
64,192,175833,1,0,0:0:0:0:
320,192,175833,1,0,0:0:0:0:
192,192,175900,1,0,0:0:0:0:
320,192,175966,1,0,0:0:0:0:
448,192,176033,1,0,0:0:0:0:
64,192,176100,1,0,0:0:0:0:
192,192,176100,1,0,0:0:0:0:
320,192,176150,1,0,0:0:0:0:
192,192,176200,1,0,0:0:0:0:
448,192,176266,1,0,0:0:0:0:
192,192,176316,1,0,0:0:0:0:
64,192,176366,1,0,0:0:0:0:
320,192,176366,1,0,0:0:0:0:
64,192,176500,1,0,0:0:0:0:
192,192,176633,1,0,0:0:0:0:
320,192,176633,1,0,0:0:0:0:
448,192,176633,1,0,0:0:0:0:
192,192,176766,1,0,0:0:0:0:
448,192,176766,1,0,0:0:0:0:
64,192,176900,1,0,0:0:0:0:
192,192,176900,1,0,0:0:0:0:
448,192,176900,1,0,0:0:0:0:
320,192,177033,1,0,0:0:0:0:
64,192,177166,1,0,0:0:0:0:
192,192,177166,1,0,0:0:0:0:
448,192,177166,1,0,0:0:0:0:
64,192,177300,1,0,0:0:0:0:
192,192,177300,1,0,0:0:0:0:
64,192,177433,1,0,0:0:0:0:
192,192,177433,1,0,0:0:0:0:
320,192,177433,1,0,0:0:0:0:
320,192,177566,1,0,0:0:0:0:
448,192,177566,1,0,0:0:0:0:
192,192,177633,1,0,0:0:0:0:
64,192,177700,1,0,0:0:0:0:
448,192,177700,1,0,0:0:0:0:
320,192,177766,1,0,0:0:0:0:
64,192,177833,1,0,0:0:0:0:
192,192,177833,1,0,0:0:0:0:
448,192,177900,1,0,0:0:0:0:
192,192,177966,1,0,0:0:0:0:
320,192,177966,1,0,0:0:0:0:
448,192,178100,1,0,0:0:0:0:
64,192,178233,1,0,0:0:0:0:
192,192,178233,1,0,0:0:0:0:
320,192,178233,1,0,0:0:0:0:
64,192,178366,1,0,0:0:0:0:
192,192,178366,1,0,0:0:0:0:
64,192,178500,1,0,0:0:0:0:
192,192,178500,1,0,0:0:0:0:
448,192,178500,1,0,0:0:0:0:
448,192,178633,1,0,0:0:0:0:
64,192,178766,1,0,0:0:0:0:
192,192,178766,1,0,0:0:0:0:
320,192,178766,1,0,0:0:0:0:
192,192,178900,1,0,0:0:0:0:
320,192,178900,1,0,0:0:0:0:
64,192,179033,1,0,0:0:0:0:
192,192,179033,1,0,0:0:0:0:
448,192,179033,1,0,0:0:0:0:
320,192,179166,1,0,0:0:0:0:
448,192,179166,1,0,0:0:0:0:
192,192,179233,1,0,0:0:0:0:
320,192,179300,1,0,0:0:0:0:
448,192,179300,1,0,0:0:0:0:
64,192,179350,1,0,0:0:0:0:
192,192,179400,1,0,0:0:0:0:
320,192,179466,1,0,0:0:0:0:
64,192,179516,1,0,0:0:0:0:
192,192,179566,1,0,0:0:0:0:
448,192,179566,1,0,0:0:0:0:
320,192,179700,1,0,0:0:0:0:
64,192,179833,1,0,0:0:0:0:
192,192,179833,1,0,0:0:0:0:
448,192,179833,1,0,0:0:0:0:
64,192,179966,1,0,0:0:0:0:
192,192,179966,1,0,0:0:0:0:
64,192,180100,1,0,0:0:0:0:
192,192,180100,1,0,0:0:0:0:
320,192,180100,1,0,0:0:0:0:
320,192,180233,1,0,0:0:0:0:
64,192,180366,1,0,0:0:0:0:
192,192,180366,1,0,0:0:0:0:
448,192,180366,1,0,0:0:0:0:
192,192,180500,1,0,0:0:0:0:
320,192,180500,1,0,0:0:0:0:
64,192,180633,1,0,0:0:0:0:
320,192,180633,1,0,0:0:0:0:
448,192,180633,1,0,0:0:0:0:
192,192,180766,1,0,0:0:0:0:
448,192,180766,1,0,0:0:0:0:
64,192,180900,1,0,0:0:0:0:
320,192,180900,1,0,0:0:0:0:
192,192,180950,1,0,0:0:0:0:
448,192,181000,1,0,0:0:0:0:
64,192,181066,1,0,0:0:0:0:
192,192,181116,1,0,0:0:0:0:
320,192,181166,1,0,0:0:0:0:
448,192,181166,1,0,0:0:0:0:
192,192,181300,1,0,0:0:0:0:
64,192,181433,1,0,0:0:0:0:
320,192,181433,1,0,0:0:0:0:
448,192,181433,1,0,0:0:0:0:
320,192,181566,1,0,0:0:0:0:
448,192,181566,1,0,0:0:0:0:
64,192,181700,1,0,0:0:0:0:
192,192,181700,1,0,0:0:0:0:
448,192,181700,1,0,0:0:0:0:
320,192,181766,1,0,0:0:0:0:
192,192,181833,1,0,0:0:0:0:
64,192,181900,1,0,0:0:0:0:
320,192,181966,1,0,0:0:0:0:
448,192,181966,1,0,0:0:0:0:
192,192,182011,1,0,0:0:0:0:
320,192,182055,1,0,0:0:0:0:
64,192,182100,1,0,0:0:0:0:
192,192,182166,1,0,0:0:0:0:
448,192,182233,1,0,0:0:0:0:
320,192,182300,1,0,0:0:0:0:
192,192,182366,1,0,0:0:0:0:
320,192,182433,1,0,0:0:0:0:
64,192,182500,1,0,0:0:0:0:
448,192,182500,1,0,0:0:0:0:
192,192,182544,1,0,0:0:0:0:
320,192,182588,1,0,0:0:0:0:
64,192,182633,1,0,0:0:0:0:
192,192,182700,1,0,0:0:0:0:
320,192,182766,1,0,0:0:0:0:
448,192,182766,1,0,0:0:0:0:
192,192,182833,1,0,0:0:0:0:
320,192,182900,1,0,0:0:0:0:
448,192,182900,1,0,0:0:0:0:
192,192,182966,1,0,0:0:0:0:
320,192,183033,1,0,0:0:0:0:
448,192,183033,1,0,0:0:0:0:
64,192,183077,1,0,0:0:0:0:
192,192,183122,1,0,0:0:0:0:
448,192,183166,1,0,0:0:0:0:
320,192,183233,1,0,0:0:0:0:
64,192,183300,1,0,0:0:0:0:
448,192,183344,1,0,0:0:0:0:
192,192,183388,1,0,0:0:0:0:
320,192,183433,1,0,0:0:0:0:
64,192,183500,1,0,0:0:0:0:
192,192,183566,1,0,0:0:0:0:
448,192,183611,1,0,0:0:0:0:
320,192,183655,1,0,0:0:0:0:
64,192,183700,1,0,0:0:0:0:
192,192,183766,1,0,0:0:0:0:
448,192,183833,1,0,0:0:0:0:
64,192,183877,1,0,0:0:0:0:
320,192,183922,1,0,0:0:0:0:
192,192,183966,1,0,0:0:0:0:
448,192,184033,1,0,0:0:0:0:
320,192,184100,1,0,0:0:0:0:
64,192,184144,1,0,0:0:0:0:
448,192,184188,1,0,0:0:0:0:
192,192,184233,1,0,0:0:0:0:
320,192,184300,1,0,0:0:0:0:
64,192,184366,1,0,0:0:0:0:
448,192,184366,1,0,0:0:0:0:
192,192,184500,1,0,0:0:0:0:
320,192,184633,1,0,0:0:0:0:
448,192,184633,1,0,0:0:0:0:
192,192,184700,1,0,0:0:0:0:
320,192,184766,1,0,0:0:0:0:
448,192,184766,1,0,0:0:0:0:
192,192,184833,1,0,0:0:0:0:
320,192,184900,1,0,0:0:0:0:
448,192,184900,1,0,0:0:0:0:
64,192,184966,1,0,0:0:0:0:
192,192,185033,1,0,0:0:0:0:
320,192,185100,1,0,0:0:0:0:
64,192,185166,1,0,0:0:0:0:
192,192,185166,1,0,0:0:0:0:
448,192,185233,1,0,0:0:0:0:
64,192,185300,1,0,0:0:0:0:
192,192,185300,1,0,0:0:0:0:
448,192,185366,1,0,0:0:0:0:
64,192,185433,1,0,0:0:0:0:
192,192,185433,1,0,0:0:0:0:
320,192,185500,1,0,0:0:0:0:
448,192,185566,1,0,0:0:0:0:
192,192,185633,1,0,0:0:0:0:
320,192,185700,1,0,0:0:0:0:
64,192,185766,1,0,0:0:0:0:
192,192,185833,1,0,0:0:0:0:
320,192,185900,1,0,0:0:0:0:
192,192,185966,1,0,0:0:0:0:
448,192,186011,1,0,0:0:0:0:
320,192,186055,1,0,0:0:0:0:
64,192,186100,1,0,0:0:0:0:
192,192,186166,1,0,0:0:0:0:
448,192,186233,1,0,0:0:0:0:
64,192,186277,1,0,0:0:0:0:
320,192,186322,1,0,0:0:0:0:
192,192,186366,1,0,0:0:0:0:
448,192,186433,1,0,0:0:0:0:
320,192,186500,1,0,0:0:0:0:
64,192,186544,1,0,0:0:0:0:
192,192,186588,1,0,0:0:0:0:
448,192,186633,1,0,0:0:0:0:
320,192,186700,1,0,0:0:0:0:
64,192,186766,1,0,0:0:0:0:
448,192,186811,1,0,0:0:0:0:
192,192,186855,1,0,0:0:0:0:
320,192,186900,1,0,0:0:0:0:
64,192,186966,1,0,0:0:0:0:
192,192,187033,1,0,0:0:0:0:
448,192,187077,1,0,0:0:0:0:
64,192,187122,1,0,0:0:0:0:
320,192,187166,1,0,0:0:0:0:
192,192,187233,1,0,0:0:0:0:
448,192,187300,1,0,0:0:0:0:
320,192,187344,1,0,0:0:0:0:
64,192,187388,1,0,0:0:0:0:
192,192,187433,1,0,0:0:0:0:
448,192,187500,1,0,0:0:0:0:
64,192,187566,1,0,0:0:0:0:
320,192,187566,1,0,0:0:0:0:
320,192,187700,1,0,0:0:0:0:
64,192,187833,1,0,0:0:0:0:
192,192,187833,1,0,0:0:0:0:
448,192,187900,1,0,0:0:0:0:
64,192,187966,1,0,0:0:0:0:
192,192,187966,1,0,0:0:0:0:
448,192,188033,1,0,0:0:0:0:
64,192,188100,1,0,0:0:0:0:
192,192,188100,1,0,0:0:0:0:
320,192,188166,1,0,0:0:0:0:
192,192,188233,1,0,0:0:0:0:
64,192,188300,1,0,0:0:0:0:
320,192,188366,1,0,0:0:0:0:
448,192,188366,1,0,0:0:0:0:
192,192,188433,1,0,0:0:0:0:
320,192,188500,1,0,0:0:0:0:
448,192,188500,1,0,0:0:0:0:
192,192,188566,1,0,0:0:0:0:
320,192,188633,1,0,0:0:0:0:
448,192,188633,1,0,0:0:0:0:
64,192,188700,1,0,0:0:0:0:
192,192,188766,1,0,0:0:0:0:
448,192,188766,1,0,0:0:0:0:
320,192,188833,1,0,0:0:0:0:
64,192,188900,1,0,0:0:0:0:
192,192,188900,1,0,0:0:0:0:
448,192,188966,1,0,0:0:0:0:
320,192,189033,1,0,0:0:0:0:
192,192,189100,1,0,0:0:0:0:
320,192,189166,1,0,0:0:0:0:
64,192,189211,1,0,0:0:0:0:
192,192,189255,1,0,0:0:0:0:
448,192,189300,1,0,0:0:0:0:
320,192,189366,1,0,0:0:0:0:
64,192,189433,1,0,0:0:0:0:
448,192,189477,1,0,0:0:0:0:
192,192,189522,1,0,0:0:0:0:
320,192,189566,1,0,0:0:0:0:
64,192,189633,1,0,0:0:0:0:
192,192,189700,1,0,0:0:0:0:
448,192,189744,1,0,0:0:0:0:
320,192,189788,1,0,0:0:0:0:
64,192,189833,1,0,0:0:0:0:
192,192,189900,1,0,0:0:0:0:
448,192,189966,1,0,0:0:0:0:
64,192,190011,1,0,0:0:0:0:
320,192,190055,1,0,0:0:0:0:
192,192,190100,1,0,0:0:0:0:
448,192,190166,1,0,0:0:0:0:
320,192,190233,1,0,0:0:0:0:
64,192,190277,1,0,0:0:0:0:
448,192,190322,1,0,0:0:0:0:
192,192,190366,1,0,0:0:0:0:
320,192,190433,1,0,0:0:0:0:
64,192,190500,1,0,0:0:0:0:
448,192,190544,1,0,0:0:0:0:
192,192,190588,1,0,0:0:0:0:
320,192,190633,1,0,0:0:0:0:
64,192,190700,1,0,0:0:0:0:
192,192,190766,1,0,0:0:0:0:
448,192,190766,1,0,0:0:0:0:
192,192,190900,1,0,0:0:0:0:
320,192,191033,1,0,0:0:0:0:
448,192,191033,1,0,0:0:0:0:
192,192,191100,1,0,0:0:0:0:
320,192,191166,1,0,0:0:0:0:
448,192,191166,1,0,0:0:0:0:
192,192,191233,1,0,0:0:0:0:
320,192,191300,1,0,0:0:0:0:
448,192,191300,1,0,0:0:0:0:
64,192,191366,1,0,0:0:0:0:
192,192,191433,1,0,0:0:0:0:
320,192,191500,1,0,0:0:0:0:
64,192,191566,1,0,0:0:0:0:
192,192,191566,1,0,0:0:0:0:
448,192,191633,1,0,0:0:0:0:
64,192,191700,1,0,0:0:0:0:
192,192,191700,1,0,0:0:0:0:
448,192,191766,1,0,0:0:0:0:
64,192,191833,1,0,0:0:0:0:
192,192,191833,1,0,0:0:0:0:
320,192,191900,1,0,0:0:0:0:
448,192,191966,1,0,0:0:0:0:
192,192,192033,1,0,0:0:0:0:
320,192,192100,1,0,0:0:0:0:
192,192,192166,1,0,0:0:0:0:
64,192,192233,1,0,0:0:0:0:
448,192,192300,1,0,0:0:0:0:
320,192,192366,1,0,0:0:0:0:
64,192,192411,1,0,0:0:0:0:
192,192,192455,1,0,0:0:0:0:
448,192,192500,1,0,0:0:0:0:
320,192,192566,1,0,0:0:0:0:
64,192,192633,1,0,0:0:0:0:
448,192,192677,1,0,0:0:0:0:
192,192,192722,1,0,0:0:0:0:
320,192,192766,1,0,0:0:0:0:
64,192,192833,1,0,0:0:0:0:
192,192,192900,1,0,0:0:0:0:
448,192,192944,1,0,0:0:0:0:
320,192,192988,1,0,0:0:0:0:
64,192,193033,1,0,0:0:0:0:
192,192,193100,1,0,0:0:0:0:
448,192,193166,1,0,0:0:0:0:
64,192,193211,1,0,0:0:0:0:
320,192,193255,1,0,0:0:0:0:
192,192,193300,1,0,0:0:0:0:
448,192,193366,1,0,0:0:0:0:
320,192,193433,1,0,0:0:0:0:
64,192,193477,1,0,0:0:0:0:
448,192,193522,1,0,0:0:0:0:
192,192,193566,1,0,0:0:0:0:
320,192,193633,1,0,0:0:0:0:
64,192,193700,1,0,0:0:0:0:
192,192,193744,1,0,0:0:0:0:
448,192,193788,1,0,0:0:0:0:
320,192,193833,1,0,0:0:0:0:
192,192,193877,1,0,0:0:0:0:
448,192,193922,1,0,0:0:0:0:
64,192,193966,1,0,0:0:0:0:
320,192,193966,1,0,0:0:0:0:
192,192,194033,1,0,0:0:0:0:
448,192,194100,1,0,0:0:0:0:
64,192,194166,1,0,0:0:0:0:
192,192,194233,1,0,0:0:0:0:
320,192,194233,1,0,0:0:0:0:
448,192,194300,1,0,0:0:0:0:
64,192,194366,1,0,0:0:0:0:
192,192,194366,1,0,0:0:0:0:
320,192,194366,1,0,0:0:0:0:
448,192,194433,1,0,0:0:0:0:
192,192,194500,1,0,0:0:0:0:
320,192,194500,1,0,0:0:0:0:
64,192,194566,1,0,0:0:0:0:
192,192,194633,1,0,0:0:0:0:
448,192,194700,1,0,0:0:0:0:
64,192,194766,1,0,0:0:0:0:
320,192,194766,1,0,0:0:0:0:
192,192,194833,1,0,0:0:0:0:
320,192,194900,1,0,0:0:0:0:
448,192,194900,1,0,0:0:0:0:
192,192,194966,1,0,0:0:0:0:
64,192,195033,1,0,0:0:0:0:
320,192,195033,1,0,0:0:0:0:
192,192,195100,1,0,0:0:0:0:
320,192,195166,1,0,0:0:0:0:
448,192,195166,1,0,0:0:0:0:
64,192,195233,1,0,0:0:0:0:
192,192,195233,1,0,0:0:0:0:
320,192,195300,1,0,0:0:0:0:
448,192,195300,1,0,0:0:0:0:
64,192,195366,1,0,0:0:0:0:
192,192,195366,1,0,0:0:0:0:
320,192,195433,1,0,0:0:0:0:
448,192,195433,1,0,0:0:0:0:
64,192,195500,1,0,0:0:0:0:
192,192,195500,1,0,0:0:0:0:
320,192,195566,1,0,0:0:0:0:
448,192,195566,1,0,0:0:0:0:
192,192,195633,1,0,0:0:0:0:
320,192,195700,1,0,0:0:0:0:
448,192,195766,1,0,0:0:0:0:
64,192,195833,1,0,0:0:0:0:
192,192,195833,1,0,0:0:0:0:
320,192,195900,1,0,0:0:0:0:
64,192,195966,1,0,0:0:0:0:
192,192,195966,1,0,0:0:0:0:
448,192,195966,1,0,0:0:0:0:
320,192,196033,1,0,0:0:0:0:
64,192,196100,1,0,0:0:0:0:
192,192,196100,1,0,0:0:0:0:
448,192,196166,1,0,0:0:0:0:
320,192,196233,1,0,0:0:0:0:
64,192,196300,1,0,0:0:0:0:
192,192,196366,1,0,0:0:0:0:
448,192,196366,1,0,0:0:0:0:
64,192,196433,1,0,0:0:0:0:
320,192,196500,1,0,0:0:0:0:
448,192,196500,1,0,0:0:0:0:
64,192,196566,1,0,0:0:0:0:
192,192,196633,1,0,0:0:0:0:
448,192,196633,1,0,0:0:0:0:
320,192,196700,1,0,0:0:0:0:
64,192,196766,1,0,0:0:0:0:
192,192,196766,1,0,0:0:0:0:
320,192,196833,1,0,0:0:0:0:
448,192,196833,1,0,0:0:0:0:
64,192,196900,1,0,0:0:0:0:
192,192,196900,1,0,0:0:0:0:
320,192,196966,1,0,0:0:0:0:
448,192,196966,1,0,0:0:0:0:
64,192,197033,1,0,0:0:0:0:
192,192,197033,1,0,0:0:0:0:
320,192,197100,1,0,0:0:0:0:
448,192,197100,1,0,0:0:0:0:
64,192,197166,1,0,0:0:0:0:
192,192,197166,1,0,0:0:0:0:
320,192,197233,1,0,0:0:0:0:
448,192,197300,1,0,0:0:0:0:
320,192,197366,1,0,0:0:0:0:
64,192,197433,1,0,0:0:0:0:
192,192,197433,1,0,0:0:0:0:
448,192,197500,1,0,0:0:0:0:
64,192,197566,1,0,0:0:0:0:
192,192,197566,1,0,0:0:0:0:
320,192,197566,1,0,0:0:0:0:
448,192,197633,1,0,0:0:0:0:
64,192,197700,1,0,0:0:0:0:
192,192,197700,1,0,0:0:0:0:
320,192,197766,1,0,0:0:0:0:
448,192,197833,1,0,0:0:0:0:
192,192,197900,1,0,0:0:0:0:
64,192,197966,1,0,0:0:0:0:
320,192,197966,1,0,0:0:0:0:
448,192,198033,1,0,0:0:0:0:
64,192,198100,1,0,0:0:0:0:
192,192,198100,1,0,0:0:0:0:
448,192,198166,1,0,0:0:0:0:
64,192,198233,1,0,0:0:0:0:
320,192,198233,1,0,0:0:0:0:
192,192,198300,1,0,0:0:0:0:
64,192,198366,1,0,0:0:0:0:
320,192,198366,1,0,0:0:0:0:
448,192,198366,1,0,0:0:0:0:
192,192,198433,1,0,0:0:0:0:
320,192,198500,1,0,0:0:0:0:
448,192,198500,1,0,0:0:0:0:
64,192,198566,1,0,0:0:0:0:
192,192,198633,1,0,0:0:0:0:
448,192,198633,1,0,0:0:0:0:
320,192,198700,1,0,0:0:0:0:
64,192,198766,128,0,198833:0:0:0:0:
192,192,198766,128,0,198833:0:0:0:0:
320,192,198900,1,0,0:0:0:0:
64,192,199033,128,0,199100:0:0:0:0:
192,192,199033,128,0,199100:0:0:0:0:
64,192,199166,1,0,0:0:0:0:
320,192,199166,128,0,199233:0:0:0:0:
448,192,199166,128,0,199233:0:0:0:0:
192,192,199300,1,0,0:0:0:0:
64,192,199433,128,0,199500:0:0:0:0:
192,192,199433,128,0,199500:0:0:0:0:
64,192,199566,1,0,0:0:0:0:
320,192,199566,128,0,199633:0:0:0:0:
448,192,199566,128,0,199633:0:0:0:0:
192,192,199700,1,0,0:0:0:0:
64,192,199833,1,0,0:0:0:0:
320,192,199833,128,0,199900:0:0:0:0:
448,192,199833,128,0,199900:0:0:0:0:
64,192,199966,1,0,0:0:0:0:
192,192,199966,1,0,0:0:0:0:
448,192,199966,1,0,0:0:0:0:
320,192,200033,1,0,0:0:0:0:
192,192,200100,1,0,0:0:0:0:
320,192,200166,1,0,0:0:0:0:
64,192,200233,1,0,0:0:0:0:
192,192,200233,1,0,0:0:0:0:
448,192,200233,1,0,0:0:0:0:
320,192,200300,1,0,0:0:0:0:
64,192,200366,1,0,0:0:0:0:
192,192,200366,1,0,0:0:0:0:
448,192,200500,1,0,0:0:0:0:
192,192,200633,1,0,0:0:0:0:
64,192,200766,1,0,0:0:0:0:
320,192,200766,1,0,0:0:0:0:
448,192,200766,1,0,0:0:0:0:
64,192,200900,1,0,0:0:0:0:
192,192,200900,1,0,0:0:0:0:
448,192,200900,1,0,0:0:0:0:
320,192,201033,1,0,0:0:0:0:
64,192,201166,1,0,0:0:0:0:
192,192,201166,1,0,0:0:0:0:
448,192,201166,1,0,0:0:0:0:
64,192,201300,1,0,0:0:0:0:
320,192,201300,1,0,0:0:0:0:
192,192,201433,1,0,0:0:0:0:
448,192,201433,1,0,0:0:0:0:
64,192,201566,1,0,0:0:0:0:
320,192,201566,1,0,0:0:0:0:
448,192,201566,1,0,0:0:0:0:
192,192,201633,1,0,0:0:0:0:
320,192,201700,1,0,0:0:0:0:
192,192,201766,1,0,0:0:0:0:
320,192,201833,1,0,0:0:0:0:
192,192,201900,1,0,0:0:0:0:
64,192,201966,1,0,0:0:0:0:
320,192,201966,1,0,0:0:0:0:
448,192,201966,1,0,0:0:0:0:
192,192,202100,1,0,0:0:0:0:
448,192,202100,1,0,0:0:0:0:
64,192,202233,1,0,0:0:0:0:
320,192,202233,1,0,0:0:0:0:
64,192,202366,1,0,0:0:0:0:
192,192,202366,1,0,0:0:0:0:
448,192,202366,1,0,0:0:0:0:
320,192,202500,1,0,0:0:0:0:
192,192,202633,1,0,0:0:0:0:
64,192,202766,1,0,0:0:0:0:
320,192,202900,1,0,0:0:0:0:
448,192,202900,1,0,0:0:0:0:
64,192,203033,1,0,0:0:0:0:
192,192,203033,1,0,0:0:0:0:
64,192,203166,1,0,0:0:0:0:
320,192,203166,1,0,0:0:0:0:
448,192,203166,1,0,0:0:0:0:
192,192,203300,1,0,0:0:0:0:
448,192,203300,1,0,0:0:0:0:
64,192,203433,1,0,0:0:0:0:
320,192,203433,1,0,0:0:0:0:
192,192,203566,1,0,0:0:0:0:
320,192,203566,1,0,0:0:0:0:
448,192,203566,1,0,0:0:0:0:
192,192,203700,1,0,0:0:0:0:
64,192,203833,1,0,0:0:0:0:
320,192,203833,1,0,0:0:0:0:
448,192,203833,1,0,0:0:0:0:
64,192,203966,1,0,0:0:0:0:
192,192,203966,1,0,0:0:0:0:
448,192,203966,1,0,0:0:0:0:
192,192,204100,1,0,0:0:0:0:
320,192,204100,1,0,0:0:0:0:
448,192,204233,1,0,0:0:0:0:
64,192,204366,1,0,0:0:0:0:
192,192,204366,1,0,0:0:0:0:
320,192,204366,1,0,0:0:0:0:
192,192,204500,1,0,0:0:0:0:
448,192,204500,1,0,0:0:0:0:
64,192,204633,1,0,0:0:0:0:
320,192,204633,1,0,0:0:0:0:
192,192,204766,1,0,0:0:0:0:
448,192,204766,1,0,0:0:0:0:
320,192,204833,1,0,0:0:0:0:
64,192,204900,1,0,0:0:0:0:
448,192,204966,1,0,0:0:0:0:
320,192,205033,1,0,0:0:0:0:
64,192,205100,1,0,0:0:0:0:
320,192,205166,1,0,0:0:0:0:
448,192,205166,1,0,0:0:0:0:
64,192,205300,1,0,0:0:0:0:
192,192,205300,1,0,0:0:0:0:
192,192,205433,1,0,0:0:0:0:
320,192,205433,1,0,0:0:0:0:
64,192,205566,1,0,0:0:0:0:
320,192,205566,1,0,0:0:0:0:
448,192,205566,1,0,0:0:0:0:
64,192,205700,1,0,0:0:0:0:
192,192,205833,1,0,0:0:0:0:
320,192,205833,1,0,0:0:0:0:
448,192,205833,1,0,0:0:0:0:
64,192,205966,1,0,0:0:0:0:
320,192,205966,1,0,0:0:0:0:
448,192,205966,1,0,0:0:0:0:
192,192,206100,1,0,0:0:0:0:
320,192,206233,1,0,0:0:0:0:
448,192,206233,1,0,0:0:0:0:
64,192,206366,1,0,0:0:0:0:
192,192,206366,1,0,0:0:0:0:
320,192,206433,1,0,0:0:0:0:
448,192,206433,1,0,0:0:0:0:
64,192,206500,1,0,0:0:0:0:
192,192,206500,1,0,0:0:0:0:
320,192,206566,1,0,0:0:0:0:
448,192,206566,1,0,0:0:0:0:
64,192,206633,1,0,0:0:0:0:
192,192,206633,1,0,0:0:0:0:
320,192,206700,1,0,0:0:0:0:
448,192,206700,1,0,0:0:0:0:
64,192,206766,1,0,0:0:0:0:
192,192,206766,1,0,0:0:0:0:
320,192,206900,1,0,0:0:0:0:
64,192,207033,1,0,0:0:0:0:
192,192,207033,1,0,0:0:0:0:
448,192,207033,1,0,0:0:0:0:
64,192,207166,1,0,0:0:0:0:
320,192,207166,1,0,0:0:0:0:
448,192,207166,1,0,0:0:0:0:
192,192,207300,1,0,0:0:0:0:
320,192,207433,1,0,0:0:0:0:
64,192,207566,1,0,0:0:0:0:
192,192,207566,1,0,0:0:0:0:
448,192,207566,1,0,0:0:0:0:
64,192,207700,1,0,0:0:0:0:
320,192,207700,1,0,0:0:0:0:
448,192,207700,1,0,0:0:0:0:
64,192,207833,1,0,0:0:0:0:
192,192,207833,1,0,0:0:0:0:
320,192,207833,1,0,0:0:0:0:
320,192,207966,1,0,0:0:0:0:
448,192,207966,1,0,0:0:0:0:
64,192,208033,1,0,0:0:0:0:
192,192,208033,1,0,0:0:0:0:
320,192,208100,1,0,0:0:0:0:
448,192,208100,1,0,0:0:0:0:
64,192,208166,1,0,0:0:0:0:
192,192,208166,1,0,0:0:0:0:
320,192,208233,1,0,0:0:0:0:
448,192,208233,1,0,0:0:0:0:
64,192,208300,1,0,0:0:0:0:
192,192,208300,1,0,0:0:0:0:
320,192,208366,1,0,0:0:0:0:
448,192,208366,1,0,0:0:0:0:
192,192,208500,1,0,0:0:0:0:
64,192,208633,1,0,0:0:0:0:
320,192,208633,1,0,0:0:0:0:
448,192,208633,1,0,0:0:0:0:
64,192,208766,1,0,0:0:0:0:
192,192,208766,1,0,0:0:0:0:
64,192,208900,1,0,0:0:0:0:
192,192,208900,1,0,0:0:0:0:
320,192,209033,1,0,0:0:0:0:
64,192,209166,1,0,0:0:0:0:
192,192,209166,1,0,0:0:0:0:
448,192,209166,1,0,0:0:0:0:
64,192,209300,1,0,0:0:0:0:
320,192,209300,1,0,0:0:0:0:
448,192,209300,1,0,0:0:0:0:
192,192,209433,1,0,0:0:0:0:
320,192,209433,1,0,0:0:0:0:
64,192,209566,1,0,0:0:0:0:
192,192,209566,1,0,0:0:0:0:
320,192,209633,1,0,0:0:0:0:
448,192,209633,1,0,0:0:0:0:
64,192,209700,1,0,0:0:0:0:
192,192,209700,1,0,0:0:0:0:
320,192,209766,1,0,0:0:0:0:
448,192,209766,1,0,0:0:0:0:
64,192,209833,1,0,0:0:0:0:
192,192,209833,1,0,0:0:0:0:
320,192,209900,1,0,0:0:0:0:
448,192,209900,1,0,0:0:0:0:
64,192,209966,1,0,0:0:0:0:
192,192,209966,1,0,0:0:0:0:
320,192,210100,1,0,0:0:0:0:
64,192,210233,1,0,0:0:0:0:
192,192,210233,1,0,0:0:0:0:
448,192,210233,1,0,0:0:0:0:
64,192,210366,1,0,0:0:0:0:
320,192,210366,1,0,0:0:0:0:
448,192,210366,1,0,0:0:0:0:
192,192,210500,1,0,0:0:0:0:
64,192,210633,1,0,0:0:0:0:
192,192,210766,1,0,0:0:0:0:
320,192,210766,1,0,0:0:0:0:
448,192,210766,1,0,0:0:0:0:
64,192,210900,1,0,0:0:0:0:
192,192,210900,1,0,0:0:0:0:
320,192,210900,1,0,0:0:0:0:
64,192,211033,1,0,0:0:0:0:
448,192,211033,1,0,0:0:0:0:
320,192,211166,1,0,0:0:0:0:
448,192,211166,1,0,0:0:0:0:
64,192,211233,1,0,0:0:0:0:
192,192,211233,1,0,0:0:0:0:
320,192,211300,1,0,0:0:0:0:
448,192,211300,1,0,0:0:0:0:
64,192,211366,1,0,0:0:0:0:
192,192,211366,1,0,0:0:0:0:
320,192,211433,1,0,0:0:0:0:
448,192,211433,1,0,0:0:0:0:
192,192,211500,1,0,0:0:0:0:
64,192,211566,1,0,0:0:0:0:
320,192,211566,1,0,0:0:0:0:
448,192,211566,1,0,0:0:0:0:
192,192,211700,1,0,0:0:0:0:
192,192,211833,1,0,0:0:0:0:
320,192,211833,1,0,0:0:0:0:
448,192,211833,1,0,0:0:0:0:
64,192,211966,1,0,0:0:0:0:
320,192,211966,1,0,0:0:0:0:
448,192,211966,1,0,0:0:0:0:
64,192,212100,1,0,0:0:0:0:
192,192,212233,1,0,0:0:0:0:
320,192,212233,1,0,0:0:0:0:
448,192,212233,1,0,0:0:0:0:
64,192,212366,1,0,0:0:0:0:
192,192,212366,1,0,0:0:0:0:
448,192,212366,1,0,0:0:0:0:
320,192,212500,1,0,0:0:0:0:
64,192,212633,1,0,0:0:0:0:
192,192,212633,1,0,0:0:0:0:
320,192,212633,1,0,0:0:0:0:
64,192,212766,1,0,0:0:0:0:
192,192,212766,1,0,0:0:0:0:
448,192,212766,1,0,0:0:0:0:
64,192,212900,1,0,0:0:0:0:
320,192,212900,1,0,0:0:0:0:
448,192,212900,1,0,0:0:0:0:
192,192,213033,1,0,0:0:0:0:
448,192,213033,1,0,0:0:0:0:
64,192,213166,1,0,0:0:0:0:
320,192,213166,1,0,0:0:0:0:
192,192,213233,1,0,0:0:0:0:
320,192,213300,1,0,0:0:0:0:
448,192,213300,1,0,0:0:0:0:
64,192,213366,1,0,0:0:0:0:
192,192,213433,1,0,0:0:0:0:
320,192,213433,1,0,0:0:0:0:
448,192,213500,1,0,0:0:0:0:
64,192,213566,1,0,0:0:0:0:
192,192,213566,1,0,0:0:0:0:
320,192,213633,1,0,0:0:0:0:
64,192,213700,1,0,0:0:0:0:
448,192,213700,1,0,0:0:0:0:
192,192,213766,1,0,0:0:0:0:
320,192,213833,1,0,0:0:0:0:
448,192,213833,1,0,0:0:0:0:
64,192,213900,1,0,0:0:0:0:
192,192,213966,1,0,0:0:0:0:
320,192,213966,1,0,0:0:0:0:
448,192,214033,1,0,0:0:0:0:
64,192,214100,1,0,0:0:0:0:
192,192,214166,1,0,0:0:0:0:
320,192,214233,1,0,0:0:0:0:
64,192,214300,1,0,0:0:0:0:
448,192,214366,1,0,0:0:0:0:
320,192,214433,1,0,0:0:0:0:
64,192,214500,1,0,0:0:0:0:
192,192,214500,1,0,0:0:0:0:
448,192,214566,1,0,0:0:0:0:
64,192,214633,1,0,0:0:0:0:
320,192,214633,1,0,0:0:0:0:
192,192,214700,1,0,0:0:0:0:
64,192,214766,1,0,0:0:0:0:
320,192,214766,1,0,0:0:0:0:
448,192,214766,1,0,0:0:0:0:
448,192,214900,1,0,0:0:0:0:
64,192,215033,1,0,0:0:0:0:
192,192,215033,1,0,0:0:0:0:
320,192,215033,1,0,0:0:0:0:
64,192,215166,1,0,0:0:0:0:
192,192,215166,1,0,0:0:0:0:
448,192,215166,1,0,0:0:0:0:
64,192,215300,1,0,0:0:0:0:
192,192,215300,1,0,0:0:0:0:
320,192,215300,1,0,0:0:0:0:
448,192,215433,1,0,0:0:0:0:
64,192,215566,1,0,0:0:0:0:
192,192,215566,1,0,0:0:0:0:
320,192,215566,1,0,0:0:0:0:
64,192,215700,1,0,0:0:0:0:
192,192,215700,1,0,0:0:0:0:
320,192,215700,1,0,0:0:0:0:
192,192,215833,1,0,0:0:0:0:
320,192,215833,1,0,0:0:0:0:
448,192,215833,1,0,0:0:0:0:
64,192,215966,1,0,0:0:0:0:
320,192,215966,1,0,0:0:0:0:
448,192,215966,1,0,0:0:0:0:
192,192,216033,1,0,0:0:0:0:
320,192,216100,1,0,0:0:0:0:
64,192,216166,1,0,0:0:0:0:
448,192,216233,1,0,0:0:0:0:
320,192,216300,1,0,0:0:0:0:
192,192,216366,1,0,0:0:0:0:
448,192,216411,1,0,0:0:0:0:
64,192,216455,1,0,0:0:0:0:
320,192,216500,1,0,0:0:0:0:
192,192,216566,1,0,0:0:0:0:
448,192,216633,1,0,0:0:0:0:
64,192,216677,1,0,0:0:0:0:
320,192,216722,1,0,0:0:0:0:
192,192,216766,1,0,0:0:0:0:
448,192,216833,1,0,0:0:0:0:
320,192,216900,1,0,0:0:0:0:
64,192,216944,1,0,0:0:0:0:
192,192,216988,1,0,0:0:0:0:
448,192,217033,1,0,0:0:0:0:
320,192,217100,1,0,0:0:0:0:
64,192,217166,1,0,0:0:0:0:
192,192,217166,1,0,0:0:0:0:
448,192,217211,1,0,0:0:0:0:
320,192,217255,1,0,0:0:0:0:
64,192,217300,1,0,0:0:0:0:
192,192,217366,1,0,0:0:0:0:
448,192,217433,1,0,0:0:0:0:
64,192,217477,1,0,0:0:0:0:
320,192,217522,1,0,0:0:0:0:
192,192,217566,1,0,0:0:0:0:
448,192,217633,1,0,0:0:0:0:
64,192,217700,1,0,0:0:0:0:
320,192,217744,1,0,0:0:0:0:
448,192,217788,1,0,0:0:0:0:
64,192,217833,1,0,0:0:0:0:
192,192,217833,1,0,0:0:0:0:
192,192,217966,1,0,0:0:0:0:
448,192,217966,1,0,0:0:0:0:
320,192,218100,1,0,0:0:0:0:
448,192,218100,1,0,0:0:0:0:
64,192,218233,1,0,0:0:0:0:
192,192,218233,1,0,0:0:0:0:
64,192,218366,1,0,0:0:0:0:
192,192,218366,1,0,0:0:0:0:
64,192,218500,1,0,0:0:0:0:
320,192,218500,1,0,0:0:0:0:
448,192,218500,1,0,0:0:0:0:
192,192,218633,1,0,0:0:0:0:
64,192,218766,1,0,0:0:0:0:
192,192,218766,1,0,0:0:0:0:
320,192,218766,1,0,0:0:0:0:
448,192,218766,1,0,0:0:0:0:
320,192,218900,1,0,0:0:0:0:
448,192,218900,1,0,0:0:0:0:
320,192,219033,1,0,0:0:0:0:
448,192,219033,1,0,0:0:0:0:
64,192,219166,1,0,0:0:0:0:
192,192,219166,1,0,0:0:0:0:
448,192,219166,1,0,0:0:0:0:
192,192,219300,1,0,0:0:0:0:
64,192,219433,1,0,0:0:0:0:
320,192,219433,1,0,0:0:0:0:
448,192,219433,1,0,0:0:0:0:
64,192,219566,1,0,0:0:0:0:
192,192,219566,1,0,0:0:0:0:
448,192,219611,1,0,0:0:0:0:
320,192,219655,1,0,0:0:0:0:
64,192,219700,1,0,0:0:0:0:
192,192,219766,1,0,0:0:0:0:
320,192,219833,1,0,0:0:0:0:
64,192,219900,1,0,0:0:0:0:
192,192,219966,1,0,0:0:0:0:
448,192,219966,1,0,0:0:0:0:
320,192,220033,1,0,0:0:0:0:
64,192,220100,1,0,0:0:0:0:
448,192,220166,1,0,0:0:0:0:
192,192,220233,1,0,0:0:0:0:
64,192,220300,1,0,0:0:0:0:
320,192,220366,1,0,0:0:0:0:
448,192,220366,1,0,0:0:0:0:
192,192,220411,1,0,0:0:0:0:
64,192,220455,1,0,0:0:0:0:
448,192,220500,1,0,0:0:0:0:
320,192,220566,1,0,0:0:0:0:
64,192,220633,1,0,0:0:0:0:
192,192,220700,1,0,0:0:0:0:
320,192,220766,1,0,0:0:0:0:
448,192,220766,1,0,0:0:0:0:
64,192,220833,1,0,0:0:0:0:
192,192,220900,1,0,0:0:0:0:
448,192,220900,1,0,0:0:0:0:
192,192,221033,1,0,0:0:0:0:
320,192,221033,1,0,0:0:0:0:
64,192,221166,1,0,0:0:0:0:
320,192,221166,1,0,0:0:0:0:
192,192,221300,1,0,0:0:0:0:
64,192,221433,1,0,0:0:0:0:
320,192,221433,1,0,0:0:0:0:
448,192,221433,1,0,0:0:0:0:
320,192,221566,1,0,0:0:0:0:
64,192,221700,1,0,0:0:0:0:
192,192,221700,1,0,0:0:0:0:
448,192,221700,1,0,0:0:0:0:
192,192,221833,1,0,0:0:0:0:
64,192,221966,1,0,0:0:0:0:
192,192,221966,1,0,0:0:0:0:
320,192,221966,1,0,0:0:0:0:
448,192,221966,1,0,0:0:0:0:
320,192,222100,1,0,0:0:0:0:
448,192,222100,1,0,0:0:0:0:
64,192,222233,1,0,0:0:0:0:
192,192,222233,1,0,0:0:0:0:
320,192,222233,1,0,0:0:0:0:
64,192,222366,1,0,0:0:0:0:
192,192,222366,1,0,0:0:0:0:
448,192,222366,1,0,0:0:0:0:
320,192,222500,1,0,0:0:0:0:
448,192,222500,1,0,0:0:0:0:
64,192,222633,1,0,0:0:0:0:
192,192,222633,1,0,0:0:0:0:
64,192,222766,1,0,0:0:0:0:
192,192,222766,1,0,0:0:0:0:
320,192,222816,1,0,0:0:0:0:
448,192,222900,1,0,0:0:0:0:
192,192,222966,1,0,0:0:0:0:
64,192,223033,1,0,0:0:0:0:
320,192,223033,1,0,0:0:0:0:
448,192,223083,1,0,0:0:0:0:
192,192,223166,1,0,0:0:0:0:
64,192,223233,1,0,0:0:0:0:
320,192,223300,1,0,0:0:0:0:
448,192,223300,1,0,0:0:0:0:
192,192,223350,1,0,0:0:0:0:
64,192,223433,1,0,0:0:0:0:
320,192,223500,1,0,0:0:0:0:
192,192,223566,1,0,0:0:0:0:
448,192,223566,1,0,0:0:0:0:
64,192,223616,1,0,0:0:0:0:
192,192,223700,1,0,0:0:0:0:
448,192,223766,1,0,0:0:0:0:
192,192,223833,1,0,0:0:0:0:
320,192,223833,1,0,0:0:0:0:
448,192,223900,1,0,0:0:0:0:
64,192,223966,1,0,0:0:0:0:
320,192,223966,1,0,0:0:0:0:
192,192,224033,1,0,0:0:0:0:
320,192,224100,1,0,0:0:0:0:
448,192,224100,1,0,0:0:0:0:
64,192,224166,1,0,0:0:0:0:
192,192,224233,1,0,0:0:0:0:
448,192,224233,1,0,0:0:0:0:
320,192,224300,1,0,0:0:0:0:
64,192,224366,1,0,0:0:0:0:
192,192,224366,1,0,0:0:0:0:
448,192,224366,1,0,0:0:0:0:
320,192,224433,1,0,0:0:0:0:
64,192,224500,1,0,0:0:0:0:
192,192,224566,1,0,0:0:0:0:
448,192,224633,1,0,0:0:0:0:
320,192,224700,1,0,0:0:0:0:
64,192,224766,1,0,0:0:0:0:
192,192,224766,1,0,0:0:0:0:
448,192,224833,1,0,0:0:0:0:
192,192,224900,1,0,0:0:0:0:
320,192,224900,1,0,0:0:0:0:
64,192,224966,1,0,0:0:0:0:
320,192,225033,1,0,0:0:0:0:
448,192,225033,1,0,0:0:0:0:
192,192,225100,1,0,0:0:0:0:
64,192,225166,1,0,0:0:0:0:
320,192,225166,1,0,0:0:0:0:
448,192,225166,1,0,0:0:0:0:
192,192,225233,1,0,0:0:0:0:
64,192,225300,1,0,0:0:0:0:
320,192,225366,1,0,0:0:0:0:
192,192,225433,1,0,0:0:0:0:
448,192,225500,1,0,0:0:0:0:
64,192,225566,1,0,0:0:0:0:
320,192,225566,1,0,0:0:0:0:
192,192,225633,1,0,0:0:0:0:
320,192,225700,1,0,0:0:0:0:
448,192,225700,1,0,0:0:0:0:
64,192,225766,1,0,0:0:0:0:
192,192,225833,1,0,0:0:0:0:
448,192,225833,1,0,0:0:0:0:
320,192,225900,1,0,0:0:0:0:
64,192,225966,1,0,0:0:0:0:
192,192,225966,1,0,0:0:0:0:
448,192,225966,1,0,0:0:0:0:
320,192,226033,1,0,0:0:0:0:
64,192,226100,1,0,0:0:0:0:
448,192,226166,1,0,0:0:0:0:
320,192,226233,1,0,0:0:0:0:
192,192,226300,1,0,0:0:0:0:
320,192,226366,1,0,0:0:0:0:
448,192,226366,1,0,0:0:0:0:
64,192,226433,1,0,0:0:0:0:
192,192,226500,1,0,0:0:0:0:
448,192,226500,1,0,0:0:0:0:
320,192,226566,1,0,0:0:0:0:
64,192,226633,1,0,0:0:0:0:
192,192,226633,1,0,0:0:0:0:
448,192,226700,1,0,0:0:0:0:
64,192,226766,1,0,0:0:0:0:
192,192,226766,1,0,0:0:0:0:
320,192,226766,1,0,0:0:0:0:
448,192,226833,1,0,0:0:0:0:
320,192,226900,1,0,0:0:0:0:
192,192,226966,1,0,0:0:0:0:
448,192,227033,1,0,0:0:0:0:
320,192,227100,1,0,0:0:0:0:
64,192,227166,1,0,0:0:0:0:
192,192,227166,1,0,0:0:0:0:
448,192,227166,1,0,0:0:0:0:
320,192,227233,1,0,0:0:0:0:
64,192,227300,1,0,0:0:0:0:
192,192,227366,1,0,0:0:0:0:
320,192,227433,1,0,0:0:0:0:
64,192,227500,1,0,0:0:0:0:
192,192,227566,1,0,0:0:0:0:
320,192,227566,1,0,0:0:0:0:
448,192,227566,1,0,0:0:0:0:
64,192,227633,1,0,0:0:0:0:
192,192,227700,1,0,0:0:0:0:
448,192,227766,1,0,0:0:0:0:
320,192,227833,1,0,0:0:0:0:
64,192,227900,1,0,0:0:0:0:
192,192,227966,1,0,0:0:0:0:
448,192,227966,1,0,0:0:0:0:
320,192,228033,1,0,0:0:0:0:
64,192,228100,1,0,0:0:0:0:
192,192,228100,1,0,0:0:0:0:
448,192,228166,1,0,0:0:0:0:
64,192,228233,1,0,0:0:0:0:
320,192,228233,1,0,0:0:0:0:
192,192,228300,1,0,0:0:0:0:
64,192,228366,1,0,0:0:0:0:
320,192,228366,1,0,0:0:0:0:
448,192,228366,1,0,0:0:0:0:
192,192,228433,1,0,0:0:0:0:
448,192,228500,1,0,0:0:0:0:
64,192,228566,1,0,0:0:0:0:
192,192,228633,1,0,0:0:0:0:
448,192,228700,1,0,0:0:0:0:
192,192,228766,1,0,0:0:0:0:
320,192,228766,1,0,0:0:0:0:
64,192,228833,1,0,0:0:0:0:
320,192,228900,1,0,0:0:0:0:
448,192,228900,1,0,0:0:0:0:
192,192,228966,1,0,0:0:0:0:
64,192,229033,1,0,0:0:0:0:
448,192,229033,1,0,0:0:0:0:
320,192,229100,1,0,0:0:0:0:
64,192,229166,1,0,0:0:0:0:
192,192,229166,1,0,0:0:0:0:
448,192,229166,1,0,0:0:0:0:
320,192,229233,1,0,0:0:0:0:
192,192,229300,1,0,0:0:0:0:
448,192,229366,1,0,0:0:0:0:
64,192,229433,1,0,0:0:0:0:
192,192,229500,1,0,0:0:0:0:
320,192,229566,1,0,0:0:0:0:
448,192,229566,1,0,0:0:0:0:
64,192,229633,1,0,0:0:0:0:
192,192,229700,1,0,0:0:0:0:
448,192,229700,1,0,0:0:0:0:
320,192,229766,1,0,0:0:0:0:
64,192,229833,1,0,0:0:0:0:
192,192,229833,1,0,0:0:0:0:
448,192,229900,1,0,0:0:0:0:
64,192,229966,1,0,0:0:0:0:
192,192,229966,1,0,0:0:0:0:
320,192,229966,1,0,0:0:0:0:
448,192,230033,1,0,0:0:0:0:
320,192,230100,1,0,0:0:0:0:
64,192,230166,1,0,0:0:0:0:
192,192,230233,1,0,0:0:0:0:
320,192,230233,1,0,0:0:0:0:
448,192,230233,1,0,0:0:0:0:
64,192,230300,1,0,0:0:0:0:
192,192,230366,1,0,0:0:0:0:
320,192,230433,1,0,0:0:0:0:
64,192,230500,1,0,0:0:0:0:
192,192,230500,1,0,0:0:0:0:
448,192,230500,1,0,0:0:0:0:
320,192,230566,1,0,0:0:0:0:
448,192,230633,1,0,0:0:0:0:
64,192,230700,1,0,0:0:0:0:
192,192,230766,1,0,0:0:0:0:
320,192,230766,1,0,0:0:0:0:
448,192,230766,1,0,0:0:0:0:
64,192,230833,1,0,0:0:0:0:
192,192,230900,1,0,0:0:0:0:
448,192,230966,1,0,0:0:0:0:
320,192,231033,1,0,0:0:0:0:
64,192,231100,1,0,0:0:0:0:
192,192,231166,1,0,0:0:0:0:
320,192,231166,1,0,0:0:0:0:
448,192,231233,1,0,0:0:0:0:
64,192,231300,1,0,0:0:0:0:
192,192,231300,1,0,0:0:0:0:
320,192,231366,1,0,0:0:0:0:
64,192,231433,1,0,0:0:0:0:
448,192,231433,1,0,0:0:0:0:
192,192,231500,1,0,0:0:0:0:
64,192,231566,1,0,0:0:0:0:
320,192,231566,1,0,0:0:0:0:
448,192,231566,1,0,0:0:0:0:
192,192,231633,1,0,0:0:0:0:
448,192,231700,1,0,0:0:0:0:
320,192,231766,1,0,0:0:0:0:
192,192,231833,1,0,0:0:0:0:
448,192,231900,1,0,0:0:0:0:
64,192,231966,1,0,0:0:0:0:
320,192,231966,1,0,0:0:0:0:
192,192,232033,1,0,0:0:0:0:
320,192,232100,1,0,0:0:0:0:
448,192,232100,1,0,0:0:0:0:
64,192,232166,1,0,0:0:0:0:
192,192,232233,1,0,0:0:0:0:
448,192,232233,1,0,0:0:0:0:
320,192,232300,1,0,0:0:0:0:
64,192,232366,1,0,0:0:0:0:
192,192,232366,1,0,0:0:0:0:
448,192,232366,1,0,0:0:0:0:
320,192,232433,1,0,0:0:0:0:
64,192,232500,1,0,0:0:0:0:
192,192,232566,1,0,0:0:0:0:
448,192,232633,1,0,0:0:0:0:
320,192,232700,1,0,0:0:0:0:
64,192,232766,1,0,0:0:0:0:
192,192,232766,1,0,0:0:0:0:
448,192,232833,1,0,0:0:0:0:
192,192,232900,1,0,0:0:0:0:
320,192,232900,1,0,0:0:0:0:
64,192,232966,1,0,0:0:0:0:
320,192,233033,1,0,0:0:0:0:
448,192,233033,1,0,0:0:0:0:
192,192,233100,1,0,0:0:0:0:
64,192,233166,1,0,0:0:0:0:
320,192,233166,1,0,0:0:0:0:
448,192,233166,1,0,0:0:0:0:
192,192,233233,1,0,0:0:0:0:
64,192,233300,1,0,0:0:0:0:
320,192,233366,1,0,0:0:0:0:
448,192,233433,1,0,0:0:0:0:
64,192,233500,1,0,0:0:0:0:
192,192,233566,1,0,0:0:0:0:
320,192,233566,1,0,0:0:0:0:
448,192,233566,1,0,0:0:0:0:
64,192,233700,1,0,0:0:0:0:
192,192,233700,1,0,0:0:0:0:
320,192,233700,1,0,0:0:0:0:
64,192,233833,1,0,0:0:0:0:
320,192,233833,1,0,0:0:0:0:
448,192,233833,1,0,0:0:0:0:
64,192,233966,1,0,0:0:0:0:
192,192,233966,1,0,0:0:0:0:
320,192,234033,1,0,0:0:0:0:
448,192,234100,1,0,0:0:0:0:
192,192,234166,1,0,0:0:0:0:
320,192,234233,1,0,0:0:0:0:
448,192,234300,1,0,0:0:0:0:
192,192,234366,1,0,0:0:0:0:
64,192,234433,1,0,0:0:0:0:
320,192,234500,1,0,0:0:0:0:
448,192,234500,1,0,0:0:0:0:
192,192,234566,1,0,0:0:0:0:
64,192,234633,1,0,0:0:0:0:
320,192,234633,1,0,0:0:0:0:
448,192,234700,1,0,0:0:0:0:
64,192,234766,1,0,0:0:0:0:
192,192,234766,1,0,0:0:0:0:
320,192,234833,1,0,0:0:0:0:
64,192,234900,1,0,0:0:0:0:
192,192,234900,1,0,0:0:0:0:
448,192,234900,1,0,0:0:0:0:
320,192,234966,1,0,0:0:0:0:
448,192,235033,1,0,0:0:0:0:
192,192,235100,1,0,0:0:0:0:
320,192,235166,1,0,0:0:0:0:
64,192,235233,1,0,0:0:0:0:
192,192,235300,1,0,0:0:0:0:
448,192,235300,1,0,0:0:0:0:
320,192,235366,1,0,0:0:0:0:
64,192,235433,1,0,0:0:0:0:
192,192,235500,1,0,0:0:0:0:
64,192,235566,1,0,0:0:0:0:
320,192,235566,1,0,0:0:0:0:
448,192,235566,1,0,0:0:0:0:
192,192,235633,1,0,0:0:0:0:
448,192,235700,1,0,0:0:0:0:
320,192,235766,1,0,0:0:0:0:
64,192,235833,1,0,0:0:0:0:
192,192,235833,1,0,0:0:0:0:
448,192,235900,1,0,0:0:0:0:
192,192,235966,1,0,0:0:0:0:
64,192,236033,1,0,0:0:0:0:
320,192,236100,1,0,0:0:0:0:
448,192,236100,1,0,0:0:0:0:
192,192,236166,1,0,0:0:0:0:
320,192,236233,1,0,0:0:0:0:
448,192,236233,1,0,0:0:0:0:
192,192,236300,1,0,0:0:0:0:
64,192,236366,1,0,0:0:0:0:
320,192,236366,1,0,0:0:0:0:
448,192,236366,1,0,0:0:0:0:
192,192,236433,1,0,0:0:0:0:
320,192,236500,1,0,0:0:0:0:
448,192,236566,1,0,0:0:0:0:
64,192,236633,1,0,0:0:0:0:
192,192,236633,1,0,0:0:0:0:
320,192,236633,1,0,0:0:0:0:
448,192,236700,1,0,0:0:0:0:
192,192,236766,1,0,0:0:0:0:
64,192,236833,1,0,0:0:0:0:
192,192,236900,1,0,0:0:0:0:
320,192,236900,1,0,0:0:0:0:
448,192,236900,1,0,0:0:0:0:
64,192,236966,1,0,0:0:0:0:
448,192,237033,1,0,0:0:0:0:
320,192,237100,1,0,0:0:0:0:
64,192,237166,1,0,0:0:0:0:
192,192,237166,1,0,0:0:0:0:
448,192,237166,1,0,0:0:0:0:
320,192,237233,1,0,0:0:0:0:
64,192,237300,1,0,0:0:0:0:
192,192,237366,1,0,0:0:0:0:
320,192,237433,1,0,0:0:0:0:
192,192,237500,1,0,0:0:0:0:
320,192,237566,1,0,0:0:0:0:
448,192,237566,1,0,0:0:0:0:
64,192,237633,1,0,0:0:0:0:
192,192,237700,1,0,0:0:0:0:
448,192,237700,1,0,0:0:0:0:
320,192,237766,1,0,0:0:0:0:
64,192,237833,1,0,0:0:0:0:
192,192,237833,1,0,0:0:0:0:
448,192,237900,1,0,0:0:0:0:
64,192,237966,1,0,0:0:0:0:
192,192,237966,1,0,0:0:0:0:
320,192,237966,1,0,0:0:0:0:
448,192,238033,1,0,0:0:0:0:
320,192,238100,1,0,0:0:0:0:
64,192,238166,1,0,0:0:0:0:
192,192,238233,1,0,0:0:0:0:
448,192,238300,1,0,0:0:0:0:
64,192,238366,1,0,0:0:0:0:
320,192,238366,1,0,0:0:0:0:
192,192,238433,1,0,0:0:0:0:
64,192,238500,1,0,0:0:0:0:
448,192,238500,1,0,0:0:0:0:
320,192,238566,1,0,0:0:0:0:
64,192,238633,1,0,0:0:0:0:
192,192,238633,1,0,0:0:0:0:
448,192,238700,1,0,0:0:0:0:
64,192,238766,1,0,0:0:0:0:
192,192,238766,1,0,0:0:0:0:
320,192,238766,1,0,0:0:0:0:
448,192,238833,1,0,0:0:0:0:
320,192,238900,1,0,0:0:0:0:
192,192,238966,1,0,0:0:0:0:
64,192,239033,1,0,0:0:0:0:
448,192,239033,1,0,0:0:0:0:
320,192,239100,1,0,0:0:0:0:
192,192,239166,1,0,0:0:0:0:
448,192,239166,1,0,0:0:0:0:
64,192,239233,1,0,0:0:0:0:
192,192,239300,1,0,0:0:0:0:
320,192,239300,1,0,0:0:0:0:
448,192,239366,1,0,0:0:0:0:
64,192,239433,1,0,0:0:0:0:
320,192,239433,1,0,0:0:0:0:
192,192,239500,1,0,0:0:0:0:
64,192,239566,1,0,0:0:0:0:
320,192,239566,1,0,0:0:0:0:
448,192,239566,1,0,0:0:0:0:
192,192,239633,1,0,0:0:0:0:
320,192,239700,1,0,0:0:0:0:
448,192,239766,1,0,0:0:0:0:
192,192,239833,1,0,0:0:0:0:
320,192,239900,1,0,0:0:0:0:
64,192,239966,1,0,0:0:0:0:
192,192,239966,1,0,0:0:0:0:
448,192,239966,1,0,0:0:0:0:
320,192,240033,1,0,0:0:0:0:
192,192,240100,1,0,0:0:0:0:
64,192,240166,1,0,0:0:0:0:
448,192,240233,1,0,0:0:0:0:
320,192,240300,1,0,0:0:0:0:
64,192,240366,1,0,0:0:0:0:
192,192,240366,1,0,0:0:0:0:
448,192,240366,1,0,0:0:0:0:
320,192,240433,1,0,0:0:0:0:
192,192,240500,1,0,0:0:0:0:
448,192,240566,1,0,0:0:0:0:
64,192,240633,1,0,0:0:0:0:
192,192,240700,1,0,0:0:0:0:
64,192,240766,1,0,0:0:0:0:
448,192,240766,1,0,0:0:0:0:
192,192,240833,1,0,0:0:0:0:
320,192,240900,1,0,0:0:0:0:
448,192,240900,1,0,0:0:0:0:
64,192,240966,1,0,0:0:0:0:
192,192,241033,1,0,0:0:0:0:
320,192,241033,1,0,0:0:0:0:
448,192,241100,1,0,0:0:0:0:
64,192,241166,1,0,0:0:0:0:
192,192,241166,1,0,0:0:0:0:
320,192,241166,1,0,0:0:0:0:
448,192,241233,1,0,0:0:0:0:
320,192,241300,1,0,0:0:0:0:
64,192,241366,1,0,0:0:0:0:
192,192,241433,1,0,0:0:0:0:
320,192,241433,1,0,0:0:0:0:
448,192,241433,1,0,0:0:0:0:
64,192,241500,1,0,0:0:0:0:
192,192,241566,1,0,0:0:0:0:
320,192,241633,1,0,0:0:0:0:
64,192,241700,1,0,0:0:0:0:
192,192,241700,1,0,0:0:0:0:
448,192,241700,1,0,0:0:0:0:
320,192,241766,1,0,0:0:0:0:
64,192,241833,1,0,0:0:0:0:
448,192,241833,1,0,0:0:0:0:
192,192,241900,1,0,0:0:0:0:
64,192,241966,1,0,0:0:0:0:
320,192,241966,1,0,0:0:0:0:
448,192,241966,1,0,0:0:0:0:
192,192,242033,1,0,0:0:0:0:
448,192,242100,1,0,0:0:0:0:
320,192,242166,1,0,0:0:0:0:
192,192,242233,1,0,0:0:0:0:
64,192,242300,1,0,0:0:0:0:
320,192,242366,1,0,0:0:0:0:
448,192,242433,1,0,0:0:0:0:
64,192,242500,1,0,0:0:0:0:
192,192,242500,1,0,0:0:0:0:
320,192,242566,1,0,0:0:0:0:
64,192,242633,1,0,0:0:0:0:
192,192,242633,1,0,0:0:0:0:
320,192,242700,1,0,0:0:0:0:
64,192,242766,1,0,0:0:0:0:
192,192,242766,1,0,0:0:0:0:
448,192,242766,1,0,0:0:0:0:
320,192,242833,1,0,0:0:0:0:
448,192,242900,1,0,0:0:0:0:
192,192,242966,1,0,0:0:0:0:
64,192,243033,1,0,0:0:0:0:
320,192,243033,1,0,0:0:0:0:
448,192,243033,1,0,0:0:0:0:
192,192,243100,1,0,0:0:0:0:
64,192,243166,1,0,0:0:0:0:
448,192,243233,1,0,0:0:0:0:
64,192,243300,1,0,0:0:0:0:
192,192,243300,1,0,0:0:0:0:
320,192,243300,1,0,0:0:0:0:
448,192,243366,1,0,0:0:0:0:
320,192,243433,1,0,0:0:0:0:
64,192,243500,1,0,0:0:0:0:
192,192,243566,1,0,0:0:0:0:
320,192,243566,1,0,0:0:0:0:
448,192,243566,1,0,0:0:0:0:
64,192,243633,1,0,0:0:0:0:
192,192,243700,1,0,0:0:0:0:
448,192,243766,1,0,0:0:0:0:
320,192,243833,1,0,0:0:0:0:
192,192,243900,1,0,0:0:0:0:
320,192,243966,1,0,0:0:0:0:
448,192,243966,1,0,0:0:0:0:
64,192,244033,1,0,0:0:0:0:
192,192,244100,1,0,0:0:0:0:
448,192,244100,1,0,0:0:0:0:
320,192,244166,1,0,0:0:0:0:
64,192,244233,1,0,0:0:0:0:
192,192,244233,1,0,0:0:0:0:
448,192,244300,1,0,0:0:0:0:
64,192,244366,1,0,0:0:0:0:
192,192,244366,1,0,0:0:0:0:
320,192,244366,1,0,0:0:0:0:
448,192,244433,1,0,0:0:0:0:
320,192,244500,1,0,0:0:0:0:
64,192,244566,1,0,0:0:0:0:
192,192,244633,1,0,0:0:0:0:
448,192,244700,1,0,0:0:0:0:
64,192,244766,1,0,0:0:0:0:
320,192,244766,1,0,0:0:0:0:
192,192,244833,1,0,0:0:0:0:
320,192,244900,1,0,0:0:0:0:
448,192,244900,1,0,0:0:0:0:
64,192,244966,1,0,0:0:0:0:
192,192,245033,1,0,0:0:0:0:
448,192,245033,1,0,0:0:0:0:
320,192,245100,1,0,0:0:0:0:
64,192,245166,1,0,0:0:0:0:
192,192,245166,1,0,0:0:0:0:
448,192,245166,1,0,0:0:0:0:
320,192,245233,1,0,0:0:0:0:
64,192,245300,1,0,0:0:0:0:
448,192,245366,1,0,0:0:0:0:
320,192,245433,1,0,0:0:0:0:
192,192,245500,1,0,0:0:0:0:
64,192,245566,1,0,0:0:0:0:
448,192,245566,1,0,0:0:0:0:
320,192,245633,1,0,0:0:0:0:
64,192,245700,1,0,0:0:0:0:
192,192,245700,1,0,0:0:0:0:
448,192,245766,1,0,0:0:0:0:
192,192,245833,1,0,0:0:0:0:
320,192,245833,1,0,0:0:0:0:
64,192,245900,1,0,0:0:0:0:
192,192,245966,1,0,0:0:0:0:
320,192,245966,1,0,0:0:0:0:
448,192,245966,1,0,0:0:0:0:
64,192,246033,1,0,0:0:0:0:
448,192,246100,1,0,0:0:0:0:
192,192,246166,1,0,0:0:0:0:
320,192,246233,1,0,0:0:0:0:
448,192,246300,1,0,0:0:0:0:
64,192,246366,1,0,0:0:0:0:
192,192,246366,1,0,0:0:0:0:
320,192,246433,1,0,0:0:0:0:
64,192,246500,1,0,0:0:0:0:
448,192,246500,1,0,0:0:0:0:
192,192,246566,1,0,0:0:0:0:
320,192,246633,1,0,0:0:0:0:
448,192,246633,1,0,0:0:0:0:
64,192,246700,1,0,0:0:0:0:
192,192,246766,1,0,0:0:0:0:
320,192,246766,1,0,0:0:0:0:
448,192,246766,1,0,0:0:0:0:
64,192,246833,1,0,0:0:0:0:
192,192,246900,1,0,0:0:0:0:
448,192,246966,1,0,0:0:0:0:
64,192,247033,1,0,0:0:0:0:
320,192,247033,1,0,0:0:0:0:
192,192,247100,1,0,0:0:0:0:
448,192,247166,1,0,0:0:0:0:
64,192,247233,1,0,0:0:0:0:
192,192,247300,1,0,0:0:0:0:
320,192,247300,1,0,0:0:0:0:
448,192,247366,1,0,0:0:0:0:
64,192,247433,1,0,0:0:0:0:
192,192,247500,1,0,0:0:0:0:
64,192,247566,1,0,0:0:0:0:
320,192,247566,1,0,0:0:0:0:
448,192,247566,1,0,0:0:0:0:
64,192,247700,1,0,0:0:0:0:
320,192,247700,1,0,0:0:0:0:
448,192,247700,1,0,0:0:0:0:
64,192,247833,1,0,0:0:0:0:
192,192,247833,1,0,0:0:0:0:
448,192,247833,1,0,0:0:0:0:
64,192,247966,1,0,0:0:0:0:
192,192,247966,1,0,0:0:0:0:
448,192,247966,1,0,0:0:0:0:
320,192,248100,1,0,0:0:0:0:
448,192,248100,1,0,0:0:0:0:
64,192,248166,1,0,0:0:0:0:
192,192,248166,1,0,0:0:0:0:
320,192,248233,1,0,0:0:0:0:
448,192,248233,1,0,0:0:0:0:
64,192,248300,1,0,0:0:0:0:
192,192,248300,1,0,0:0:0:0:
320,192,248366,1,0,0:0:0:0:
448,192,248366,1,0,0:0:0:0:
64,192,248433,1,0,0:0:0:0:
192,192,248500,1,0,0:0:0:0:
448,192,248566,1,0,0:0:0:0:
64,192,248633,1,0,0:0:0:0:
192,192,248700,1,0,0:0:0:0:
320,192,248766,1,0,0:0:0:0:
448,192,248766,1,0,0:0:0:0:
64,192,248833,1,0,0:0:0:0:
192,192,248900,1,0,0:0:0:0:
320,192,248966,1,0,0:0:0:0:
192,192,249033,1,0,0:0:0:0:
320,192,249100,1,0,0:0:0:0:
64,192,249166,1,0,0:0:0:0:
448,192,249166,1,0,0:0:0:0:
192,192,249233,1,0,0:0:0:0:
320,192,249300,1,0,0:0:0:0:
192,192,249366,1,0,0:0:0:0:
64,192,249433,1,0,0:0:0:0:
192,192,249500,1,0,0:0:0:0:
320,192,249566,1,0,0:0:0:0:
448,192,249566,1,0,0:0:0:0:
64,192,249633,1,0,0:0:0:0:
320,192,249700,1,0,0:0:0:0:
448,192,249700,1,0,0:0:0:0:
192,192,249766,1,0,0:0:0:0:
320,192,249833,1,0,0:0:0:0:
448,192,249833,1,0,0:0:0:0:
64,192,249900,1,0,0:0:0:0:
192,192,249966,128,0,250033:0:0:0:0:
448,192,249966,1,0,0:0:0:0:
320,192,250100,1,0,0:0:0:0:
192,192,250233,1,0,0:0:0:0:
320,192,250366,1,0,0:0:0:0:
448,192,250366,128,0,250433:0:0:0:0:
64,192,250500,128,0,250566:0:0:0:0:
192,192,250500,1,0,0:0:0:0:
192,192,250633,1,0,0:0:0:0:
448,192,250633,128,0,250700:0:0:0:0:
64,192,250766,1,0,0:0:0:0:
320,192,250766,128,0,250833:0:0:0:0:
192,192,250900,1,0,0:0:0:0:
448,192,251033,1,0,0:0:0:0:
64,192,251166,1,0,0:0:0:0:
320,192,251166,128,0,251233:0:0:0:0:
192,192,251300,128,0,251366:0:0:0:0:
448,192,251300,1,0,0:0:0:0:
320,192,251433,128,0,251500:0:0:0:0:
448,192,251433,1,0,0:0:0:0:
64,192,251566,128,0,251633:0:0:0:0:
192,192,251566,1,0,0:0:0:0:
320,192,251566,1,0,0:0:0:0:
448,192,251700,1,0,0:0:0:0:
320,192,251833,1,0,0:0:0:0:
64,192,251966,1,0,0:0:0:0:
192,192,251966,128,0,252033:0:0:0:0:
320,192,252100,1,0,0:0:0:0:
448,192,252100,128,0,252166:0:0:0:0:
192,192,252233,128,0,252300:0:0:0:0:
320,192,252233,1,0,0:0:0:0:
64,192,252366,128,0,252766:0:0:0:0:
448,192,252366,1,0,0:0:0:0:
320,192,252500,1,0,0:0:0:0:
192,192,252633,1,0,0:0:0:0:
320,192,252766,1,0,0:0:0:0:
448,192,252766,128,0,253033:0:0:0:0:
64,192,252900,1,0,0:0:0:0:
320,192,253033,1,0,0:0:0:0:
192,192,253100,1,0,0:0:0:0:
64,192,253166,1,0,0:0:0:0:
320,192,253216,1,0,0:0:0:0:
192,192,253255,1,0,0:0:0:0:
448,192,253300,1,0,0:0:0:0:
64,192,253350,1,0,0:0:0:0:
320,192,253388,1,0,0:0:0:0:
192,192,253433,1,0,0:0:0:0:
448,192,253500,1,0,0:0:0:0:
64,192,253566,1,0,0:0:0:0:
192,192,253566,128,0,253633:0:0:0:0:
64,192,253700,1,0,0:0:0:0:
448,192,253700,128,0,253766:0:0:0:0:
64,192,253833,1,0,0:0:0:0:
192,192,253833,128,0,253900:0:0:0:0:
320,192,253966,128,0,254033:0:0:0:0:
448,192,253966,1,0,0:0:0:0:
192,192,254100,1,0,0:0:0:0:
448,192,254233,1,0,0:0:0:0:
192,192,254366,128,0,254433:0:0:0:0:
320,192,254366,1,0,0:0:0:0:
64,192,254500,128,0,254566:0:0:0:0:
320,192,254500,1,0,0:0:0:0:
192,192,254633,128,0,254700:0:0:0:0:
320,192,254633,1,0,0:0:0:0:
64,192,254766,1,0,0:0:0:0:
192,192,254766,1,0,0:0:0:0:
448,192,254766,128,0,254833:0:0:0:0:
320,192,254900,1,0,0:0:0:0:
64,192,255033,1,0,0:0:0:0:
192,192,255166,1,0,0:0:0:0:
448,192,255166,128,0,255233:0:0:0:0:
192,192,255300,1,0,0:0:0:0:
320,192,255300,128,0,255366:0:0:0:0:
192,192,255433,1,0,0:0:0:0:
448,192,255433,128,0,255500:0:0:0:0:
64,192,255566,128,0,255633:0:0:0:0:
320,192,255566,1,0,0:0:0:0:
448,192,255566,1,0,0:0:0:0:
320,192,255700,1,0,0:0:0:0:
64,192,255833,1,0,0:0:0:0:
192,192,255833,1,0,0:0:0:0:
448,192,255833,128,0,255900:0:0:0:0:
192,192,255966,1,0,0:0:0:0:
320,192,256100,1,0,0:0:0:0:
448,192,256233,1,0,0:0:0:0:
64,192,256366,1,0,0:0:0:0:
320,192,256366,1,0,0:0:0:0:
192,192,256433,1,0,0:0:0:0:
448,192,256500,1,0,0:0:0:0:
64,192,256566,1,0,0:0:0:0:
192,192,256633,1,0,0:0:0:0:
448,192,256666,1,0,0:0:0:0:
64,192,256766,1,0,0:0:0:0:
192,192,256833,1,0,0:0:0:0:
448,192,256866,1,0,0:0:0:0:
64,192,256944,1,0,0:0:0:0:
320,192,256988,1,0,0:0:0:0:
192,192,257033,1,0,0:0:0:0:
320,192,257100,1,0,0:0:0:0:
448,192,257166,1,0,0:0:0:0:
64,192,257211,1,0,0:0:0:0:
320,192,257255,1,0,0:0:0:0:
192,192,257300,1,0,0:0:0:0:
64,192,257366,1,0,0:0:0:0:
320,192,257433,1,0,0:0:0:0:
448,192,257433,1,0,0:0:0:0:
192,192,257522,1,0,0:0:0:0:
320,192,257566,1,0,0:0:0:0:
448,192,257611,1,0,0:0:0:0:
64,192,257700,1,0,0:0:0:0:
192,192,257700,1,0,0:0:0:0:
320,192,257788,1,0,0:0:0:0:
192,192,257833,1,0,0:0:0:0:
64,192,257877,1,0,0:0:0:0:
192,192,257966,1,0,0:0:0:0:
320,192,257966,1,0,0:0:0:0:
448,192,257966,1,0,0:0:0:0:
64,192,258055,1,0,0:0:0:0:
320,192,258100,1,0,0:0:0:0:
192,192,258144,1,0,0:0:0:0:
448,192,258233,1,0,0:0:0:0:
320,192,258266,1,0,0:0:0:0:
192,192,258366,1,0,0:0:0:0:
448,192,258500,1,0,0:0:0:0:
320,192,258533,1,0,0:0:0:0:
192,192,258633,1,0,0:0:0:0:
64,192,258766,1,0,0:0:0:0:
448,192,258766,1,0,0:0:0:0:
320,192,258900,1,0,0:0:0:0:
192,192,259033,1,0,0:0:0:0:
448,192,259033,1,0,0:0:0:0:
64,192,259066,1,0,0:0:0:0:
320,192,259166,1,0,0:0:0:0:
64,192,259300,1,0,0:0:0:0:
192,192,259433,1,0,0:0:0:0:
64,192,259566,1,0,0:0:0:0:
320,192,259566,128,0,259633:0:0:0:0:
64,192,259700,1,0,0:0:0:0:
320,192,259700,1,0,0:0:0:0:
192,192,259833,128,0,259900:0:0:0:0:
448,192,259833,1,0,0:0:0:0:
192,192,259966,1,0,0:0:0:0:
320,192,259966,1,0,0:0:0:0:
64,192,260100,1,0,0:0:0:0:
320,192,260100,1,0,0:0:0:0:
64,192,260233,1,0,0:0:0:0:
448,192,260233,1,0,0:0:0:0:
192,192,260366,1,0,0:0:0:0:
320,192,260366,1,0,0:0:0:0:
448,192,260366,1,0,0:0:0:0:
64,192,260500,1,0,0:0:0:0:
320,192,260500,1,0,0:0:0:0:
64,192,260633,1,0,0:0:0:0:
192,192,260633,1,0,0:0:0:0:
320,192,260766,1,0,0:0:0:0:
448,192,260766,1,0,0:0:0:0:
192,192,260833,1,0,0:0:0:0:
64,192,260900,1,0,0:0:0:0:
448,192,260900,1,0,0:0:0:0:
320,192,260966,1,0,0:0:0:0:
192,192,261033,1,0,0:0:0:0:
320,192,261100,1,0,0:0:0:0:
192,192,261166,1,0,0:0:0:0:
448,192,261166,1,0,0:0:0:0:
64,192,261211,1,0,0:0:0:0:
320,192,261255,1,0,0:0:0:0:
192,192,261300,1,0,0:0:0:0:
448,192,261344,1,0,0:0:0:0:
320,192,261433,1,0,0:0:0:0:
64,192,261500,1,0,0:0:0:0:
448,192,261566,1,0,0:0:0:0:
192,192,261633,1,0,0:0:0:0:
320,192,261700,1,0,0:0:0:0:
64,192,261766,1,0,0:0:0:0:
192,192,261833,1,0,0:0:0:0:
448,192,261900,1,0,0:0:0:0:
192,192,261966,1,0,0:0:0:0:
320,192,261966,1,0,0:0:0:0:
64,192,262033,1,0,0:0:0:0:
320,192,262100,1,0,0:0:0:0:
192,192,262166,1,0,0:0:0:0:
448,192,262233,1,0,0:0:0:0:
192,192,262300,1,0,0:0:0:0:
320,192,262366,1,0,0:0:0:0:
64,192,262433,1,0,0:0:0:0:
192,192,262500,1,0,0:0:0:0:
448,192,262566,1,0,0:0:0:0:
192,192,262633,1,0,0:0:0:0:
320,192,262700,1,0,0:0:0:0:
64,192,262766,1,0,0:0:0:0:
192,192,262766,1,0,0:0:0:0:
320,192,262900,1,0,0:0:0:0:
448,192,262900,1,0,0:0:0:0:
64,192,263033,1,0,0:0:0:0:
448,192,263033,1,0,0:0:0:0:
192,192,263166,1,0,0:0:0:0:
320,192,263166,1,0,0:0:0:0:
64,192,263300,1,0,0:0:0:0:
320,192,263300,1,0,0:0:0:0:
192,192,263433,1,0,0:0:0:0:
320,192,263433,1,0,0:0:0:0:
64,192,263566,1,0,0:0:0:0:
320,192,263566,1,0,0:0:0:0:
448,192,263566,1,0,0:0:0:0:
192,192,263700,1,0,0:0:0:0:
448,192,263700,1,0,0:0:0:0:
64,192,263833,1,0,0:0:0:0:
320,192,263833,1,0,0:0:0:0:
192,192,263966,1,0,0:0:0:0:
320,192,263966,1,0,0:0:0:0:
192,192,264100,1,0,0:0:0:0:
448,192,264100,1,0,0:0:0:0:
192,192,264233,1,0,0:0:0:0:
320,192,264233,1,0,0:0:0:0:
64,192,264366,1,0,0:0:0:0:
320,192,264366,1,0,0:0:0:0:
448,192,264366,1,0,0:0:0:0:
192,192,264500,1,0,0:0:0:0:
64,192,264633,1,0,0:0:0:0:
448,192,264633,1,0,0:0:0:0:
192,192,264766,1,0,0:0:0:0:
320,192,264766,1,0,0:0:0:0:
64,192,264900,1,0,0:0:0:0:
320,192,264900,1,0,0:0:0:0:
192,192,265033,1,0,0:0:0:0:
320,192,265033,1,0,0:0:0:0:
64,192,265166,1,0,0:0:0:0:
192,192,265166,1,0,0:0:0:0:
448,192,265166,1,0,0:0:0:0:
320,192,265300,1,0,0:0:0:0:
448,192,265300,1,0,0:0:0:0:
64,192,265433,1,0,0:0:0:0:
192,192,265433,1,0,0:0:0:0:
192,192,265566,1,0,0:0:0:0:
320,192,265566,1,0,0:0:0:0:
448,192,265566,1,0,0:0:0:0:
64,192,265700,1,0,0:0:0:0:
320,192,265700,1,0,0:0:0:0:
192,192,265833,1,0,0:0:0:0:
448,192,265833,1,0,0:0:0:0:
64,192,265966,1,0,0:0:0:0:
320,192,265966,128,0,266033:0:0:0:0:
448,192,265966,1,0,0:0:0:0:
192,192,266100,1,0,0:0:0:0:
448,192,266233,1,0,0:0:0:0:
192,192,266366,1,0,0:0:0:0:
320,192,266400,1,0,0:0:0:0:
64,192,266500,1,0,0:0:0:0:
192,192,266633,1,0,0:0:0:0:
320,192,266666,1,0,0:0:0:0:
448,192,266766,1,0,0:0:0:0:
320,192,266900,1,0,0:0:0:0:
192,192,267033,1,0,0:0:0:0:
448,192,267166,1,0,0:0:0:0:
64,192,267200,1,0,0:0:0:0:
192,192,267300,1,0,0:0:0:0:
448,192,267433,1,0,0:0:0:0:
64,192,267466,1,0,0:0:0:0:
192,192,267566,1,0,0:0:0:0:
320,192,267566,1,0,0:0:0:0:
448,192,267566,1,0,0:0:0:0:
64,192,267700,1,0,0:0:0:0:
448,192,267833,1,0,0:0:0:0:
64,192,267966,1,0,0:0:0:0:
320,192,268000,1,0,0:0:0:0:
64,192,268100,1,0,0:0:0:0:
320,192,268133,1,0,0:0:0:0:
192,192,268233,1,0,0:0:0:0:
448,192,268233,1,0,0:0:0:0:
192,192,268366,1,0,0:0:0:0:
320,192,268366,1,0,0:0:0:0:
448,192,268366,1,0,0:0:0:0:
320,192,268500,1,0,0:0:0:0:
448,192,268633,1,0,0:0:0:0:
64,192,268766,1,0,0:0:0:0:
192,192,268766,1,0,0:0:0:0:
320,192,268766,1,0,0:0:0:0:
192,192,268900,1,0,0:0:0:0:
64,192,269033,1,0,0:0:0:0:
448,192,269033,1,0,0:0:0:0:
320,192,269066,1,0,0:0:0:0:
192,192,269166,1,0,0:0:0:0:
320,192,269300,1,0,0:0:0:0:
64,192,269433,1,0,0:0:0:0:
448,192,269566,1,0,0:0:0:0:
320,192,269700,1,0,0:0:0:0:
192,192,269766,1,0,0:0:0:0:
64,192,269833,1,0,0:0:0:0:
448,192,269900,1,0,0:0:0:0:
192,192,269966,1,0,0:0:0:0:
320,192,270033,1,0,0:0:0:0:
448,192,270100,1,0,0:0:0:0:
192,192,270166,1,0,0:0:0:0:
320,192,270233,1,0,0:0:0:0:
64,192,270300,1,0,0:0:0:0:
448,192,270366,1,0,0:0:0:0:
320,192,270433,1,0,0:0:0:0:
192,192,270500,1,0,0:0:0:0:
448,192,270566,1,0,0:0:0:0:
320,192,270633,1,0,0:0:0:0:
64,192,270700,1,0,0:0:0:0:
192,192,270766,1,0,0:0:0:0:
320,192,270766,1,0,0:0:0:0:
448,192,270766,1,0,0:0:0:0:
192,192,270900,1,0,0:0:0:0:
320,192,271033,1,0,0:0:0:0:
64,192,271166,1,0,0:0:0:0:
320,192,271166,1,0,0:0:0:0:
192,192,271211,1,0,0:0:0:0:
448,192,271266,1,0,0:0:0:0:
320,192,271316,1,0,0:0:0:0:
64,192,271366,1,0,0:0:0:0:
448,192,271433,1,0,0:0:0:0:
192,192,271500,1,0,0:0:0:0:
320,192,271566,1,0,0:0:0:0:
64,192,271655,1,0,0:0:0:0:
448,192,271744,1,0,0:0:0:0:
192,192,271833,1,0,0:0:0:0:
320,192,271922,1,0,0:0:0:0:
64,192,272011,1,0,0:0:0:0:
192,192,272100,1,0,0:0:0:0:
448,192,272188,1,0,0:0:0:0:
320,192,272277,1,0,0:0:0:0:
64,192,272366,1,0,0:0:0:0:
192,192,272366,1,0,0:0:0:0:
448,192,272366,1,0,0:0:0:0:
320,192,272433,1,0,0:0:0:0:
192,192,272500,1,0,0:0:0:0:
448,192,272566,1,0,0:0:0:0:
320,192,272633,1,0,0:0:0:0:
64,192,272677,1,0,0:0:0:0:
192,192,272722,1,0,0:0:0:0:
448,192,272766,1,0,0:0:0:0:
320,192,272811,1,0,0:0:0:0:
64,192,272900,1,0,0:0:0:0:
192,192,272966,1,0,0:0:0:0:
448,192,273033,1,0,0:0:0:0:
64,192,273100,1,0,0:0:0:0:
320,192,273166,1,0,0:0:0:0:
448,192,273166,1,0,0:0:0:0:
192,192,273211,1,0,0:0:0:0:
64,192,273255,1,0,0:0:0:0:
320,192,273300,1,0,0:0:0:0:
448,192,273344,1,0,0:0:0:0:
192,192,273433,1,0,0:0:0:0:
320,192,273500,1,0,0:0:0:0:
192,192,273566,1,0,0:0:0:0:
64,192,273633,1,0,0:0:0:0:
320,192,273700,1,0,0:0:0:0:
448,192,273744,1,0,0:0:0:0:
192,192,273788,1,0,0:0:0:0:
320,192,273833,1,0,0:0:0:0:
64,192,273877,1,0,0:0:0:0:
448,192,273922,1,0,0:0:0:0:
192,192,273966,1,0,0:0:0:0:
320,192,274033,1,0,0:0:0:0:
64,192,274100,1,0,0:0:0:0:
192,192,274166,1,0,0:0:0:0:
320,192,274233,1,0,0:0:0:0:
448,192,274233,1,0,0:0:0:0:
64,192,274277,1,0,0:0:0:0:
192,192,274322,1,0,0:0:0:0:
448,192,274366,1,0,0:0:0:0:
64,192,274411,1,0,0:0:0:0:
320,192,274455,1,0,0:0:0:0:
192,192,274500,1,0,0:0:0:0:
448,192,274550,1,0,0:0:0:0:
320,192,274600,1,0,0:0:0:0:
64,192,274633,1,0,0:0:0:0:
192,192,274700,1,0,0:0:0:0:
320,192,274766,1,0,0:0:0:0:
64,192,274816,1,0,0:0:0:0:
448,192,274877,1,0,0:0:0:0:
320,192,274922,1,0,0:0:0:0:
192,192,274983,1,0,0:0:0:0:
64,192,275033,1,0,0:0:0:0:
448,192,275033,1,0,0:0:0:0:
320,192,275077,1,0,0:0:0:0:
192,192,275122,1,0,0:0:0:0:
448,192,275166,1,0,0:0:0:0:
64,192,275211,1,0,0:0:0:0:
320,192,275255,1,0,0:0:0:0:
192,192,275300,1,0,0:0:0:0:
448,192,275344,1,0,0:0:0:0:
64,192,275388,1,0,0:0:0:0:
320,192,275433,128,0,275500:0:0:0:0:
192,192,275566,1,0,0:0:0:0:
192,192,275833,1,0,0:0:0:0:
320,192,275966,1,0,0:0:0:0:
192,192,276100,1,0,0:0:0:0:
320,192,276233,1,0,0:0:0:0:
64,192,276366,1,0,0:0:0:0:
448,192,276366,1,0,0:0:0:0:
320,192,276633,1,0,0:0:0:0:
192,192,276766,1,0,0:0:0:0:
320,192,276900,1,0,0:0:0:0:
192,192,277033,1,0,0:0:0:0:
64,192,277166,1,0,0:0:0:0:
448,192,277166,1,0,0:0:0:0:
320,192,277433,1,0,0:0:0:0:
64,192,277700,1,0,0:0:0:0:
192,192,277966,1,0,0:0:0:0:
448,192,277966,1,0,0:0:0:0:
320,192,278233,1,0,0:0:0:0:
192,192,278366,1,0,0:0:0:0:
320,192,278500,1,0,0:0:0:0:
192,192,278633,1,0,0:0:0:0:
64,192,278766,1,0,0:0:0:0:
448,192,278766,1,0,0:0:0:0:
192,192,279033,1,0,0:0:0:0:
320,192,279033,128,0,279100:0:0:0:0:
64,192,279300,1,0,0:0:0:0:
192,192,279433,1,0,0:0:0:0:
320,192,279566,1,0,0:0:0:0:
448,192,279566,1,0,0:0:0:0:
64,192,279833,1,0,0:0:0:0:
320,192,279966,1,0,0:0:0:0:
64,192,280100,1,0,0:0:0:0:
320,192,280233,1,0,0:0:0:0:
192,192,280366,1,0,0:0:0:0:
448,192,280366,1,0,0:0:0:0:
320,192,280633,1,0,0:0:0:0:
192,192,280766,1,0,0:0:0:0:
64,192,280900,1,0,0:0:0:0:
192,192,281033,1,0,0:0:0:0:
320,192,281166,1,0,0:0:0:0:
448,192,281166,1,0,0:0:0:0:
64,192,281433,1,0,0:0:0:0:
320,192,281433,1,0,0:0:0:0:
192,192,281566,1,0,0:0:0:0:
64,192,281700,1,0,0:0:0:0:
448,192,281700,1,0,0:0:0:0:
320,192,281833,1,0,0:0:0:0:
192,192,281900,1,0,0:0:0:0:
320,192,281966,1,0,0:0:0:0:
448,192,281966,128,0,282033:0:0:0:0:
192,192,282233,1,0,0:0:0:0:
320,192,282366,1,0,0:0:0:0:
64,192,282500,1,0,0:0:0:0:
320,192,282633,1,0,0:0:0:0:
192,192,282766,1,0,0:0:0:0:
448,192,282766,1,0,0:0:0:0:
192,192,283033,1,0,0:0:0:0:
320,192,283033,1,0,0:0:0:0:
448,192,283166,1,0,0:0:0:0:
320,192,283300,1,0,0:0:0:0:
64,192,283433,1,0,0:0:0:0:
192,192,283566,1,0,0:0:0:0:
448,192,283566,1,0,0:0:0:0:
320,192,283833,1,0,0:0:0:0:
64,192,283966,1,0,0:0:0:0:
192,192,284100,1,0,0:0:0:0:
320,192,284233,1,0,0:0:0:0:
64,192,284366,1,0,0:0:0:0:
192,192,284366,1,0,0:0:0:0:
192,192,284633,1,0,0:0:0:0:
448,192,284633,1,0,0:0:0:0:
64,192,284766,1,0,0:0:0:0:
320,192,284900,1,0,0:0:0:0:
448,192,284900,1,0,0:0:0:0:
192,192,285100,1,0,0:0:0:0:
64,192,285166,128,0,285233:0:0:0:0:
448,192,285166,1,0,0:0:0:0:
320,192,285433,1,0,0:0:0:0:
64,192,285700,1,0,0:0:0:0:
448,192,285833,1,0,0:0:0:0:
192,192,285966,1,0,0:0:0:0:
320,192,285966,1,0,0:0:0:0:
64,192,286233,1,0,0:0:0:0:
448,192,286366,1,0,0:0:0:0:
192,192,286500,1,0,0:0:0:0:
448,192,286633,1,0,0:0:0:0:
320,192,286766,1,0,0:0:0:0:
448,192,286900,1,0,0:0:0:0:
64,192,287033,128,0,287166:0:0:0:0:
192,192,287033,128,0,287166:0:0:0:0:
320,192,287300,1,0,0:0:0:0:
320,192,287433,1,0,0:0:0:0:
64,192,287566,128,0,287633:0:0:0:0:
192,192,287566,128,0,287633:0:0:0:0:
64,192,287700,128,0,287833:0:0:0:0:
192,192,287700,128,0,287833:0:0:0:0:
64,192,288366,1,0,0:0:0:0:
192,192,288366,1,0,0:0:0:0:
320,192,288366,1,0,0:0:0:0:
448,192,288366,1,0,0:0:0:0:
64,192,288500,1,0,0:0:0:0:
320,192,288500,1,0,0:0:0:0:
192,192,288633,1,0,0:0:0:0:
448,192,288633,1,0,0:0:0:0:
320,192,288766,1,0,0:0:0:0:
448,192,288766,1,0,0:0:0:0:
64,192,288900,1,0,0:0:0:0:
192,192,288900,1,0,0:0:0:0:
192,192,289033,1,0,0:0:0:0:
320,192,289033,1,0,0:0:0:0:
64,192,289166,1,0,0:0:0:0:
320,192,289166,1,0,0:0:0:0:
448,192,289166,1,0,0:0:0:0:
320,192,289300,1,0,0:0:0:0:
448,192,289300,1,0,0:0:0:0:
320,192,289433,1,0,0:0:0:0:
448,192,289433,1,0,0:0:0:0:
64,192,289566,1,0,0:0:0:0:
192,192,289566,1,0,0:0:0:0:
64,192,289700,1,0,0:0:0:0:
448,192,289700,1,0,0:0:0:0:
192,192,289833,1,0,0:0:0:0:
448,192,289833,1,0,0:0:0:0:
64,192,289966,1,0,0:0:0:0:
192,192,289966,1,0,0:0:0:0:
320,192,289966,1,0,0:0:0:0:
64,192,290100,1,0,0:0:0:0:
448,192,290100,1,0,0:0:0:0:
192,192,290233,1,0,0:0:0:0:
320,192,290233,1,0,0:0:0:0:
192,192,290366,1,0,0:0:0:0:
448,192,290366,1,0,0:0:0:0:
64,192,290500,1,0,0:0:0:0:
320,192,290500,1,0,0:0:0:0:
64,192,290633,1,0,0:0:0:0:
192,192,290633,1,0,0:0:0:0:
192,192,290766,1,0,0:0:0:0:
320,192,290766,1,0,0:0:0:0:
448,192,290766,1,0,0:0:0:0:
64,192,290900,1,0,0:0:0:0:
320,192,290900,1,0,0:0:0:0:
192,192,291033,1,0,0:0:0:0:
448,192,291033,1,0,0:0:0:0:
64,192,291166,1,0,0:0:0:0:
192,192,291166,1,0,0:0:0:0:
320,192,291300,1,0,0:0:0:0:
448,192,291300,1,0,0:0:0:0:
64,192,291433,1,0,0:0:0:0:
448,192,291433,1,0,0:0:0:0:
64,192,291566,1,0,0:0:0:0:
192,192,291566,1,0,0:0:0:0:
320,192,291566,1,0,0:0:0:0:
192,192,291700,1,0,0:0:0:0:
448,192,291700,1,0,0:0:0:0:
64,192,291833,1,0,0:0:0:0:
320,192,291833,1,0,0:0:0:0:
448,192,291833,1,0,0:0:0:0:
64,192,291966,1,0,0:0:0:0:
192,192,291966,1,0,0:0:0:0:
192,192,292100,1,0,0:0:0:0:
320,192,292100,1,0,0:0:0:0:
448,192,292100,1,0,0:0:0:0:
64,192,292233,1,0,0:0:0:0:
448,192,292233,1,0,0:0:0:0:
64,192,292366,1,0,0:0:0:0:
192,192,292366,1,0,0:0:0:0:
320,192,292366,1,0,0:0:0:0:
192,192,292500,1,0,0:0:0:0:
448,192,292500,1,0,0:0:0:0:
64,192,292633,1,0,0:0:0:0:
320,192,292633,1,0,0:0:0:0:
64,192,292766,1,0,0:0:0:0:
192,192,292766,1,0,0:0:0:0:
320,192,292900,1,0,0:0:0:0:
448,192,292900,1,0,0:0:0:0:
64,192,293033,1,0,0:0:0:0:
192,192,293033,1,0,0:0:0:0:
64,192,293166,1,0,0:0:0:0:
192,192,293166,1,0,0:0:0:0:
448,192,293166,1,0,0:0:0:0:
320,192,293300,1,0,0:0:0:0:
448,192,293300,1,0,0:0:0:0:
64,192,293433,1,0,0:0:0:0:
192,192,293433,1,0,0:0:0:0:
192,192,293566,1,0,0:0:0:0:
448,192,293566,1,0,0:0:0:0:
64,192,293700,1,0,0:0:0:0:
320,192,293700,1,0,0:0:0:0:
192,192,293833,1,0,0:0:0:0:
320,192,293833,1,0,0:0:0:0:
64,192,293966,1,0,0:0:0:0:
192,192,293966,1,0,0:0:0:0:
448,192,293966,1,0,0:0:0:0:
320,192,294100,1,0,0:0:0:0:
448,192,294100,1,0,0:0:0:0:
64,192,294233,1,0,0:0:0:0:
192,192,294233,1,0,0:0:0:0:
64,192,294366,1,0,0:0:0:0:
448,192,294366,1,0,0:0:0:0:
192,192,294500,1,0,0:0:0:0:
320,192,294500,1,0,0:0:0:0:
192,192,294633,1,0,0:0:0:0:
320,192,294633,1,0,0:0:0:0:
64,192,294766,1,0,0:0:0:0:
320,192,294766,1,0,0:0:0:0:
448,192,294766,1,0,0:0:0:0:
64,192,294900,1,0,0:0:0:0:
192,192,294900,1,0,0:0:0:0:
320,192,295033,1,0,0:0:0:0:
448,192,295033,1,0,0:0:0:0:
64,192,295166,1,0,0:0:0:0:
448,192,295166,1,0,0:0:0:0:
192,192,295300,1,0,0:0:0:0:
320,192,295300,1,0,0:0:0:0:
192,192,295433,1,0,0:0:0:0:
448,192,295433,1,0,0:0:0:0:
64,192,295566,1,0,0:0:0:0:
320,192,295566,1,0,0:0:0:0:
448,192,295566,1,0,0:0:0:0:
64,192,295700,1,0,0:0:0:0:
192,192,295700,1,0,0:0:0:0:
192,192,295833,1,0,0:0:0:0:
320,192,295833,1,0,0:0:0:0:
448,192,295833,1,0,0:0:0:0:
64,192,295966,1,0,0:0:0:0:
320,192,295966,1,0,0:0:0:0:
192,192,296100,1,0,0:0:0:0:
448,192,296100,1,0,0:0:0:0:
320,192,296233,1,0,0:0:0:0:
448,192,296233,1,0,0:0:0:0:
64,192,296366,1,0,0:0:0:0:
192,192,296366,1,0,0:0:0:0:
320,192,296366,1,0,0:0:0:0:
192,192,296500,1,0,0:0:0:0:
448,192,296500,1,0,0:0:0:0:
64,192,296633,1,0,0:0:0:0:
320,192,296633,1,0,0:0:0:0:
64,192,296766,1,0,0:0:0:0:
192,192,296766,1,0,0:0:0:0:
320,192,296900,1,0,0:0:0:0:
448,192,296900,1,0,0:0:0:0:
64,192,297033,1,0,0:0:0:0:
320,192,297033,1,0,0:0:0:0:
64,192,297166,1,0,0:0:0:0:
192,192,297166,1,0,0:0:0:0:
448,192,297166,1,0,0:0:0:0:
320,192,297300,1,0,0:0:0:0:
448,192,297300,1,0,0:0:0:0:
64,192,297433,1,0,0:0:0:0:
320,192,297433,1,0,0:0:0:0:
64,192,297566,1,0,0:0:0:0:
192,192,297566,1,0,0:0:0:0:
192,192,297700,1,0,0:0:0:0:
448,192,297700,1,0,0:0:0:0:
64,192,297833,1,0,0:0:0:0:
448,192,297833,1,0,0:0:0:0:
192,192,297966,1,0,0:0:0:0:
320,192,297966,1,0,0:0:0:0:
64,192,298100,1,0,0:0:0:0:
448,192,298100,1,0,0:0:0:0:
64,192,298233,1,0,0:0:0:0:
320,192,298233,1,0,0:0:0:0:
192,192,298366,1,0,0:0:0:0:
320,192,298366,1,0,0:0:0:0:
448,192,298366,1,0,0:0:0:0:
64,192,298500,1,0,0:0:0:0:
192,192,298500,1,0,0:0:0:0:
320,192,298633,1,0,0:0:0:0:
448,192,298633,1,0,0:0:0:0:
64,192,298766,1,0,0:0:0:0:
192,192,298766,1,0,0:0:0:0:
448,192,298766,1,0,0:0:0:0:
192,192,298900,1,0,0:0:0:0:
320,192,298900,1,0,0:0:0:0:
64,192,299033,1,0,0:0:0:0:
448,192,299033,1,0,0:0:0:0:
192,192,299166,1,0,0:0:0:0:
448,192,299166,1,0,0:0:0:0:
64,192,299300,1,0,0:0:0:0:
192,192,299300,1,0,0:0:0:0:
320,192,299433,1,0,0:0:0:0:
448,192,299433,1,0,0:0:0:0:
64,192,299566,1,0,0:0:0:0:
192,192,299566,1,0,0:0:0:0:
64,192,299700,1,0,0:0:0:0:
192,192,299700,1,0,0:0:0:0:
64,192,299833,1,0,0:0:0:0:
192,192,299833,1,0,0:0:0:0:
448,192,299833,1,0,0:0:0:0:
320,192,299922,1,0,0:0:0:0:
64,192,300011,1,0,0:0:0:0:
192,192,300100,1,0,0:0:0:0:
320,192,300100,1,0,0:0:0:0:
448,192,300100,1,0,0:0:0:0:
64,192,300188,1,0,0:0:0:0:
448,192,300277,1,0,0:0:0:0:
64,192,300366,1,0,0:0:0:0:
192,192,300366,1,0,0:0:0:0:
320,192,300366,1,0,0:0:0:0:
448,192,300455,1,0,0:0:0:0:
192,192,300544,1,0,0:0:0:0:
64,192,300633,1,0,0:0:0:0:
320,192,300633,1,0,0:0:0:0:
448,192,300633,1,0,0:0:0:0:
192,192,300722,1,0,0:0:0:0:
320,192,300811,1,0,0:0:0:0:
64,192,300900,1,0,0:0:0:0:
192,192,300900,1,0,0:0:0:0:
448,192,300900,1,0,0:0:0:0:
64,192,301033,1,0,0:0:0:0:
192,192,301033,1,0,0:0:0:0:
448,192,301033,1,0,0:0:0:0:
64,192,301166,1,0,0:0:0:0:
192,192,301166,1,0,0:0:0:0:
448,192,301166,1,0,0:0:0:0:
64,192,301300,1,0,0:0:0:0:
320,192,301300,1,0,0:0:0:0:
192,192,301433,1,0,0:0:0:0:
320,192,301433,1,0,0:0:0:0:
448,192,301433,1,0,0:0:0:0:
64,192,301566,1,0,0:0:0:0:
192,192,301566,1,0,0:0:0:0:
320,192,301700,1,0,0:0:0:0:
448,192,301700,1,0,0:0:0:0:
64,192,301833,1,0,0:0:0:0:
448,192,301833,1,0,0:0:0:0:
64,192,301966,1,0,0:0:0:0:
192,192,301966,1,0,0:0:0:0:
320,192,301966,1,0,0:0:0:0:
192,192,302100,1,0,0:0:0:0:
448,192,302100,1,0,0:0:0:0:
64,192,302233,1,0,0:0:0:0:
320,192,302233,1,0,0:0:0:0:
64,192,302366,1,0,0:0:0:0:
192,192,302366,1,0,0:0:0:0:
320,192,302500,1,0,0:0:0:0:
448,192,302500,1,0,0:0:0:0:
64,192,302633,1,0,0:0:0:0:
192,192,302633,1,0,0:0:0:0:
64,192,302766,1,0,0:0:0:0:
192,192,302766,1,0,0:0:0:0:
448,192,302766,1,0,0:0:0:0:
320,192,302900,1,0,0:0:0:0:
448,192,302900,1,0,0:0:0:0:
64,192,303033,1,0,0:0:0:0:
192,192,303033,1,0,0:0:0:0:
192,192,303166,1,0,0:0:0:0:
448,192,303166,1,0,0:0:0:0:
64,192,303300,1,0,0:0:0:0:
320,192,303300,1,0,0:0:0:0:
192,192,303433,1,0,0:0:0:0:
320,192,303433,1,0,0:0:0:0:
64,192,303566,1,0,0:0:0:0:
192,192,303566,1,0,0:0:0:0:
448,192,303566,1,0,0:0:0:0:
320,192,303700,1,0,0:0:0:0:
448,192,303700,1,0,0:0:0:0:
64,192,303833,1,0,0:0:0:0:
192,192,303833,1,0,0:0:0:0:
64,192,303966,1,0,0:0:0:0:
320,192,303966,1,0,0:0:0:0:
448,192,303966,1,0,0:0:0:0:
192,192,304100,1,0,0:0:0:0:
320,192,304100,1,0,0:0:0:0:
64,192,304233,1,0,0:0:0:0:
448,192,304233,1,0,0:0:0:0:
64,192,304366,1,0,0:0:0:0:
192,192,304366,1,0,0:0:0:0:
320,192,304366,1,0,0:0:0:0:
192,192,304500,1,0,0:0:0:0:
448,192,304500,1,0,0:0:0:0:
64,192,304633,1,0,0:0:0:0:
320,192,304633,1,0,0:0:0:0:
448,192,304633,1,0,0:0:0:0:
64,192,304766,1,0,0:0:0:0:
192,192,304766,1,0,0:0:0:0:
192,192,304900,1,0,0:0:0:0:
320,192,304900,1,0,0:0:0:0:
448,192,304900,1,0,0:0:0:0:
64,192,305033,1,0,0:0:0:0:
448,192,305033,1,0,0:0:0:0:
64,192,305166,1,0,0:0:0:0:
192,192,305166,1,0,0:0:0:0:
320,192,305166,1,0,0:0:0:0:
192,192,305300,1,0,0:0:0:0:
320,192,305300,1,0,0:0:0:0:
192,192,305433,1,0,0:0:0:0:
448,192,305433,1,0,0:0:0:0:
320,192,305566,1,0,0:0:0:0:
448,192,305566,1,0,0:0:0:0:
64,192,305700,1,0,0:0:0:0:
192,192,305700,1,0,0:0:0:0:
192,192,305833,1,0,0:0:0:0:
448,192,305833,1,0,0:0:0:0:
64,192,305966,1,0,0:0:0:0:
320,192,305966,1,0,0:0:0:0:
448,192,305966,1,0,0:0:0:0:
64,192,306100,1,0,0:0:0:0:
192,192,306100,1,0,0:0:0:0:
192,192,306233,1,0,0:0:0:0:
448,192,306233,1,0,0:0:0:0:
64,192,306366,1,0,0:0:0:0:
320,192,306366,1,0,0:0:0:0:
448,192,306366,1,0,0:0:0:0:
192,192,306500,1,0,0:0:0:0:
320,192,306500,1,0,0:0:0:0:
64,192,306633,1,0,0:0:0:0:
448,192,306633,1,0,0:0:0:0:
192,192,306766,1,0,0:0:0:0:
320,192,306766,1,0,0:0:0:0:
448,192,306766,1,0,0:0:0:0:
64,192,306900,1,0,0:0:0:0:
320,192,306900,1,0,0:0:0:0:
192,192,307033,1,0,0:0:0:0:
448,192,307033,1,0,0:0:0:0:
64,192,307166,1,0,0:0:0:0:
320,192,307166,1,0,0:0:0:0:
448,192,307166,1,0,0:0:0:0:
192,192,307300,1,0,0:0:0:0:
320,192,307300,1,0,0:0:0:0:
64,192,307433,1,0,0:0:0:0:
448,192,307433,1,0,0:0:0:0:
64,192,307566,1,0,0:0:0:0:
192,192,307566,1,0,0:0:0:0:
320,192,307700,1,0,0:0:0:0:
448,192,307700,1,0,0:0:0:0:
320,192,307833,1,0,0:0:0:0:
448,192,307833,1,0,0:0:0:0:
64,192,307966,1,0,0:0:0:0:
192,192,307966,1,0,0:0:0:0:
448,192,307966,1,0,0:0:0:0:
64,192,308100,1,0,0:0:0:0:
320,192,308100,1,0,0:0:0:0:
64,192,308233,1,0,0:0:0:0:
192,192,308233,1,0,0:0:0:0:
192,192,308366,1,0,0:0:0:0:
320,192,308366,1,0,0:0:0:0:
448,192,308366,1,0,0:0:0:0:
64,192,308500,1,0,0:0:0:0:
448,192,308500,1,0,0:0:0:0:
64,192,308633,1,0,0:0:0:0:
192,192,308633,1,0,0:0:0:0:
320,192,308633,1,0,0:0:0:0:
320,192,308766,1,0,0:0:0:0:
448,192,308766,1,0,0:0:0:0:
64,192,308900,1,0,0:0:0:0:
192,192,308900,1,0,0:0:0:0:
448,192,308900,1,0,0:0:0:0:
192,192,309033,1,0,0:0:0:0:
320,192,309033,1,0,0:0:0:0:
64,192,309166,1,0,0:0:0:0:
320,192,309166,1,0,0:0:0:0:
448,192,309166,1,0,0:0:0:0:
192,192,309300,1,0,0:0:0:0:
448,192,309300,1,0,0:0:0:0:
64,192,309433,1,0,0:0:0:0:
320,192,309433,1,0,0:0:0:0:
64,192,309566,1,0,0:0:0:0:
192,192,309566,1,0,0:0:0:0:
448,192,309566,1,0,0:0:0:0:
320,192,309700,1,0,0:0:0:0:
448,192,309700,1,0,0:0:0:0:
64,192,309833,1,0,0:0:0:0:
320,192,309833,1,0,0:0:0:0:
64,192,309966,1,0,0:0:0:0:
192,192,309966,1,0,0:0:0:0:
320,192,310100,1,0,0:0:0:0:
448,192,310100,1,0,0:0:0:0:
64,192,310233,1,0,0:0:0:0:
192,192,310233,1,0,0:0:0:0:
448,192,310233,1,0,0:0:0:0:
64,192,310366,1,0,0:0:0:0:
320,192,310366,1,0,0:0:0:0:
192,192,310500,1,0,0:0:0:0:
448,192,310500,1,0,0:0:0:0:
320,192,310633,1,0,0:0:0:0:
448,192,310633,1,0,0:0:0:0:
192,192,310766,1,0,0:0:0:0:
320,192,310766,1,0,0:0:0:0:
448,192,310766,1,0,0:0:0:0:
64,192,310900,1,0,0:0:0:0:
192,192,310900,1,0,0:0:0:0:
64,192,311033,1,0,0:0:0:0:
320,192,311033,1,0,0:0:0:0:
448,192,311033,1,0,0:0:0:0:
192,192,311166,1,0,0:0:0:0:
320,192,311166,1,0,0:0:0:0:
64,192,311300,1,0,0:0:0:0:
192,192,311300,1,0,0:0:0:0:
448,192,311300,1,0,0:0:0:0:
320,192,311433,1,0,0:0:0:0:
448,192,311433,1,0,0:0:0:0:
64,192,311566,1,0,0:0:0:0:
192,192,311566,1,0,0:0:0:0:
320,192,311566,1,0,0:0:0:0:
192,192,311700,1,0,0:0:0:0:
448,192,311700,1,0,0:0:0:0:
64,192,311833,1,0,0:0:0:0:
320,192,311833,1,0,0:0:0:0:
64,192,311966,1,0,0:0:0:0:
192,192,311966,1,0,0:0:0:0:
448,192,311966,1,0,0:0:0:0:
320,192,312100,1,0,0:0:0:0:
448,192,312100,1,0,0:0:0:0:
64,192,312233,1,0,0:0:0:0:
192,192,312233,1,0,0:0:0:0:
64,192,312366,1,0,0:0:0:0:
320,192,312366,1,0,0:0:0:0:
448,192,312366,1,0,0:0:0:0:
192,192,312500,1,0,0:0:0:0:
320,192,312500,1,0,0:0:0:0:
64,192,312633,1,0,0:0:0:0:
192,192,312633,1,0,0:0:0:0:
448,192,312633,1,0,0:0:0:0:
64,192,312766,1,0,0:0:0:0:
192,192,312766,1,0,0:0:0:0:
448,192,312766,1,0,0:0:0:0:
64,192,312900,1,0,0:0:0:0:
192,192,312900,1,0,0:0:0:0:
448,192,312900,1,0,0:0:0:0:
192,192,313033,1,0,0:0:0:0:
64,192,313166,1,0,0:0:0:0:
320,192,313166,1,0,0:0:0:0:
448,192,313166,1,0,0:0:0:0:
64,192,313300,1,0,0:0:0:0:
320,192,313300,1,0,0:0:0:0:
448,192,313300,1,0,0:0:0:0:
64,192,313433,1,0,0:0:0:0:
320,192,313433,1,0,0:0:0:0:
448,192,313433,1,0,0:0:0:0:
448,192,313566,1,0,0:0:0:0:
64,192,313700,1,0,0:0:0:0:
192,192,313700,1,0,0:0:0:0:
320,192,313700,1,0,0:0:0:0:
64,192,313833,1,0,0:0:0:0:
192,192,313833,1,0,0:0:0:0:
320,192,313833,1,0,0:0:0:0:
64,192,313966,1,0,0:0:0:0:
320,192,313966,1,0,0:0:0:0:
448,192,313966,1,0,0:0:0:0:
320,192,314100,1,0,0:0:0:0:
448,192,314100,1,0,0:0:0:0:
320,192,314233,1,0,0:0:0:0:
448,192,314233,1,0,0:0:0:0:
320,192,314366,1,0,0:0:0:0:
448,192,314366,1,0,0:0:0:0:
320,192,314500,1,0,0:0:0:0:
448,192,314500,1,0,0:0:0:0:
64,192,314633,1,0,0:0:0:0:
192,192,314766,1,0,0:0:0:0:
448,192,314766,1,0,0:0:0:0:
64,192,314900,1,0,0:0:0:0:
320,192,314900,1,0,0:0:0:0:
192,192,315033,1,0,0:0:0:0:
448,192,315033,1,0,0:0:0:0:
320,192,315166,1,0,0:0:0:0:
64,192,315300,1,0,0:0:0:0:
192,192,315300,1,0,0:0:0:0:
64,192,315433,1,0,0:0:0:0:
192,192,315433,1,0,0:0:0:0:
64,192,315566,1,0,0:0:0:0:
192,192,315566,1,0,0:0:0:0:
448,192,315566,1,0,0:0:0:0:
320,192,315700,1,0,0:0:0:0:
448,192,315700,1,0,0:0:0:0:
64,192,315833,1,0,0:0:0:0:
192,192,315833,1,0,0:0:0:0:
320,192,315966,1,0,0:0:0:0:
448,192,315966,1,0,0:0:0:0:
64,192,316100,1,0,0:0:0:0:
192,192,316100,1,0,0:0:0:0:
64,192,316233,1,0,0:0:0:0:
192,192,316233,1,0,0:0:0:0:
64,192,316366,1,0,0:0:0:0:
320,192,316366,1,0,0:0:0:0:
448,192,316366,1,0,0:0:0:0:
192,192,316500,1,0,0:0:0:0:
320,192,316633,1,0,0:0:0:0:
448,192,316633,1,0,0:0:0:0:
64,192,316766,1,0,0:0:0:0:
192,192,316766,1,0,0:0:0:0:
192,192,316900,1,0,0:0:0:0:
448,192,316900,1,0,0:0:0:0:
320,192,317033,1,0,0:0:0:0:
448,192,317033,1,0,0:0:0:0:
64,192,317166,1,0,0:0:0:0:
192,192,317166,1,0,0:0:0:0:
320,192,317166,1,0,0:0:0:0:
448,192,317300,1,0,0:0:0:0:
192,192,317433,1,0,0:0:0:0:
320,192,317433,1,0,0:0:0:0:
192,192,317566,1,0,0:0:0:0:
320,192,317566,1,0,0:0:0:0:
192,192,317700,1,0,0:0:0:0:
320,192,317700,1,0,0:0:0:0:
64,192,317833,1,0,0:0:0:0:
192,192,317966,1,0,0:0:0:0:
320,192,317966,1,0,0:0:0:0:
448,192,317966,1,0,0:0:0:0:
64,192,318100,1,0,0:0:0:0:
320,192,318100,1,0,0:0:0:0:
192,192,318233,1,0,0:0:0:0:
448,192,318233,1,0,0:0:0:0:
320,192,318366,1,0,0:0:0:0:
64,192,318500,1,0,0:0:0:0:
192,192,318566,1,0,0:0:0:0:
320,192,318633,1,0,0:0:0:0:
192,192,318700,1,0,0:0:0:0:
64,192,318766,1,0,0:0:0:0:
320,192,318766,1,0,0:0:0:0:
448,192,318766,1,0,0:0:0:0:
192,192,318900,1,0,0:0:0:0:
448,192,318900,1,0,0:0:0:0:
192,192,319033,1,0,0:0:0:0:
320,192,319033,1,0,0:0:0:0:
64,192,319166,1,0,0:0:0:0:
320,192,319166,1,0,0:0:0:0:
192,192,319300,1,0,0:0:0:0:
448,192,319300,1,0,0:0:0:0:
64,192,319433,1,0,0:0:0:0:
320,192,319433,1,0,0:0:0:0:
64,192,319566,1,0,0:0:0:0:
192,192,319566,1,0,0:0:0:0:
448,192,319566,1,0,0:0:0:0:
320,192,319700,1,0,0:0:0:0:
192,192,319833,1,0,0:0:0:0:
448,192,319833,1,0,0:0:0:0:
192,192,319966,1,0,0:0:0:0:
448,192,319966,1,0,0:0:0:0:
192,192,320100,1,0,0:0:0:0:
448,192,320100,1,0,0:0:0:0:
192,192,320233,1,0,0:0:0:0:
448,192,320233,1,0,0:0:0:0:
64,192,320366,1,0,0:0:0:0:
320,192,320366,1,0,0:0:0:0:
448,192,320366,1,0,0:0:0:0:
192,192,320433,1,0,0:0:0:0:
64,192,320500,1,0,0:0:0:0:
448,192,320566,1,0,0:0:0:0:
192,192,320633,1,0,0:0:0:0:
320,192,320633,1,0,0:0:0:0:
64,192,320700,1,0,0:0:0:0:
192,192,320766,1,0,0:0:0:0:
320,192,320766,1,0,0:0:0:0:
64,192,320833,1,0,0:0:0:0:
192,192,320900,1,0,0:0:0:0:
448,192,320900,1,0,0:0:0:0:
320,192,320966,1,0,0:0:0:0:
448,192,321033,1,0,0:0:0:0:
320,192,321100,1,0,0:0:0:0:
64,192,321166,1,0,0:0:0:0:
192,192,321166,1,0,0:0:0:0:
448,192,321233,1,0,0:0:0:0:
64,192,321300,1,0,0:0:0:0:
192,192,321300,1,0,0:0:0:0:
320,192,321366,1,0,0:0:0:0:
64,192,321433,1,0,0:0:0:0:
192,192,321433,1,0,0:0:0:0:
448,192,321500,1,0,0:0:0:0:
320,192,321566,1,0,0:0:0:0:
192,192,321633,1,0,0:0:0:0:
320,192,321700,1,0,0:0:0:0:
448,192,321700,1,0,0:0:0:0:
64,192,321766,1,0,0:0:0:0:
320,192,321833,1,0,0:0:0:0:
448,192,321833,1,0,0:0:0:0:
192,192,321900,1,0,0:0:0:0:
64,192,321966,1,0,0:0:0:0:
320,192,321966,1,0,0:0:0:0:
448,192,321966,1,0,0:0:0:0:
192,192,322033,1,0,0:0:0:0:
64,192,322100,1,0,0:0:0:0:
448,192,322100,1,0,0:0:0:0:
320,192,322166,1,0,0:0:0:0:
64,192,322233,1,0,0:0:0:0:
192,192,322233,1,0,0:0:0:0:
448,192,322300,1,0,0:0:0:0:
64,192,322366,1,0,0:0:0:0:
320,192,322366,1,0,0:0:0:0:
192,192,322433,1,0,0:0:0:0:
320,192,322500,1,0,0:0:0:0:
448,192,322500,1,0,0:0:0:0:
64,192,322566,1,0,0:0:0:0:
320,192,322633,1,0,0:0:0:0:
448,192,322633,1,0,0:0:0:0:
192,192,322700,1,0,0:0:0:0:
64,192,322766,1,0,0:0:0:0:
320,192,322766,1,0,0:0:0:0:
448,192,322766,1,0,0:0:0:0:
192,192,322833,1,0,0:0:0:0:
64,192,322900,1,0,0:0:0:0:
448,192,322900,1,0,0:0:0:0:
320,192,322966,1,0,0:0:0:0:
64,192,323033,1,0,0:0:0:0:
192,192,323033,1,0,0:0:0:0:
448,192,323100,1,0,0:0:0:0:
64,192,323166,1,0,0:0:0:0:
320,192,323166,1,0,0:0:0:0:
192,192,323233,1,0,0:0:0:0:
320,192,323300,1,0,0:0:0:0:
448,192,323300,1,0,0:0:0:0:
64,192,323366,1,0,0:0:0:0:
320,192,323433,1,0,0:0:0:0:
448,192,323433,1,0,0:0:0:0:
192,192,323500,1,0,0:0:0:0:
64,192,323566,1,0,0:0:0:0:
320,192,323566,1,0,0:0:0:0:
448,192,323566,1,0,0:0:0:0:
192,192,323633,1,0,0:0:0:0:
64,192,323700,1,0,0:0:0:0:
448,192,323766,1,0,0:0:0:0:
192,192,323833,1,0,0:0:0:0:
320,192,323833,1,0,0:0:0:0:
64,192,323900,1,0,0:0:0:0:
192,192,323966,1,0,0:0:0:0:
448,192,323966,1,0,0:0:0:0:
320,192,324033,1,0,0:0:0:0:
64,192,324100,1,0,0:0:0:0:
192,192,324100,1,0,0:0:0:0:
448,192,324100,1,0,0:0:0:0:
320,192,324166,1,0,0:0:0:0:
64,192,324233,1,0,0:0:0:0:
192,192,324300,1,0,0:0:0:0:
320,192,324366,1,0,0:0:0:0:
448,192,324366,1,0,0:0:0:0:
64,192,324433,1,0,0:0:0:0:
192,192,324500,1,0,0:0:0:0:
320,192,324500,1,0,0:0:0:0:
448,192,324566,1,0,0:0:0:0:
64,192,324633,1,0,0:0:0:0:
192,192,324633,1,0,0:0:0:0:
320,192,324633,1,0,0:0:0:0:
448,192,324700,1,0,0:0:0:0:
320,192,324766,1,0,0:0:0:0:
64,192,324833,1,0,0:0:0:0:
192,192,324900,1,0,0:0:0:0:
448,192,324900,1,0,0:0:0:0:
320,192,324966,1,0,0:0:0:0:
64,192,325033,1,0,0:0:0:0:
192,192,325033,1,0,0:0:0:0:
448,192,325100,1,0,0:0:0:0:
64,192,325166,128,0,325300:0:0:0:0:
192,192,325166,128,0,325300:0:0:0:0:
320,192,325166,128,0,325300:0:0:0:0:
