osu file format v14

[General]
AudioFilename: audio140.mp3
AudioLeadIn: 0
PreviewTime: -1
Countdown: 0
SampleSet: None
StackLeniency: 0.8
Mode: 3
LetterboxInBreaks: 0
SpecialStyle: 1
WidescreenStoryboard: 0

[Editor]
DistanceSpacing: 0.8
BeatDivisor: 4
GridSize: 32
TimelineZoom: 2.3

[Metadata]
Title:In Aeternum
TitleUnicode:In Aeternum
Artist:Fleshgod Apocalypse
ArtistUnicode:Fleshgod Apocalypse
Creator:Herkkupala
Version:Evermore [1.4x]
Source:
Tags:the king nuclear blast records technical death metal
BeatmapID:1795987
BeatmapSetID:751362

[Difficulty]
HPDrainRate:8.6
CircleSize:4
OverallDifficulty:9
ApproachRate:5
SliderMultiplier:1.4
SliderTickRate:1

[Events]
//Background and Video events
0,0,"bg.png",0,0
//Break Periods
//Storyboard Layer 0 (Background)
//Storyboard Layer 1 (Fail)
//Storyboard Layer 2 (Pass)
//Storyboard Layer 3 (Foreground)
//Storyboard Sound Samples

[TimingPoints]
171,190.476190714286,4,3,0,30,1,0
27599,-100,4,3,0,30,0,1
36171,-100,4,3,0,30,0,0
53885,-100,4,3,0,30,0,1
55028,-100,4,3,0,30,0,0
56171,-100,4,3,0,30,0,1
57409,-100,4,3,0,30,0,0
60742,-100,4,3,0,30,0,1
61313,-100,4,3,0,30,0,0
61885,-100,4,3,0,30,0,1
65885,-100,4,3,0,30,0,0
66456,-100,4,3,0,30,0,1
70456,-100,4,3,0,30,0,0
88742,-100,4,3,0,30,0,1
107028,-100,4,3,0,30,0,0
115409,-100,4,3,0,30,0,1
121504,-100,4,3,0,30,0,0
130837,-100,4,3,0,30,0,1
131790,-100,4,3,0,30,0,0
132932,-100,4,3,0,30,0,1
134075,-100,4,3,0,30,0,0
135218,-100,4,3,0,30,0,1
136361,-100,4,3,0,30,0,0
137504,-100,4,3,0,30,0,1
138647,-100,4,3,0,30,0,0
152361,-100,4,3,0,30,0,1
153504,-100,4,3,0,30,0,0
154647,-100,4,3,0,30,0,1
155790,-100,4,3,0,30,0,0
156932,-100,4,3,0,30,0,1
158075,-100,4,3,0,30,0,0
159218,-100,4,3,0,30,0,1
160361,-100,4,3,0,30,0,0
178647,-100,4,3,0,30,0,1
196932,-100,4,3,0,30,0,0
206075,-100,4,3,0,30,0,1
224361,-100,4,3,0,30,0,0
228932,-100,4,3,0,30,0,1
232361,-100,4,3,0,30,0,0

[HitObjects]
64,192,171,5,0,0:0:0:0:
320,192,171,1,0,0:0:0:0:
448,192,171,1,0,0:0:0:0:
192,192,218,1,0,0:0:0:0:
448,192,266,1,0,0:0:0:0:
64,192,313,1,0,0:0:0:0:
320,192,361,1,0,0:0:0:0:
192,192,409,1,0,0:0:0:0:
320,192,456,1,0,0:0:0:0:
448,192,456,1,0,0:0:0:0:
64,192,504,1,0,0:0:0:0:
192,192,551,1,0,0:0:0:0:
448,192,551,1,0,0:0:0:0:
64,192,599,1,0,0:0:0:0:
320,192,647,1,0,0:0:0:0:
448,192,647,1,0,0:0:0:0:
192,192,694,1,0,0:0:0:0:
64,192,742,1,0,0:0:0:0:
320,192,742,1,0,0:0:0:0:
448,192,742,1,0,0:0:0:0:
192,192,790,1,0,0:0:0:0:
64,192,837,1,0,0:0:0:0:
320,192,885,1,0,0:0:0:0:
448,192,932,1,0,0:0:0:0:
320,192,980,1,0,0:0:0:0:
64,192,1028,1,0,0:0:0:0:
192,192,1028,1,0,0:0:0:0:
448,192,1075,1,0,0:0:0:0:
64,192,1123,1,0,0:0:0:0:
320,192,1123,1,0,0:0:0:0:
448,192,1171,1,0,0:0:0:0:
64,192,1218,1,0,0:0:0:0:
192,192,1218,1,0,0:0:0:0:
320,192,1266,1,0,0:0:0:0:
64,192,1313,1,0,0:0:0:0:
192,192,1313,1,0,0:0:0:0:
448,192,1313,1,0,0:0:0:0:
320,192,1361,1,0,0:0:0:0:
448,192,1409,1,0,0:0:0:0:
192,192,1456,1,0,0:0:0:0:
64,192,1504,1,0,0:0:0:0:
192,192,1551,1,0,0:0:0:0:
320,192,1599,1,0,0:0:0:0:
448,192,1599,1,0,0:0:0:0:
64,192,1647,1,0,0:0:0:0:
192,192,1694,1,0,0:0:0:0:
448,192,1694,1,0,0:0:0:0:
64,192,1742,1,0,0:0:0:0:
320,192,1790,1,0,0:0:0:0:
448,192,1790,1,0,0:0:0:0:
192,192,1837,1,0,0:0:0:0:
64,192,1885,1,0,0:0:0:0:
320,192,1885,1,0,0:0:0:0:
448,192,1885,1,0,0:0:0:0:
192,192,1932,1,0,0:0:0:0:
64,192,1980,1,0,0:0:0:0:
320,192,2028,1,0,0:0:0:0:
192,192,2075,1,0,0:0:0:0:
448,192,2123,1,0,0:0:0:0:
64,192,2171,1,0,0:0:0:0:
192,192,2171,1,0,0:0:0:0:
320,192,2171,1,0,0:0:0:0:
448,192,2218,1,0,0:0:0:0:
192,192,2266,1,0,0:0:0:0:
320,192,2313,1,0,0:0:0:0:
64,192,2361,1,0,0:0:0:0:
192,192,2409,1,0,0:0:0:0:
64,192,2456,1,0,0:0:0:0:
320,192,2456,1,0,0:0:0:0:
448,192,2456,1,0,0:0:0:0:
192,192,2504,1,0,0:0:0:0:
320,192,2551,1,0,0:0:0:0:
64,192,2599,1,0,0:0:0:0:
192,192,2647,1,0,0:0:0:0:
320,192,2694,1,0,0:0:0:0:
64,192,2742,1,0,0:0:0:0:
192,192,2742,1,0,0:0:0:0:
448,192,2790,1,0,0:0:0:0:
64,192,2837,1,0,0:0:0:0:
320,192,2837,1,0,0:0:0:0:
448,192,2885,1,0,0:0:0:0:
64,192,2932,1,0,0:0:0:0:
192,192,2932,1,0,0:0:0:0:
320,192,2980,1,0,0:0:0:0:
64,192,3028,1,0,0:0:0:0:
192,192,3028,1,0,0:0:0:0:
448,192,3028,1,0,0:0:0:0:
320,192,3075,1,0,0:0:0:0:
448,192,3123,1,0,0:0:0:0:
192,192,3171,1,0,0:0:0:0:
64,192,3218,1,0,0:0:0:0:
192,192,3266,1,0,0:0:0:0:
320,192,3313,1,0,0:0:0:0:
448,192,3313,1,0,0:0:0:0:
64,192,3361,1,0,0:0:0:0:
192,192,3409,1,0,0:0:0:0:
448,192,3409,1,0,0:0:0:0:
64,192,3456,1,0,0:0:0:0:
320,192,3504,1,0,0:0:0:0:
448,192,3504,1,0,0:0:0:0:
192,192,3551,1,0,0:0:0:0:
64,192,3599,1,0,0:0:0:0:
320,192,3599,1,0,0:0:0:0:
448,192,3599,1,0,0:0:0:0:
192,192,3647,1,0,0:0:0:0:
64,192,3694,1,0,0:0:0:0:
320,192,3742,1,0,0:0:0:0:
448,192,3790,1,0,0:0:0:0:
320,192,3837,1,0,0:0:0:0:
64,192,3885,1,0,0:0:0:0:
192,192,3885,1,0,0:0:0:0:
448,192,3932,1,0,0:0:0:0:
64,192,3980,1,0,0:0:0:0:
320,192,3980,1,0,0:0:0:0:
448,192,4028,1,0,0:0:0:0:
64,192,4075,1,0,0:0:0:0:
192,192,4075,1,0,0:0:0:0:
320,192,4123,1,0,0:0:0:0:
64,192,4171,1,0,0:0:0:0:
192,192,4171,1,0,0:0:0:0:
448,192,4171,1,0,0:0:0:0:
320,192,4218,1,0,0:0:0:0:
448,192,4266,1,0,0:0:0:0:
192,192,4313,1,0,0:0:0:0:
64,192,4361,1,0,0:0:0:0:
320,192,4361,1,0,0:0:0:0:
448,192,4361,1,0,0:0:0:0:
192,192,4409,1,0,0:0:0:0:
64,192,4456,1,0,0:0:0:0:
448,192,4504,1,0,0:0:0:0:
64,192,4551,1,0,0:0:0:0:
192,192,4551,1,0,0:0:0:0:
320,192,4551,1,0,0:0:0:0:
448,192,4599,1,0,0:0:0:0:
320,192,4647,1,0,0:0:0:0:
64,192,4694,1,0,0:0:0:0:
192,192,4742,1,0,0:0:0:0:
320,192,4742,1,0,0:0:0:0:
448,192,4742,1,0,0:0:0:0:
64,192,4790,1,0,0:0:0:0:
192,192,4837,1,0,0:0:0:0:
320,192,4885,1,0,0:0:0:0:
64,192,4932,1,0,0:0:0:0:
192,192,4980,1,0,0:0:0:0:
320,192,5028,1,0,0:0:0:0:
448,192,5028,1,0,0:0:0:0:
64,192,5075,1,0,0:0:0:0:
192,192,5123,1,0,0:0:0:0:
448,192,5123,1,0,0:0:0:0:
64,192,5171,1,0,0:0:0:0:
320,192,5218,1,0,0:0:0:0:
448,192,5218,1,0,0:0:0:0:
192,192,5266,1,0,0:0:0:0:
64,192,5313,1,0,0:0:0:0:
320,192,5313,1,0,0:0:0:0:
448,192,5313,1,0,0:0:0:0:
192,192,5361,1,0,0:0:0:0:
64,192,5409,1,0,0:0:0:0:
320,192,5456,1,0,0:0:0:0:
448,192,5504,1,0,0:0:0:0:
320,192,5551,1,0,0:0:0:0:
64,192,5599,1,0,0:0:0:0:
192,192,5599,1,0,0:0:0:0:
448,192,5647,1,0,0:0:0:0:
64,192,5694,1,0,0:0:0:0:
320,192,5694,1,0,0:0:0:0:
448,192,5742,1,0,0:0:0:0:
64,192,5790,1,0,0:0:0:0:
192,192,5790,1,0,0:0:0:0:
320,192,5837,1,0,0:0:0:0:
64,192,5885,1,0,0:0:0:0:
192,192,5885,1,0,0:0:0:0:
448,192,5885,1,0,0:0:0:0:
320,192,5932,1,0,0:0:0:0:
448,192,5980,1,0,0:0:0:0:
192,192,6028,1,0,0:0:0:0:
64,192,6075,1,0,0:0:0:0:
192,192,6123,1,0,0:0:0:0:
320,192,6171,1,0,0:0:0:0:
448,192,6171,1,0,0:0:0:0:
64,192,6218,1,0,0:0:0:0:
192,192,6266,1,0,0:0:0:0:
448,192,6266,1,0,0:0:0:0:
64,192,6313,1,0,0:0:0:0:
320,192,6361,1,0,0:0:0:0:
448,192,6361,1,0,0:0:0:0:
192,192,6409,1,0,0:0:0:0:
64,192,6456,1,0,0:0:0:0:
320,192,6456,1,0,0:0:0:0:
448,192,6456,1,0,0:0:0:0:
192,192,6504,1,0,0:0:0:0:
64,192,6551,1,0,0:0:0:0:
320,192,6599,1,0,0:0:0:0:
192,192,6647,1,0,0:0:0:0:
448,192,6694,1,0,0:0:0:0:
64,192,6742,1,0,0:0:0:0:
320,192,6742,1,0,0:0:0:0:
192,192,6790,1,0,0:0:0:0:
320,192,6837,1,0,0:0:0:0:
448,192,6837,1,0,0:0:0:0:
64,192,6885,1,0,0:0:0:0:
192,192,6932,1,0,0:0:0:0:
448,192,6932,1,0,0:0:0:0:
320,192,6980,1,0,0:0:0:0:
64,192,7028,1,0,0:0:0:0:
192,192,7028,1,0,0:0:0:0:
64,192,7123,1,0,0:0:0:0:
448,192,7123,1,0,0:0:0:0:
192,192,7218,1,0,0:0:0:0:
320,192,7218,1,0,0:0:0:0:
64,192,7313,1,0,0:0:0:0:
320,192,7313,1,0,0:0:0:0:
448,192,7313,1,0,0:0:0:0:
64,192,7409,1,0,0:0:0:0:
320,192,7409,1,0,0:0:0:0:
448,192,7409,1,0,0:0:0:0:
64,192,7504,1,0,0:0:0:0:
320,192,7504,1,0,0:0:0:0:
448,192,7504,1,0,0:0:0:0:
64,192,7599,1,0,0:0:0:0:
192,192,7599,1,0,0:0:0:0:
448,192,7599,1,0,0:0:0:0:
320,192,7694,1,0,0:0:0:0:
448,192,7694,1,0,0:0:0:0:
64,192,7790,1,0,0:0:0:0:
192,192,7790,1,0,0:0:0:0:
64,192,7885,1,0,0:0:0:0:
320,192,7885,1,0,0:0:0:0:
448,192,7885,1,0,0:0:0:0:
64,192,7980,1,0,0:0:0:0:
320,192,7980,1,0,0:0:0:0:
448,192,7980,1,0,0:0:0:0:
64,192,8075,1,0,0:0:0:0:
320,192,8075,1,0,0:0:0:0:
448,192,8075,1,0,0:0:0:0:
64,192,8171,1,0,0:0:0:0:
192,192,8171,1,0,0:0:0:0:
448,192,8171,1,0,0:0:0:0:
192,192,8266,1,0,0:0:0:0:
320,192,8266,1,0,0:0:0:0:
320,192,8361,1,0,0:0:0:0:
448,192,8361,1,0,0:0:0:0:
64,192,8456,1,0,0:0:0:0:
192,192,8456,1,0,0:0:0:0:
448,192,8456,1,0,0:0:0:0:
192,192,8551,1,0,0:0:0:0:
320,192,8551,1,0,0:0:0:0:
448,192,8551,1,0,0:0:0:0:
64,192,8647,1,0,0:0:0:0:
320,192,8647,1,0,0:0:0:0:
448,192,8647,1,0,0:0:0:0:
64,192,8742,1,0,0:0:0:0:
192,192,8742,1,0,0:0:0:0:
448,192,8790,1,0,0:0:0:0:
320,192,8837,1,0,0:0:0:0:
64,192,8885,1,0,0:0:0:0:
192,192,8932,1,0,0:0:0:0:
320,192,8932,1,0,0:0:0:0:
448,192,8980,1,0,0:0:0:0:
192,192,9028,1,0,0:0:0:0:
64,192,9075,1,0,0:0:0:0:
320,192,9123,1,0,0:0:0:0:
448,192,9123,1,0,0:0:0:0:
192,192,9171,1,0,0:0:0:0:
320,192,9218,1,0,0:0:0:0:
192,192,9266,1,0,0:0:0:0:
64,192,9313,1,0,0:0:0:0:
320,192,9313,1,0,0:0:0:0:
448,192,9313,1,0,0:0:0:0:
192,192,9361,1,0,0:0:0:0:
64,192,9409,1,0,0:0:0:0:
320,192,9456,1,0,0:0:0:0:
192,192,9504,1,0,0:0:0:0:
64,192,9551,1,0,0:0:0:0:
320,192,9599,1,0,0:0:0:0:
448,192,9599,1,0,0:0:0:0:
64,192,9647,1,0,0:0:0:0:
192,192,9694,1,0,0:0:0:0:
448,192,9694,1,0,0:0:0:0:
64,192,9742,1,0,0:0:0:0:
320,192,9790,1,0,0:0:0:0:
448,192,9790,1,0,0:0:0:0:
192,192,9837,1,0,0:0:0:0:
64,192,9885,1,0,0:0:0:0:
320,192,9885,1,0,0:0:0:0:
448,192,9885,1,0,0:0:0:0:
192,192,9932,1,0,0:0:0:0:
64,192,9980,1,0,0:0:0:0:
320,192,10028,1,0,0:0:0:0:
448,192,10075,1,0,0:0:0:0:
320,192,10123,1,0,0:0:0:0:
64,192,10171,1,0,0:0:0:0:
192,192,10171,1,0,0:0:0:0:
448,192,10218,1,0,0:0:0:0:
64,192,10266,1,0,0:0:0:0:
320,192,10266,1,0,0:0:0:0:
448,192,10313,1,0,0:0:0:0:
64,192,10361,1,0,0:0:0:0:
192,192,10361,1,0,0:0:0:0:
320,192,10409,1,0,0:0:0:0:
64,192,10456,1,0,0:0:0:0:
192,192,10456,1,0,0:0:0:0:
448,192,10456,1,0,0:0:0:0:
320,192,10504,1,0,0:0:0:0:
448,192,10551,1,0,0:0:0:0:
192,192,10599,1,0,0:0:0:0:
64,192,10647,1,0,0:0:0:0:
192,192,10694,1,0,0:0:0:0:
320,192,10742,1,0,0:0:0:0:
448,192,10742,1,0,0:0:0:0:
64,192,10790,1,0,0:0:0:0:
192,192,10837,1,0,0:0:0:0:
448,192,10837,1,0,0:0:0:0:
64,192,10885,1,0,0:0:0:0:
320,192,10932,1,0,0:0:0:0:
448,192,10932,1,0,0:0:0:0:
192,192,10980,1,0,0:0:0:0:
64,192,11028,1,0,0:0:0:0:
320,192,11028,1,0,0:0:0:0:
448,192,11028,1,0,0:0:0:0:
192,192,11075,1,0,0:0:0:0:
320,192,11123,1,0,0:0:0:0:
64,192,11171,1,0,0:0:0:0:
448,192,11218,1,0,0:0:0:0:
320,192,11266,1,0,0:0:0:0:
64,192,11313,1,0,0:0:0:0:
192,192,11313,1,0,0:0:0:0:
448,192,11313,1,0,0:0:0:0:
320,192,11361,1,0,0:0:0:0:
64,192,11409,1,0,0:0:0:0:
448,192,11456,1,0,0:0:0:0:
192,192,11504,1,0,0:0:0:0:
64,192,11551,1,0,0:0:0:0:
192,192,11599,1,0,0:0:0:0:
320,192,11599,1,0,0:0:0:0:
448,192,11599,1,0,0:0:0:0:
64,192,11647,1,0,0:0:0:0:
320,192,11694,1,0,0:0:0:0:
192,192,11742,1,0,0:0:0:0:
448,192,11790,1,0,0:0:0:0:
320,192,11837,1,0,0:0:0:0:
64,192,11885,1,0,0:0:0:0:
192,192,11885,1,0,0:0:0:0:
448,192,11932,1,0,0:0:0:0:
64,192,11980,1,0,0:0:0:0:
192,192,11980,1,0,0:0:0:0:
320,192,12028,1,0,0:0:0:0:
64,192,12075,1,0,0:0:0:0:
192,192,12075,1,0,0:0:0:0:
448,192,12123,1,0,0:0:0:0:
64,192,12171,1,0,0:0:0:0:
192,192,12171,1,0,0:0:0:0:
320,192,12171,1,0,0:0:0:0:
448,192,12218,1,0,0:0:0:0:
320,192,12266,1,0,0:0:0:0:
64,192,12313,1,0,0:0:0:0:
192,192,12361,1,0,0:0:0:0:
320,192,12361,1,0,0:0:0:0:
448,192,12361,1,0,0:0:0:0:
64,192,12409,1,0,0:0:0:0:
192,192,12456,1,0,0:0:0:0:
320,192,12504,1,0,0:0:0:0:
64,192,12551,1,0,0:0:0:0:
192,192,12551,1,0,0:0:0:0:
448,192,12551,1,0,0:0:0:0:
320,192,12599,1,0,0:0:0:0:
64,192,12647,1,0,0:0:0:0:
192,192,12647,1,0,0:0:0:0:
448,192,12647,1,0,0:0:0:0:
320,192,12694,1,0,0:0:0:0:
64,192,12742,1,0,0:0:0:0:
192,192,12742,1,0,0:0:0:0:
448,192,12742,1,0,0:0:0:0:
320,192,12790,1,0,0:0:0:0:
64,192,12837,1,0,0:0:0:0:
192,192,12885,1,0,0:0:0:0:
320,192,12932,1,0,0:0:0:0:
448,192,12932,1,0,0:0:0:0:
192,192,12980,1,0,0:0:0:0:
320,192,13028,1,0,0:0:0:0:
448,192,13075,1,0,0:0:0:0:
64,192,13123,1,0,0:0:0:0:
320,192,13123,1,0,0:0:0:0:
192,192,13171,1,0,0:0:0:0:
64,192,13218,1,0,0:0:0:0:
448,192,13218,1,0,0:0:0:0:
320,192,13266,1,0,0:0:0:0:
64,192,13313,1,0,0:0:0:0:
192,192,13313,1,0,0:0:0:0:
320,192,13361,1,0,0:0:0:0:
448,192,13409,1,0,0:0:0:0:
192,192,13456,1,0,0:0:0:0:
320,192,13504,1,0,0:0:0:0:
64,192,13551,1,0,0:0:0:0:
320,192,13599,1,0,0:0:0:0:
448,192,13647,1,0,0:0:0:0:
192,192,13694,1,0,0:0:0:0:
64,192,13742,1,0,0:0:0:0:
448,192,13790,1,0,0:0:0:0:
320,192,13837,1,0,0:0:0:0:
64,192,13885,1,0,0:0:0:0:
192,192,13885,1,0,0:0:0:0:
448,192,13885,1,0,0:0:0:0:
320,192,13980,1,0,0:0:0:0:
448,192,13980,1,0,0:0:0:0:
64,192,14075,1,0,0:0:0:0:
320,192,14075,1,0,0:0:0:0:
64,192,14171,1,0,0:0:0:0:
192,192,14171,1,0,0:0:0:0:
448,192,14171,1,0,0:0:0:0:
64,192,14266,1,0,0:0:0:0:
192,192,14266,1,0,0:0:0:0:
448,192,14266,1,0,0:0:0:0:
64,192,14361,1,0,0:0:0:0:
192,192,14361,1,0,0:0:0:0:
448,192,14361,1,0,0:0:0:0:
64,192,14456,1,0,0:0:0:0:
320,192,14456,1,0,0:0:0:0:
448,192,14456,1,0,0:0:0:0:
192,192,14551,1,0,0:0:0:0:
320,192,14551,1,0,0:0:0:0:
192,192,14647,1,0,0:0:0:0:
448,192,14647,1,0,0:0:0:0:
64,192,14742,1,0,0:0:0:0:
320,192,14742,1,0,0:0:0:0:
448,192,14742,1,0,0:0:0:0:
64,192,14837,1,0,0:0:0:0:
320,192,14837,1,0,0:0:0:0:
448,192,14837,1,0,0:0:0:0:
64,192,14932,1,0,0:0:0:0:
320,192,14932,1,0,0:0:0:0:
448,192,14932,1,0,0:0:0:0:
64,192,15028,1,0,0:0:0:0:
192,192,15028,1,0,0:0:0:0:
448,192,15028,1,0,0:0:0:0:
192,192,15123,1,0,0:0:0:0:
320,192,15123,1,0,0:0:0:0:
64,192,15218,1,0,0:0:0:0:
448,192,15218,1,0,0:0:0:0:
192,192,15313,1,0,0:0:0:0:
320,192,15313,1,0,0:0:0:0:
448,192,15313,1,0,0:0:0:0:
192,192,15409,1,0,0:0:0:0:
320,192,15409,1,0,0:0:0:0:
448,192,15409,1,0,0:0:0:0:
192,192,15504,1,0,0:0:0:0:
320,192,15504,1,0,0:0:0:0:
448,192,15504,1,0,0:0:0:0:
64,192,15599,1,0,0:0:0:0:
320,192,15599,1,0,0:0:0:0:
448,192,15599,1,0,0:0:0:0:
192,192,15694,1,0,0:0:0:0:
320,192,15694,1,0,0:0:0:0:
192,192,15790,1,0,0:0:0:0:
448,192,15790,1,0,0:0:0:0:
64,192,15885,1,0,0:0:0:0:
320,192,15885,1,0,0:0:0:0:
448,192,15885,1,0,0:0:0:0:
192,192,15980,1,0,0:0:0:0:
320,192,15980,1,0,0:0:0:0:
448,192,15980,1,0,0:0:0:0:
64,192,16075,1,0,0:0:0:0:
320,192,16075,1,0,0:0:0:0:
448,192,16075,1,0,0:0:0:0:
64,192,16171,1,0,0:0:0:0:
192,192,16171,1,0,0:0:0:0:
448,192,16171,1,0,0:0:0:0:
320,192,16218,1,0,0:0:0:0:
192,192,16266,1,0,0:0:0:0:
448,192,16313,1,0,0:0:0:0:
64,192,16361,1,0,0:0:0:0:
192,192,16409,1,0,0:0:0:0:
320,192,16456,1,0,0:0:0:0:
448,192,16456,1,0,0:0:0:0:
64,192,16504,1,0,0:0:0:0:
192,192,16551,1,0,0:0:0:0:
448,192,16599,1,0,0:0:0:0:
320,192,16647,1,0,0:0:0:0:
448,192,16694,1,0,0:0:0:0:
64,192,16742,1,0,0:0:0:0:
192,192,16742,1,0,0:0:0:0:
320,192,16742,1,0,0:0:0:0:
64,192,16837,1,0,0:0:0:0:
192,192,16837,1,0,0:0:0:0:
448,192,16837,1,0,0:0:0:0:
64,192,16932,1,0,0:0:0:0:
192,192,16932,1,0,0:0:0:0:
448,192,16932,1,0,0:0:0:0:
64,192,17028,1,0,0:0:0:0:
192,192,17028,1,0,0:0:0:0:
448,192,17028,1,0,0:0:0:0:
64,192,17123,1,0,0:0:0:0:
320,192,17123,1,0,0:0:0:0:
448,192,17123,1,0,0:0:0:0:
192,192,17171,1,0,0:0:0:0:
320,192,17218,1,0,0:0:0:0:
64,192,17266,1,0,0:0:0:0:
448,192,17313,1,0,0:0:0:0:
192,192,17361,1,0,0:0:0:0:
320,192,17409,1,0,0:0:0:0:
64,192,17456,1,0,0:0:0:0:
448,192,17504,1,0,0:0:0:0:
320,192,17551,1,0,0:0:0:0:
64,192,17599,1,0,0:0:0:0:
192,192,17599,1,0,0:0:0:0:
448,192,17647,1,0,0:0:0:0:
320,192,17694,1,0,0:0:0:0:
192,192,17742,1,0,0:0:0:0:
320,192,17790,1,0,0:0:0:0:
192,192,17837,1,0,0:0:0:0:
64,192,17885,1,0,0:0:0:0:
448,192,17885,1,0,0:0:0:0:
320,192,17932,1,0,0:0:0:0:
192,192,17980,1,0,0:0:0:0:
320,192,18028,1,0,0:0:0:0:
448,192,18075,1,0,0:0:0:0:
320,192,18123,1,0,0:0:0:0:
64,192,18171,1,0,0:0:0:0:
192,192,18171,1,0,0:0:0:0:
448,192,18171,1,0,0:0:0:0:
64,192,18266,1,0,0:0:0:0:
192,192,18266,1,0,0:0:0:0:
320,192,18266,1,0,0:0:0:0:
64,192,18361,1,0,0:0:0:0:
192,192,18361,1,0,0:0:0:0:
448,192,18361,1,0,0:0:0:0:
64,192,18456,128,0,19599:0:0:0:0:
192,192,18456,1,0,0:0:0:0:
320,192,18456,1,0,0:0:0:0:
192,192,18742,1,0,0:0:0:0:
448,192,18742,1,0,0:0:0:0:
192,192,19313,1,0,0:0:0:0:
448,192,19313,1,0,0:0:0:0:
192,192,19599,1,0,0:0:0:0:
448,192,19599,1,0,0:0:0:0:
320,192,19647,1,0,0:0:0:0:
192,192,19694,1,0,0:0:0:0:
320,192,19742,1,0,0:0:0:0:
64,192,19790,1,0,0:0:0:0:
192,192,19837,1,0,0:0:0:0:
64,192,19885,1,0,0:0:0:0:
320,192,19885,1,0,0:0:0:0:
448,192,19885,1,0,0:0:0:0:
64,192,19980,1,0,0:0:0:0:
320,192,19980,1,0,0:0:0:0:
448,192,19980,1,0,0:0:0:0:
64,192,20075,1,0,0:0:0:0:
320,192,20075,1,0,0:0:0:0:
448,192,20075,1,0,0:0:0:0:
64,192,20171,1,0,0:0:0:0:
192,192,20171,1,0,0:0:0:0:
448,192,20171,1,0,0:0:0:0:
320,192,20218,1,0,0:0:0:0:
192,192,20266,1,0,0:0:0:0:
320,192,20313,1,0,0:0:0:0:
64,192,20361,1,0,0:0:0:0:
192,192,20409,1,0,0:0:0:0:
64,192,20456,1,0,0:0:0:0:
320,192,20456,1,0,0:0:0:0:
448,192,20456,1,0,0:0:0:0:
64,192,20551,1,0,0:0:0:0:
320,192,20551,1,0,0:0:0:0:
448,192,20551,1,0,0:0:0:0:
64,192,20647,1,0,0:0:0:0:
320,192,20647,1,0,0:0:0:0:
448,192,20647,1,0,0:0:0:0:
192,192,20742,128,0,20766:0:0:0:0:
320,192,20837,128,0,20861:0:0:0:0:
192,192,20932,128,0,20956:0:0:0:0:
64,192,21028,128,0,21051:0:0:0:0:
320,192,21123,128,0,21147:0:0:0:0:
64,192,21218,128,0,21242:0:0:0:0:
448,192,21313,128,0,21337:0:0:0:0:
192,192,21409,128,0,21432:0:0:0:0:
448,192,21504,128,0,21528:0:0:0:0:
64,192,21599,128,0,21694:0:0:0:0:
64,192,21790,1,0,0:0:0:0:
64,192,21885,1,0,0:0:0:0:
320,192,21885,1,0,0:0:0:0:
448,192,21885,1,0,0:0:0:0:
192,192,21932,1,0,0:0:0:0:
320,192,21980,1,0,0:0:0:0:
192,192,22028,1,0,0:0:0:0:
448,192,22075,1,0,0:0:0:0:
320,192,22123,1,0,0:0:0:0:
64,192,22171,1,0,0:0:0:0:
192,192,22171,1,0,0:0:0:0:
448,192,22171,1,0,0:0:0:0:
64,192,22266,1,0,0:0:0:0:
192,192,22266,1,0,0:0:0:0:
448,192,22266,1,0,0:0:0:0:
64,192,22361,1,0,0:0:0:0:
192,192,22361,1,0,0:0:0:0:
448,192,22361,1,0,0:0:0:0:
64,192,22456,1,0,0:0:0:0:
320,192,22456,1,0,0:0:0:0:
448,192,22456,1,0,0:0:0:0:
192,192,22551,1,0,0:0:0:0:
448,192,22551,1,0,0:0:0:0:
192,192,22647,1,0,0:0:0:0:
320,192,22647,1,0,0:0:0:0:
192,192,22742,1,0,0:0:0:0:
448,192,22742,1,0,0:0:0:0:
448,192,22837,1,0,0:0:0:0:
320,192,22885,1,0,0:0:0:0:
64,192,22932,1,0,0:0:0:0:
192,192,22980,1,0,0:0:0:0:
64,192,23028,1,0,0:0:0:0:
320,192,23028,1,0,0:0:0:0:
448,192,23028,1,0,0:0:0:0:
192,192,23123,1,0,0:0:0:0:
448,192,23123,1,0,0:0:0:0:
320,192,23218,1,0,0:0:0:0:
64,192,23313,1,0,0:0:0:0:
192,192,23313,1,0,0:0:0:0:
448,192,23313,1,0,0:0:0:0:
64,192,23409,1,0,0:0:0:0:
320,192,23409,1,0,0:0:0:0:
192,192,23504,1,0,0:0:0:0:
64,192,23599,1,0,0:0:0:0:
320,192,23599,1,0,0:0:0:0:
448,192,23599,1,0,0:0:0:0:
192,192,23694,1,0,0:0:0:0:
448,192,23694,1,0,0:0:0:0:
320,192,23790,1,0,0:0:0:0:
64,192,23885,1,0,0:0:0:0:
192,192,23885,128,0,24171:0:0:0:0:
448,192,23885,1,0,0:0:0:0:
320,192,23980,1,0,0:0:0:0:
64,192,24171,1,0,0:0:0:0:
320,192,24171,1,0,0:0:0:0:
448,192,24171,1,0,0:0:0:0:
64,192,24266,1,0,0:0:0:0:
320,192,24266,1,0,0:0:0:0:
448,192,24266,1,0,0:0:0:0:
64,192,24361,1,0,0:0:0:0:
320,192,24361,1,0,0:0:0:0:
448,192,24361,1,0,0:0:0:0:
192,192,24456,1,0,0:0:0:0:
320,192,24456,1,0,0:0:0:0:
192,192,24551,1,0,0:0:0:0:
320,192,24551,1,0,0:0:0:0:
192,192,24647,1,0,0:0:0:0:
320,192,24647,1,0,0:0:0:0:
64,192,24742,1,0,0:0:0:0:
192,192,24742,1,0,0:0:0:0:
448,192,24742,1,0,0:0:0:0:
64,192,24837,1,0,0:0:0:0:
192,192,24837,1,0,0:0:0:0:
448,192,24837,1,0,0:0:0:0:
64,192,24932,1,0,0:0:0:0:
192,192,24932,1,0,0:0:0:0:
448,192,24932,1,0,0:0:0:0:
192,192,25028,1,0,0:0:0:0:
320,192,25028,1,0,0:0:0:0:
192,192,25123,1,0,0:0:0:0:
320,192,25123,1,0,0:0:0:0:
192,192,25218,1,0,0:0:0:0:
320,192,25218,1,0,0:0:0:0:
64,192,25313,1,0,0:0:0:0:
320,192,25313,1,0,0:0:0:0:
448,192,25313,1,0,0:0:0:0:
192,192,25409,1,0,0:0:0:0:
320,192,25504,1,0,0:0:0:0:
64,192,25599,1,0,0:0:0:0:
192,192,25599,1,0,0:0:0:0:
448,192,25694,1,0,0:0:0:0:
64,192,25790,1,0,0:0:0:0:
320,192,25885,1,0,0:0:0:0:
448,192,25885,1,0,0:0:0:0:
192,192,25980,1,0,0:0:0:0:
448,192,26075,1,0,0:0:0:0:
320,192,26123,1,0,0:0:0:0:
64,192,26171,1,0,0:0:0:0:
192,192,26171,1,0,0:0:0:0:
448,192,26218,1,0,0:0:0:0:
64,192,26266,1,0,0:0:0:0:
320,192,26266,1,0,0:0:0:0:
192,192,26313,1,0,0:0:0:0:
320,192,26361,1,0,0:0:0:0:
448,192,26361,1,0,0:0:0:0:
64,192,26409,1,0,0:0:0:0:
192,192,26409,1,0,0:0:0:0:
320,192,26456,1,0,0:0:0:0:
448,192,26456,128,0,26742:0:0:0:0:
64,192,26742,1,0,0:0:0:0:
192,192,26742,1,0,0:0:0:0:
64,192,26837,1,0,0:0:0:0:
192,192,26837,1,0,0:0:0:0:
64,192,26932,1,0,0:0:0:0:
192,192,26932,1,0,0:0:0:0:
448,192,27028,1,0,0:0:0:0:
64,192,27123,1,0,0:0:0:0:
64,192,27218,1,0,0:0:0:0:
64,192,27313,1,0,0:0:0:0:
448,192,27409,1,0,0:0:0:0:
448,192,27504,1,0,0:0:0:0:
64,192,27599,1,0,0:0:0:0:
192,192,27599,1,0,0:0:0:0:
448,192,27599,1,0,0:0:0:0:
320,192,27647,1,0,0:0:0:0:
64,192,27694,1,0,0:0:0:0:
192,192,27694,1,0,0:0:0:0:
448,192,27742,1,0,0:0:0:0:
320,192,27790,1,0,0:0:0:0:
192,192,27837,1,0,0:0:0:0:
320,192,27885,1,0,0:0:0:0:
448,192,27885,1,0,0:0:0:0:
64,192,27932,1,0,0:0:0:0:
192,192,27980,1,0,0:0:0:0:
448,192,27980,1,0,0:0:0:0:
320,192,28028,1,0,0:0:0:0:
64,192,28075,1,0,0:0:0:0:
192,192,28075,1,0,0:0:0:0:
448,192,28123,1,0,0:0:0:0:
64,192,28171,1,0,0:0:0:0:
192,192,28171,1,0,0:0:0:0:
320,192,28171,1,0,0:0:0:0:
448,192,28218,1,0,0:0:0:0:
320,192,28266,1,0,0:0:0:0:
64,192,28313,1,0,0:0:0:0:
192,192,28361,1,0,0:0:0:0:
448,192,28409,1,0,0:0:0:0:
64,192,28456,1,0,0:0:0:0:
320,192,28456,1,0,0:0:0:0:
192,192,28504,1,0,0:0:0:0:
320,192,28551,1,0,0:0:0:0:
448,192,28551,1,0,0:0:0:0:
64,192,28599,1,0,0:0:0:0:
192,192,28647,1,0,0:0:0:0:
448,192,28647,1,0,0:0:0:0:
320,192,28694,1,0,0:0:0:0:
64,192,28742,1,0,0:0:0:0:
192,192,28742,1,0,0:0:0:0:
320,192,28790,1,0,0:0:0:0:
448,192,28790,1,0,0:0:0:0:
64,192,28837,1,0,0:0:0:0:
192,192,28837,1,0,0:0:0:0:
320,192,28885,1,0,0:0:0:0:
448,192,28885,1,0,0:0:0:0:
64,192,28932,1,0,0:0:0:0:
192,192,28932,1,0,0:0:0:0:
320,192,28980,1,0,0:0:0:0:
448,192,28980,1,0,0:0:0:0:
64,192,29028,1,0,0:0:0:0:
192,192,29028,1,0,0:0:0:0:
448,192,29075,1,0,0:0:0:0:
192,192,29123,1,0,0:0:0:0:
320,192,29123,1,0,0:0:0:0:
64,192,29171,1,0,0:0:0:0:
320,192,29218,1,0,0:0:0:0:
448,192,29218,1,0,0:0:0:0:
192,192,29266,1,0,0:0:0:0:
64,192,29313,1,0,0:0:0:0:
448,192,29313,1,0,0:0:0:0:
192,192,29361,1,0,0:0:0:0:
320,192,29361,1,0,0:0:0:0:
64,192,29409,1,0,0:0:0:0:
448,192,29409,1,0,0:0:0:0:
192,192,29456,1,0,0:0:0:0:
320,192,29456,1,0,0:0:0:0:
64,192,29504,1,0,0:0:0:0:
448,192,29504,1,0,0:0:0:0:
192,192,29551,1,0,0:0:0:0:
320,192,29551,1,0,0:0:0:0:
64,192,29599,1,0,0:0:0:0:
448,192,29599,1,0,0:0:0:0:
320,192,29647,1,0,0:0:0:0:
64,192,29694,1,0,0:0:0:0:
192,192,29694,1,0,0:0:0:0:
448,192,29742,1,0,0:0:0:0:
192,192,29790,1,0,0:0:0:0:
320,192,29790,1,0,0:0:0:0:
64,192,29837,1,0,0:0:0:0:
192,192,29885,1,0,0:0:0:0:
320,192,29885,1,0,0:0:0:0:
448,192,29885,1,0,0:0:0:0:
64,192,29932,1,0,0:0:0:0:
192,192,29980,1,0,0:0:0:0:
448,192,30028,1,0,0:0:0:0:
320,192,30075,1,0,0:0:0:0:
192,192,30123,1,0,0:0:0:0:
64,192,30171,1,0,0:0:0:0:
448,192,30171,1,0,0:0:0:0:
320,192,30218,1,0,0:0:0:0:
64,192,30266,1,0,0:0:0:0:
192,192,30266,1,0,0:0:0:0:
320,192,30313,1,0,0:0:0:0:
192,192,30361,1,0,0:0:0:0:
448,192,30361,1,0,0:0:0:0:
64,192,30409,1,0,0:0:0:0:
192,192,30456,1,0,0:0:0:0:
320,192,30456,1,0,0:0:0:0:
448,192,30456,1,0,0:0:0:0:
64,192,30504,1,0,0:0:0:0:
320,192,30551,1,0,0:0:0:0:
448,192,30599,1,0,0:0:0:0:
192,192,30647,1,0,0:0:0:0:
320,192,30694,1,0,0:0:0:0:
64,192,30742,1,0,0:0:0:0:
448,192,30742,1,0,0:0:0:0:
192,192,30790,1,0,0:0:0:0:
320,192,30837,1,0,0:0:0:0:
448,192,30837,1,0,0:0:0:0:
64,192,30885,1,0,0:0:0:0:
192,192,30932,1,0,0:0:0:0:
320,192,30932,1,0,0:0:0:0:
448,192,30980,1,0,0:0:0:0:
64,192,31028,1,0,0:0:0:0:
192,192,31028,1,0,0:0:0:0:
320,192,31075,1,0,0:0:0:0:
448,192,31075,1,0,0:0:0:0:
64,192,31123,1,0,0:0:0:0:
192,192,31123,1,0,0:0:0:0:
320,192,31171,1,0,0:0:0:0:
448,192,31171,1,0,0:0:0:0:
64,192,31218,1,0,0:0:0:0:
192,192,31218,1,0,0:0:0:0:
320,192,31266,1,0,0:0:0:0:
448,192,31266,1,0,0:0:0:0:
64,192,31313,1,0,0:0:0:0:
192,192,31313,1,0,0:0:0:0:
448,192,31361,1,0,0:0:0:0:
64,192,31409,1,0,0:0:0:0:
320,192,31409,1,0,0:0:0:0:
192,192,31456,1,0,0:0:0:0:
320,192,31504,1,0,0:0:0:0:
448,192,31504,1,0,0:0:0:0:
64,192,31551,1,0,0:0:0:0:
192,192,31599,1,0,0:0:0:0:
320,192,31599,1,0,0:0:0:0:
448,192,31599,1,0,0:0:0:0:
64,192,31647,1,0,0:0:0:0:
192,192,31694,1,0,0:0:0:0:
448,192,31694,1,0,0:0:0:0:
320,192,31742,1,0,0:0:0:0:
192,192,31790,1,0,0:0:0:0:
448,192,31790,1,0,0:0:0:0:
64,192,31837,1,0,0:0:0:0:
192,192,31885,1,0,0:0:0:0:
320,192,31885,1,0,0:0:0:0:
448,192,31885,1,0,0:0:0:0:
64,192,31932,1,0,0:0:0:0:
320,192,31980,1,0,0:0:0:0:
448,192,32028,1,0,0:0:0:0:
192,192,32075,1,0,0:0:0:0:
320,192,32123,1,0,0:0:0:0:
64,192,32171,1,0,0:0:0:0:
192,192,32171,1,0,0:0:0:0:
448,192,32171,1,0,0:0:0:0:
320,192,32218,1,0,0:0:0:0:
448,192,32266,1,0,0:0:0:0:
192,192,32313,1,0,0:0:0:0:
320,192,32361,1,0,0:0:0:0:
64,192,32409,1,0,0:0:0:0:
192,192,32456,1,0,0:0:0:0:
448,192,32456,1,0,0:0:0:0:
320,192,32504,1,0,0:0:0:0:
64,192,32551,1,0,0:0:0:0:
192,192,32551,1,0,0:0:0:0:
448,192,32599,1,0,0:0:0:0:
64,192,32647,1,0,0:0:0:0:
320,192,32647,1,0,0:0:0:0:
192,192,32694,1,0,0:0:0:0:
64,192,32742,1,0,0:0:0:0:
320,192,32742,1,0,0:0:0:0:
448,192,32742,1,0,0:0:0:0:
192,192,32790,1,0,0:0:0:0:
320,192,32837,1,0,0:0:0:0:
192,192,32885,1,0,0:0:0:0:
64,192,32932,1,0,0:0:0:0:
448,192,32932,1,0,0:0:0:0:
320,192,32980,1,0,0:0:0:0:
192,192,33028,1,0,0:0:0:0:
448,192,33028,1,0,0:0:0:0:
320,192,33075,1,0,0:0:0:0:
64,192,33123,1,0,0:0:0:0:
192,192,33123,1,0,0:0:0:0:
448,192,33171,1,0,0:0:0:0:
64,192,33218,1,0,0:0:0:0:
320,192,33218,1,0,0:0:0:0:
192,192,33266,1,0,0:0:0:0:
320,192,33313,1,0,0:0:0:0:
448,192,33313,1,0,0:0:0:0:
64,192,33361,1,0,0:0:0:0:
192,192,33361,1,0,0:0:0:0:
320,192,33409,1,0,0:0:0:0:
448,192,33409,1,0,0:0:0:0:
64,192,33456,1,0,0:0:0:0:
192,192,33456,1,0,0:0:0:0:
320,192,33504,1,0,0:0:0:0:
448,192,33504,1,0,0:0:0:0:
64,192,33551,1,0,0:0:0:0:
192,192,33551,1,0,0:0:0:0:
320,192,33599,1,0,0:0:0:0:
448,192,33599,1,0,0:0:0:0:
64,192,33647,1,0,0:0:0:0:
192,192,33694,1,0,0:0:0:0:
448,192,33694,1,0,0:0:0:0:
320,192,33742,1,0,0:0:0:0:
64,192,33790,1,0,0:0:0:0:
192,192,33790,1,0,0:0:0:0:
448,192,33837,1,0,0:0:0:0:
64,192,33885,1,0,0:0:0:0:
192,192,33885,1,0,0:0:0:0:
320,192,33885,1,0,0:0:0:0:
448,192,33932,1,0,0:0:0:0:
320,192,33980,1,0,0:0:0:0:
192,192,34028,1,0,0:0:0:0:
64,192,34075,1,0,0:0:0:0:
192,192,34123,1,0,0:0:0:0:
320,192,34171,1,0,0:0:0:0:
448,192,34171,1,0,0:0:0:0:
64,192,34218,1,0,0:0:0:0:
192,192,34266,1,0,0:0:0:0:
320,192,34266,1,0,0:0:0:0:
448,192,34313,1,0,0:0:0:0:
64,192,34361,1,0,0:0:0:0:
192,192,34361,1,0,0:0:0:0:
320,192,34409,1,0,0:0:0:0:
64,192,34456,1,0,0:0:0:0:
192,192,34456,1,0,0:0:0:0:
448,192,34456,1,0,0:0:0:0:
320,192,34504,1,0,0:0:0:0:
448,192,34551,1,0,0:0:0:0:
64,192,34599,1,0,0:0:0:0:
320,192,34647,1,0,0:0:0:0:
192,192,34694,1,0,0:0:0:0:
64,192,34742,1,0,0:0:0:0:
448,192,34742,1,0,0:0:0:0:
320,192,34790,1,0,0:0:0:0:
64,192,34837,1,0,0:0:0:0:
192,192,34837,1,0,0:0:0:0:
448,192,34885,1,0,0:0:0:0:
192,192,34932,1,0,0:0:0:0:
320,192,34932,1,0,0:0:0:0:
64,192,34980,1,0,0:0:0:0:
192,192,35028,1,0,0:0:0:0:
320,192,35028,1,0,0:0:0:0:
448,192,35028,1,0,0:0:0:0:
64,192,35075,1,0,0:0:0:0:
448,192,35123,1,0,0:0:0:0:
192,192,35171,1,0,0:0:0:0:
320,192,35218,1,0,0:0:0:0:
64,192,35266,1,0,0:0:0:0:
192,192,35313,1,0,0:0:0:0:
448,192,35313,1,0,0:0:0:0:
320,192,35361,1,0,0:0:0:0:
64,192,35409,1,0,0:0:0:0:
192,192,35409,1,0,0:0:0:0:
448,192,35456,1,0,0:0:0:0:
64,192,35504,1,0,0:0:0:0:
320,192,35504,1,0,0:0:0:0:
192,192,35551,1,0,0:0:0:0:
64,192,35599,1,0,0:0:0:0:
320,192,35599,1,0,0:0:0:0:
448,192,35599,1,0,0:0:0:0:
192,192,35647,1,0,0:0:0:0:
448,192,35694,1,0,0:0:0:0:
64,192,35742,1,0,0:0:0:0:
320,192,35790,1,0,0:0:0:0:
448,192,35837,1,0,0:0:0:0:
64,192,35885,1,0,0:0:0:0:
192,192,35885,1,0,0:0:0:0:
64,192,35980,1,0,0:0:0:0:
192,192,35980,1,0,0:0:0:0:
64,192,36075,1,0,0:0:0:0:
192,192,36075,1,0,0:0:0:0:
64,192,36171,1,0,0:0:0:0:
320,192,36171,1,0,0:0:0:0:
448,192,36171,1,0,0:0:0:0:
192,192,36361,1,0,0:0:0:0:
64,192,36456,1,0,0:0:0:0:
320,192,36456,1,0,0:0:0:0:
448,192,36456,1,0,0:0:0:0:
320,192,36551,1,0,0:0:0:0:
448,192,36551,1,0,0:0:0:0:
64,192,36742,1,0,0:0:0:0:
320,192,36742,1,0,0:0:0:0:
448,192,36742,1,0,0:0:0:0:
320,192,36932,1,0,0:0:0:0:
448,192,36932,1,0,0:0:0:0:
64,192,37028,1,0,0:0:0:0:
320,192,37028,1,0,0:0:0:0:
448,192,37028,1,0,0:0:0:0:
320,192,37123,1,0,0:0:0:0:
448,192,37123,1,0,0:0:0:0:
64,192,37313,1,0,0:0:0:0:
192,192,37313,1,0,0:0:0:0:
320,192,37361,1,0,0:0:0:0:
448,192,37361,1,0,0:0:0:0:
64,192,37409,1,0,0:0:0:0:
192,192,37409,1,0,0:0:0:0:
320,192,37456,1,0,0:0:0:0:
448,192,37456,1,0,0:0:0:0:
64,192,37504,1,0,0:0:0:0:
192,192,37504,1,0,0:0:0:0:
320,192,37551,1,0,0:0:0:0:
448,192,37551,1,0,0:0:0:0:
64,192,37599,1,0,0:0:0:0:
192,192,37599,1,0,0:0:0:0:
448,192,37647,1,0,0:0:0:0:
64,192,37694,1,0,0:0:0:0:
320,192,37694,1,0,0:0:0:0:
448,192,37742,1,0,0:0:0:0:
192,192,37790,1,0,0:0:0:0:
320,192,37790,1,0,0:0:0:0:
64,192,37837,1,0,0:0:0:0:
320,192,37885,1,0,0:0:0:0:
448,192,37885,1,0,0:0:0:0:
64,192,37932,1,0,0:0:0:0:
192,192,37932,1,0,0:0:0:0:
320,192,37980,1,0,0:0:0:0:
448,192,37980,1,0,0:0:0:0:
64,192,38028,1,0,0:0:0:0:
192,192,38028,1,0,0:0:0:0:
320,192,38075,1,0,0:0:0:0:
448,192,38075,1,0,0:0:0:0:
64,192,38123,1,0,0:0:0:0:
192,192,38123,1,0,0:0:0:0:
320,192,38171,1,0,0:0:0:0:
448,192,38171,1,0,0:0:0:0:
64,192,38218,1,0,0:0:0:0:
192,192,38266,1,0,0:0:0:0:
448,192,38266,1,0,0:0:0:0:
64,192,38313,1,0,0:0:0:0:
192,192,38361,1,0,0:0:0:0:
320,192,38361,1,0,0:0:0:0:
448,192,38409,1,0,0:0:0:0:
64,192,38456,1,0,0:0:0:0:
192,192,38456,1,0,0:0:0:0:
320,192,38456,1,0,0:0:0:0:
448,192,38504,1,0,0:0:0:0:
320,192,38551,1,0,0:0:0:0:
64,192,38599,1,0,0:0:0:0:
192,192,38647,1,0,0:0:0:0:
448,192,38647,1,0,0:0:0:0:
320,192,38694,1,0,0:0:0:0:
64,192,38742,1,0,0:0:0:0:
192,192,38742,1,0,0:0:0:0:
448,192,38742,1,0,0:0:0:0:
320,192,38790,1,0,0:0:0:0:
64,192,38837,1,0,0:0:0:0:
192,192,38885,1,0,0:0:0:0:
320,192,38932,1,0,0:0:0:0:
448,192,38932,1,0,0:0:0:0:
192,192,38980,1,0,0:0:0:0:
64,192,39028,1,0,0:0:0:0:
320,192,39028,1,0,0:0:0:0:
448,192,39028,1,0,0:0:0:0:
192,192,39075,1,0,0:0:0:0:
448,192,39123,1,0,0:0:0:0:
320,192,39171,1,0,0:0:0:0:
64,192,39218,1,0,0:0:0:0:
192,192,39218,1,0,0:0:0:0:
448,192,39266,1,0,0:0:0:0:
64,192,39313,1,0,0:0:0:0:
192,192,39313,1,0,0:0:0:0:
320,192,39313,1,0,0:0:0:0:
448,192,39361,1,0,0:0:0:0:
320,192,39409,1,0,0:0:0:0:
64,192,39456,1,0,0:0:0:0:
192,192,39456,1,0,0:0:0:0:
320,192,39504,1,0,0:0:0:0:
448,192,39551,1,0,0:0:0:0:
64,192,39599,1,0,0:0:0:0:
192,192,39599,1,0,0:0:0:0:
320,192,39647,1,0,0:0:0:0:
448,192,39647,1,0,0:0:0:0:
64,192,39694,1,0,0:0:0:0:
192,192,39694,1,0,0:0:0:0:
320,192,39742,1,0,0:0:0:0:
448,192,39742,1,0,0:0:0:0:
64,192,39790,1,0,0:0:0:0:
192,192,39790,1,0,0:0:0:0:
320,192,39837,1,0,0:0:0:0:
448,192,39837,1,0,0:0:0:0:
64,192,39885,1,0,0:0:0:0:
192,192,39885,1,0,0:0:0:0:
448,192,39932,1,0,0:0:0:0:
64,192,39980,1,0,0:0:0:0:
320,192,39980,1,0,0:0:0:0:
192,192,40028,1,0,0:0:0:0:
320,192,40075,1,0,0:0:0:0:
448,192,40075,1,0,0:0:0:0:
64,192,40123,1,0,0:0:0:0:
192,192,40171,1,0,0:0:0:0:
320,192,40171,1,0,0:0:0:0:
448,192,40171,1,0,0:0:0:0:
64,192,40218,1,0,0:0:0:0:
192,192,40266,1,0,0:0:0:0:
448,192,40266,1,0,0:0:0:0:
320,192,40313,1,0,0:0:0:0:
64,192,40361,1,0,0:0:0:0:
192,192,40361,1,0,0:0:0:0:
448,192,40409,1,0,0:0:0:0:
64,192,40456,1,0,0:0:0:0:
192,192,40456,1,0,0:0:0:0:
320,192,40456,1,0,0:0:0:0:
448,192,40504,1,0,0:0:0:0:
64,192,40551,1,0,0:0:0:0:
320,192,40551,1,0,0:0:0:0:
192,192,40599,1,0,0:0:0:0:
320,192,40647,1,0,0:0:0:0:
448,192,40647,1,0,0:0:0:0:
192,192,40694,1,0,0:0:0:0:
64,192,40742,1,0,0:0:0:0:
320,192,40742,1,0,0:0:0:0:
448,192,40742,1,0,0:0:0:0:
192,192,40790,1,0,0:0:0:0:
320,192,40837,1,0,0:0:0:0:
64,192,40885,1,0,0:0:0:0:
192,192,40932,1,0,0:0:0:0:
448,192,40932,1,0,0:0:0:0:
320,192,40980,1,0,0:0:0:0:
64,192,41028,1,0,0:0:0:0:
192,192,41028,1,0,0:0:0:0:
448,192,41028,1,0,0:0:0:0:
320,192,41075,1,0,0:0:0:0:
64,192,41123,1,0,0:0:0:0:
192,192,41171,1,0,0:0:0:0:
448,192,41218,1,0,0:0:0:0:
192,192,41266,1,0,0:0:0:0:
64,192,41313,1,0,0:0:0:0:
320,192,41313,1,0,0:0:0:0:
448,192,41313,1,0,0:0:0:0:
192,192,41361,1,0,0:0:0:0:
320,192,41409,1,0,0:0:0:0:
448,192,41456,1,0,0:0:0:0:
192,192,41504,1,0,0:0:0:0:
320,192,41504,1,0,0:0:0:0:
64,192,41551,1,0,0:0:0:0:
320,192,41599,1,0,0:0:0:0:
448,192,41599,1,0,0:0:0:0:
192,192,41647,1,0,0:0:0:0:
320,192,41694,1,0,0:0:0:0:
448,192,41694,1,0,0:0:0:0:
64,192,41742,1,0,0:0:0:0:
192,192,41790,1,0,0:0:0:0:
320,192,41837,1,0,0:0:0:0:
64,192,41885,1,0,0:0:0:0:
192,192,41885,1,0,0:0:0:0:
320,192,41932,1,0,0:0:0:0:
448,192,41932,1,0,0:0:0:0:
64,192,41980,1,0,0:0:0:0:
192,192,41980,1,0,0:0:0:0:
320,192,42028,1,0,0:0:0:0:
448,192,42028,1,0,0:0:0:0:
64,192,42075,1,0,0:0:0:0:
192,192,42075,1,0,0:0:0:0:
320,192,42123,1,0,0:0:0:0:
448,192,42123,1,0,0:0:0:0:
64,192,42171,1,0,0:0:0:0:
192,192,42171,1,0,0:0:0:0:
448,192,42218,1,0,0:0:0:0:
64,192,42266,1,0,0:0:0:0:
320,192,42266,1,0,0:0:0:0:
192,192,42313,1,0,0:0:0:0:
320,192,42361,1,0,0:0:0:0:
448,192,42361,1,0,0:0:0:0:
64,192,42409,1,0,0:0:0:0:
192,192,42456,1,0,0:0:0:0:
320,192,42456,1,0,0:0:0:0:
64,192,42504,1,0,0:0:0:0:
448,192,42504,1,0,0:0:0:0:
192,192,42551,1,0,0:0:0:0:
320,192,42551,1,0,0:0:0:0:
64,192,42599,1,0,0:0:0:0:
448,192,42599,1,0,0:0:0:0:
192,192,42647,1,0,0:0:0:0:
320,192,42647,1,0,0:0:0:0:
64,192,42694,1,0,0:0:0:0:
448,192,42694,1,0,0:0:0:0:
192,192,42742,1,0,0:0:0:0:
320,192,42742,1,0,0:0:0:0:
448,192,42790,1,0,0:0:0:0:
64,192,42837,1,0,0:0:0:0:
320,192,42837,1,0,0:0:0:0:
192,192,42885,1,0,0:0:0:0:
320,192,42932,1,0,0:0:0:0:
448,192,42932,1,0,0:0:0:0:
64,192,42980,1,0,0:0:0:0:
192,192,43028,1,0,0:0:0:0:
320,192,43028,1,0,0:0:0:0:
448,192,43028,1,0,0:0:0:0:
64,192,43075,1,0,0:0:0:0:
192,192,43123,1,0,0:0:0:0:
448,192,43171,1,0,0:0:0:0:
64,192,43218,1,0,0:0:0:0:
320,192,43218,1,0,0:0:0:0:
192,192,43266,1,0,0:0:0:0:
64,192,43313,1,0,0:0:0:0:
320,192,43313,1,0,0:0:0:0:
448,192,43313,1,0,0:0:0:0:
192,192,43361,1,0,0:0:0:0:
448,192,43409,1,0,0:0:0:0:
320,192,43456,1,0,0:0:0:0:
64,192,43504,1,0,0:0:0:0:
192,192,43504,1,0,0:0:0:0:
448,192,43551,1,0,0:0:0:0:
64,192,43599,1,0,0:0:0:0:
192,192,43599,1,0,0:0:0:0:
320,192,43599,1,0,0:0:0:0:
448,192,43647,1,0,0:0:0:0:
320,192,43694,1,0,0:0:0:0:
64,192,43742,1,0,0:0:0:0:
192,192,43790,1,0,0:0:0:0:
448,192,43790,1,0,0:0:0:0:
320,192,43837,1,0,0:0:0:0:
64,192,43885,1,0,0:0:0:0:
192,192,43885,1,0,0:0:0:0:
448,192,43885,1,0,0:0:0:0:
320,192,43932,1,0,0:0:0:0:
64,192,43980,1,0,0:0:0:0:
192,192,43980,1,0,0:0:0:0:
448,192,44028,1,0,0:0:0:0:
320,192,44075,1,0,0:0:0:0:
192,192,44123,1,0,0:0:0:0:
64,192,44171,1,0,0:0:0:0:
448,192,44171,1,0,0:0:0:0:
192,192,44218,1,0,0:0:0:0:
320,192,44218,1,0,0:0:0:0:
64,192,44266,1,0,0:0:0:0:
448,192,44266,1,0,0:0:0:0:
320,192,44313,1,0,0:0:0:0:
64,192,44361,1,0,0:0:0:0:
192,192,44361,1,0,0:0:0:0:
448,192,44361,1,0,0:0:0:0:
64,192,44456,1,0,0:0:0:0:
320,192,44456,1,0,0:0:0:0:
448,192,44456,1,0,0:0:0:0:
192,192,44551,1,0,0:0:0:0:
320,192,44551,1,0,0:0:0:0:
192,192,44647,1,0,0:0:0:0:
448,192,44647,1,0,0:0:0:0:
64,192,44742,1,0,0:0:0:0:
320,192,44742,1,0,0:0:0:0:
448,192,44742,1,0,0:0:0:0:
64,192,44837,1,0,0:0:0:0:
192,192,44837,1,0,0:0:0:0:
192,192,44932,1,0,0:0:0:0:
448,192,44932,1,0,0:0:0:0:
64,192,45028,1,0,0:0:0:0:
320,192,45028,1,0,0:0:0:0:
448,192,45028,1,0,0:0:0:0:
192,192,45123,1,0,0:0:0:0:
320,192,45123,1,0,0:0:0:0:
64,192,45218,1,0,0:0:0:0:
192,192,45218,1,0,0:0:0:0:
64,192,45313,1,0,0:0:0:0:
320,192,45313,1,0,0:0:0:0:
448,192,45313,1,0,0:0:0:0:
192,192,45361,1,0,0:0:0:0:
320,192,45409,1,0,0:0:0:0:
64,192,45456,1,0,0:0:0:0:
192,192,45504,1,0,0:0:0:0:
448,192,45504,1,0,0:0:0:0:
320,192,45551,1,0,0:0:0:0:
64,192,45599,1,0,0:0:0:0:
192,192,45599,1,0,0:0:0:0:
320,192,45647,1,0,0:0:0:0:
64,192,45694,1,0,0:0:0:0:
448,192,45694,1,0,0:0:0:0:
192,192,45742,1,0,0:0:0:0:
320,192,45790,1,0,0:0:0:0:
448,192,45790,1,0,0:0:0:0:
64,192,45837,1,0,0:0:0:0:
192,192,45885,1,0,0:0:0:0:
448,192,45885,1,0,0:0:0:0:
320,192,45932,1,0,0:0:0:0:
192,192,45980,1,0,0:0:0:0:
448,192,46028,1,0,0:0:0:0:
64,192,46075,1,0,0:0:0:0:
320,192,46075,1,0,0:0:0:0:
192,192,46123,1,0,0:0:0:0:
64,192,46171,1,0,0:0:0:0:
320,192,46171,1,0,0:0:0:0:
448,192,46171,1,0,0:0:0:0:
192,192,46218,1,0,0:0:0:0:
320,192,46266,1,0,0:0:0:0:
448,192,46266,1,0,0:0:0:0:
64,192,46313,1,0,0:0:0:0:
192,192,46361,1,0,0:0:0:0:
448,192,46361,1,0,0:0:0:0:
320,192,46409,1,0,0:0:0:0:
64,192,46456,1,0,0:0:0:0:
192,192,46456,1,0,0:0:0:0:
320,192,46504,1,0,0:0:0:0:
448,192,46504,1,0,0:0:0:0:
64,192,46551,1,0,0:0:0:0:
192,192,46551,1,0,0:0:0:0:
320,192,46599,1,0,0:0:0:0:
448,192,46599,1,0,0:0:0:0:
64,192,46647,1,0,0:0:0:0:
192,192,46647,1,0,0:0:0:0:
320,192,46694,1,0,0:0:0:0:
448,192,46694,1,0,0:0:0:0:
64,192,46742,1,0,0:0:0:0:
192,192,46742,1,0,0:0:0:0:
448,192,46790,1,0,0:0:0:0:
64,192,46837,1,0,0:0:0:0:
320,192,46837,1,0,0:0:0:0:
192,192,46885,1,0,0:0:0:0:
320,192,46932,1,0,0:0:0:0:
448,192,46932,1,0,0:0:0:0:
64,192,46980,1,0,0:0:0:0:
320,192,47028,1,0,0:0:0:0:
448,192,47028,1,0,0:0:0:0:
64,192,47075,1,0,0:0:0:0:
192,192,47075,1,0,0:0:0:0:
320,192,47123,1,0,0:0:0:0:
448,192,47123,1,0,0:0:0:0:
64,192,47171,1,0,0:0:0:0:
192,192,47171,1,0,0:0:0:0:
320,192,47218,1,0,0:0:0:0:
448,192,47218,1,0,0:0:0:0:
64,192,47266,1,0,0:0:0:0:
192,192,47266,1,0,0:0:0:0:
320,192,47313,1,0,0:0:0:0:
448,192,47313,1,0,0:0:0:0:
192,192,47361,1,0,0:0:0:0:
64,192,47409,1,0,0:0:0:0:
448,192,47409,1,0,0:0:0:0:
320,192,47456,1,0,0:0:0:0:
64,192,47504,1,0,0:0:0:0:
192,192,47504,1,0,0:0:0:0:
448,192,47551,1,0,0:0:0:0:
64,192,47599,1,0,0:0:0:0:
192,192,47599,1,0,0:0:0:0:
320,192,47599,1,0,0:0:0:0:
448,192,47647,1,0,0:0:0:0:
320,192,47694,1,0,0:0:0:0:
64,192,47742,1,0,0:0:0:0:
192,192,47790,1,0,0:0:0:0:
320,192,47790,1,0,0:0:0:0:
448,192,47837,1,0,0:0:0:0:
64,192,47885,1,0,0:0:0:0:
192,192,47885,1,0,0:0:0:0:
320,192,47885,1,0,0:0:0:0:
448,192,47932,1,0,0:0:0:0:
64,192,47980,1,0,0:0:0:0:
192,192,48028,1,0,0:0:0:0:
320,192,48075,1,0,0:0:0:0:
448,192,48075,1,0,0:0:0:0:
64,192,48123,1,0,0:0:0:0:
192,192,48171,1,0,0:0:0:0:
320,192,48171,1,0,0:0:0:0:
448,192,48171,1,0,0:0:0:0:
64,192,48218,1,0,0:0:0:0:
192,192,48266,1,0,0:0:0:0:
448,192,48313,1,0,0:0:0:0:
64,192,48361,1,0,0:0:0:0:
320,192,48361,1,0,0:0:0:0:
192,192,48409,1,0,0:0:0:0:
64,192,48456,1,0,0:0:0:0:
320,192,48456,1,0,0:0:0:0:
448,192,48456,1,0,0:0:0:0:
192,192,48504,1,0,0:0:0:0:
64,192,48551,1,0,0:0:0:0:
448,192,48599,1,0,0:0:0:0:
192,192,48647,1,0,0:0:0:0:
320,192,48647,1,0,0:0:0:0:
64,192,48694,1,0,0:0:0:0:
320,192,48742,1,0,0:0:0:0:
448,192,48742,1,0,0:0:0:0:
64,192,48790,1,0,0:0:0:0:
192,192,48790,1,0,0:0:0:0:
320,192,48837,1,0,0:0:0:0:
448,192,48837,1,0,0:0:0:0:
64,192,48885,1,0,0:0:0:0:
192,192,48885,1,0,0:0:0:0:
320,192,48932,1,0,0:0:0:0:
448,192,48932,1,0,0:0:0:0:
192,192,48980,1,0,0:0:0:0:
64,192,49028,1,0,0:0:0:0:
320,192,49028,1,0,0:0:0:0:
448,192,49028,1,0,0:0:0:0:
192,192,49075,1,0,0:0:0:0:
64,192,49123,1,0,0:0:0:0:
448,192,49123,1,0,0:0:0:0:
320,192,49171,1,0,0:0:0:0:
64,192,49218,1,0,0:0:0:0:
192,192,49218,1,0,0:0:0:0:
320,192,49266,1,0,0:0:0:0:
64,192,49313,1,0,0:0:0:0:
192,192,49313,1,0,0:0:0:0:
448,192,49313,1,0,0:0:0:0:
320,192,49361,1,0,0:0:0:0:
448,192,49409,1,0,0:0:0:0:
64,192,49456,1,0,0:0:0:0:
192,192,49504,1,0,0:0:0:0:
320,192,49551,1,0,0:0:0:0:
64,192,49599,1,0,0:0:0:0:
192,192,49599,1,0,0:0:0:0:
448,192,49599,1,0,0:0:0:0:
320,192,49647,1,0,0:0:0:0:
64,192,49694,1,0,0:0:0:0:
448,192,49742,1,0,0:0:0:0:
192,192,49790,1,0,0:0:0:0:
320,192,49837,1,0,0:0:0:0:
64,192,49885,1,0,0:0:0:0:
192,192,49885,1,0,0:0:0:0:
448,192,49932,1,0,0:0:0:0:
192,192,49980,1,0,0:0:0:0:
320,192,49980,1,0,0:0:0:0:
64,192,50028,1,0,0:0:0:0:
320,192,50075,1,0,0:0:0:0:
448,192,50075,1,0,0:0:0:0:
192,192,50123,1,0,0:0:0:0:
64,192,50171,1,0,0:0:0:0:
320,192,50171,1,0,0:0:0:0:
448,192,50171,1,0,0:0:0:0:
192,192,50218,1,0,0:0:0:0:
64,192,50266,1,0,0:0:0:0:
448,192,50266,1,0,0:0:0:0:
320,192,50313,1,0,0:0:0:0:
64,192,50361,1,0,0:0:0:0:
192,192,50361,1,0,0:0:0:0:
320,192,50409,1,0,0:0:0:0:
64,192,50456,1,0,0:0:0:0:
192,192,50456,1,0,0:0:0:0:
448,192,50456,1,0,0:0:0:0:
320,192,50504,1,0,0:0:0:0:
448,192,50551,1,0,0:0:0:0:
64,192,50599,1,0,0:0:0:0:
192,192,50647,1,0,0:0:0:0:
320,192,50647,1,0,0:0:0:0:
448,192,50694,1,0,0:0:0:0:
64,192,50742,1,0,0:0:0:0:
192,192,50742,1,0,0:0:0:0:
320,192,50742,1,0,0:0:0:0:
448,192,50790,1,0,0:0:0:0:
320,192,50837,1,0,0:0:0:0:
64,192,50885,1,0,0:0:0:0:
192,192,50932,1,0,0:0:0:0:
448,192,50932,1,0,0:0:0:0:
320,192,50980,1,0,0:0:0:0:
64,192,51028,1,0,0:0:0:0:
192,192,51028,1,0,0:0:0:0:
320,192,51075,1,0,0:0:0:0:
448,192,51075,1,0,0:0:0:0:
64,192,51123,1,0,0:0:0:0:
192,192,51123,1,0,0:0:0:0:
320,192,51171,1,0,0:0:0:0:
448,192,51171,1,0,0:0:0:0:
64,192,51218,1,0,0:0:0:0:
192,192,51218,1,0,0:0:0:0:
320,192,51266,1,0,0:0:0:0:
448,192,51266,1,0,0:0:0:0:
64,192,51313,1,0,0:0:0:0:
192,192,51313,1,0,0:0:0:0:
448,192,51361,1,0,0:0:0:0:
64,192,51409,1,0,0:0:0:0:
320,192,51409,1,0,0:0:0:0:
192,192,51456,1,0,0:0:0:0:
320,192,51504,1,0,0:0:0:0:
448,192,51504,1,0,0:0:0:0:
64,192,51551,1,0,0:0:0:0:
192,192,51599,1,0,0:0:0:0:
320,192,51599,1,0,0:0:0:0:
64,192,51647,1,0,0:0:0:0:
448,192,51647,1,0,0:0:0:0:
192,192,51694,1,0,0:0:0:0:
320,192,51694,1,0,0:0:0:0:
64,192,51742,1,0,0:0:0:0:
448,192,51742,1,0,0:0:0:0:
192,192,51790,1,0,0:0:0:0:
320,192,51790,1,0,0:0:0:0:
64,192,51837,1,0,0:0:0:0:
448,192,51837,1,0,0:0:0:0:
192,192,51885,1,0,0:0:0:0:
320,192,51885,1,0,0:0:0:0:
448,192,51932,1,0,0:0:0:0:
64,192,51980,1,0,0:0:0:0:
192,192,51980,1,0,0:0:0:0:
320,192,52028,1,0,0:0:0:0:
64,192,52075,1,0,0:0:0:0:
448,192,52075,1,0,0:0:0:0:
192,192,52123,1,0,0:0:0:0:
64,192,52171,1,0,0:0:0:0:
320,192,52171,1,0,0:0:0:0:
448,192,52171,1,0,0:0:0:0:
192,192,52218,1,0,0:0:0:0:
448,192,52266,1,0,0:0:0:0:
320,192,52313,1,0,0:0:0:0:
64,192,52361,1,0,0:0:0:0:
192,192,52361,1,0,0:0:0:0:
448,192,52409,1,0,0:0:0:0:
64,192,52456,1,0,0:0:0:0:
192,192,52456,1,0,0:0:0:0:
320,192,52456,1,0,0:0:0:0:
448,192,52504,1,0,0:0:0:0:
64,192,52551,1,0,0:0:0:0:
320,192,52551,1,0,0:0:0:0:
192,192,52599,1,0,0:0:0:0:
320,192,52647,1,0,0:0:0:0:
448,192,52647,1,0,0:0:0:0:
64,192,52694,1,0,0:0:0:0:
192,192,52742,1,0,0:0:0:0:
320,192,52742,1,0,0:0:0:0:
448,192,52742,1,0,0:0:0:0:
64,192,52790,1,0,0:0:0:0:
192,192,52837,1,0,0:0:0:0:
320,192,52885,1,0,0:0:0:0:
64,192,52932,1,0,0:0:0:0:
192,192,52932,1,0,0:0:0:0:
448,192,52980,1,0,0:0:0:0:
64,192,53028,1,0,0:0:0:0:
192,192,53028,1,0,0:0:0:0:
320,192,53028,1,0,0:0:0:0:
448,192,53075,1,0,0:0:0:0:
320,192,53123,1,0,0:0:0:0:
64,192,53171,1,0,0:0:0:0:
192,192,53218,1,0,0:0:0:0:
448,192,53266,1,0,0:0:0:0:
64,192,53313,1,0,0:0:0:0:
192,192,53313,1,0,0:0:0:0:
320,192,53313,1,0,0:0:0:0:
448,192,53361,1,0,0:0:0:0:
64,192,53409,1,0,0:0:0:0:
320,192,53409,1,0,0:0:0:0:
192,192,53456,1,0,0:0:0:0:
320,192,53504,1,0,0:0:0:0:
448,192,53504,1,0,0:0:0:0:
64,192,53551,1,0,0:0:0:0:
192,192,53599,1,0,0:0:0:0:
448,192,53599,1,0,0:0:0:0:
192,192,53694,1,0,0:0:0:0:
320,192,53694,1,0,0:0:0:0:
64,192,53790,1,0,0:0:0:0:
320,192,53790,1,0,0:0:0:0:
64,192,53885,1,0,0:0:0:0:
192,192,53885,1,0,0:0:0:0:
448,192,53885,1,0,0:0:0:0:
320,192,53932,1,0,0:0:0:0:
64,192,53980,1,0,0:0:0:0:
192,192,53980,1,0,0:0:0:0:
448,192,54028,1,0,0:0:0:0:
64,192,54075,1,0,0:0:0:0:
320,192,54075,1,0,0:0:0:0:
192,192,54123,1,0,0:0:0:0:
320,192,54171,1,0,0:0:0:0:
448,192,54171,1,0,0:0:0:0:
64,192,54218,1,0,0:0:0:0:
192,192,54266,1,0,0:0:0:0:
320,192,54266,1,0,0:0:0:0:
448,192,54313,1,0,0:0:0:0:
64,192,54361,1,0,0:0:0:0:
192,192,54361,1,0,0:0:0:0:
320,192,54409,1,0,0:0:0:0:
64,192,54456,1,0,0:0:0:0:
448,192,54456,1,0,0:0:0:0:
192,192,54504,1,0,0:0:0:0:
320,192,54551,1,0,0:0:0:0:
448,192,54551,1,0,0:0:0:0:
64,192,54599,1,0,0:0:0:0:
192,192,54647,1,0,0:0:0:0:
448,192,54647,1,0,0:0:0:0:
320,192,54694,1,0,0:0:0:0:
64,192,54742,1,0,0:0:0:0:
192,192,54742,1,0,0:0:0:0:
448,192,54790,1,0,0:0:0:0:
192,192,54837,1,0,0:0:0:0:
320,192,54837,1,0,0:0:0:0:
64,192,54885,1,0,0:0:0:0:
320,192,54932,1,0,0:0:0:0:
448,192,54932,1,0,0:0:0:0:
192,192,54980,1,0,0:0:0:0:
64,192,55028,128,0,55075:0:0:0:0:
320,192,55028,128,0,55075:0:0:0:0:
448,192,55028,128,0,55075:0:0:0:0:
64,192,55123,1,0,0:0:0:0:
192,192,55123,1,0,0:0:0:0:
320,192,55123,1,0,0:0:0:0:
64,192,55313,128,0,55361:0:0:0:0:
192,192,55313,128,0,55361:0:0:0:0:
448,192,55313,128,0,55361:0:0:0:0:
64,192,55409,1,0,0:0:0:0:
320,192,55409,1,0,0:0:0:0:
448,192,55409,1,0,0:0:0:0:
192,192,55456,1,0,0:0:0:0:
320,192,55504,1,0,0:0:0:0:
192,192,55551,1,0,0:0:0:0:
64,192,55599,1,0,0:0:0:0:
320,192,55599,1,0,0:0:0:0:
448,192,55599,1,0,0:0:0:0:
192,192,55694,1,0,0:0:0:0:
320,192,55694,1,0,0:0:0:0:
192,192,55790,1,0,0:0:0:0:
448,192,55790,1,0,0:0:0:0:
64,192,55885,128,0,55932:0:0:0:0:
320,192,55885,128,0,55932:0:0:0:0:
448,192,55885,128,0,55932:0:0:0:0:
64,192,55980,1,0,0:0:0:0:
192,192,55980,1,0,0:0:0:0:
448,192,55980,1,0,0:0:0:0:
64,192,56171,1,0,0:0:0:0:
448,192,56171,1,0,0:0:0:0:
192,192,56218,1,0,0:0:0:0:
320,192,56218,1,0,0:0:0:0:
64,192,56266,1,0,0:0:0:0:
448,192,56266,1,0,0:0:0:0:
192,192,56313,1,0,0:0:0:0:
320,192,56313,1,0,0:0:0:0:
64,192,56361,1,0,0:0:0:0:
448,192,56361,1,0,0:0:0:0:
320,192,56409,1,0,0:0:0:0:
64,192,56456,1,0,0:0:0:0:
192,192,56456,1,0,0:0:0:0:
448,192,56504,1,0,0:0:0:0:
192,192,56551,1,0,0:0:0:0:
320,192,56551,1,0,0:0:0:0:
64,192,56599,1,0,0:0:0:0:
320,192,56647,1,0,0:0:0:0:
448,192,56647,1,0,0:0:0:0:
192,192,56694,1,0,0:0:0:0:
64,192,56742,1,0,0:0:0:0:
448,192,56742,1,0,0:0:0:0:
320,192,56790,1,0,0:0:0:0:
64,192,56837,1,0,0:0:0:0:
192,192,56837,1,0,0:0:0:0:
320,192,56885,1,0,0:0:0:0:
64,192,56932,1,0,0:0:0:0:
448,192,56932,1,0,0:0:0:0:
192,192,56980,1,0,0:0:0:0:
320,192,57028,1,0,0:0:0:0:
448,192,57028,1,0,0:0:0:0:
64,192,57075,1,0,0:0:0:0:
192,192,57075,1,0,0:0:0:0:
320,192,57123,1,0,0:0:0:0:
448,192,57123,1,0,0:0:0:0:
64,192,57171,1,0,0:0:0:0:
192,192,57171,1,0,0:0:0:0:
448,192,57218,1,0,0:0:0:0:
192,192,57254,1,0,0:0:0:0:
64,192,57297,1,0,0:0:0:0:
320,192,57325,1,0,0:0:0:0:
192,192,57361,1,0,0:0:0:0:
448,192,57385,1,0,0:0:0:0:
64,192,57409,1,0,0:0:0:0:
320,192,57409,1,0,0:0:0:0:
192,192,57504,1,0,0:0:0:0:
64,192,57599,1,0,0:0:0:0:
192,192,57599,1,0,0:0:0:0:
448,192,57599,1,0,0:0:0:0:
320,192,57694,1,0,0:0:0:0:
64,192,57790,1,0,0:0:0:0:
192,192,57790,1,0,0:0:0:0:
64,192,57885,1,0,0:0:0:0:
192,192,57885,1,0,0:0:0:0:
448,192,57885,1,0,0:0:0:0:
320,192,57980,1,0,0:0:0:0:
64,192,58075,1,0,0:0:0:0:
448,192,58075,1,0,0:0:0:0:
192,192,58171,1,0,0:0:0:0:
448,192,58171,1,0,0:0:0:0:
192,192,58266,1,0,0:0:0:0:
320,192,58266,1,0,0:0:0:0:
64,192,58361,1,0,0:0:0:0:
320,192,58361,1,0,0:0:0:0:
448,192,58361,1,0,0:0:0:0:
192,192,58409,1,0,0:0:0:0:
320,192,58456,1,0,0:0:0:0:
448,192,58456,1,0,0:0:0:0:
192,192,58504,1,0,0:0:0:0:
320,192,58551,1,0,0:0:0:0:
448,192,58551,1,0,0:0:0:0:
192,192,58599,1,0,0:0:0:0:
64,192,58647,1,0,0:0:0:0:
320,192,58647,1,0,0:0:0:0:
448,192,58647,1,0,0:0:0:0:
192,192,58694,1,0,0:0:0:0:
64,192,58742,1,0,0:0:0:0:
448,192,58742,1,0,0:0:0:0:
320,192,58790,1,0,0:0:0:0:
64,192,58837,1,0,0:0:0:0:
192,192,58837,1,0,0:0:0:0:
448,192,58885,1,0,0:0:0:0:
192,192,58932,1,0,0:0:0:0:
320,192,58932,1,0,0:0:0:0:
64,192,58980,1,0,0:0:0:0:
192,192,59028,1,0,0:0:0:0:
320,192,59028,1,0,0:0:0:0:
448,192,59028,1,0,0:0:0:0:
64,192,59075,1,0,0:0:0:0:
320,192,59123,1,0,0:0:0:0:
448,192,59123,1,0,0:0:0:0:
192,192,59171,1,0,0:0:0:0:
64,192,59218,1,0,0:0:0:0:
448,192,59218,1,0,0:0:0:0:
320,192,59266,1,0,0:0:0:0:
64,192,59313,1,0,0:0:0:0:
192,192,59313,1,0,0:0:0:0:
320,192,59361,1,0,0:0:0:0:
64,192,59409,1,0,0:0:0:0:
192,192,59409,1,0,0:0:0:0:
448,192,59409,1,0,0:0:0:0:
64,192,59504,1,0,0:0:0:0:
320,192,59504,1,0,0:0:0:0:
448,192,59504,1,0,0:0:0:0:
64,192,59599,1,0,0:0:0:0:
320,192,59599,1,0,0:0:0:0:
192,192,59647,1,0,0:0:0:0:
64,192,59694,1,0,0:0:0:0:
320,192,59694,1,0,0:0:0:0:
448,192,59694,1,0,0:0:0:0:
192,192,59742,1,0,0:0:0:0:
448,192,59790,1,0,0:0:0:0:
320,192,59837,1,0,0:0:0:0:
64,192,59885,1,0,0:0:0:0:
192,192,59885,1,0,0:0:0:0:
448,192,59932,1,0,0:0:0:0:
64,192,59980,1,0,0:0:0:0:
192,192,59980,1,0,0:0:0:0:
320,192,59980,1,0,0:0:0:0:
448,192,60028,1,0,0:0:0:0:
64,192,60075,1,0,0:0:0:0:
192,192,60123,1,0,0:0:0:0:
320,192,60171,1,0,0:0:0:0:
448,192,60171,1,0,0:0:0:0:
192,192,60218,1,0,0:0:0:0:
320,192,60266,1,0,0:0:0:0:
448,192,60266,1,0,0:0:0:0:
64,192,60313,1,0,0:0:0:0:
192,192,60361,1,0,0:0:0:0:
448,192,60361,1,0,0:0:0:0:
320,192,60409,1,0,0:0:0:0:
64,192,60456,1,0,0:0:0:0:
192,192,60456,1,0,0:0:0:0:
448,192,60504,1,0,0:0:0:0:
64,192,60551,1,0,0:0:0:0:
320,192,60551,1,0,0:0:0:0:
192,192,60599,1,0,0:0:0:0:
320,192,60647,1,0,0:0:0:0:
448,192,60694,1,0,0:0:0:0:
64,192,60742,1,0,0:0:0:0:
192,192,60742,1,0,0:0:0:0:
320,192,60790,1,0,0:0:0:0:
448,192,60790,1,0,0:0:0:0:
64,192,60837,1,0,0:0:0:0:
192,192,60837,1,0,0:0:0:0:
320,192,60885,1,0,0:0:0:0:
448,192,60885,1,0,0:0:0:0:
64,192,60932,1,0,0:0:0:0:
192,192,60932,1,0,0:0:0:0:
448,192,60980,1,0,0:0:0:0:
64,192,61028,1,0,0:0:0:0:
320,192,61028,1,0,0:0:0:0:
192,192,61075,1,0,0:0:0:0:
320,192,61123,1,0,0:0:0:0:
448,192,61123,1,0,0:0:0:0:
64,192,61171,1,0,0:0:0:0:
192,192,61218,1,0,0:0:0:0:
320,192,61218,1,0,0:0:0:0:
448,192,61266,1,0,0:0:0:0:
64,192,61313,1,0,0:0:0:0:
192,192,61313,1,0,0:0:0:0:
320,192,61313,1,0,0:0:0:0:
448,192,61361,1,0,0:0:0:0:
64,192,61409,1,0,0:0:0:0:
192,192,61456,1,0,0:0:0:0:
448,192,61504,1,0,0:0:0:0:
320,192,61551,1,0,0:0:0:0:
64,192,61599,1,0,0:0:0:0:
192,192,61599,1,0,0:0:0:0:
448,192,61599,1,0,0:0:0:0:
320,192,61647,1,0,0:0:0:0:
192,192,61694,1,0,0:0:0:0:
448,192,61742,1,0,0:0:0:0:
192,192,61790,1,0,0:0:0:0:
64,192,61837,1,0,0:0:0:0:
320,192,61885,1,0,0:0:0:0:
448,192,61885,1,0,0:0:0:0:
64,192,61932,1,0,0:0:0:0:
192,192,61932,1,0,0:0:0:0:
320,192,61980,1,0,0:0:0:0:
448,192,61980,1,0,0:0:0:0:
64,192,62028,1,0,0:0:0:0:
192,192,62028,1,0,0:0:0:0:
320,192,62075,1,0,0:0:0:0:
448,192,62075,1,0,0:0:0:0:
64,192,62123,1,0,0:0:0:0:
192,192,62171,1,0,0:0:0:0:
320,192,62171,1,0,0:0:0:0:
448,192,62218,1,0,0:0:0:0:
64,192,62266,1,0,0:0:0:0:
192,192,62266,1,0,0:0:0:0:
320,192,62313,1,0,0:0:0:0:
64,192,62361,1,0,0:0:0:0:
448,192,62361,1,0,0:0:0:0:
192,192,62409,1,0,0:0:0:0:
320,192,62456,1,0,0:0:0:0:
448,192,62456,1,0,0:0:0:0:
64,192,62504,1,0,0:0:0:0:
192,192,62504,1,0,0:0:0:0:
320,192,62551,1,0,0:0:0:0:
448,192,62551,1,0,0:0:0:0:
64,192,62599,1,0,0:0:0:0:
192,192,62599,1,0,0:0:0:0:
320,192,62647,1,0,0:0:0:0:
448,192,62647,1,0,0:0:0:0:
192,192,62694,1,0,0:0:0:0:
64,192,62742,1,0,0:0:0:0:
448,192,62742,1,0,0:0:0:0:
320,192,62790,1,0,0:0:0:0:
64,192,62837,1,0,0:0:0:0:
192,192,62837,1,0,0:0:0:0:
320,192,62885,1,0,0:0:0:0:
192,192,62932,1,0,0:0:0:0:
448,192,62932,1,0,0:0:0:0:
64,192,62980,1,0,0:0:0:0:
320,192,63028,1,0,0:0:0:0:
448,192,63028,1,0,0:0:0:0:
64,192,63075,1,0,0:0:0:0:
192,192,63075,1,0,0:0:0:0:
320,192,63123,1,0,0:0:0:0:
448,192,63123,1,0,0:0:0:0:
64,192,63171,1,0,0:0:0:0:
192,192,63171,1,0,0:0:0:0:
320,192,63218,1,0,0:0:0:0:
448,192,63218,1,0,0:0:0:0:
64,192,63266,1,0,0:0:0:0:
192,192,63313,1,0,0:0:0:0:
320,192,63313,1,0,0:0:0:0:
448,192,63313,1,0,0:0:0:0:
64,192,63409,1,0,0:0:0:0:
320,192,63409,1,0,0:0:0:0:
448,192,63409,1,0,0:0:0:0:
64,192,63504,1,0,0:0:0:0:
192,192,63504,1,0,0:0:0:0:
320,192,63504,1,0,0:0:0:0:
64,192,63599,1,0,0:0:0:0:
192,192,63599,1,0,0:0:0:0:
448,192,63599,1,0,0:0:0:0:
320,192,63647,1,0,0:0:0:0:
64,192,63694,1,0,0:0:0:0:
192,192,63694,1,0,0:0:0:0:
448,192,63742,1,0,0:0:0:0:
64,192,63790,1,0,0:0:0:0:
320,192,63790,1,0,0:0:0:0:
192,192,63837,1,0,0:0:0:0:
320,192,63885,1,0,0:0:0:0:
448,192,63885,1,0,0:0:0:0:
64,192,63932,1,0,0:0:0:0:
192,192,63980,1,0,0:0:0:0:
448,192,63980,1,0,0:0:0:0:
320,192,64028,1,0,0:0:0:0:
64,192,64075,1,0,0:0:0:0:
192,192,64075,1,0,0:0:0:0:
448,192,64123,1,0,0:0:0:0:
64,192,64171,1,0,0:0:0:0:
192,192,64171,1,0,0:0:0:0:
320,192,64171,1,0,0:0:0:0:
448,192,64218,1,0,0:0:0:0:
64,192,64266,1,0,0:0:0:0:
320,192,64266,1,0,0:0:0:0:
192,192,64313,1,0,0:0:0:0:
320,192,64361,1,0,0:0:0:0:
448,192,64361,1,0,0:0:0:0:
64,192,64409,1,0,0:0:0:0:
192,192,64456,1,0,0:0:0:0:
320,192,64456,1,0,0:0:0:0:
448,192,64456,1,0,0:0:0:0:
64,192,64504,1,0,0:0:0:0:
192,192,64551,1,0,0:0:0:0:
448,192,64551,1,0,0:0:0:0:
320,192,64599,1,0,0:0:0:0:
64,192,64647,1,0,0:0:0:0:
192,192,64647,1,0,0:0:0:0:
448,192,64694,1,0,0:0:0:0:
64,192,64742,1,0,0:0:0:0:
192,192,64742,1,0,0:0:0:0:
320,192,64742,1,0,0:0:0:0:
448,192,64790,1,0,0:0:0:0:
64,192,64837,1,0,0:0:0:0:
320,192,64837,1,0,0:0:0:0:
192,192,64885,1,0,0:0:0:0:
320,192,64932,1,0,0:0:0:0:
448,192,64932,1,0,0:0:0:0:
64,192,64980,1,0,0:0:0:0:
192,192,65028,1,0,0:0:0:0:
320,192,65028,1,0,0:0:0:0:
448,192,65028,1,0,0:0:0:0:
64,192,65075,1,0,0:0:0:0:
192,192,65123,1,0,0:0:0:0:
448,192,65123,1,0,0:0:0:0:
320,192,65171,1,0,0:0:0:0:
64,192,65218,1,0,0:0:0:0:
192,192,65218,1,0,0:0:0:0:
448,192,65266,1,0,0:0:0:0:
192,192,65313,1,0,0:0:0:0:
320,192,65313,1,0,0:0:0:0:
64,192,65361,1,0,0:0:0:0:
448,192,65361,1,0,0:0:0:0:
192,192,65409,1,0,0:0:0:0:
320,192,65409,1,0,0:0:0:0:
64,192,65456,1,0,0:0:0:0:
448,192,65456,1,0,0:0:0:0:
192,192,65504,1,0,0:0:0:0:
320,192,65504,1,0,0:0:0:0:
64,192,65551,1,0,0:0:0:0:
192,192,65599,1,0,0:0:0:0:
448,192,65599,1,0,0:0:0:0:
320,192,65647,1,0,0:0:0:0:
64,192,65694,1,0,0:0:0:0:
192,192,65694,1,0,0:0:0:0:
448,192,65742,1,0,0:0:0:0:
64,192,65790,1,0,0:0:0:0:
320,192,65790,1,0,0:0:0:0:
192,192,65837,1,0,0:0:0:0:
64,192,65885,1,0,0:0:0:0:
320,192,65885,1,0,0:0:0:0:
448,192,65885,1,0,0:0:0:0:
192,192,65980,1,0,0:0:0:0:
448,192,65980,1,0,0:0:0:0:
64,192,66075,1,0,0:0:0:0:
192,192,66075,1,0,0:0:0:0:
448,192,66075,1,0,0:0:0:0:
64,192,66171,1,0,0:0:0:0:
320,192,66171,1,0,0:0:0:0:
448,192,66171,1,0,0:0:0:0:
192,192,66218,1,0,0:0:0:0:
320,192,66266,1,0,0:0:0:0:
448,192,66301,1,0,0:0:0:0:
192,192,66337,1,0,0:0:0:0:
320,192,66373,1,0,0:0:0:0:
64,192,66397,1,0,0:0:0:0:
192,192,66432,1,0,0:0:0:0:
320,192,66456,1,0,0:0:0:0:
448,192,66456,1,0,0:0:0:0:
64,192,66504,1,0,0:0:0:0:
192,192,66551,1,0,0:0:0:0:
448,192,66551,1,0,0:0:0:0:
320,192,66599,1,0,0:0:0:0:
64,192,66647,1,0,0:0:0:0:
192,192,66647,1,0,0:0:0:0:
320,192,66694,1,0,0:0:0:0:
64,192,66742,1,0,0:0:0:0:
192,192,66742,1,0,0:0:0:0:
448,192,66742,1,0,0:0:0:0:
320,192,66790,1,0,0:0:0:0:
64,192,66837,1,0,0:0:0:0:
448,192,66837,1,0,0:0:0:0:
192,192,66885,1,0,0:0:0:0:
320,192,66932,1,0,0:0:0:0:
448,192,66932,1,0,0:0:0:0:
64,192,66980,1,0,0:0:0:0:
192,192,67028,1,0,0:0:0:0:
320,192,67028,1,0,0:0:0:0:
448,192,67075,1,0,0:0:0:0:
64,192,67123,1,0,0:0:0:0:
320,192,67123,1,0,0:0:0:0:
192,192,67171,1,0,0:0:0:0:
320,192,67218,1,0,0:0:0:0:
448,192,67218,1,0,0:0:0:0:
64,192,67266,1,0,0:0:0:0:
192,192,67313,1,0,0:0:0:0:
320,192,67313,1,0,0:0:0:0:
448,192,67313,1,0,0:0:0:0:
64,192,67361,1,0,0:0:0:0:
192,192,67409,1,0,0:0:0:0:
448,192,67409,1,0,0:0:0:0:
320,192,67456,1,0,0:0:0:0:
64,192,67504,1,0,0:0:0:0:
448,192,67504,1,0,0:0:0:0:
192,192,67551,1,0,0:0:0:0:
320,192,67599,1,0,0:0:0:0:
448,192,67599,1,0,0:0:0:0:
64,192,67647,1,0,0:0:0:0:
192,192,67647,1,0,0:0:0:0:
320,192,67694,1,0,0:0:0:0:
448,192,67694,1,0,0:0:0:0:
64,192,67742,1,0,0:0:0:0:
192,192,67742,1,0,0:0:0:0:
320,192,67790,1,0,0:0:0:0:
448,192,67790,1,0,0:0:0:0:
64,192,67837,1,0,0:0:0:0:
192,192,67837,1,0,0:0:0:0:
320,192,67885,1,0,0:0:0:0:
448,192,67885,1,0,0:0:0:0:
64,192,67932,1,0,0:0:0:0:
192,192,67980,1,0,0:0:0:0:
320,192,67980,1,0,0:0:0:0:
448,192,68028,1,0,0:0:0:0:
64,192,68075,1,0,0:0:0:0:
320,192,68075,1,0,0:0:0:0:
192,192,68123,1,0,0:0:0:0:
64,192,68171,1,0,0:0:0:0:
320,192,68171,1,0,0:0:0:0:
448,192,68171,1,0,0:0:0:0:
192,192,68218,1,0,0:0:0:0:
320,192,68266,1,0,0:0:0:0:
448,192,68266,1,0,0:0:0:0:
192,192,68313,1,0,0:0:0:0:
64,192,68361,1,0,0:0:0:0:
448,192,68361,1,0,0:0:0:0:
320,192,68409,1,0,0:0:0:0:
64,192,68456,1,0,0:0:0:0:
192,192,68456,1,0,0:0:0:0:
448,192,68504,1,0,0:0:0:0:
192,192,68551,1,0,0:0:0:0:
320,192,68551,1,0,0:0:0:0:
64,192,68599,1,0,0:0:0:0:
320,192,68647,1,0,0:0:0:0:
448,192,68647,1,0,0:0:0:0:
192,192,68694,1,0,0:0:0:0:
64,192,68742,1,0,0:0:0:0:
448,192,68742,1,0,0:0:0:0:
192,192,68790,1,0,0:0:0:0:
320,192,68790,1,0,0:0:0:0:
64,192,68837,1,0,0:0:0:0:
448,192,68837,1,0,0:0:0:0:
192,192,68885,1,0,0:0:0:0:
320,192,68885,1,0,0:0:0:0:
64,192,68932,1,0,0:0:0:0:
448,192,68932,1,0,0:0:0:0:
320,192,68980,1,0,0:0:0:0:
64,192,69028,1,0,0:0:0:0:
192,192,69028,1,0,0:0:0:0:
320,192,69075,1,0,0:0:0:0:
448,192,69075,1,0,0:0:0:0:
64,192,69123,1,0,0:0:0:0:
192,192,69123,1,0,0:0:0:0:
320,192,69171,1,0,0:0:0:0:
448,192,69171,1,0,0:0:0:0:
64,192,69218,1,0,0:0:0:0:
192,192,69218,1,0,0:0:0:0:
448,192,69266,1,0,0:0:0:0:
64,192,69313,1,0,0:0:0:0:
192,192,69313,1,0,0:0:0:0:
320,192,69313,1,0,0:0:0:0:
448,192,69361,1,0,0:0:0:0:
64,192,69409,1,0,0:0:0:0:
320,192,69409,1,0,0:0:0:0:
192,192,69456,1,0,0:0:0:0:
320,192,69504,1,0,0:0:0:0:
448,192,69504,1,0,0:0:0:0:
64,192,69551,1,0,0:0:0:0:
192,192,69599,1,0,0:0:0:0:
448,192,69599,1,0,0:0:0:0:
320,192,69647,1,0,0:0:0:0:
64,192,69694,1,0,0:0:0:0:
192,192,69694,1,0,0:0:0:0:
448,192,69742,1,0,0:0:0:0:
64,192,69790,1,0,0:0:0:0:
320,192,69790,1,0,0:0:0:0:
192,192,69837,1,0,0:0:0:0:
320,192,69885,1,0,0:0:0:0:
448,192,69885,1,0,0:0:0:0:
64,192,69932,1,0,0:0:0:0:
192,192,69980,1,0,0:0:0:0:
448,192,69980,1,0,0:0:0:0:
320,192,70028,1,0,0:0:0:0:
64,192,70075,1,0,0:0:0:0:
192,192,70075,1,0,0:0:0:0:
448,192,70123,1,0,0:0:0:0:
192,192,70171,1,0,0:0:0:0:
320,192,70171,1,0,0:0:0:0:
64,192,70218,1,0,0:0:0:0:
320,192,70266,1,0,0:0:0:0:
448,192,70266,1,0,0:0:0:0:
192,192,70313,1,0,0:0:0:0:
64,192,70361,1,0,0:0:0:0:
320,192,70361,1,0,0:0:0:0:
448,192,70361,1,0,0:0:0:0:
192,192,70409,1,0,0:0:0:0:
64,192,70456,128,0,70504:0:0:0:0:
320,192,70456,128,0,70504:0:0:0:0:
448,192,70456,128,0,70504:0:0:0:0:
64,192,70647,1,0,0:0:0:0:
320,192,70647,1,0,0:0:0:0:
448,192,70647,1,0,0:0:0:0:
192,192,70694,1,0,0:0:0:0:
320,192,70742,1,0,0:0:0:0:
448,192,70742,1,0,0:0:0:0:
64,192,70790,1,0,0:0:0:0:
192,192,70790,1,0,0:0:0:0:
320,192,70837,1,0,0:0:0:0:
448,192,70837,1,0,0:0:0:0:
64,192,71028,128,0,71075:0:0:0:0:
192,192,71028,128,0,71075:0:0:0:0:
448,192,71028,128,0,71075:0:0:0:0:
64,192,71218,1,0,0:0:0:0:
192,192,71218,1,0,0:0:0:0:
448,192,71218,1,0,0:0:0:0:
320,192,71266,1,0,0:0:0:0:
64,192,71313,1,0,0:0:0:0:
192,192,71313,1,0,0:0:0:0:
320,192,71361,1,0,0:0:0:0:
448,192,71361,1,0,0:0:0:0:
64,192,71409,1,0,0:0:0:0:
192,192,71409,1,0,0:0:0:0:
320,192,71599,1,0,0:0:0:0:
448,192,71599,1,0,0:0:0:0:
64,192,71647,1,0,0:0:0:0:
192,192,71647,1,0,0:0:0:0:
320,192,71694,1,0,0:0:0:0:
448,192,71694,1,0,0:0:0:0:
64,192,71742,1,0,0:0:0:0:
192,192,71742,1,0,0:0:0:0:
320,192,71790,1,0,0:0:0:0:
448,192,71790,1,0,0:0:0:0:
192,192,71837,1,0,0:0:0:0:
64,192,71885,1,0,0:0:0:0:
448,192,71932,1,0,0:0:0:0:
192,192,71980,1,0,0:0:0:0:
320,192,71980,1,0,0:0:0:0:
192,192,72075,1,0,0:0:0:0:
320,192,72075,1,0,0:0:0:0:
64,192,72171,1,0,0:0:0:0:
192,192,72171,1,0,0:0:0:0:
320,192,72218,1,0,0:0:0:0:
448,192,72218,1,0,0:0:0:0:
64,192,72266,1,0,0:0:0:0:
192,192,72266,1,0,0:0:0:0:
320,192,72313,1,0,0:0:0:0:
448,192,72313,1,0,0:0:0:0:
64,192,72361,1,0,0:0:0:0:
192,192,72361,1,0,0:0:0:0:
320,192,72409,1,0,0:0:0:0:
448,192,72456,1,0,0:0:0:0:
64,192,72504,1,0,0:0:0:0:
192,192,72551,1,0,0:0:0:0:
320,192,72551,1,0,0:0:0:0:
192,192,72647,1,0,0:0:0:0:
320,192,72647,1,0,0:0:0:0:
64,192,72742,128,0,72790:0:0:0:0:
320,192,72742,128,0,72790:0:0:0:0:
448,192,72742,128,0,72790:0:0:0:0:
64,192,72932,1,0,0:0:0:0:
320,192,72932,1,0,0:0:0:0:
448,192,72932,1,0,0:0:0:0:
192,192,72980,1,0,0:0:0:0:
320,192,73028,1,0,0:0:0:0:
448,192,73028,1,0,0:0:0:0:
64,192,73075,1,0,0:0:0:0:
192,192,73075,1,0,0:0:0:0:
320,192,73123,1,0,0:0:0:0:
448,192,73123,1,0,0:0:0:0:
64,192,73313,128,0,73361:0:0:0:0:
192,192,73313,128,0,73361:0:0:0:0:
448,192,73313,128,0,73361:0:0:0:0:
64,192,73504,1,0,0:0:0:0:
192,192,73504,1,0,0:0:0:0:
448,192,73504,1,0,0:0:0:0:
320,192,73551,1,0,0:0:0:0:
64,192,73599,1,0,0:0:0:0:
192,192,73599,1,0,0:0:0:0:
320,192,73647,1,0,0:0:0:0:
448,192,73647,1,0,0:0:0:0:
64,192,73694,1,0,0:0:0:0:
192,192,73694,1,0,0:0:0:0:
320,192,73885,1,0,0:0:0:0:
448,192,73885,1,0,0:0:0:0:
64,192,73932,1,0,0:0:0:0:
192,192,73932,1,0,0:0:0:0:
320,192,73980,1,0,0:0:0:0:
448,192,73980,1,0,0:0:0:0:
64,192,74028,1,0,0:0:0:0:
192,192,74028,1,0,0:0:0:0:
320,192,74075,1,0,0:0:0:0:
448,192,74075,1,0,0:0:0:0:
192,192,74123,1,0,0:0:0:0:
64,192,74171,1,0,0:0:0:0:
448,192,74218,1,0,0:0:0:0:
192,192,74266,1,0,0:0:0:0:
320,192,74266,1,0,0:0:0:0:
192,192,74361,1,0,0:0:0:0:
320,192,74361,1,0,0:0:0:0:
64,192,74456,1,0,0:0:0:0:
192,192,74456,1,0,0:0:0:0:
448,192,74456,1,0,0:0:0:0:
320,192,74504,1,0,0:0:0:0:
64,192,74551,1,0,0:0:0:0:
192,192,74551,1,0,0:0:0:0:
448,192,74599,1,0,0:0:0:0:
64,192,74647,1,0,0:0:0:0:
320,192,74647,1,0,0:0:0:0:
192,192,74694,1,0,0:0:0:0:
64,192,74742,1,0,0:0:0:0:
320,192,74742,1,0,0:0:0:0:
448,192,74742,1,0,0:0:0:0:
192,192,74790,1,0,0:0:0:0:
320,192,74837,1,0,0:0:0:0:
448,192,74837,1,0,0:0:0:0:
64,192,74885,1,0,0:0:0:0:
192,192,74932,1,0,0:0:0:0:
448,192,74932,1,0,0:0:0:0:
320,192,74980,1,0,0:0:0:0:
64,192,75028,128,0,75075:0:0:0:0:
192,192,75028,128,0,75075:0:0:0:0:
448,192,75028,128,0,75075:0:0:0:0:
64,192,75218,1,0,0:0:0:0:
192,192,75218,1,0,0:0:0:0:
448,192,75218,1,0,0:0:0:0:
320,192,75266,1,0,0:0:0:0:
64,192,75313,1,0,0:0:0:0:
192,192,75313,1,0,0:0:0:0:
320,192,75361,1,0,0:0:0:0:
448,192,75361,1,0,0:0:0:0:
64,192,75409,1,0,0:0:0:0:
192,192,75409,1,0,0:0:0:0:
192,192,75599,128,0,75647:0:0:0:0:
320,192,75599,128,0,75647:0:0:0:0:
448,192,75599,128,0,75647:0:0:0:0:
64,192,75790,1,0,0:0:0:0:
320,192,75790,1,0,0:0:0:0:
448,192,75790,1,0,0:0:0:0:
192,192,75837,1,0,0:0:0:0:
320,192,75885,1,0,0:0:0:0:
448,192,75885,1,0,0:0:0:0:
64,192,75932,1,0,0:0:0:0:
192,192,75932,1,0,0:0:0:0:
320,192,75980,1,0,0:0:0:0:
448,192,75980,1,0,0:0:0:0:
64,192,76171,1,0,0:0:0:0:
192,192,76171,1,0,0:0:0:0:
320,192,76218,1,0,0:0:0:0:
448,192,76218,1,0,0:0:0:0:
64,192,76266,1,0,0:0:0:0:
192,192,76266,1,0,0:0:0:0:
320,192,76313,1,0,0:0:0:0:
448,192,76313,1,0,0:0:0:0:
64,192,76361,1,0,0:0:0:0:
192,192,76361,1,0,0:0:0:0:
320,192,76409,1,0,0:0:0:0:
448,192,76456,1,0,0:0:0:0:
64,192,76504,1,0,0:0:0:0:
192,192,76551,1,0,0:0:0:0:
320,192,76551,1,0,0:0:0:0:
192,192,76647,1,0,0:0:0:0:
320,192,76647,1,0,0:0:0:0:
64,192,76742,1,0,0:0:0:0:
192,192,76742,1,0,0:0:0:0:
320,192,76790,1,0,0:0:0:0:
448,192,76790,1,0,0:0:0:0:
64,192,76837,1,0,0:0:0:0:
192,192,76837,1,0,0:0:0:0:
320,192,76885,1,0,0:0:0:0:
448,192,76885,1,0,0:0:0:0:
64,192,76932,1,0,0:0:0:0:
192,192,76932,1,0,0:0:0:0:
320,192,76980,1,0,0:0:0:0:
448,192,77028,1,0,0:0:0:0:
64,192,77075,1,0,0:0:0:0:
192,192,77123,1,0,0:0:0:0:
320,192,77123,1,0,0:0:0:0:
192,192,77218,1,0,0:0:0:0:
320,192,77218,1,0,0:0:0:0:
64,192,77313,128,0,77361:0:0:0:0:
320,192,77313,128,0,77361:0:0:0:0:
448,192,77313,128,0,77361:0:0:0:0:
64,192,77504,1,0,0:0:0:0:
320,192,77504,1,0,0:0:0:0:
448,192,77504,1,0,0:0:0:0:
192,192,77551,1,0,0:0:0:0:
320,192,77599,1,0,0:0:0:0:
448,192,77599,1,0,0:0:0:0:
64,192,77647,1,0,0:0:0:0:
192,192,77647,1,0,0:0:0:0:
320,192,77694,1,0,0:0:0:0:
448,192,77694,1,0,0:0:0:0:
64,192,77885,128,0,77932:0:0:0:0:
192,192,77885,128,0,77932:0:0:0:0:
448,192,77885,128,0,77932:0:0:0:0:
64,192,78075,1,0,0:0:0:0:
192,192,78075,1,0,0:0:0:0:
448,192,78075,1,0,0:0:0:0:
320,192,78123,1,0,0:0:0:0:
64,192,78171,1,0,0:0:0:0:
192,192,78171,1,0,0:0:0:0:
320,192,78218,1,0,0:0:0:0:
448,192,78218,1,0,0:0:0:0:
64,192,78266,1,0,0:0:0:0:
192,192,78266,1,0,0:0:0:0:
64,192,78456,1,0,0:0:0:0:
320,192,78456,1,0,0:0:0:0:
448,192,78456,1,0,0:0:0:0:
64,192,78551,1,0,0:0:0:0:
192,192,78551,1,0,0:0:0:0:
448,192,78551,1,0,0:0:0:0:
192,192,78647,1,0,0:0:0:0:
320,192,78647,1,0,0:0:0:0:
64,192,78742,1,0,0:0:0:0:
448,192,78742,1,0,0:0:0:0:
320,192,78837,1,0,0:0:0:0:
448,192,78837,1,0,0:0:0:0:
192,192,78885,1,0,0:0:0:0:
64,192,78932,1,0,0:0:0:0:
320,192,78980,1,0,0:0:0:0:
192,192,79028,1,0,0:0:0:0:
320,192,79075,1,0,0:0:0:0:
448,192,79123,1,0,0:0:0:0:
192,192,79171,1,0,0:0:0:0:
64,192,79218,1,0,0:0:0:0:
320,192,79266,1,0,0:0:0:0:
448,192,79313,1,0,0:0:0:0:
192,192,79361,1,0,0:0:0:0:
320,192,79409,1,0,0:0:0:0:
192,192,79456,1,0,0:0:0:0:
64,192,79504,1,0,0:0:0:0:
448,192,79551,1,0,0:0:0:0:
192,192,79599,1,0,0:0:0:0:
320,192,79599,1,0,0:0:0:0:
192,192,79694,1,0,0:0:0:0:
320,192,79694,1,0,0:0:0:0:
64,192,79790,1,0,0:0:0:0:
320,192,79790,1,0,0:0:0:0:
448,192,79790,1,0,0:0:0:0:
64,192,79885,1,0,0:0:0:0:
192,192,79885,1,0,0:0:0:0:
448,192,79885,1,0,0:0:0:0:
192,192,79980,1,0,0:0:0:0:
320,192,79980,1,0,0:0:0:0:
64,192,80075,1,0,0:0:0:0:
320,192,80075,1,0,0:0:0:0:
448,192,80075,1,0,0:0:0:0:
64,192,80171,1,0,0:0:0:0:
192,192,80171,1,0,0:0:0:0:
448,192,80171,1,0,0:0:0:0:
320,192,80266,1,0,0:0:0:0:
448,192,80266,1,0,0:0:0:0:
64,192,80361,1,0,0:0:0:0:
192,192,80361,1,0,0:0:0:0:
64,192,80456,1,0,0:0:0:0:
320,192,80456,1,0,0:0:0:0:
448,192,80456,1,0,0:0:0:0:
192,192,80551,1,0,0:0:0:0:
448,192,80551,1,0,0:0:0:0:
320,192,80599,1,0,0:0:0:0:
64,192,80647,1,0,0:0:0:0:
192,192,80694,1,0,0:0:0:0:
320,192,80742,1,0,0:0:0:0:
448,192,80742,1,0,0:0:0:0:
64,192,80790,1,0,0:0:0:0:
192,192,80790,1,0,0:0:0:0:
320,192,80837,1,0,0:0:0:0:
448,192,80837,1,0,0:0:0:0:
64,192,80885,1,0,0:0:0:0:
192,192,80885,1,0,0:0:0:0:
320,192,80932,1,0,0:0:0:0:
448,192,80932,1,0,0:0:0:0:
64,192,80980,1,0,0:0:0:0:
192,192,80980,1,0,0:0:0:0:
320,192,81028,1,0,0:0:0:0:
448,192,81028,1,0,0:0:0:0:
64,192,81075,1,0,0:0:0:0:
192,192,81123,1,0,0:0:0:0:
320,192,81123,1,0,0:0:0:0:
448,192,81171,1,0,0:0:0:0:
64,192,81218,1,0,0:0:0:0:
192,192,81218,1,0,0:0:0:0:
320,192,81266,1,0,0:0:0:0:
64,192,81313,1,0,0:0:0:0:
448,192,81313,1,0,0:0:0:0:
192,192,81361,1,0,0:0:0:0:
320,192,81361,1,0,0:0:0:0:
64,192,81409,1,0,0:0:0:0:
448,192,81409,1,0,0:0:0:0:
192,192,81456,1,0,0:0:0:0:
320,192,81456,1,0,0:0:0:0:
64,192,81504,1,0,0:0:0:0:
448,192,81504,1,0,0:0:0:0:
192,192,81551,1,0,0:0:0:0:
320,192,81551,1,0,0:0:0:0:
64,192,81599,1,0,0:0:0:0:
448,192,81599,1,0,0:0:0:0:
192,192,81647,1,0,0:0:0:0:
320,192,81694,1,0,0:0:0:0:
448,192,81694,1,0,0:0:0:0:
64,192,81742,1,0,0:0:0:0:
192,192,81790,1,0,0:0:0:0:
320,192,81790,1,0,0:0:0:0:
448,192,81837,1,0,0:0:0:0:
64,192,81885,1,0,0:0:0:0:
320,192,81885,1,0,0:0:0:0:
64,192,81980,1,0,0:0:0:0:
192,192,81980,1,0,0:0:0:0:
192,192,82075,1,0,0:0:0:0:
320,192,82075,1,0,0:0:0:0:
448,192,82075,1,0,0:0:0:0:
64,192,82171,1,0,0:0:0:0:
320,192,82171,1,0,0:0:0:0:
448,192,82171,1,0,0:0:0:0:
192,192,82266,1,0,0:0:0:0:
448,192,82266,1,0,0:0:0:0:
64,192,82361,1,0,0:0:0:0:
192,192,82361,1,0,0:0:0:0:
320,192,82361,1,0,0:0:0:0:
64,192,82456,1,0,0:0:0:0:
320,192,82456,1,0,0:0:0:0:
448,192,82456,1,0,0:0:0:0:
192,192,82551,1,0,0:0:0:0:
448,192,82551,1,0,0:0:0:0:
64,192,82647,1,0,0:0:0:0:
320,192,82647,1,0,0:0:0:0:
64,192,82742,1,0,0:0:0:0:
192,192,82742,1,0,0:0:0:0:
448,192,82742,1,0,0:0:0:0:
192,192,82837,1,0,0:0:0:0:
64,192,82932,1,0,0:0:0:0:
448,192,82932,1,0,0:0:0:0:
320,192,83028,1,0,0:0:0:0:
448,192,83028,1,0,0:0:0:0:
64,192,83075,1,0,0:0:0:0:
192,192,83075,1,0,0:0:0:0:
320,192,83123,1,0,0:0:0:0:
448,192,83123,1,0,0:0:0:0:
64,192,83171,1,0,0:0:0:0:
192,192,83171,1,0,0:0:0:0:
320,192,83218,1,0,0:0:0:0:
448,192,83218,1,0,0:0:0:0:
192,192,83266,1,0,0:0:0:0:
64,192,83313,1,0,0:0:0:0:
320,192,83313,1,0,0:0:0:0:
448,192,83313,1,0,0:0:0:0:
192,192,83361,1,0,0:0:0:0:
448,192,83409,1,0,0:0:0:0:
320,192,83456,1,0,0:0:0:0:
64,192,83504,1,0,0:0:0:0:
192,192,83504,1,0,0:0:0:0:
64,192,83599,1,0,0:0:0:0:
320,192,83599,1,0,0:0:0:0:
448,192,83599,1,0,0:0:0:0:
192,192,83647,1,0,0:0:0:0:
64,192,83694,1,0,0:0:0:0:
320,192,83694,1,0,0:0:0:0:
448,192,83742,1,0,0:0:0:0:
192,192,83790,1,0,0:0:0:0:
320,192,83790,1,0,0:0:0:0:
64,192,83837,1,0,0:0:0:0:
192,192,83885,1,0,0:0:0:0:
448,192,83885,1,0,0:0:0:0:
320,192,83932,1,0,0:0:0:0:
64,192,83980,1,0,0:0:0:0:
448,192,83980,1,0,0:0:0:0:
320,192,84028,1,0,0:0:0:0:
64,192,84075,1,0,0:0:0:0:
192,192,84075,1,0,0:0:0:0:
448,192,84123,1,0,0:0:0:0:
64,192,84171,1,0,0:0:0:0:
192,192,84171,1,0,0:0:0:0:
320,192,84171,1,0,0:0:0:0:
448,192,84218,1,0,0:0:0:0:
320,192,84266,1,0,0:0:0:0:
64,192,84313,1,0,0:0:0:0:
192,192,84361,1,0,0:0:0:0:
448,192,84361,1,0,0:0:0:0:
320,192,84409,1,0,0:0:0:0:
64,192,84456,1,0,0:0:0:0:
448,192,84456,1,0,0:0:0:0:
192,192,84504,1,0,0:0:0:0:
320,192,84551,1,0,0:0:0:0:
448,192,84599,1,0,0:0:0:0:
64,192,84647,1,0,0:0:0:0:
192,192,84647,1,0,0:0:0:0:
320,192,84694,1,0,0:0:0:0:
64,192,84742,1,0,0:0:0:0:
192,192,84742,1,0,0:0:0:0:
448,192,84790,1,0,0:0:0:0:
64,192,84837,1,0,0:0:0:0:
320,192,84837,1,0,0:0:0:0:
192,192,84885,1,0,0:0:0:0:
448,192,84932,1,0,0:0:0:0:
64,192,84980,1,0,0:0:0:0:
192,192,85028,1,0,0:0:0:0:
448,192,85028,1,0,0:0:0:0:
320,192,85075,1,0,0:0:0:0:
64,192,85123,1,0,0:0:0:0:
448,192,85171,1,0,0:0:0:0:
192,192,85218,1,0,0:0:0:0:
320,192,85218,1,0,0:0:0:0:
64,192,85266,1,0,0:0:0:0:
320,192,85313,1,0,0:0:0:0:
448,192,85313,1,0,0:0:0:0:
64,192,85361,1,0,0:0:0:0:
192,192,85361,1,0,0:0:0:0:
320,192,85409,1,0,0:0:0:0:
448,192,85409,1,0,0:0:0:0:
64,192,85456,1,0,0:0:0:0:
192,192,85456,1,0,0:0:0:0:
320,192,85504,1,0,0:0:0:0:
448,192,85504,1,0,0:0:0:0:
64,192,85551,1,0,0:0:0:0:
192,192,85551,1,0,0:0:0:0:
320,192,85599,1,0,0:0:0:0:
448,192,85599,1,0,0:0:0:0:
64,192,85647,1,0,0:0:0:0:
192,192,85694,1,0,0:0:0:0:
448,192,85694,1,0,0:0:0:0:
320,192,85742,1,0,0:0:0:0:
192,192,85790,1,0,0:0:0:0:
448,192,85790,1,0,0:0:0:0:
320,192,85837,1,0,0:0:0:0:
64,192,85885,1,0,0:0:0:0:
192,192,85885,1,0,0:0:0:0:
320,192,85932,1,0,0:0:0:0:
448,192,85932,1,0,0:0:0:0:
64,192,85980,1,0,0:0:0:0:
192,192,85980,1,0,0:0:0:0:
320,192,86028,1,0,0:0:0:0:
448,192,86028,1,0,0:0:0:0:
64,192,86075,1,0,0:0:0:0:
192,192,86075,1,0,0:0:0:0:
320,192,86123,1,0,0:0:0:0:
64,192,86171,1,0,0:0:0:0:
192,192,86171,1,0,0:0:0:0:
448,192,86171,1,0,0:0:0:0:
320,192,86266,1,0,0:0:0:0:
448,192,86266,1,0,0:0:0:0:
64,192,86313,1,0,0:0:0:0:
192,192,86313,1,0,0:0:0:0:
320,192,86361,1,0,0:0:0:0:
448,192,86361,1,0,0:0:0:0:
64,192,86456,1,0,0:0:0:0:
192,192,86456,1,0,0:0:0:0:
320,192,86456,1,0,0:0:0:0:
448,192,86456,1,0,0:0:0:0:
64,192,86647,1,0,0:0:0:0:
192,192,86647,1,0,0:0:0:0:
320,192,86647,1,0,0:0:0:0:
448,192,86647,1,0,0:0:0:0:
64,192,86742,1,0,0:0:0:0:
192,192,86742,1,0,0:0:0:0:
448,192,86742,1,0,0:0:0:0:
64,192,86837,1,0,0:0:0:0:
192,192,86837,1,0,0:0:0:0:
320,192,86837,1,0,0:0:0:0:
448,192,86837,1,0,0:0:0:0:
64,192,87028,1,0,0:0:0:0:
192,192,87028,1,0,0:0:0:0:
320,192,87028,1,0,0:0:0:0:
448,192,87028,1,0,0:0:0:0:
64,192,87218,1,0,0:0:0:0:
192,192,87218,1,0,0:0:0:0:
320,192,87218,1,0,0:0:0:0:
448,192,87218,1,0,0:0:0:0:
64,192,87313,1,0,0:0:0:0:
320,192,87313,1,0,0:0:0:0:
448,192,87313,1,0,0:0:0:0:
64,192,87409,1,0,0:0:0:0:
192,192,87409,1,0,0:0:0:0:
320,192,87409,1,0,0:0:0:0:
448,192,87409,1,0,0:0:0:0:
64,192,87599,1,0,0:0:0:0:
448,192,87599,1,0,0:0:0:0:
192,192,87599,1,0,0:0:0:0:
448,192,87694,1,0,0:0:0:0:
192,192,87694,1,0,0:0:0:0:
448,192,87790,1,0,0:0:0:0:
192,192,87790,1,0,0:0:0:0:
64,192,87885,1,0,0:0:0:0:
448,192,87885,1,0,0:0:0:0:
320,192,87885,1,0,0:0:0:0:
64,192,87980,1,0,0:0:0:0:
320,192,87980,1,0,0:0:0:0:
64,192,88075,1,0,0:0:0:0:
448,192,88075,1,0,0:0:0:0:
320,192,88075,1,0,0:0:0:0:
64,192,88171,1,0,0:0:0:0:
192,192,88171,1,0,0:0:0:0:
448,192,88171,1,0,0:0:0:0:
192,192,88266,1,0,0:0:0:0:
320,192,88266,1,0,0:0:0:0:
448,192,88361,1,0,0:0:0:0:
64,192,88361,1,0,0:0:0:0:
320,192,88456,1,0,0:0:0:0:
448,192,88456,1,0,0:0:0:0:
192,192,88456,1,0,0:0:0:0:
192,192,88551,1,0,0:0:0:0:
64,192,88551,1,0,0:0:0:0:
64,192,88647,1,0,0:0:0:0:
320,192,88647,1,0,0:0:0:0:
64,192,88742,1,0,0:0:0:0:
192,192,88742,1,0,0:0:0:0:
320,192,88742,1,0,0:0:0:0:
448,192,88742,1,0,0:0:0:0:
192,192,88837,1,0,0:0:0:0:
448,192,88837,1,0,0:0:0:0:
64,192,88932,1,0,0:0:0:0:
320,192,88932,1,0,0:0:0:0:
64,192,89028,1,0,0:0:0:0:
192,192,89028,1,0,0:0:0:0:
320,192,89123,1,0,0:0:0:0:
448,192,89123,1,0,0:0:0:0:
192,192,89218,1,0,0:0:0:0:
320,192,89218,1,0,0:0:0:0:
64,192,89313,1,0,0:0:0:0:
192,192,89313,1,0,0:0:0:0:
448,192,89313,1,0,0:0:0:0:
64,192,89409,1,0,0:0:0:0:
192,192,89409,1,0,0:0:0:0:
64,192,89504,1,0,0:0:0:0:
192,192,89504,1,0,0:0:0:0:
320,192,89599,1,0,0:0:0:0:
448,192,89599,1,0,0:0:0:0:
64,192,89694,1,0,0:0:0:0:
448,192,89694,1,0,0:0:0:0:
64,192,89790,1,0,0:0:0:0:
320,192,89790,1,0,0:0:0:0:
192,192,89885,1,0,0:0:0:0:
320,192,89885,1,0,0:0:0:0:
448,192,89885,1,0,0:0:0:0:
64,192,89980,1,0,0:0:0:0:
448,192,89980,1,0,0:0:0:0:
192,192,90075,1,0,0:0:0:0:
320,192,90075,1,0,0:0:0:0:
64,192,90171,1,0,0:0:0:0:
320,192,90171,1,0,0:0:0:0:
192,192,90266,1,0,0:0:0:0:
448,192,90266,1,0,0:0:0:0:
320,192,90361,1,0,0:0:0:0:
448,192,90361,1,0,0:0:0:0:
64,192,90456,1,0,0:0:0:0:
192,192,90456,1,0,0:0:0:0:
320,192,90456,1,0,0:0:0:0:
192,192,90551,1,0,0:0:0:0:
448,192,90551,1,0,0:0:0:0:
64,192,90647,1,0,0:0:0:0:
320,192,90647,1,0,0:0:0:0:
320,192,90742,1,0,0:0:0:0:
448,192,90742,1,0,0:0:0:0:
64,192,90837,1,0,0:0:0:0:
192,192,90837,1,0,0:0:0:0:
64,192,90932,1,0,0:0:0:0:
448,192,90932,1,0,0:0:0:0:
192,192,91028,1,0,0:0:0:0:
320,192,91028,1,0,0:0:0:0:
448,192,91028,1,0,0:0:0:0:
192,192,91123,1,0,0:0:0:0:
320,192,91123,1,0,0:0:0:0:
64,192,91218,1,0,0:0:0:0:
192,192,91218,1,0,0:0:0:0:
448,192,91218,1,0,0:0:0:0:
320,192,91313,1,0,0:0:0:0:
448,192,91313,1,0,0:0:0:0:
64,192,91409,1,0,0:0:0:0:
192,192,91409,1,0,0:0:0:0:
320,192,91409,1,0,0:0:0:0:
64,192,91504,1,0,0:0:0:0:
448,192,91504,1,0,0:0:0:0:
192,192,91599,1,0,0:0:0:0:
320,192,91599,1,0,0:0:0:0:
448,192,91599,1,0,0:0:0:0:
64,192,91694,1,0,0:0:0:0:
320,192,91694,1,0,0:0:0:0:
192,192,91790,1,0,0:0:0:0:
448,192,91790,1,0,0:0:0:0:
320,192,91885,1,0,0:0:0:0:
448,192,91885,1,0,0:0:0:0:
64,192,91980,1,0,0:0:0:0:
192,192,91980,1,0,0:0:0:0:
320,192,92075,1,0,0:0:0:0:
448,192,92075,1,0,0:0:0:0:
64,192,92171,1,0,0:0:0:0:
320,192,92171,1,0,0:0:0:0:
448,192,92171,1,0,0:0:0:0:
64,192,92266,1,0,0:0:0:0:
192,192,92266,1,0,0:0:0:0:
320,192,92361,1,0,0:0:0:0:
448,192,92361,1,0,0:0:0:0:
64,192,92456,1,0,0:0:0:0:
320,192,92456,1,0,0:0:0:0:
192,192,92551,1,0,0:0:0:0:
448,192,92551,1,0,0:0:0:0:
192,192,92647,1,0,0:0:0:0:
320,192,92647,1,0,0:0:0:0:
64,192,92742,1,0,0:0:0:0:
320,192,92742,1,0,0:0:0:0:
448,192,92742,1,0,0:0:0:0:
64,192,92837,1,0,0:0:0:0:
192,192,92837,1,0,0:0:0:0:
320,192,92932,1,0,0:0:0:0:
448,192,92932,1,0,0:0:0:0:
64,192,93028,1,0,0:0:0:0:
448,192,93028,1,0,0:0:0:0:
192,192,93123,1,0,0:0:0:0:
320,192,93123,1,0,0:0:0:0:
192,192,93218,1,0,0:0:0:0:
320,192,93218,1,0,0:0:0:0:
64,192,93313,1,0,0:0:0:0:
192,192,93313,1,0,0:0:0:0:
448,192,93313,1,0,0:0:0:0:
320,192,93409,1,0,0:0:0:0:
448,192,93409,1,0,0:0:0:0:
64,192,93504,1,0,0:0:0:0:
192,192,93504,1,0,0:0:0:0:
64,192,93599,1,0,0:0:0:0:
448,192,93599,1,0,0:0:0:0:
192,192,93694,1,0,0:0:0:0:
320,192,93694,1,0,0:0:0:0:
64,192,93790,1,0,0:0:0:0:
320,192,93790,1,0,0:0:0:0:
192,192,93885,1,0,0:0:0:0:
448,192,93885,1,0,0:0:0:0:
64,192,93980,1,0,0:0:0:0:
320,192,93980,1,0,0:0:0:0:
448,192,93980,1,0,0:0:0:0:
64,192,94075,1,0,0:0:0:0:
192,192,94075,1,0,0:0:0:0:
320,192,94171,1,0,0:0:0:0:
448,192,94171,1,0,0:0:0:0:
64,192,94266,1,0,0:0:0:0:
320,192,94266,1,0,0:0:0:0:
192,192,94361,1,0,0:0:0:0:
448,192,94361,1,0,0:0:0:0:
64,192,94456,1,0,0:0:0:0:
192,192,94456,1,0,0:0:0:0:
320,192,94456,1,0,0:0:0:0:
320,192,94551,1,0,0:0:0:0:
448,192,94551,1,0,0:0:0:0:
64,192,94647,1,0,0:0:0:0:
192,192,94647,1,0,0:0:0:0:
192,192,94742,1,0,0:0:0:0:
448,192,94742,1,0,0:0:0:0:
64,192,94837,1,0,0:0:0:0:
320,192,94837,1,0,0:0:0:0:
192,192,94932,1,0,0:0:0:0:
320,192,94932,1,0,0:0:0:0:
64,192,95028,1,0,0:0:0:0:
192,192,95028,1,0,0:0:0:0:
448,192,95028,1,0,0:0:0:0:
320,192,95123,1,0,0:0:0:0:
448,192,95123,1,0,0:0:0:0:
64,192,95218,1,0,0:0:0:0:
192,192,95218,1,0,0:0:0:0:
192,192,95313,1,0,0:0:0:0:
448,192,95313,1,0,0:0:0:0:
64,192,95409,1,0,0:0:0:0:
320,192,95409,1,0,0:0:0:0:
192,192,95504,1,0,0:0:0:0:
320,192,95504,1,0,0:0:0:0:
64,192,95599,1,0,0:0:0:0:
448,192,95599,1,0,0:0:0:0:
64,192,95694,1,0,0:0:0:0:
320,192,95694,1,0,0:0:0:0:
192,192,95790,1,0,0:0:0:0:
320,192,95790,1,0,0:0:0:0:
448,192,95790,1,0,0:0:0:0:
64,192,95885,1,0,0:0:0:0:
448,192,95885,1,0,0:0:0:0:
64,192,95980,1,0,0:0:0:0:
192,192,95980,1,0,0:0:0:0:
320,192,95980,1,0,0:0:0:0:
192,192,96075,1,0,0:0:0:0:
448,192,96075,1,0,0:0:0:0:
64,192,96171,1,0,0:0:0:0:
320,192,96171,1,0,0:0:0:0:
448,192,96171,1,0,0:0:0:0:
192,192,96266,1,0,0:0:0:0:
320,192,96266,1,0,0:0:0:0:
64,192,96361,1,0,0:0:0:0:
448,192,96361,1,0,0:0:0:0:
64,192,96456,1,0,0:0:0:0:
192,192,96456,1,0,0:0:0:0:
320,192,96551,1,0,0:0:0:0:
448,192,96551,1,0,0:0:0:0:
64,192,96647,1,0,0:0:0:0:
320,192,96647,1,0,0:0:0:0:
64,192,96742,1,0,0:0:0:0:
320,192,96742,1,0,0:0:0:0:
192,192,96837,1,0,0:0:0:0:
448,192,96837,1,0,0:0:0:0:
64,192,96932,1,0,0:0:0:0:
320,192,96932,1,0,0:0:0:0:
448,192,96932,1,0,0:0:0:0:
192,192,96996,1,0,0:0:0:0:
448,192,97059,1,0,0:0:0:0:
64,192,97123,1,0,0:0:0:0:
192,192,97123,1,0,0:0:0:0:
320,192,97123,1,0,0:0:0:0:
448,192,97186,1,0,0:0:0:0:
64,192,97250,1,0,0:0:0:0:
192,192,97313,1,0,0:0:0:0:
320,192,97313,1,0,0:0:0:0:
448,192,97313,1,0,0:0:0:0:
64,192,97377,1,0,0:0:0:0:
320,192,97440,1,0,0:0:0:0:
64,192,97504,1,0,0:0:0:0:
192,192,97504,1,0,0:0:0:0:
448,192,97504,1,0,0:0:0:0:
320,192,97567,1,0,0:0:0:0:
192,192,97631,1,0,0:0:0:0:
64,192,97694,1,0,0:0:0:0:
320,192,97694,1,0,0:0:0:0:
448,192,97694,1,0,0:0:0:0:
64,192,97790,1,0,0:0:0:0:
320,192,97790,1,0,0:0:0:0:
448,192,97790,1,0,0:0:0:0:
64,192,97885,1,0,0:0:0:0:
320,192,97885,1,0,0:0:0:0:
448,192,97885,1,0,0:0:0:0:
192,192,97980,1,0,0:0:0:0:
448,192,97980,1,0,0:0:0:0:
64,192,98075,1,0,0:0:0:0:
192,192,98075,1,0,0:0:0:0:
320,192,98075,1,0,0:0:0:0:
320,192,98171,1,0,0:0:0:0:
448,192,98171,1,0,0:0:0:0:
64,192,98266,1,0,0:0:0:0:
192,192,98266,1,0,0:0:0:0:
64,192,98361,1,0,0:0:0:0:
448,192,98361,1,0,0:0:0:0:
192,192,98456,1,0,0:0:0:0:
320,192,98456,1,0,0:0:0:0:
64,192,98551,1,0,0:0:0:0:
320,192,98551,1,0,0:0:0:0:
192,192,98647,1,0,0:0:0:0:
448,192,98647,1,0,0:0:0:0:
320,192,98742,1,0,0:0:0:0:
448,192,98742,1,0,0:0:0:0:
64,192,98837,1,0,0:0:0:0:
192,192,98837,1,0,0:0:0:0:
320,192,98932,1,0,0:0:0:0:
448,192,98932,1,0,0:0:0:0:
64,192,99028,1,0,0:0:0:0:
320,192,99028,1,0,0:0:0:0:
448,192,99028,1,0,0:0:0:0:
64,192,99123,1,0,0:0:0:0:
192,192,99123,1,0,0:0:0:0:
320,192,99218,1,0,0:0:0:0:
448,192,99218,1,0,0:0:0:0:
64,192,99313,1,0,0:0:0:0:
320,192,99313,1,0,0:0:0:0:
192,192,99409,1,0,0:0:0:0:
448,192,99409,1,0,0:0:0:0:
192,192,99504,1,0,0:0:0:0:
320,192,99504,1,0,0:0:0:0:
64,192,99599,1,0,0:0:0:0:
320,192,99599,1,0,0:0:0:0:
448,192,99599,1,0,0:0:0:0:
64,192,99694,1,0,0:0:0:0:
192,192,99694,1,0,0:0:0:0:
320,192,99790,1,0,0:0:0:0:
448,192,99790,1,0,0:0:0:0:
64,192,99885,1,0,0:0:0:0:
192,192,99885,1,0,0:0:0:0:
448,192,99885,1,0,0:0:0:0:
192,192,99980,1,0,0:0:0:0:
320,192,99980,1,0,0:0:0:0:
64,192,100075,1,0,0:0:0:0:
448,192,100075,1,0,0:0:0:0:
192,192,100171,1,0,0:0:0:0:
320,192,100171,1,0,0:0:0:0:
448,192,100171,1,0,0:0:0:0:
64,192,100266,1,0,0:0:0:0:
320,192,100266,1,0,0:0:0:0:
64,192,100361,1,0,0:0:0:0:
192,192,100361,1,0,0:0:0:0:
448,192,100361,1,0,0:0:0:0:
320,192,100456,1,0,0:0:0:0:
448,192,100456,1,0,0:0:0:0:
64,192,100551,1,0,0:0:0:0:
192,192,100551,1,0,0:0:0:0:
320,192,100551,1,0,0:0:0:0:
64,192,100647,1,0,0:0:0:0:
448,192,100647,1,0,0:0:0:0:
192,192,100742,1,0,0:0:0:0:
320,192,100742,1,0,0:0:0:0:
192,192,100837,1,0,0:0:0:0:
448,192,100837,1,0,0:0:0:0:
64,192,100932,1,0,0:0:0:0:
320,192,100932,1,0,0:0:0:0:
64,192,101028,1,0,0:0:0:0:
192,192,101028,1,0,0:0:0:0:
320,192,101123,1,0,0:0:0:0:
448,192,101123,1,0,0:0:0:0:
64,192,101218,1,0,0:0:0:0:
192,192,101218,1,0,0:0:0:0:
64,192,101313,1,0,0:0:0:0:
192,192,101313,1,0,0:0:0:0:
448,192,101313,1,0,0:0:0:0:
320,192,101409,1,0,0:0:0:0:
448,192,101409,1,0,0:0:0:0:
64,192,101504,1,0,0:0:0:0:
320,192,101504,1,0,0:0:0:0:
64,192,101599,1,0,0:0:0:0:
192,192,101599,1,0,0:0:0:0:
192,192,101694,1,0,0:0:0:0:
448,192,101694,1,0,0:0:0:0:
64,192,101790,1,0,0:0:0:0:
320,192,101790,1,0,0:0:0:0:
448,192,101790,1,0,0:0:0:0:
64,192,101885,1,0,0:0:0:0:
192,192,101885,1,0,0:0:0:0:
320,192,101980,1,0,0:0:0:0:
448,192,101980,1,0,0:0:0:0:
64,192,102075,1,0,0:0:0:0:
320,192,102075,1,0,0:0:0:0:
64,192,102171,1,0,0:0:0:0:
192,192,102171,1,0,0:0:0:0:
448,192,102171,1,0,0:0:0:0:
192,192,102266,1,0,0:0:0:0:
320,192,102266,1,0,0:0:0:0:
64,192,102361,1,0,0:0:0:0:
448,192,102361,1,0,0:0:0:0:
320,192,102456,1,0,0:0:0:0:
448,192,102456,1,0,0:0:0:0:
64,192,102551,1,0,0:0:0:0:
192,192,102551,1,0,0:0:0:0:
192,192,102647,1,0,0:0:0:0:
320,192,102647,1,0,0:0:0:0:
448,192,102647,1,0,0:0:0:0:
64,192,102742,1,0,0:0:0:0:
320,192,102742,1,0,0:0:0:0:
192,192,102837,1,0,0:0:0:0:
448,192,102837,1,0,0:0:0:0:
320,192,102932,1,0,0:0:0:0:
448,192,102932,1,0,0:0:0:0:
64,192,103028,1,0,0:0:0:0:
192,192,103028,1,0,0:0:0:0:
320,192,103028,1,0,0:0:0:0:
64,192,103123,1,0,0:0:0:0:
448,192,103123,1,0,0:0:0:0:
192,192,103218,1,0,0:0:0:0:
320,192,103218,1,0,0:0:0:0:
64,192,103313,1,0,0:0:0:0:
320,192,103313,1,0,0:0:0:0:
64,192,103409,1,0,0:0:0:0:
192,192,103409,1,0,0:0:0:0:
320,192,103504,1,0,0:0:0:0:
448,192,103504,1,0,0:0:0:0:
64,192,103599,1,0,0:0:0:0:
320,192,103599,1,0,0:0:0:0:
448,192,103599,1,0,0:0:0:0:
64,192,103694,1,0,0:0:0:0:
192,192,103694,1,0,0:0:0:0:
320,192,103790,1,0,0:0:0:0:
448,192,103790,1,0,0:0:0:0:
64,192,103885,1,0,0:0:0:0:
448,192,103885,1,0,0:0:0:0:
192,192,103980,1,0,0:0:0:0:
320,192,103980,1,0,0:0:0:0:
192,192,104075,1,0,0:0:0:0:
448,192,104075,1,0,0:0:0:0:
64,192,104171,1,0,0:0:0:0:
320,192,104171,1,0,0:0:0:0:
192,192,104266,1,0,0:0:0:0:
320,192,104266,1,0,0:0:0:0:
448,192,104266,1,0,0:0:0:0:
64,192,104361,1,0,0:0:0:0:
192,192,104361,1,0,0:0:0:0:
320,192,104456,1,0,0:0:0:0:
448,192,104456,1,0,0:0:0:0:
192,192,104551,1,0,0:0:0:0:
448,192,104551,1,0,0:0:0:0:
64,192,104647,1,0,0:0:0:0:
320,192,104647,1,0,0:0:0:0:
64,192,104742,1,0,0:0:0:0:
192,192,104742,1,0,0:0:0:0:
320,192,104742,1,0,0:0:0:0:
192,192,104837,1,0,0:0:0:0:
448,192,104837,1,0,0:0:0:0:
64,192,104932,1,0,0:0:0:0:
320,192,104932,1,0,0:0:0:0:
448,192,104932,1,0,0:0:0:0:
192,192,105028,1,0,0:0:0:0:
448,192,105028,1,0,0:0:0:0:
64,192,105123,1,0,0:0:0:0:
192,192,105123,1,0,0:0:0:0:
320,192,105123,1,0,0:0:0:0:
320,192,105218,1,0,0:0:0:0:
448,192,105218,1,0,0:0:0:0:
64,192,105313,1,0,0:0:0:0:
192,192,105313,1,0,0:0:0:0:
448,192,105313,1,0,0:0:0:0:
64,192,105409,1,0,0:0:0:0:
320,192,105409,1,0,0:0:0:0:
192,192,105504,1,0,0:0:0:0:
320,192,105504,1,0,0:0:0:0:
448,192,105504,1,0,0:0:0:0:
64,192,105599,1,0,0:0:0:0:
448,192,105599,1,0,0:0:0:0:
64,192,105694,1,0,0:0:0:0:
192,192,105694,1,0,0:0:0:0:
320,192,105694,1,0,0:0:0:0:
320,192,105790,1,0,0:0:0:0:
448,192,105790,1,0,0:0:0:0:
64,192,105885,1,0,0:0:0:0:
192,192,105885,1,0,0:0:0:0:
448,192,105885,1,0,0:0:0:0:
192,192,105980,1,0,0:0:0:0:
320,192,105980,1,0,0:0:0:0:
64,192,106075,1,0,0:0:0:0:
320,192,106075,1,0,0:0:0:0:
448,192,106075,1,0,0:0:0:0:
64,192,106171,1,0,0:0:0:0:
320,192,106171,1,0,0:0:0:0:
448,192,106171,1,0,0:0:0:0:
64,192,106266,1,0,0:0:0:0:
320,192,106266,1,0,0:0:0:0:
448,192,106266,1,0,0:0:0:0:
320,192,106361,1,0,0:0:0:0:
64,192,106456,1,0,0:0:0:0:
192,192,106456,1,0,0:0:0:0:
448,192,106456,1,0,0:0:0:0:
64,192,106551,1,0,0:0:0:0:
192,192,106551,1,0,0:0:0:0:
448,192,106551,1,0,0:0:0:0:
64,192,106647,1,0,0:0:0:0:
192,192,106647,1,0,0:0:0:0:
448,192,106647,1,0,0:0:0:0:
64,192,106742,1,0,0:0:0:0:
192,192,106837,1,0,0:0:0:0:
320,192,106837,1,0,0:0:0:0:
448,192,106837,1,0,0:0:0:0:
192,192,106932,1,0,0:0:0:0:
320,192,106932,1,0,0:0:0:0:
448,192,106932,1,0,0:0:0:0:
64,192,107028,1,0,0:0:0:0:
192,192,107028,1,0,0:0:0:0:
448,192,107028,1,0,0:0:0:0:
64,192,107123,1,0,0:0:0:0:
192,192,107123,1,0,0:0:0:0:
64,192,107218,1,0,0:0:0:0:
192,192,107218,1,0,0:0:0:0:
320,192,107313,1,0,0:0:0:0:
448,192,107313,1,0,0:0:0:0:
320,192,107409,1,0,0:0:0:0:
448,192,107409,1,0,0:0:0:0:
192,192,107504,1,0,0:0:0:0:
64,192,107599,1,0,0:0:0:0:
320,192,107599,1,0,0:0:0:0:
64,192,107694,1,0,0:0:0:0:
320,192,107694,1,0,0:0:0:0:
64,192,107790,1,0,0:0:0:0:
320,192,107790,1,0,0:0:0:0:
448,192,107885,1,0,0:0:0:0:
64,192,107980,1,0,0:0:0:0:
192,192,107980,1,0,0:0:0:0:
64,192,108075,1,0,0:0:0:0:
192,192,108075,1,0,0:0:0:0:
64,192,108171,1,0,0:0:0:0:
320,192,108171,1,0,0:0:0:0:
448,192,108171,1,0,0:0:0:0:
320,192,108266,1,0,0:0:0:0:
448,192,108266,1,0,0:0:0:0:
320,192,108361,1,0,0:0:0:0:
448,192,108361,1,0,0:0:0:0:
192,192,108456,1,0,0:0:0:0:
448,192,108456,1,0,0:0:0:0:
64,192,108551,1,0,0:0:0:0:
320,192,108551,1,0,0:0:0:0:
64,192,108647,1,0,0:0:0:0:
192,192,108647,1,0,0:0:0:0:
64,192,108742,1,0,0:0:0:0:
320,192,108742,1,0,0:0:0:0:
448,192,108742,1,0,0:0:0:0:
320,192,108837,1,0,0:0:0:0:
448,192,108837,1,0,0:0:0:0:
320,192,108932,1,0,0:0:0:0:
448,192,108932,1,0,0:0:0:0:
192,192,109028,1,0,0:0:0:0:
448,192,109028,1,0,0:0:0:0:
64,192,109123,1,0,0:0:0:0:
320,192,109123,1,0,0:0:0:0:
64,192,109218,1,0,0:0:0:0:
192,192,109218,1,0,0:0:0:0:
64,192,109313,1,0,0:0:0:0:
192,192,109313,1,0,0:0:0:0:
448,192,109313,1,0,0:0:0:0:
320,192,109409,1,0,0:0:0:0:
192,192,109504,1,0,0:0:0:0:
448,192,109504,1,0,0:0:0:0:
192,192,109599,1,0,0:0:0:0:
448,192,109599,1,0,0:0:0:0:
192,192,109694,1,0,0:0:0:0:
448,192,109694,1,0,0:0:0:0:
320,192,109790,1,0,0:0:0:0:
64,192,109885,1,0,0:0:0:0:
192,192,109885,1,0,0:0:0:0:
64,192,109980,1,0,0:0:0:0:
192,192,109980,1,0,0:0:0:0:
64,192,110075,1,0,0:0:0:0:
192,192,110075,1,0,0:0:0:0:
448,192,110171,1,0,0:0:0:0:
320,192,110266,1,0,0:0:0:0:
192,192,110313,1,0,0:0:0:0:
320,192,110361,1,0,0:0:0:0:
192,192,110409,1,0,0:0:0:0:
320,192,110456,1,0,0:0:0:0:
448,192,110456,1,0,0:0:0:0:
192,192,110551,1,0,0:0:0:0:
320,192,110647,1,0,0:0:0:0:
448,192,110647,1,0,0:0:0:0:
320,192,110742,1,0,0:0:0:0:
448,192,110742,1,0,0:0:0:0:
192,192,110837,1,0,0:0:0:0:
320,192,110837,1,0,0:0:0:0:
64,192,110932,1,0,0:0:0:0:
192,192,110932,1,0,0:0:0:0:
64,192,111028,1,0,0:0:0:0:
320,192,111028,1,0,0:0:0:0:
448,192,111028,1,0,0:0:0:0:
192,192,111123,1,0,0:0:0:0:
320,192,111218,1,0,0:0:0:0:
448,192,111218,1,0,0:0:0:0:
320,192,111313,1,0,0:0:0:0:
448,192,111313,1,0,0:0:0:0:
192,192,111409,1,0,0:0:0:0:
320,192,111409,1,0,0:0:0:0:
64,192,111504,1,0,0:0:0:0:
192,192,111504,1,0,0:0:0:0:
64,192,111599,1,0,0:0:0:0:
320,192,111599,1,0,0:0:0:0:
448,192,111599,1,0,0:0:0:0:
192,192,111647,1,0,0:0:0:0:
320,192,111694,1,0,0:0:0:0:
64,192,111742,1,0,0:0:0:0:
192,192,111790,1,0,0:0:0:0:
448,192,111790,1,0,0:0:0:0:
320,192,111837,1,0,0:0:0:0:
64,192,111885,1,0,0:0:0:0:
192,192,111885,1,0,0:0:0:0:
448,192,111932,1,0,0:0:0:0:
64,192,111980,1,0,0:0:0:0:
320,192,111980,1,0,0:0:0:0:
192,192,112028,1,0,0:0:0:0:
448,192,112075,1,0,0:0:0:0:
64,192,112123,1,0,0:0:0:0:
192,192,112171,1,0,0:0:0:0:
320,192,112171,1,0,0:0:0:0:
448,192,112218,1,0,0:0:0:0:
192,192,112266,1,0,0:0:0:0:
320,192,112266,1,0,0:0:0:0:
64,192,112313,1,0,0:0:0:0:
192,192,112361,1,0,0:0:0:0:
320,192,112361,1,0,0:0:0:0:
448,192,112409,1,0,0:0:0:0:
64,192,112456,1,0,0:0:0:0:
192,192,112504,1,0,0:0:0:0:
320,192,112551,1,0,0:0:0:0:
448,192,112551,1,0,0:0:0:0:
64,192,112599,1,0,0:0:0:0:
192,192,112647,1,0,0:0:0:0:
320,192,112647,1,0,0:0:0:0:
448,192,112694,1,0,0:0:0:0:
64,192,112742,1,0,0:0:0:0:
192,192,112742,1,0,0:0:0:0:
320,192,112790,1,0,0:0:0:0:
192,192,112837,1,0,0:0:0:0:
320,192,112885,1,0,0:0:0:0:
192,192,112932,1,0,0:0:0:0:
448,192,112980,1,0,0:0:0:0:
320,192,113028,1,0,0:0:0:0:
192,192,113075,1,0,0:0:0:0:
64,192,113123,1,0,0:0:0:0:
448,192,113123,1,0,0:0:0:0:
320,192,113171,1,0,0:0:0:0:
192,192,113218,1,0,0:0:0:0:
320,192,113266,1,0,0:0:0:0:
64,192,113313,1,0,0:0:0:0:
192,192,113313,1,0,0:0:0:0:
448,192,113313,1,0,0:0:0:0:
320,192,113361,1,0,0:0:0:0:
448,192,113409,1,0,0:0:0:0:
64,192,113456,1,0,0:0:0:0:
192,192,113504,1,0,0:0:0:0:
320,192,113551,1,0,0:0:0:0:
64,192,113599,1,0,0:0:0:0:
192,192,113647,1,0,0:0:0:0:
320,192,113694,1,0,0:0:0:0:
448,192,113694,1,0,0:0:0:0:
192,192,113742,1,0,0:0:0:0:
320,192,113790,1,0,0:0:0:0:
448,192,113790,1,0,0:0:0:0:
64,192,113837,1,0,0:0:0:0:
192,192,113885,1,0,0:0:0:0:
320,192,113885,1,0,0:0:0:0:
448,192,113885,1,0,0:0:0:0:
64,192,113932,1,0,0:0:0:0:
192,192,113980,1,0,0:0:0:0:
320,192,114028,1,0,0:0:0:0:
64,192,114075,1,0,0:0:0:0:
192,192,114075,1,0,0:0:0:0:
320,192,114123,1,0,0:0:0:0:
64,192,114171,1,0,0:0:0:0:
192,192,114171,1,0,0:0:0:0:
448,192,114218,1,0,0:0:0:0:
64,192,114266,1,0,0:0:0:0:
192,192,114266,1,0,0:0:0:0:
320,192,114266,1,0,0:0:0:0:
448,192,114313,1,0,0:0:0:0:
320,192,114361,1,0,0:0:0:0:
192,192,114409,1,0,0:0:0:0:
320,192,114456,1,0,0:0:0:0:
448,192,114456,1,0,0:0:0:0:
192,192,114504,1,0,0:0:0:0:
320,192,114551,1,0,0:0:0:0:
448,192,114551,1,0,0:0:0:0:
64,192,114599,1,0,0:0:0:0:
192,192,114647,1,0,0:0:0:0:
320,192,114647,1,0,0:0:0:0:
448,192,114647,1,0,0:0:0:0:
64,192,114694,1,0,0:0:0:0:
192,192,114742,1,0,0:0:0:0:
320,192,114790,1,0,0:0:0:0:
64,192,114837,1,0,0:0:0:0:
192,192,114837,1,0,0:0:0:0:
320,192,114885,1,0,0:0:0:0:
64,192,114932,1,0,0:0:0:0:
192,192,114932,1,0,0:0:0:0:
448,192,114980,1,0,0:0:0:0:
64,192,115028,1,0,0:0:0:0:
192,192,115028,1,0,0:0:0:0:
320,192,115028,1,0,0:0:0:0:
448,192,115123,1,0,0:0:0:0:
64,192,115218,1,0,0:0:0:0:
320,192,115218,1,0,0:0:0:0:
192,192,115313,1,0,0:0:0:0:
64,192,115409,1,0,0:0:0:0:
192,192,115409,1,0,0:0:0:0:
448,192,115409,1,0,0:0:0:0:
320,192,115504,1,0,0:0:0:0:
64,192,115599,1,0,0:0:0:0:
320,192,115635,1,0,0:0:0:0:
448,192,115671,1,0,0:0:0:0:
64,192,115710,1,0,0:0:0:0:
192,192,115754,1,0,0:0:0:0:
320,192,115790,1,0,0:0:0:0:
448,192,115790,1,0,0:0:0:0:
192,192,115885,1,0,0:0:0:0:
448,192,115980,1,0,0:0:0:0:
320,192,116016,1,0,0:0:0:0:
64,192,116059,1,0,0:0:0:0:
192,192,116091,1,0,0:0:0:0:
320,192,116123,1,0,0:0:0:0:
64,192,116171,1,0,0:0:0:0:
192,192,116171,1,0,0:0:0:0:
448,192,116218,1,0,0:0:0:0:
320,192,116266,1,0,0:0:0:0:
64,192,116313,1,0,0:0:0:0:
192,192,116361,1,0,0:0:0:0:
320,192,116397,1,0,0:0:0:0:
64,192,116440,1,0,0:0:0:0:
448,192,116472,1,0,0:0:0:0:
320,192,116516,1,0,0:0:0:0:
192,192,116551,1,0,0:0:0:0:
320,192,116647,1,0,0:0:0:0:
448,192,116647,1,0,0:0:0:0:
192,192,116682,1,0,0:0:0:0:
64,192,116726,1,0,0:0:0:0:
320,192,116766,1,0,0:0:0:0:
192,192,116805,1,0,0:0:0:0:
448,192,116849,1,0,0:0:0:0:
320,192,116885,1,0,0:0:0:0:
64,192,116917,1,0,0:0:0:0:
192,192,116932,1,0,0:0:0:0:
192,192,117028,1,0,0:0:0:0:
320,192,117123,1,0,0:0:0:0:
448,192,117123,1,0,0:0:0:0:
320,192,117218,1,0,0:0:0:0:
448,192,117218,1,0,0:0:0:0:
64,192,117313,1,0,0:0:0:0:
192,192,117313,1,0,0:0:0:0:
448,192,117313,1,0,0:0:0:0:
320,192,117409,1,0,0:0:0:0:
64,192,117504,1,0,0:0:0:0:
192,192,117504,1,0,0:0:0:0:
64,192,117599,1,0,0:0:0:0:
192,192,117599,1,0,0:0:0:0:
64,192,117694,1,0,0:0:0:0:
320,192,117694,1,0,0:0:0:0:
448,192,117694,1,0,0:0:0:0:
192,192,117790,1,0,0:0:0:0:
320,192,117825,1,0,0:0:0:0:
64,192,117869,1,0,0:0:0:0:
448,192,117901,1,0,0:0:0:0:
320,192,117944,1,0,0:0:0:0:
192,192,117980,1,0,0:0:0:0:
64,192,118016,1,0,0:0:0:0:
320,192,118059,1,0,0:0:0:0:
448,192,118075,1,0,0:0:0:0:
64,192,118171,1,0,0:0:0:0:
192,192,118171,1,0,0:0:0:0:
320,192,118206,1,0,0:0:0:0:
448,192,118242,1,0,0:0:0:0:
64,192,118278,1,0,0:0:0:0:
192,192,118313,1,0,0:0:0:0:
320,192,118345,1,0,0:0:0:0:
448,192,118377,1,0,0:0:0:0:
64,192,118409,1,0,0:0:0:0:
320,192,118456,1,0,0:0:0:0:
448,192,118456,1,0,0:0:0:0:
64,192,118551,1,0,0:0:0:0:
192,192,118647,1,0,0:0:0:0:
320,192,118647,1,0,0:0:0:0:
192,192,118742,1,0,0:0:0:0:
320,192,118742,1,0,0:0:0:0:
192,192,118837,1,0,0:0:0:0:
320,192,118837,1,0,0:0:0:0:
448,192,118932,1,0,0:0:0:0:
64,192,119028,1,0,0:0:0:0:
320,192,119028,1,0,0:0:0:0:
64,192,119123,1,0,0:0:0:0:
320,192,119123,1,0,0:0:0:0:
192,192,119171,1,0,0:0:0:0:
448,192,119218,1,0,0:0:0:0:
64,192,119266,1,0,0:0:0:0:
192,192,119301,1,0,0:0:0:0:
320,192,119345,1,0,0:0:0:0:
64,192,119377,1,0,0:0:0:0:
192,192,119409,1,0,0:0:0:0:
448,192,119440,1,0,0:0:0:0:
320,192,119472,1,0,0:0:0:0:
192,192,119504,1,0,0:0:0:0:
448,192,119536,1,0,0:0:0:0:
64,192,119567,1,0,0:0:0:0:
320,192,119599,1,0,0:0:0:0:
64,192,119694,1,0,0:0:0:0:
192,192,119694,1,0,0:0:0:0:
448,192,119694,1,0,0:0:0:0:
320,192,119742,1,0,0:0:0:0:
192,192,119790,1,0,0:0:0:0:
448,192,119825,1,0,0:0:0:0:
64,192,119869,1,0,0:0:0:0:
448,192,119901,1,0,0:0:0:0:
320,192,119932,1,0,0:0:0:0:
64,192,119980,1,0,0:0:0:0:
192,192,119980,1,0,0:0:0:0:
448,192,120075,1,0,0:0:0:0:
64,192,120171,1,0,0:0:0:0:
320,192,120171,1,0,0:0:0:0:
64,192,120266,1,0,0:0:0:0:
320,192,120266,1,0,0:0:0:0:
192,192,120361,1,0,0:0:0:0:
448,192,120361,1,0,0:0:0:0:
320,192,120409,1,0,0:0:0:0:
192,192,120456,1,0,0:0:0:0:
448,192,120504,1,0,0:0:0:0:
320,192,120540,1,0,0:0:0:0:
192,192,120575,1,0,0:0:0:0:
448,192,120611,1,0,0:0:0:0:
64,192,120647,1,0,0:0:0:0:
320,192,120682,1,0,0:0:0:0:
448,192,120718,1,0,0:0:0:0:
192,192,120742,1,0,0:0:0:0:
320,192,120805,1,0,0:0:0:0:
192,192,120861,1,0,0:0:0:0:
448,192,120901,1,0,0:0:0:0:
64,192,120944,1,0,0:0:0:0:
320,192,120968,1,0,0:0:0:0:
192,192,121004,1,0,0:0:0:0:
448,192,121040,1,0,0:0:0:0:
64,192,121075,1,0,0:0:0:0:
320,192,121123,1,0,0:0:0:0:
192,192,121159,1,0,0:0:0:0:
448,192,121186,1,0,0:0:0:0:
320,192,121218,1,0,0:0:0:0:
192,192,121254,1,0,0:0:0:0:
64,192,121297,1,0,0:0:0:0:
448,192,121329,1,0,0:0:0:0:
320,192,121373,1,0,0:0:0:0:
64,192,121409,1,0,0:0:0:0:
192,192,121456,1,0,0:0:0:0:
64,192,121504,1,0,0:0:0:0:
320,192,121504,1,0,0:0:0:0:
448,192,121504,1,0,0:0:0:0:
320,192,121599,1,0,0:0:0:0:
64,192,121694,1,0,0:0:0:0:
192,192,121694,1,0,0:0:0:0:
448,192,121694,1,0,0:0:0:0:
64,192,121790,1,0,0:0:0:0:
192,192,121790,1,0,0:0:0:0:
64,192,121885,1,0,0:0:0:0:
192,192,121885,1,0,0:0:0:0:
320,192,121885,1,0,0:0:0:0:
320,192,121980,1,0,0:0:0:0:
192,192,122075,1,0,0:0:0:0:
320,192,122075,1,0,0:0:0:0:
448,192,122075,1,0,0:0:0:0:
192,192,122171,1,0,0:0:0:0:
448,192,122171,1,0,0:0:0:0:
64,192,122266,1,0,0:0:0:0:
192,192,122266,1,0,0:0:0:0:
448,192,122266,1,0,0:0:0:0:
64,192,122361,1,0,0:0:0:0:
320,192,122361,1,0,0:0:0:0:
192,192,122409,1,0,0:0:0:0:
320,192,122456,1,0,0:0:0:0:
448,192,122456,1,0,0:0:0:0:
64,192,122504,1,0,0:0:0:0:
192,192,122551,1,0,0:0:0:0:
320,192,122551,1,0,0:0:0:0:
448,192,122599,1,0,0:0:0:0:
64,192,122647,1,0,0:0:0:0:
192,192,122647,1,0,0:0:0:0:
320,192,122647,1,0,0:0:0:0:
64,192,122742,1,0,0:0:0:0:
192,192,122837,1,0,0:0:0:0:
320,192,122837,1,0,0:0:0:0:
448,192,122837,1,0,0:0:0:0:
320,192,122932,1,0,0:0:0:0:
448,192,122932,1,0,0:0:0:0:
64,192,123028,1,0,0:0:0:0:
320,192,123028,1,0,0:0:0:0:
448,192,123028,1,0,0:0:0:0:
64,192,123123,1,0,0:0:0:0:
192,192,123218,1,0,0:0:0:0:
320,192,123218,1,0,0:0:0:0:
448,192,123218,1,0,0:0:0:0:
192,192,123313,1,0,0:0:0:0:
320,192,123313,1,0,0:0:0:0:
64,192,123409,1,0,0:0:0:0:
192,192,123409,1,0,0:0:0:0:
320,192,123409,1,0,0:0:0:0:
64,192,123504,1,0,0:0:0:0:
448,192,123504,1,0,0:0:0:0:
320,192,123599,1,0,0:0:0:0:
448,192,123599,1,0,0:0:0:0:
192,192,123647,1,0,0:0:0:0:
320,192,123694,1,0,0:0:0:0:
448,192,123694,1,0,0:0:0:0:
192,192,123742,1,0,0:0:0:0:
64,192,123790,1,0,0:0:0:0:
448,192,123790,1,0,0:0:0:0:
320,192,123885,1,0,0:0:0:0:
64,192,123980,1,0,0:0:0:0:
192,192,123980,1,0,0:0:0:0:
448,192,123980,1,0,0:0:0:0:
64,192,124075,1,0,0:0:0:0:
192,192,124075,1,0,0:0:0:0:
64,192,124171,1,0,0:0:0:0:
192,192,124171,1,0,0:0:0:0:
320,192,124171,1,0,0:0:0:0:
320,192,124266,1,0,0:0:0:0:
64,192,124361,1,0,0:0:0:0:
192,192,124361,1,0,0:0:0:0:
448,192,124361,1,0,0:0:0:0:
192,192,124456,1,0,0:0:0:0:
448,192,124456,1,0,0:0:0:0:
192,192,124551,1,0,0:0:0:0:
320,192,124551,1,0,0:0:0:0:
448,192,124551,1,0,0:0:0:0:
64,192,124647,1,0,0:0:0:0:
320,192,124647,1,0,0:0:0:0:
192,192,124694,1,0,0:0:0:0:
320,192,124742,1,0,0:0:0:0:
448,192,124742,1,0,0:0:0:0:
192,192,124790,1,0,0:0:0:0:
64,192,124837,1,0,0:0:0:0:
448,192,124837,1,0,0:0:0:0:
192,192,124885,1,0,0:0:0:0:
320,192,124932,1,0,0:0:0:0:
448,192,124932,1,0,0:0:0:0:
64,192,125028,1,0,0:0:0:0:
192,192,125123,1,0,0:0:0:0:
320,192,125123,1,0,0:0:0:0:
448,192,125123,1,0,0:0:0:0:
320,192,125218,1,0,0:0:0:0:
448,192,125218,1,0,0:0:0:0:
64,192,125313,1,0,0:0:0:0:
320,192,125313,1,0,0:0:0:0:
448,192,125313,1,0,0:0:0:0:
192,192,125361,1,0,0:0:0:0:
320,192,125409,1,0,0:0:0:0:
64,192,125456,1,0,0:0:0:0:
192,192,125504,1,0,0:0:0:0:
448,192,125504,1,0,0:0:0:0:
320,192,125540,1,0,0:0:0:0:
64,192,125583,1,0,0:0:0:0:
192,192,125615,1,0,0:0:0:0:
448,192,125647,1,0,0:0:0:0:
64,192,125694,1,0,0:0:0:0:
320,192,125694,1,0,0:0:0:0:
192,192,125742,1,0,0:0:0:0:
320,192,125790,1,0,0:0:0:0:
448,192,125837,1,0,0:0:0:0:
64,192,125885,1,0,0:0:0:0:
192,192,125885,1,0,0:0:0:0:
320,192,125921,1,0,0:0:0:0:
192,192,125956,1,0,0:0:0:0:
448,192,126004,1,0,0:0:0:0:
192,192,126040,1,0,0:0:0:0:
64,192,126075,1,0,0:0:0:0:
320,192,126075,1,0,0:0:0:0:
64,192,126171,1,0,0:0:0:0:
192,192,126266,1,0,0:0:0:0:
320,192,126266,1,0,0:0:0:0:
448,192,126266,1,0,0:0:0:0:
192,192,126361,1,0,0:0:0:0:
448,192,126361,1,0,0:0:0:0:
64,192,126456,1,0,0:0:0:0:
192,192,126456,1,0,0:0:0:0:
448,192,126456,1,0,0:0:0:0:
320,192,126551,1,0,0:0:0:0:
64,192,126647,1,0,0:0:0:0:
192,192,126647,1,0,0:0:0:0:
448,192,126647,1,0,0:0:0:0:
64,192,126742,1,0,0:0:0:0:
192,192,126742,1,0,0:0:0:0:
64,192,126837,1,0,0:0:0:0:
192,192,126837,1,0,0:0:0:0:
320,192,126837,1,0,0:0:0:0:
320,192,126932,1,0,0:0:0:0:
448,192,126932,1,0,0:0:0:0:
192,192,126980,1,0,0:0:0:0:
64,192,127028,1,0,0:0:0:0:
448,192,127028,1,0,0:0:0:0:
320,192,127075,1,0,0:0:0:0:
64,192,127123,1,0,0:0:0:0:
192,192,127123,1,0,0:0:0:0:
448,192,127171,1,0,0:0:0:0:
192,192,127218,1,0,0:0:0:0:
320,192,127218,1,0,0:0:0:0:
448,192,127313,1,0,0:0:0:0:
64,192,127409,1,0,0:0:0:0:
192,192,127409,1,0,0:0:0:0:
320,192,127409,1,0,0:0:0:0:
64,192,127504,1,0,0:0:0:0:
192,192,127504,1,0,0:0:0:0:
64,192,127599,1,0,0:0:0:0:
192,192,127599,1,0,0:0:0:0:
448,192,127599,1,0,0:0:0:0:
448,192,127694,1,0,0:0:0:0:
64,192,127790,1,0,0:0:0:0:
192,192,127790,1,0,0:0:0:0:
320,192,127790,1,0,0:0:0:0:
192,192,127885,1,0,0:0:0:0:
320,192,127885,1,0,0:0:0:0:
64,192,127980,1,0,0:0:0:0:
192,192,127980,1,0,0:0:0:0:
448,192,127980,1,0,0:0:0:0:
320,192,128075,1,0,0:0:0:0:
448,192,128075,1,0,0:0:0:0:
192,192,128123,1,0,0:0:0:0:
320,192,128171,1,0,0:0:0:0:
448,192,128171,1,0,0:0:0:0:
64,192,128206,1,0,0:0:0:0:
192,192,128242,1,0,0:0:0:0:
320,192,128290,1,0,0:0:0:0:
64,192,128325,1,0,0:0:0:0:
192,192,128361,1,0,0:0:0:0:
448,192,128361,1,0,0:0:0:0:
320,192,128456,1,0,0:0:0:0:
64,192,128551,1,0,0:0:0:0:
192,192,128551,1,0,0:0:0:0:
448,192,128551,1,0,0:0:0:0:
64,192,128647,1,0,0:0:0:0:
192,192,128647,1,0,0:0:0:0:
64,192,128742,1,0,0:0:0:0:
192,192,128742,1,0,0:0:0:0:
320,192,128742,1,0,0:0:0:0:
320,192,128837,1,0,0:0:0:0:
64,192,128932,1,0,0:0:0:0:
192,192,128932,1,0,0:0:0:0:
448,192,128932,1,0,0:0:0:0:
192,192,129028,1,0,0:0:0:0:
320,192,129028,1,0,0:0:0:0:
64,192,129123,1,0,0:0:0:0:
320,192,129123,1,0,0:0:0:0:
448,192,129123,1,0,0:0:0:0:
192,192,129218,1,0,0:0:0:0:
448,192,129218,1,0,0:0:0:0:
64,192,129313,1,0,0:0:0:0:
320,192,129313,1,0,0:0:0:0:
192,192,129349,1,0,0:0:0:0:
448,192,129385,1,0,0:0:0:0:
64,192,129432,1,0,0:0:0:0:
192,192,129468,1,0,0:0:0:0:
320,192,129504,1,0,0:0:0:0:
448,192,129504,1,0,0:0:0:0:
192,192,129599,1,0,0:0:0:0:
64,192,129694,1,0,0:0:0:0:
320,192,129694,1,0,0:0:0:0:
448,192,129694,1,0,0:0:0:0:
320,192,129790,1,0,0:0:0:0:
448,192,129790,1,0,0:0:0:0:
64,192,129885,1,0,0:0:0:0:
192,192,129885,1,0,0:0:0:0:
448,192,129885,1,0,0:0:0:0:
320,192,129932,1,0,0:0:0:0:
192,192,129980,1,0,0:0:0:0:
64,192,130028,1,0,0:0:0:0:
320,192,130075,1,0,0:0:0:0:
448,192,130075,1,0,0:0:0:0:
192,192,130107,1,0,0:0:0:0:
320,192,130139,1,0,0:0:0:0:
64,192,130171,1,0,0:0:0:0:
192,192,130218,1,0,0:0:0:0:
448,192,130266,1,0,0:0:0:0:
320,192,130313,1,0,0:0:0:0:
192,192,130361,1,0,0:0:0:0:
320,192,130409,1,0,0:0:0:0:
64,192,130456,1,0,0:0:0:0:
448,192,130456,1,0,0:0:0:0:
192,192,130488,1,0,0:0:0:0:
320,192,130520,1,0,0:0:0:0:
64,192,130551,1,0,0:0:0:0:
192,192,130599,1,0,0:0:0:0:
320,192,130647,1,0,0:0:0:0:
448,192,130647,1,0,0:0:0:0:
192,192,130694,1,0,0:0:0:0:
320,192,130742,1,0,0:0:0:0:
448,192,130742,1,0,0:0:0:0:
192,192,130790,1,0,0:0:0:0:
320,192,130837,1,0,0:0:0:0:
448,192,130837,1,0,0:0:0:0:
64,192,130869,1,0,0:0:0:0:
192,192,130901,1,0,0:0:0:0:
448,192,130932,1,0,0:0:0:0:
320,192,130980,1,0,0:0:0:0:
64,192,131028,1,0,0:0:0:0:
448,192,131059,1,0,0:0:0:0:
192,192,131091,1,0,0:0:0:0:
320,192,131123,1,0,0:0:0:0:
64,192,131171,1,0,0:0:0:0:
192,192,131218,1,0,0:0:0:0:
448,192,131250,1,0,0:0:0:0:
320,192,131282,1,0,0:0:0:0:
64,192,131313,1,0,0:0:0:0:
192,192,131361,1,0,0:0:0:0:
448,192,131409,1,0,0:0:0:0:
64,192,131440,1,0,0:0:0:0:
320,192,131472,1,0,0:0:0:0:
192,192,131504,1,0,0:0:0:0:
448,192,131551,1,0,0:0:0:0:
320,192,131599,1,0,0:0:0:0:
64,192,131631,1,0,0:0:0:0:
448,192,131663,1,0,0:0:0:0:
192,192,131694,1,0,0:0:0:0:
320,192,131742,1,0,0:0:0:0:
64,192,131790,1,0,0:0:0:0:
448,192,131790,1,0,0:0:0:0:
192,192,131885,1,0,0:0:0:0:
320,192,131980,1,0,0:0:0:0:
448,192,131980,1,0,0:0:0:0:
192,192,132028,1,0,0:0:0:0:
320,192,132075,1,0,0:0:0:0:
448,192,132075,1,0,0:0:0:0:
192,192,132123,1,0,0:0:0:0:
320,192,132171,1,0,0:0:0:0:
448,192,132171,1,0,0:0:0:0:
64,192,132218,1,0,0:0:0:0:
192,192,132266,1,0,0:0:0:0:
320,192,132313,1,0,0:0:0:0:
64,192,132361,1,0,0:0:0:0:
192,192,132361,1,0,0:0:0:0:
448,192,132409,1,0,0:0:0:0:
64,192,132456,1,0,0:0:0:0:
192,192,132456,1,0,0:0:0:0:
448,192,132504,1,0,0:0:0:0:
64,192,132551,1,0,0:0:0:0:
192,192,132551,1,0,0:0:0:0:
320,192,132599,1,0,0:0:0:0:
448,192,132647,1,0,0:0:0:0:
192,192,132694,1,0,0:0:0:0:
320,192,132742,1,0,0:0:0:0:
64,192,132790,1,0,0:0:0:0:
192,192,132837,1,0,0:0:0:0:
320,192,132885,1,0,0:0:0:0:
192,192,132932,1,0,0:0:0:0:
448,192,132964,1,0,0:0:0:0:
320,192,132996,1,0,0:0:0:0:
64,192,133028,1,0,0:0:0:0:
192,192,133075,1,0,0:0:0:0:
448,192,133123,1,0,0:0:0:0:
64,192,133155,1,0,0:0:0:0:
320,192,133186,1,0,0:0:0:0:
192,192,133218,1,0,0:0:0:0:
448,192,133266,1,0,0:0:0:0:
320,192,133313,1,0,0:0:0:0:
64,192,133345,1,0,0:0:0:0:
192,192,133377,1,0,0:0:0:0:
448,192,133409,1,0,0:0:0:0:
320,192,133456,1,0,0:0:0:0:
64,192,133504,1,0,0:0:0:0:
448,192,133536,1,0,0:0:0:0:
192,192,133567,1,0,0:0:0:0:
320,192,133599,1,0,0:0:0:0:
64,192,133647,1,0,0:0:0:0:
192,192,133694,1,0,0:0:0:0:
448,192,133726,1,0,0:0:0:0:
64,192,133758,1,0,0:0:0:0:
320,192,133790,1,0,0:0:0:0:
192,192,133837,1,0,0:0:0:0:
448,192,133885,1,0,0:0:0:0:
320,192,133917,1,0,0:0:0:0:
64,192,133948,1,0,0:0:0:0:
192,192,133980,1,0,0:0:0:0:
448,192,134028,1,0,0:0:0:0:
64,192,134075,1,0,0:0:0:0:
320,192,134075,1,0,0:0:0:0:
320,192,134171,1,0,0:0:0:0:
64,192,134266,1,0,0:0:0:0:
192,192,134266,1,0,0:0:0:0:
448,192,134313,1,0,0:0:0:0:
64,192,134361,1,0,0:0:0:0:
192,192,134361,1,0,0:0:0:0:
448,192,134409,1,0,0:0:0:0:
64,192,134456,1,0,0:0:0:0:
192,192,134456,1,0,0:0:0:0:
320,192,134504,1,0,0:0:0:0:
192,192,134551,1,0,0:0:0:0:
64,192,134599,1,0,0:0:0:0:
320,192,134647,1,0,0:0:0:0:
448,192,134647,1,0,0:0:0:0:
192,192,134694,1,0,0:0:0:0:
320,192,134742,1,0,0:0:0:0:
448,192,134742,1,0,0:0:0:0:
192,192,134790,1,0,0:0:0:0:
320,192,134837,1,0,0:0:0:0:
448,192,134837,1,0,0:0:0:0:
64,192,134885,1,0,0:0:0:0:
192,192,134932,1,0,0:0:0:0:
448,192,134932,1,0,0:0:0:0:
320,192,134980,1,0,0:0:0:0:
64,192,135028,1,0,0:0:0:0:
192,192,135028,1,0,0:0:0:0:
448,192,135075,1,0,0:0:0:0:
320,192,135123,1,0,0:0:0:0:
192,192,135171,1,0,0:0:0:0:
320,192,135218,1,0,0:0:0:0:
64,192,135250,1,0,0:0:0:0:
192,192,135282,1,0,0:0:0:0:
448,192,135313,1,0,0:0:0:0:
320,192,135361,1,0,0:0:0:0:
64,192,135409,1,0,0:0:0:0:
448,192,135440,1,0,0:0:0:0:
192,192,135472,1,0,0:0:0:0:
320,192,135504,1,0,0:0:0:0:
64,192,135551,1,0,0:0:0:0:
192,192,135599,1,0,0:0:0:0:
448,192,135631,1,0,0:0:0:0:
320,192,135663,1,0,0:0:0:0:
64,192,135694,1,0,0:0:0:0:
192,192,135742,1,0,0:0:0:0:
448,192,135790,1,0,0:0:0:0:
64,192,135821,1,0,0:0:0:0:
320,192,135853,1,0,0:0:0:0:
192,192,135885,1,0,0:0:0:0:
448,192,135932,1,0,0:0:0:0:
320,192,135980,1,0,0:0:0:0:
64,192,136012,1,0,0:0:0:0:
448,192,136044,1,0,0:0:0:0:
192,192,136075,1,0,0:0:0:0:
320,192,136123,1,0,0:0:0:0:
64,192,136171,1,0,0:0:0:0:
448,192,136202,1,0,0:0:0:0:
192,192,136234,1,0,0:0:0:0:
320,192,136266,1,0,0:0:0:0:
64,192,136313,1,0,0:0:0:0:
192,192,136361,1,0,0:0:0:0:
448,192,136361,1,0,0:0:0:0:
192,192,136456,1,0,0:0:0:0:
320,192,136551,1,0,0:0:0:0:
448,192,136551,1,0,0:0:0:0:
192,192,136599,1,0,0:0:0:0:
320,192,136647,1,0,0:0:0:0:
448,192,136647,1,0,0:0:0:0:
192,192,136694,1,0,0:0:0:0:
320,192,136742,1,0,0:0:0:0:
448,192,136742,1,0,0:0:0:0:
64,192,136790,1,0,0:0:0:0:
192,192,136837,1,0,0:0:0:0:
320,192,136885,1,0,0:0:0:0:
64,192,136932,1,0,0:0:0:0:
192,192,136932,1,0,0:0:0:0:
448,192,136980,1,0,0:0:0:0:
64,192,137028,1,0,0:0:0:0:
192,192,137028,1,0,0:0:0:0:
448,192,137075,1,0,0:0:0:0:
64,192,137123,1,0,0:0:0:0:
192,192,137123,1,0,0:0:0:0:
320,192,137171,1,0,0:0:0:0:
448,192,137218,1,0,0:0:0:0:
192,192,137266,1,0,0:0:0:0:
320,192,137313,1,0,0:0:0:0:
192,192,137361,1,0,0:0:0:0:
64,192,137409,1,0,0:0:0:0:
448,192,137456,1,0,0:0:0:0:
320,192,137504,1,0,0:0:0:0:
64,192,137536,1,0,0:0:0:0:
192,192,137567,1,0,0:0:0:0:
448,192,137599,1,0,0:0:0:0:
320,192,137647,1,0,0:0:0:0:
64,192,137694,1,0,0:0:0:0:
448,192,137726,1,0,0:0:0:0:
192,192,137758,1,0,0:0:0:0:
320,192,137790,1,0,0:0:0:0:
64,192,137837,1,0,0:0:0:0:
192,192,137885,1,0,0:0:0:0:
448,192,137917,1,0,0:0:0:0:
320,192,137948,1,0,0:0:0:0:
64,192,137980,1,0,0:0:0:0:
192,192,138028,1,0,0:0:0:0:
448,192,138075,1,0,0:0:0:0:
64,192,138107,1,0,0:0:0:0:
320,192,138139,1,0,0:0:0:0:
192,192,138171,1,0,0:0:0:0:
448,192,138218,1,0,0:0:0:0:
320,192,138266,1,0,0:0:0:0:
64,192,138297,1,0,0:0:0:0:
448,192,138329,1,0,0:0:0:0:
192,192,138361,1,0,0:0:0:0:
320,192,138409,1,0,0:0:0:0:
64,192,138456,1,0,0:0:0:0:
192,192,138488,1,0,0:0:0:0:
448,192,138520,1,0,0:0:0:0:
320,192,138551,1,0,0:0:0:0:
192,192,138583,1,0,0:0:0:0:
448,192,138615,1,0,0:0:0:0:
64,192,138647,1,0,0:0:0:0:
320,192,138647,1,0,0:0:0:0:
192,192,138694,1,0,0:0:0:0:
448,192,138742,1,0,0:0:0:0:
64,192,138790,1,0,0:0:0:0:
192,192,138837,1,0,0:0:0:0:
320,192,138837,1,0,0:0:0:0:
448,192,138885,1,0,0:0:0:0:
64,192,138932,1,0,0:0:0:0:
192,192,138932,1,0,0:0:0:0:
320,192,138932,1,0,0:0:0:0:
448,192,138980,1,0,0:0:0:0:
192,192,139028,1,0,0:0:0:0:
320,192,139028,1,0,0:0:0:0:
64,192,139075,1,0,0:0:0:0:
192,192,139123,1,0,0:0:0:0:
448,192,139171,1,0,0:0:0:0:
64,192,139218,1,0,0:0:0:0:
320,192,139218,1,0,0:0:0:0:
192,192,139266,1,0,0:0:0:0:
320,192,139313,1,0,0:0:0:0:
448,192,139313,1,0,0:0:0:0:
192,192,139361,1,0,0:0:0:0:
64,192,139409,1,0,0:0:0:0:
320,192,139409,1,0,0:0:0:0:
192,192,139456,1,0,0:0:0:0:
320,192,139504,1,0,0:0:0:0:
448,192,139504,1,0,0:0:0:0:
64,192,139551,1,0,0:0:0:0:
192,192,139551,1,0,0:0:0:0:
320,192,139599,1,0,0:0:0:0:
448,192,139599,1,0,0:0:0:0:
64,192,139647,1,0,0:0:0:0:
192,192,139647,1,0,0:0:0:0:
320,192,139694,1,0,0:0:0:0:
448,192,139694,1,0,0:0:0:0:
64,192,139742,1,0,0:0:0:0:
192,192,139742,1,0,0:0:0:0:
320,192,139790,1,0,0:0:0:0:
448,192,139790,1,0,0:0:0:0:
192,192,139837,1,0,0:0:0:0:
320,192,139885,1,0,0:0:0:0:
448,192,139932,1,0,0:0:0:0:
64,192,139980,1,0,0:0:0:0:
192,192,139980,1,0,0:0:0:0:
320,192,140028,1,0,0:0:0:0:
64,192,140075,1,0,0:0:0:0:
192,192,140075,1,0,0:0:0:0:
448,192,140075,1,0,0:0:0:0:
320,192,140123,1,0,0:0:0:0:
64,192,140171,1,0,0:0:0:0:
192,192,140171,1,0,0:0:0:0:
448,192,140218,1,0,0:0:0:0:
320,192,140266,1,0,0:0:0:0:
64,192,140313,1,0,0:0:0:0:
192,192,140361,1,0,0:0:0:0:
448,192,140361,1,0,0:0:0:0:
64,192,140409,1,0,0:0:0:0:
320,192,140456,1,0,0:0:0:0:
448,192,140456,1,0,0:0:0:0:
64,192,140504,1,0,0:0:0:0:
192,192,140551,1,0,0:0:0:0:
448,192,140551,1,0,0:0:0:0:
320,192,140599,1,0,0:0:0:0:
64,192,140647,1,0,0:0:0:0:
192,192,140647,1,0,0:0:0:0:
320,192,140694,1,0,0:0:0:0:
448,192,140694,1,0,0:0:0:0:
64,192,140742,1,0,0:0:0:0:
192,192,140742,1,0,0:0:0:0:
320,192,140790,1,0,0:0:0:0:
448,192,140790,1,0,0:0:0:0:
64,192,140837,1,0,0:0:0:0:
192,192,140837,1,0,0:0:0:0:
320,192,140885,1,0,0:0:0:0:
448,192,140885,1,0,0:0:0:0:
64,192,140932,1,0,0:0:0:0:
192,192,140932,1,0,0:0:0:0:
320,192,140980,1,0,0:0:0:0:
448,192,141028,1,0,0:0:0:0:
320,192,141075,1,0,0:0:0:0:
64,192,141123,1,0,0:0:0:0:
192,192,141123,1,0,0:0:0:0:
448,192,141171,1,0,0:0:0:0:
64,192,141218,1,0,0:0:0:0:
192,192,141218,1,0,0:0:0:0:
320,192,141218,1,0,0:0:0:0:
448,192,141266,1,0,0:0:0:0:
64,192,141313,1,0,0:0:0:0:
192,192,141313,1,0,0:0:0:0:
320,192,141361,1,0,0:0:0:0:
448,192,141409,1,0,0:0:0:0:
192,192,141456,1,0,0:0:0:0:
64,192,141504,1,0,0:0:0:0:
320,192,141504,1,0,0:0:0:0:
448,192,141551,1,0,0:0:0:0:
64,192,141599,1,0,0:0:0:0:
192,192,141599,1,0,0:0:0:0:
448,192,141647,1,0,0:0:0:0:
64,192,141694,1,0,0:0:0:0:
320,192,141694,1,0,0:0:0:0:
192,192,141742,1,0,0:0:0:0:
64,192,141790,1,0,0:0:0:0:
320,192,141790,1,0,0:0:0:0:
448,192,141790,1,0,0:0:0:0:
192,192,141837,1,0,0:0:0:0:
320,192,141885,1,0,0:0:0:0:
448,192,141885,1,0,0:0:0:0:
64,192,141932,1,0,0:0:0:0:
192,192,141980,1,0,0:0:0:0:
448,192,141980,1,0,0:0:0:0:
320,192,142028,1,0,0:0:0:0:
64,192,142075,128,0,142123:0:0:0:0:
192,192,142075,128,0,142123:0:0:0:0:
320,192,142171,1,0,0:0:0:0:
64,192,142266,128,0,142313:0:0:0:0:
192,192,142266,128,0,142313:0:0:0:0:
64,192,142361,1,0,0:0:0:0:
320,192,142361,128,0,142409:0:0:0:0:
448,192,142361,128,0,142409:0:0:0:0:
192,192,142456,1,0,0:0:0:0:
64,192,142551,128,0,142599:0:0:0:0:
192,192,142551,128,0,142599:0:0:0:0:
64,192,142647,1,0,0:0:0:0:
320,192,142647,128,0,142694:0:0:0:0:
448,192,142647,128,0,142694:0:0:0:0:
192,192,142742,1,0,0:0:0:0:
64,192,142837,1,0,0:0:0:0:
320,192,142837,128,0,142885:0:0:0:0:
448,192,142837,128,0,142885:0:0:0:0:
64,192,142932,1,0,0:0:0:0:
192,192,142932,1,0,0:0:0:0:
448,192,142932,1,0,0:0:0:0:
320,192,142980,1,0,0:0:0:0:
192,192,143028,1,0,0:0:0:0:
320,192,143075,1,0,0:0:0:0:
64,192,143123,1,0,0:0:0:0:
192,192,143123,1,0,0:0:0:0:
448,192,143123,1,0,0:0:0:0:
320,192,143171,1,0,0:0:0:0:
64,192,143218,1,0,0:0:0:0:
192,192,143218,1,0,0:0:0:0:
448,192,143313,1,0,0:0:0:0:
192,192,143409,1,0,0:0:0:0:
64,192,143504,1,0,0:0:0:0:
320,192,143504,1,0,0:0:0:0:
448,192,143504,1,0,0:0:0:0:
64,192,143599,1,0,0:0:0:0:
192,192,143599,1,0,0:0:0:0:
448,192,143599,1,0,0:0:0:0:
320,192,143694,1,0,0:0:0:0:
64,192,143790,1,0,0:0:0:0:
192,192,143790,1,0,0:0:0:0:
448,192,143790,1,0,0:0:0:0:
64,192,143885,1,0,0:0:0:0:
320,192,143885,1,0,0:0:0:0:
192,192,143980,1,0,0:0:0:0:
448,192,143980,1,0,0:0:0:0:
64,192,144075,1,0,0:0:0:0:
320,192,144075,1,0,0:0:0:0:
448,192,144075,1,0,0:0:0:0:
192,192,144123,1,0,0:0:0:0:
320,192,144171,1,0,0:0:0:0:
192,192,144218,1,0,0:0:0:0:
320,192,144266,1,0,0:0:0:0:
192,192,144313,1,0,0:0:0:0:
64,192,144361,1,0,0:0:0:0:
320,192,144361,1,0,0:0:0:0:
448,192,144361,1,0,0:0:0:0:
192,192,144456,1,0,0:0:0:0:
448,192,144456,1,0,0:0:0:0:
64,192,144551,1,0,0:0:0:0:
320,192,144551,1,0,0:0:0:0:
64,192,144647,1,0,0:0:0:0:
192,192,144647,1,0,0:0:0:0:
448,192,144647,1,0,0:0:0:0:
320,192,144742,1,0,0:0:0:0:
192,192,144837,1,0,0:0:0:0:
64,192,144932,1,0,0:0:0:0:
320,192,145028,1,0,0:0:0:0:
448,192,145028,1,0,0:0:0:0:
64,192,145123,1,0,0:0:0:0:
192,192,145123,1,0,0:0:0:0:
64,192,145218,1,0,0:0:0:0:
320,192,145218,1,0,0:0:0:0:
448,192,145218,1,0,0:0:0:0:
192,192,145313,1,0,0:0:0:0:
448,192,145313,1,0,0:0:0:0:
64,192,145409,1,0,0:0:0:0:
320,192,145409,1,0,0:0:0:0:
192,192,145504,1,0,0:0:0:0:
320,192,145504,1,0,0:0:0:0:
448,192,145504,1,0,0:0:0:0:
192,192,145599,1,0,0:0:0:0:
64,192,145694,1,0,0:0:0:0:
320,192,145694,1,0,0:0:0:0:
448,192,145694,1,0,0:0:0:0:
64,192,145790,1,0,0:0:0:0:
192,192,145790,1,0,0:0:0:0:
448,192,145790,1,0,0:0:0:0:
192,192,145885,1,0,0:0:0:0:
320,192,145885,1,0,0:0:0:0:
448,192,145980,1,0,0:0:0:0:
64,192,146075,1,0,0:0:0:0:
192,192,146075,1,0,0:0:0:0:
320,192,146075,1,0,0:0:0:0:
192,192,146171,1,0,0:0:0:0:
448,192,146171,1,0,0:0:0:0:
64,192,146266,1,0,0:0:0:0:
320,192,146266,1,0,0:0:0:0:
192,192,146361,1,0,0:0:0:0:
448,192,146361,1,0,0:0:0:0:
320,192,146409,1,0,0:0:0:0:
64,192,146456,1,0,0:0:0:0:
448,192,146504,1,0,0:0:0:0:
320,192,146551,1,0,0:0:0:0:
64,192,146599,1,0,0:0:0:0:
320,192,146647,1,0,0:0:0:0:
448,192,146647,1,0,0:0:0:0:
64,192,146742,1,0,0:0:0:0:
192,192,146742,1,0,0:0:0:0:
192,192,146837,1,0,0:0:0:0:
320,192,146837,1,0,0:0:0:0:
64,192,146932,1,0,0:0:0:0:
320,192,146932,1,0,0:0:0:0:
448,192,146932,1,0,0:0:0:0:
64,192,147028,1,0,0:0:0:0:
192,192,147123,1,0,0:0:0:0:
320,192,147123,1,0,0:0:0:0:
448,192,147123,1,0,0:0:0:0:
64,192,147218,1,0,0:0:0:0:
320,192,147218,1,0,0:0:0:0:
448,192,147218,1,0,0:0:0:0:
192,192,147313,1,0,0:0:0:0:
320,192,147409,1,0,0:0:0:0:
448,192,147409,1,0,0:0:0:0:
64,192,147504,1,0,0:0:0:0:
192,192,147504,1,0,0:0:0:0:
320,192,147551,1,0,0:0:0:0:
448,192,147551,1,0,0:0:0:0:
64,192,147599,1,0,0:0:0:0:
192,192,147599,1,0,0:0:0:0:
320,192,147647,1,0,0:0:0:0:
448,192,147647,1,0,0:0:0:0:
64,192,147694,1,0,0:0:0:0:
192,192,147694,1,0,0:0:0:0:
320,192,147742,1,0,0:0:0:0:
448,192,147742,1,0,0:0:0:0:
64,192,147790,1,0,0:0:0:0:
192,192,147790,1,0,0:0:0:0:
320,192,147885,1,0,0:0:0:0:
64,192,147980,1,0,0:0:0:0:
192,192,147980,1,0,0:0:0:0:
448,192,147980,1,0,0:0:0:0:
64,192,148075,1,0,0:0:0:0:
320,192,148075,1,0,0:0:0:0:
448,192,148075,1,0,0:0:0:0:
192,192,148171,1,0,0:0:0:0:
320,192,148266,1,0,0:0:0:0:
64,192,148361,1,0,0:0:0:0:
192,192,148361,1,0,0:0:0:0:
448,192,148361,1,0,0:0:0:0:
64,192,148456,1,0,0:0:0:0:
320,192,148456,1,0,0:0:0:0:
448,192,148456,1,0,0:0:0:0:
64,192,148551,1,0,0:0:0:0:
192,192,148551,1,0,0:0:0:0:
320,192,148551,1,0,0:0:0:0:
320,192,148647,1,0,0:0:0:0:
448,192,148647,1,0,0:0:0:0:
64,192,148694,1,0,0:0:0:0:
192,192,148694,1,0,0:0:0:0:
320,192,148742,1,0,0:0:0:0:
448,192,148742,1,0,0:0:0:0:
64,192,148790,1,0,0:0:0:0:
192,192,148790,1,0,0:0:0:0:
320,192,148837,1,0,0:0:0:0:
448,192,148837,1,0,0:0:0:0:
64,192,148885,1,0,0:0:0:0:
192,192,148885,1,0,0:0:0:0:
320,192,148932,1,0,0:0:0:0:
448,192,148932,1,0,0:0:0:0:
192,192,149028,1,0,0:0:0:0:
64,192,149123,1,0,0:0:0:0:
320,192,149123,1,0,0:0:0:0:
448,192,149123,1,0,0:0:0:0:
64,192,149218,1,0,0:0:0:0:
192,192,149218,1,0,0:0:0:0:
64,192,149313,1,0,0:0:0:0:
192,192,149313,1,0,0:0:0:0:
320,192,149409,1,0,0:0:0:0:
64,192,149504,1,0,0:0:0:0:
192,192,149504,1,0,0:0:0:0:
448,192,149504,1,0,0:0:0:0:
64,192,149599,1,0,0:0:0:0:
320,192,149599,1,0,0:0:0:0:
448,192,149599,1,0,0:0:0:0:
192,192,149694,1,0,0:0:0:0:
320,192,149694,1,0,0:0:0:0:
64,192,149790,1,0,0:0:0:0:
192,192,149790,1,0,0:0:0:0:
320,192,149837,1,0,0:0:0:0:
448,192,149837,1,0,0:0:0:0:
64,192,149885,1,0,0:0:0:0:
192,192,149885,1,0,0:0:0:0:
320,192,149932,1,0,0:0:0:0:
448,192,149932,1,0,0:0:0:0:
64,192,149980,1,0,0:0:0:0:
192,192,149980,1,0,0:0:0:0:
320,192,150028,1,0,0:0:0:0:
448,192,150028,1,0,0:0:0:0:
64,192,150075,1,0,0:0:0:0:
192,192,150075,1,0,0:0:0:0:
320,192,150171,1,0,0:0:0:0:
64,192,150266,1,0,0:0:0:0:
192,192,150266,1,0,0:0:0:0:
448,192,150266,1,0,0:0:0:0:
64,192,150361,1,0,0:0:0:0:
320,192,150361,1,0,0:0:0:0:
448,192,150361,1,0,0:0:0:0:
192,192,150456,1,0,0:0:0:0:
64,192,150551,1,0,0:0:0:0:
192,192,150647,1,0,0:0:0:0:
320,192,150647,1,0,0:0:0:0:
448,192,150647,1,0,0:0:0:0:
64,192,150742,1,0,0:0:0:0:
192,192,150742,1,0,0:0:0:0:
320,192,150742,1,0,0:0:0:0:
64,192,150837,1,0,0:0:0:0:
448,192,150837,1,0,0:0:0:0:
320,192,150932,1,0,0:0:0:0:
448,192,150932,1,0,0:0:0:0:
64,192,150980,1,0,0:0:0:0:
192,192,150980,1,0,0:0:0:0:
320,192,151028,1,0,0:0:0:0:
448,192,151028,1,0,0:0:0:0:
64,192,151075,1,0,0:0:0:0:
192,192,151075,1,0,0:0:0:0:
320,192,151123,1,0,0:0:0:0:
448,192,151123,1,0,0:0:0:0:
192,192,151171,1,0,0:0:0:0:
64,192,151218,1,0,0:0:0:0:
320,192,151218,1,0,0:0:0:0:
448,192,151218,1,0,0:0:0:0:
192,192,151313,1,0,0:0:0:0:
192,192,151409,1,0,0:0:0:0:
320,192,151409,1,0,0:0:0:0:
448,192,151409,1,0,0:0:0:0:
64,192,151504,1,0,0:0:0:0:
320,192,151504,1,0,0:0:0:0:
448,192,151504,1,0,0:0:0:0:
64,192,151599,1,0,0:0:0:0:
192,192,151694,1,0,0:0:0:0:
320,192,151694,1,0,0:0:0:0:
448,192,151694,1,0,0:0:0:0:
64,192,151790,1,0,0:0:0:0:
192,192,151790,1,0,0:0:0:0:
448,192,151790,1,0,0:0:0:0:
320,192,151885,1,0,0:0:0:0:
64,192,151980,1,0,0:0:0:0:
192,192,151980,1,0,0:0:0:0:
320,192,151980,1,0,0:0:0:0:
64,192,152075,1,0,0:0:0:0:
192,192,152075,1,0,0:0:0:0:
448,192,152075,1,0,0:0:0:0:
64,192,152171,1,0,0:0:0:0:
320,192,152171,1,0,0:0:0:0:
448,192,152171,1,0,0:0:0:0:
192,192,152266,1,0,0:0:0:0:
448,192,152266,1,0,0:0:0:0:
64,192,152361,1,0,0:0:0:0:
320,192,152361,1,0,0:0:0:0:
192,192,152409,1,0,0:0:0:0:
320,192,152456,1,0,0:0:0:0:
448,192,152456,1,0,0:0:0:0:
64,192,152504,1,0,0:0:0:0:
192,192,152551,1,0,0:0:0:0:
320,192,152551,1,0,0:0:0:0:
448,192,152599,1,0,0:0:0:0:
64,192,152647,1,0,0:0:0:0:
192,192,152647,1,0,0:0:0:0:
320,192,152694,1,0,0:0:0:0:
64,192,152742,1,0,0:0:0:0:
448,192,152742,1,0,0:0:0:0:
192,192,152790,1,0,0:0:0:0:
320,192,152837,1,0,0:0:0:0:
448,192,152837,1,0,0:0:0:0:
64,192,152885,1,0,0:0:0:0:
192,192,152932,1,0,0:0:0:0:
320,192,152932,1,0,0:0:0:0:
448,192,152980,1,0,0:0:0:0:
64,192,153028,1,0,0:0:0:0:
192,192,153075,1,0,0:0:0:0:
320,192,153123,1,0,0:0:0:0:
64,192,153171,1,0,0:0:0:0:
448,192,153218,1,0,0:0:0:0:
320,192,153266,1,0,0:0:0:0:
64,192,153313,1,0,0:0:0:0:
192,192,153313,1,0,0:0:0:0:
448,192,153361,1,0,0:0:0:0:
64,192,153409,1,0,0:0:0:0:
320,192,153409,1,0,0:0:0:0:
192,192,153456,1,0,0:0:0:0:
64,192,153504,1,0,0:0:0:0:
320,192,153504,1,0,0:0:0:0:
448,192,153504,1,0,0:0:0:0:
448,192,153599,1,0,0:0:0:0:
64,192,153694,1,0,0:0:0:0:
192,192,153694,1,0,0:0:0:0:
320,192,153694,1,0,0:0:0:0:
64,192,153790,1,0,0:0:0:0:
192,192,153790,1,0,0:0:0:0:
448,192,153790,1,0,0:0:0:0:
64,192,153885,1,0,0:0:0:0:
192,192,153885,1,0,0:0:0:0:
320,192,153885,1,0,0:0:0:0:
448,192,153980,1,0,0:0:0:0:
64,192,154075,1,0,0:0:0:0:
192,192,154075,1,0,0:0:0:0:
320,192,154075,1,0,0:0:0:0:
64,192,154171,1,0,0:0:0:0:
192,192,154171,1,0,0:0:0:0:
320,192,154171,1,0,0:0:0:0:
192,192,154266,1,0,0:0:0:0:
320,192,154266,1,0,0:0:0:0:
448,192,154266,1,0,0:0:0:0:
64,192,154361,1,0,0:0:0:0:
320,192,154361,1,0,0:0:0:0:
448,192,154361,1,0,0:0:0:0:
192,192,154409,1,0,0:0:0:0:
320,192,154456,1,0,0:0:0:0:
64,192,154504,1,0,0:0:0:0:
448,192,154551,1,0,0:0:0:0:
320,192,154599,1,0,0:0:0:0:
192,192,154647,1,0,0:0:0:0:
448,192,154678,1,0,0:0:0:0:
64,192,154710,1,0,0:0:0:0:
320,192,154742,1,0,0:0:0:0:
192,192,154790,1,0,0:0:0:0:
448,192,154837,1,0,0:0:0:0:
64,192,154869,1,0,0:0:0:0:
320,192,154901,1,0,0:0:0:0:
192,192,154932,1,0,0:0:0:0:
448,192,154980,1,0,0:0:0:0:
320,192,155028,1,0,0:0:0:0:
64,192,155059,1,0,0:0:0:0:
192,192,155091,1,0,0:0:0:0:
448,192,155123,1,0,0:0:0:0:
320,192,155171,1,0,0:0:0:0:
64,192,155218,1,0,0:0:0:0:
192,192,155218,1,0,0:0:0:0:
448,192,155250,1,0,0:0:0:0:
320,192,155282,1,0,0:0:0:0:
64,192,155313,1,0,0:0:0:0:
192,192,155361,1,0,0:0:0:0:
448,192,155409,1,0,0:0:0:0:
64,192,155440,1,0,0:0:0:0:
320,192,155472,1,0,0:0:0:0:
192,192,155504,1,0,0:0:0:0:
448,192,155551,1,0,0:0:0:0:
64,192,155599,1,0,0:0:0:0:
320,192,155631,1,0,0:0:0:0:
448,192,155663,1,0,0:0:0:0:
64,192,155694,1,0,0:0:0:0:
192,192,155694,1,0,0:0:0:0:
192,192,155790,1,0,0:0:0:0:
448,192,155790,1,0,0:0:0:0:
320,192,155885,1,0,0:0:0:0:
448,192,155885,1,0,0:0:0:0:
64,192,155980,1,0,0:0:0:0:
192,192,155980,1,0,0:0:0:0:
64,192,156075,1,0,0:0:0:0:
192,192,156075,1,0,0:0:0:0:
64,192,156171,1,0,0:0:0:0:
320,192,156171,1,0,0:0:0:0:
448,192,156171,1,0,0:0:0:0:
192,192,156266,1,0,0:0:0:0:
64,192,156361,1,0,0:0:0:0:
192,192,156361,1,0,0:0:0:0:
320,192,156361,1,0,0:0:0:0:
448,192,156361,1,0,0:0:0:0:
320,192,156456,1,0,0:0:0:0:
448,192,156456,1,0,0:0:0:0:
320,192,156551,1,0,0:0:0:0:
448,192,156551,1,0,0:0:0:0:
64,192,156647,1,0,0:0:0:0:
192,192,156647,1,0,0:0:0:0:
448,192,156647,1,0,0:0:0:0:
192,192,156742,1,0,0:0:0:0:
64,192,156837,1,0,0:0:0:0:
320,192,156837,1,0,0:0:0:0:
448,192,156837,1,0,0:0:0:0:
64,192,156932,1,0,0:0:0:0:
192,192,156932,1,0,0:0:0:0:
448,192,156964,1,0,0:0:0:0:
320,192,156996,1,0,0:0:0:0:
64,192,157028,1,0,0:0:0:0:
192,192,157075,1,0,0:0:0:0:
320,192,157123,1,0,0:0:0:0:
64,192,157171,1,0,0:0:0:0:
192,192,157218,1,0,0:0:0:0:
448,192,157218,1,0,0:0:0:0:
320,192,157266,1,0,0:0:0:0:
64,192,157313,1,0,0:0:0:0:
448,192,157361,1,0,0:0:0:0:
192,192,157409,1,0,0:0:0:0:
64,192,157456,1,0,0:0:0:0:
320,192,157504,1,0,0:0:0:0:
448,192,157504,1,0,0:0:0:0:
192,192,157536,1,0,0:0:0:0:
64,192,157567,1,0,0:0:0:0:
448,192,157599,1,0,0:0:0:0:
320,192,157647,1,0,0:0:0:0:
64,192,157694,1,0,0:0:0:0:
192,192,157742,1,0,0:0:0:0:
320,192,157790,1,0,0:0:0:0:
448,192,157790,1,0,0:0:0:0:
64,192,157837,1,0,0:0:0:0:
192,192,157885,1,0,0:0:0:0:
448,192,157885,1,0,0:0:0:0:
192,192,157980,1,0,0:0:0:0:
320,192,157980,1,0,0:0:0:0:
64,192,158075,1,0,0:0:0:0:
320,192,158075,1,0,0:0:0:0:
192,192,158171,1,0,0:0:0:0:
64,192,158266,1,0,0:0:0:0:
320,192,158266,1,0,0:0:0:0:
448,192,158266,1,0,0:0:0:0:
320,192,158361,1,0,0:0:0:0:
64,192,158456,1,0,0:0:0:0:
192,192,158456,1,0,0:0:0:0:
448,192,158456,1,0,0:0:0:0:
192,192,158551,1,0,0:0:0:0:
64,192,158647,1,0,0:0:0:0:
192,192,158647,1,0,0:0:0:0:
320,192,158647,1,0,0:0:0:0:
448,192,158647,1,0,0:0:0:0:
320,192,158742,1,0,0:0:0:0:
448,192,158742,1,0,0:0:0:0:
64,192,158837,1,0,0:0:0:0:
192,192,158837,1,0,0:0:0:0:
320,192,158837,1,0,0:0:0:0:
64,192,158932,1,0,0:0:0:0:
192,192,158932,1,0,0:0:0:0:
448,192,158932,1,0,0:0:0:0:
320,192,159028,1,0,0:0:0:0:
448,192,159028,1,0,0:0:0:0:
64,192,159123,1,0,0:0:0:0:
192,192,159123,1,0,0:0:0:0:
64,192,159218,1,0,0:0:0:0:
192,192,159218,1,0,0:0:0:0:
320,192,159254,1,0,0:0:0:0:
448,192,159313,1,0,0:0:0:0:
192,192,159361,1,0,0:0:0:0:
64,192,159409,1,0,0:0:0:0:
320,192,159409,1,0,0:0:0:0:
448,192,159444,1,0,0:0:0:0:
192,192,159504,1,0,0:0:0:0:
64,192,159551,1,0,0:0:0:0:
320,192,159599,1,0,0:0:0:0:
448,192,159599,1,0,0:0:0:0:
192,192,159635,1,0,0:0:0:0:
64,192,159694,1,0,0:0:0:0:
320,192,159742,1,0,0:0:0:0:
192,192,159790,1,0,0:0:0:0:
448,192,159790,1,0,0:0:0:0:
64,192,159825,1,0,0:0:0:0:
192,192,159885,1,0,0:0:0:0:
448,192,159932,1,0,0:0:0:0:
192,192,159980,1,0,0:0:0:0:
320,192,159980,1,0,0:0:0:0:
448,192,160028,1,0,0:0:0:0:
64,192,160075,1,0,0:0:0:0:
320,192,160075,1,0,0:0:0:0:
192,192,160123,1,0,0:0:0:0:
320,192,160171,1,0,0:0:0:0:
448,192,160171,1,0,0:0:0:0:
64,192,160218,1,0,0:0:0:0:
192,192,160266,1,0,0:0:0:0:
448,192,160266,1,0,0:0:0:0:
320,192,160313,1,0,0:0:0:0:
64,192,160361,1,0,0:0:0:0:
192,192,160361,1,0,0:0:0:0:
448,192,160361,1,0,0:0:0:0:
320,192,160409,1,0,0:0:0:0:
64,192,160456,1,0,0:0:0:0:
192,192,160504,1,0,0:0:0:0:
448,192,160551,1,0,0:0:0:0:
320,192,160599,1,0,0:0:0:0:
64,192,160647,1,0,0:0:0:0:
192,192,160647,1,0,0:0:0:0:
448,192,160694,1,0,0:0:0:0:
192,192,160742,1,0,0:0:0:0:
320,192,160742,1,0,0:0:0:0:
64,192,160790,1,0,0:0:0:0:
320,192,160837,1,0,0:0:0:0:
448,192,160837,1,0,0:0:0:0:
192,192,160885,1,0,0:0:0:0:
64,192,160932,1,0,0:0:0:0:
320,192,160932,1,0,0:0:0:0:
448,192,160932,1,0,0:0:0:0:
192,192,160980,1,0,0:0:0:0:
64,192,161028,1,0,0:0:0:0:
320,192,161075,1,0,0:0:0:0:
192,192,161123,1,0,0:0:0:0:
448,192,161171,1,0,0:0:0:0:
64,192,161218,1,0,0:0:0:0:
320,192,161218,1,0,0:0:0:0:
192,192,161266,1,0,0:0:0:0:
320,192,161313,1,0,0:0:0:0:
448,192,161313,1,0,0:0:0:0:
64,192,161361,1,0,0:0:0:0:
192,192,161409,1,0,0:0:0:0:
448,192,161409,1,0,0:0:0:0:
320,192,161456,1,0,0:0:0:0:
64,192,161504,1,0,0:0:0:0:
192,192,161504,1,0,0:0:0:0:
448,192,161504,1,0,0:0:0:0:
320,192,161551,1,0,0:0:0:0:
64,192,161599,1,0,0:0:0:0:
448,192,161647,1,0,0:0:0:0:
320,192,161694,1,0,0:0:0:0:
192,192,161742,1,0,0:0:0:0:
320,192,161790,1,0,0:0:0:0:
448,192,161790,1,0,0:0:0:0:
64,192,161837,1,0,0:0:0:0:
192,192,161885,1,0,0:0:0:0:
448,192,161885,1,0,0:0:0:0:
320,192,161932,1,0,0:0:0:0:
64,192,161980,1,0,0:0:0:0:
192,192,161980,1,0,0:0:0:0:
448,192,162028,1,0,0:0:0:0:
64,192,162075,1,0,0:0:0:0:
192,192,162075,1,0,0:0:0:0:
320,192,162075,1,0,0:0:0:0:
448,192,162123,1,0,0:0:0:0:
320,192,162171,1,0,0:0:0:0:
192,192,162218,1,0,0:0:0:0:
448,192,162266,1,0,0:0:0:0:
320,192,162313,1,0,0:0:0:0:
64,192,162361,1,0,0:0:0:0:
192,192,162361,1,0,0:0:0:0:
448,192,162361,1,0,0:0:0:0:
320,192,162409,1,0,0:0:0:0:
64,192,162456,1,0,0:0:0:0:
192,192,162504,1,0,0:0:0:0:
320,192,162551,1,0,0:0:0:0:
64,192,162599,1,0,0:0:0:0:
192,192,162647,1,0,0:0:0:0:
320,192,162647,1,0,0:0:0:0:
448,192,162647,1,0,0:0:0:0:
64,192,162694,1,0,0:0:0:0:
192,192,162742,1,0,0:0:0:0:
448,192,162790,1,0,0:0:0:0:
320,192,162837,1,0,0:0:0:0:
64,192,162885,1,0,0:0:0:0:
192,192,162932,1,0,0:0:0:0:
448,192,162932,1,0,0:0:0:0:
320,192,162980,1,0,0:0:0:0:
64,192,163028,1,0,0:0:0:0:
192,192,163028,1,0,0:0:0:0:
448,192,163075,1,0,0:0:0:0:
64,192,163123,1,0,0:0:0:0:
320,192,163123,1,0,0:0:0:0:
192,192,163171,1,0,0:0:0:0:
64,192,163218,1,0,0:0:0:0:
320,192,163218,1,0,0:0:0:0:
448,192,163218,1,0,0:0:0:0:
192,192,163266,1,0,0:0:0:0:
448,192,163313,1,0,0:0:0:0:
64,192,163361,1,0,0:0:0:0:
192,192,163409,1,0,0:0:0:0:
448,192,163456,1,0,0:0:0:0:
192,192,163504,1,0,0:0:0:0:
320,192,163504,1,0,0:0:0:0:
64,192,163551,1,0,0:0:0:0:
320,192,163599,1,0,0:0:0:0:
448,192,163599,1,0,0:0:0:0:
192,192,163647,1,0,0:0:0:0:
64,192,163694,1,0,0:0:0:0:
448,192,163694,1,0,0:0:0:0:
320,192,163742,1,0,0:0:0:0:
64,192,163790,1,0,0:0:0:0:
192,192,163790,1,0,0:0:0:0:
448,192,163790,1,0,0:0:0:0:
320,192,163837,1,0,0:0:0:0:
192,192,163885,1,0,0:0:0:0:
448,192,163932,1,0,0:0:0:0:
64,192,163980,1,0,0:0:0:0:
192,192,164028,1,0,0:0:0:0:
320,192,164075,1,0,0:0:0:0:
448,192,164075,1,0,0:0:0:0:
64,192,164123,1,0,0:0:0:0:
192,192,164171,1,0,0:0:0:0:
448,192,164171,1,0,0:0:0:0:
320,192,164218,1,0,0:0:0:0:
64,192,164266,1,0,0:0:0:0:
192,192,164266,1,0,0:0:0:0:
448,192,164313,1,0,0:0:0:0:
64,192,164361,1,0,0:0:0:0:
192,192,164361,1,0,0:0:0:0:
320,192,164361,1,0,0:0:0:0:
448,192,164409,1,0,0:0:0:0:
320,192,164456,1,0,0:0:0:0:
64,192,164504,1,0,0:0:0:0:
192,192,164551,1,0,0:0:0:0:
320,192,164551,1,0,0:0:0:0:
448,192,164551,1,0,0:0:0:0:
64,192,164599,1,0,0:0:0:0:
192,192,164647,1,0,0:0:0:0:
320,192,164694,1,0,0:0:0:0:
64,192,164742,1,0,0:0:0:0:
192,192,164742,1,0,0:0:0:0:
448,192,164742,1,0,0:0:0:0:
320,192,164790,1,0,0:0:0:0:
448,192,164837,1,0,0:0:0:0:
64,192,164885,1,0,0:0:0:0:
192,192,164932,1,0,0:0:0:0:
320,192,164932,1,0,0:0:0:0:
448,192,164932,1,0,0:0:0:0:
64,192,164980,1,0,0:0:0:0:
192,192,165028,1,0,0:0:0:0:
448,192,165075,1,0,0:0:0:0:
320,192,165123,1,0,0:0:0:0:
64,192,165171,1,0,0:0:0:0:
192,192,165218,1,0,0:0:0:0:
320,192,165218,1,0,0:0:0:0:
448,192,165266,1,0,0:0:0:0:
64,192,165313,1,0,0:0:0:0:
192,192,165313,1,0,0:0:0:0:
320,192,165361,1,0,0:0:0:0:
64,192,165409,1,0,0:0:0:0:
448,192,165409,1,0,0:0:0:0:
192,192,165456,1,0,0:0:0:0:
64,192,165504,1,0,0:0:0:0:
320,192,165504,1,0,0:0:0:0:
448,192,165504,1,0,0:0:0:0:
192,192,165551,1,0,0:0:0:0:
448,192,165599,1,0,0:0:0:0:
320,192,165647,1,0,0:0:0:0:
192,192,165694,1,0,0:0:0:0:
448,192,165742,1,0,0:0:0:0:
64,192,165790,1,0,0:0:0:0:
320,192,165790,1,0,0:0:0:0:
192,192,165837,1,0,0:0:0:0:
320,192,165885,1,0,0:0:0:0:
448,192,165885,1,0,0:0:0:0:
64,192,165932,1,0,0:0:0:0:
192,192,165980,1,0,0:0:0:0:
448,192,165980,1,0,0:0:0:0:
320,192,166028,1,0,0:0:0:0:
64,192,166075,1,0,0:0:0:0:
192,192,166075,1,0,0:0:0:0:
448,192,166075,1,0,0:0:0:0:
320,192,166123,1,0,0:0:0:0:
64,192,166171,1,0,0:0:0:0:
192,192,166218,1,0,0:0:0:0:
448,192,166266,1,0,0:0:0:0:
320,192,166313,1,0,0:0:0:0:
64,192,166361,1,0,0:0:0:0:
192,192,166361,1,0,0:0:0:0:
448,192,166409,1,0,0:0:0:0:
192,192,166456,1,0,0:0:0:0:
320,192,166456,1,0,0:0:0:0:
64,192,166504,1,0,0:0:0:0:
320,192,166551,1,0,0:0:0:0:
448,192,166551,1,0,0:0:0:0:
192,192,166599,1,0,0:0:0:0:
64,192,166647,1,0,0:0:0:0:
320,192,166647,1,0,0:0:0:0:
448,192,166647,1,0,0:0:0:0:
192,192,166694,1,0,0:0:0:0:
64,192,166742,1,0,0:0:0:0:
320,192,166790,1,0,0:0:0:0:
448,192,166837,1,0,0:0:0:0:
64,192,166885,1,0,0:0:0:0:
192,192,166932,1,0,0:0:0:0:
320,192,166932,1,0,0:0:0:0:
448,192,166932,1,0,0:0:0:0:
64,192,167028,1,0,0:0:0:0:
192,192,167028,1,0,0:0:0:0:
320,192,167028,1,0,0:0:0:0:
64,192,167123,1,0,0:0:0:0:
320,192,167123,1,0,0:0:0:0:
448,192,167123,1,0,0:0:0:0:
64,192,167218,1,0,0:0:0:0:
192,192,167218,1,0,0:0:0:0:
320,192,167266,1,0,0:0:0:0:
448,192,167313,1,0,0:0:0:0:
192,192,167361,1,0,0:0:0:0:
320,192,167409,1,0,0:0:0:0:
448,192,167456,1,0,0:0:0:0:
192,192,167504,1,0,0:0:0:0:
64,192,167551,1,0,0:0:0:0:
320,192,167599,1,0,0:0:0:0:
448,192,167599,1,0,0:0:0:0:
192,192,167647,1,0,0:0:0:0:
64,192,167694,1,0,0:0:0:0:
320,192,167694,1,0,0:0:0:0:
448,192,167742,1,0,0:0:0:0:
64,192,167790,1,0,0:0:0:0:
192,192,167790,1,0,0:0:0:0:
320,192,167837,1,0,0:0:0:0:
64,192,167885,1,0,0:0:0:0:
192,192,167885,1,0,0:0:0:0:
448,192,167885,1,0,0:0:0:0:
320,192,167932,1,0,0:0:0:0:
448,192,167980,1,0,0:0:0:0:
192,192,168028,1,0,0:0:0:0:
320,192,168075,1,0,0:0:0:0:
64,192,168123,1,0,0:0:0:0:
192,192,168171,1,0,0:0:0:0:
448,192,168171,1,0,0:0:0:0:
320,192,168218,1,0,0:0:0:0:
64,192,168266,1,0,0:0:0:0:
192,192,168313,1,0,0:0:0:0:
64,192,168361,1,0,0:0:0:0:
320,192,168361,1,0,0:0:0:0:
448,192,168361,1,0,0:0:0:0:
192,192,168409,1,0,0:0:0:0:
448,192,168456,1,0,0:0:0:0:
320,192,168504,1,0,0:0:0:0:
64,192,168551,1,0,0:0:0:0:
192,192,168551,1,0,0:0:0:0:
448,192,168599,1,0,0:0:0:0:
192,192,168647,1,0,0:0:0:0:
64,192,168694,1,0,0:0:0:0:
320,192,168742,1,0,0:0:0:0:
448,192,168742,1,0,0:0:0:0:
192,192,168790,1,0,0:0:0:0:
320,192,168837,1,0,0:0:0:0:
448,192,168837,1,0,0:0:0:0:
192,192,168885,1,0,0:0:0:0:
64,192,168932,1,0,0:0:0:0:
320,192,168932,1,0,0:0:0:0:
448,192,168932,1,0,0:0:0:0:
192,192,168980,1,0,0:0:0:0:
320,192,169028,1,0,0:0:0:0:
448,192,169075,1,0,0:0:0:0:
64,192,169123,1,0,0:0:0:0:
192,192,169123,1,0,0:0:0:0:
320,192,169123,1,0,0:0:0:0:
448,192,169171,1,0,0:0:0:0:
192,192,169218,1,0,0:0:0:0:
64,192,169266,1,0,0:0:0:0:
192,192,169313,1,0,0:0:0:0:
320,192,169313,1,0,0:0:0:0:
448,192,169313,1,0,0:0:0:0:
64,192,169361,1,0,0:0:0:0:
448,192,169409,1,0,0:0:0:0:
320,192,169456,1,0,0:0:0:0:
64,192,169504,1,0,0:0:0:0:
192,192,169504,1,0,0:0:0:0:
448,192,169504,1,0,0:0:0:0:
320,192,169551,1,0,0:0:0:0:
64,192,169599,1,0,0:0:0:0:
192,192,169647,1,0,0:0:0:0:
320,192,169694,1,0,0:0:0:0:
192,192,169742,1,0,0:0:0:0:
320,192,169790,1,0,0:0:0:0:
448,192,169790,1,0,0:0:0:0:
64,192,169837,1,0,0:0:0:0:
192,192,169885,1,0,0:0:0:0:
448,192,169885,1,0,0:0:0:0:
320,192,169932,1,0,0:0:0:0:
64,192,169980,1,0,0:0:0:0:
192,192,169980,1,0,0:0:0:0:
448,192,170028,1,0,0:0:0:0:
64,192,170075,1,0,0:0:0:0:
192,192,170075,1,0,0:0:0:0:
320,192,170075,1,0,0:0:0:0:
448,192,170123,1,0,0:0:0:0:
320,192,170171,1,0,0:0:0:0:
64,192,170218,1,0,0:0:0:0:
192,192,170266,1,0,0:0:0:0:
448,192,170313,1,0,0:0:0:0:
64,192,170361,1,0,0:0:0:0:
320,192,170361,1,0,0:0:0:0:
192,192,170409,1,0,0:0:0:0:
64,192,170456,1,0,0:0:0:0:
448,192,170456,1,0,0:0:0:0:
320,192,170504,1,0,0:0:0:0:
64,192,170551,1,0,0:0:0:0:
192,192,170551,1,0,0:0:0:0:
448,192,170599,1,0,0:0:0:0:
64,192,170647,1,0,0:0:0:0:
192,192,170647,1,0,0:0:0:0:
320,192,170647,1,0,0:0:0:0:
448,192,170694,1,0,0:0:0:0:
320,192,170742,1,0,0:0:0:0:
192,192,170790,1,0,0:0:0:0:
64,192,170837,1,0,0:0:0:0:
448,192,170837,1,0,0:0:0:0:
320,192,170885,1,0,0:0:0:0:
192,192,170932,1,0,0:0:0:0:
448,192,170932,1,0,0:0:0:0:
64,192,170980,1,0,0:0:0:0:
192,192,171028,1,0,0:0:0:0:
320,192,171028,1,0,0:0:0:0:
448,192,171075,1,0,0:0:0:0:
64,192,171123,1,0,0:0:0:0:
320,192,171123,1,0,0:0:0:0:
192,192,171171,1,0,0:0:0:0:
64,192,171218,1,0,0:0:0:0:
320,192,171218,1,0,0:0:0:0:
448,192,171218,1,0,0:0:0:0:
192,192,171266,1,0,0:0:0:0:
320,192,171313,1,0,0:0:0:0:
448,192,171361,1,0,0:0:0:0:
192,192,171409,1,0,0:0:0:0:
320,192,171456,1,0,0:0:0:0:
64,192,171504,1,0,0:0:0:0:
192,192,171504,1,0,0:0:0:0:
448,192,171504,1,0,0:0:0:0:
320,192,171551,1,0,0:0:0:0:
192,192,171599,1,0,0:0:0:0:
64,192,171647,1,0,0:0:0:0:
448,192,171694,1,0,0:0:0:0:
320,192,171742,1,0,0:0:0:0:
64,192,171790,1,0,0:0:0:0:
192,192,171790,1,0,0:0:0:0:
448,192,171790,1,0,0:0:0:0:
320,192,171837,1,0,0:0:0:0:
192,192,171885,1,0,0:0:0:0:
448,192,171932,1,0,0:0:0:0:
64,192,171980,1,0,0:0:0:0:
192,192,172028,1,0,0:0:0:0:
64,192,172075,1,0,0:0:0:0:
448,192,172075,1,0,0:0:0:0:
192,192,172123,1,0,0:0:0:0:
320,192,172171,1,0,0:0:0:0:
448,192,172171,1,0,0:0:0:0:
64,192,172218,1,0,0:0:0:0:
192,192,172266,1,0,0:0:0:0:
320,192,172266,1,0,0:0:0:0:
448,192,172313,1,0,0:0:0:0:
64,192,172361,1,0,0:0:0:0:
192,192,172361,1,0,0:0:0:0:
320,192,172361,1,0,0:0:0:0:
448,192,172409,1,0,0:0:0:0:
320,192,172456,1,0,0:0:0:0:
64,192,172504,1,0,0:0:0:0:
192,192,172551,1,0,0:0:0:0:
320,192,172551,1,0,0:0:0:0:
448,192,172551,1,0,0:0:0:0:
64,192,172599,1,0,0:0:0:0:
192,192,172647,1,0,0:0:0:0:
320,192,172694,1,0,0:0:0:0:
64,192,172742,1,0,0:0:0:0:
192,192,172742,1,0,0:0:0:0:
448,192,172742,1,0,0:0:0:0:
320,192,172790,1,0,0:0:0:0:
64,192,172837,1,0,0:0:0:0:
448,192,172837,1,0,0:0:0:0:
192,192,172885,1,0,0:0:0:0:
64,192,172932,1,0,0:0:0:0:
320,192,172932,1,0,0:0:0:0:
448,192,172932,1,0,0:0:0:0:
192,192,172980,1,0,0:0:0:0:
448,192,173028,1,0,0:0:0:0:
320,192,173075,1,0,0:0:0:0:
192,192,173123,1,0,0:0:0:0:
64,192,173171,1,0,0:0:0:0:
320,192,173218,1,0,0:0:0:0:
448,192,173266,1,0,0:0:0:0:
64,192,173313,1,0,0:0:0:0:
192,192,173313,1,0,0:0:0:0:
320,192,173361,1,0,0:0:0:0:
64,192,173409,1,0,0:0:0:0:
192,192,173409,1,0,0:0:0:0:
320,192,173456,1,0,0:0:0:0:
64,192,173504,1,0,0:0:0:0:
192,192,173504,1,0,0:0:0:0:
448,192,173504,1,0,0:0:0:0:
320,192,173551,1,0,0:0:0:0:
448,192,173599,1,0,0:0:0:0:
192,192,173647,1,0,0:0:0:0:
64,192,173694,1,0,0:0:0:0:
320,192,173694,1,0,0:0:0:0:
448,192,173694,1,0,0:0:0:0:
192,192,173742,1,0,0:0:0:0:
64,192,173790,1,0,0:0:0:0:
448,192,173837,1,0,0:0:0:0:
64,192,173885,1,0,0:0:0:0:
192,192,173885,1,0,0:0:0:0:
320,192,173885,1,0,0:0:0:0:
448,192,173932,1,0,0:0:0:0:
320,192,173980,1,0,0:0:0:0:
64,192,174028,1,0,0:0:0:0:
192,192,174075,1,0,0:0:0:0:
320,192,174075,1,0,0:0:0:0:
448,192,174075,1,0,0:0:0:0:
64,192,174123,1,0,0:0:0:0:
192,192,174171,1,0,0:0:0:0:
448,192,174218,1,0,0:0:0:0:
320,192,174266,1,0,0:0:0:0:
192,192,174313,1,0,0:0:0:0:
320,192,174361,1,0,0:0:0:0:
448,192,174361,1,0,0:0:0:0:
64,192,174409,1,0,0:0:0:0:
192,192,174456,1,0,0:0:0:0:
448,192,174456,1,0,0:0:0:0:
320,192,174504,1,0,0:0:0:0:
64,192,174551,1,0,0:0:0:0:
192,192,174551,1,0,0:0:0:0:
448,192,174599,1,0,0:0:0:0:
64,192,174647,1,0,0:0:0:0:
192,192,174647,1,0,0:0:0:0:
320,192,174647,1,0,0:0:0:0:
448,192,174694,1,0,0:0:0:0:
320,192,174742,1,0,0:0:0:0:
64,192,174790,1,0,0:0:0:0:
192,192,174837,1,0,0:0:0:0:
448,192,174885,1,0,0:0:0:0:
64,192,174932,1,0,0:0:0:0:
320,192,174932,1,0,0:0:0:0:
192,192,174980,1,0,0:0:0:0:
320,192,175028,1,0,0:0:0:0:
448,192,175028,1,0,0:0:0:0:
64,192,175075,1,0,0:0:0:0:
192,192,175123,1,0,0:0:0:0:
448,192,175123,1,0,0:0:0:0:
320,192,175171,1,0,0:0:0:0:
64,192,175218,1,0,0:0:0:0:
192,192,175218,1,0,0:0:0:0:
448,192,175218,1,0,0:0:0:0:
320,192,175266,1,0,0:0:0:0:
64,192,175313,1,0,0:0:0:0:
448,192,175361,1,0,0:0:0:0:
320,192,175409,1,0,0:0:0:0:
192,192,175456,1,0,0:0:0:0:
64,192,175504,1,0,0:0:0:0:
448,192,175504,1,0,0:0:0:0:
320,192,175551,1,0,0:0:0:0:
64,192,175599,1,0,0:0:0:0:
192,192,175599,1,0,0:0:0:0:
448,192,175647,1,0,0:0:0:0:
192,192,175694,1,0,0:0:0:0:
320,192,175694,1,0,0:0:0:0:
64,192,175742,1,0,0:0:0:0:
192,192,175790,1,0,0:0:0:0:
320,192,175790,1,0,0:0:0:0:
448,192,175790,1,0,0:0:0:0:
64,192,175837,1,0,0:0:0:0:
448,192,175885,1,0,0:0:0:0:
192,192,175932,1,0,0:0:0:0:
320,192,175980,1,0,0:0:0:0:
448,192,176028,1,0,0:0:0:0:
64,192,176075,1,0,0:0:0:0:
192,192,176075,1,0,0:0:0:0:
320,192,176123,1,0,0:0:0:0:
64,192,176171,1,0,0:0:0:0:
448,192,176171,1,0,0:0:0:0:
192,192,176218,1,0,0:0:0:0:
320,192,176266,1,0,0:0:0:0:
448,192,176266,1,0,0:0:0:0:
64,192,176313,1,0,0:0:0:0:
192,192,176361,1,0,0:0:0:0:
320,192,176361,1,0,0:0:0:0:
448,192,176361,1,0,0:0:0:0:
64,192,176409,1,0,0:0:0:0:
192,192,176456,1,0,0:0:0:0:
448,192,176504,1,0,0:0:0:0:
64,192,176551,1,0,0:0:0:0:
320,192,176551,1,0,0:0:0:0:
192,192,176599,1,0,0:0:0:0:
448,192,176647,1,0,0:0:0:0:
64,192,176694,1,0,0:0:0:0:
192,192,176742,1,0,0:0:0:0:
320,192,176742,1,0,0:0:0:0:
448,192,176790,1,0,0:0:0:0:
64,192,176837,1,0,0:0:0:0:
192,192,176885,1,0,0:0:0:0:
64,192,176932,1,0,0:0:0:0:
320,192,176932,1,0,0:0:0:0:
448,192,176932,1,0,0:0:0:0:
64,192,177028,1,0,0:0:0:0:
320,192,177028,1,0,0:0:0:0:
448,192,177028,1,0,0:0:0:0:
64,192,177123,1,0,0:0:0:0:
192,192,177123,1,0,0:0:0:0:
448,192,177123,1,0,0:0:0:0:
64,192,177218,1,0,0:0:0:0:
192,192,177218,1,0,0:0:0:0:
448,192,177218,1,0,0:0:0:0:
320,192,177313,1,0,0:0:0:0:
448,192,177313,1,0,0:0:0:0:
64,192,177361,1,0,0:0:0:0:
192,192,177361,1,0,0:0:0:0:
320,192,177409,1,0,0:0:0:0:
448,192,177409,1,0,0:0:0:0:
64,192,177456,1,0,0:0:0:0:
192,192,177456,1,0,0:0:0:0:
320,192,177504,1,0,0:0:0:0:
448,192,177504,1,0,0:0:0:0:
64,192,177551,1,0,0:0:0:0:
192,192,177599,1,0,0:0:0:0:
448,192,177647,1,0,0:0:0:0:
64,192,177694,1,0,0:0:0:0:
192,192,177742,1,0,0:0:0:0:
320,192,177790,1,0,0:0:0:0:
448,192,177790,1,0,0:0:0:0:
64,192,177837,1,0,0:0:0:0:
192,192,177885,1,0,0:0:0:0:
320,192,177932,1,0,0:0:0:0:
192,192,177980,1,0,0:0:0:0:
320,192,178028,1,0,0:0:0:0:
64,192,178075,1,0,0:0:0:0:
448,192,178075,1,0,0:0:0:0:
192,192,178123,1,0,0:0:0:0:
320,192,178171,1,0,0:0:0:0:
192,192,178218,1,0,0:0:0:0:
64,192,178266,1,0,0:0:0:0:
192,192,178313,1,0,0:0:0:0:
320,192,178361,1,0,0:0:0:0:
448,192,178361,1,0,0:0:0:0:
64,192,178409,1,0,0:0:0:0:
320,192,178456,1,0,0:0:0:0:
448,192,178456,1,0,0:0:0:0:
192,192,178504,1,0,0:0:0:0:
320,192,178551,1,0,0:0:0:0:
448,192,178551,1,0,0:0:0:0:
64,192,178599,1,0,0:0:0:0:
192,192,178647,128,0,178694:0:0:0:0:
448,192,178647,1,0,0:0:0:0:
320,192,178742,1,0,0:0:0:0:
192,192,178837,1,0,0:0:0:0:
320,192,178932,1,0,0:0:0:0:
448,192,178932,128,0,178980:0:0:0:0:
64,192,179028,128,0,179075:0:0:0:0:
192,192,179028,1,0,0:0:0:0:
192,192,179123,1,0,0:0:0:0:
448,192,179123,128,0,179171:0:0:0:0:
64,192,179218,1,0,0:0:0:0:
320,192,179218,128,0,179266:0:0:0:0:
192,192,179313,1,0,0:0:0:0:
448,192,179409,1,0,0:0:0:0:
64,192,179504,1,0,0:0:0:0:
320,192,179504,128,0,179551:0:0:0:0:
192,192,179599,128,0,179647:0:0:0:0:
448,192,179599,1,0,0:0:0:0:
320,192,179694,128,0,179742:0:0:0:0:
448,192,179694,1,0,0:0:0:0:
64,192,179790,128,0,179837:0:0:0:0:
192,192,179790,1,0,0:0:0:0:
320,192,179790,1,0,0:0:0:0:
448,192,179885,1,0,0:0:0:0:
320,192,179980,1,0,0:0:0:0:
64,192,180075,1,0,0:0:0:0:
192,192,180075,128,0,180123:0:0:0:0:
320,192,180171,1,0,0:0:0:0:
448,192,180171,128,0,180218:0:0:0:0:
192,192,180266,128,0,180313:0:0:0:0:
320,192,180266,1,0,0:0:0:0:
64,192,180361,128,0,180647:0:0:0:0:
448,192,180361,1,0,0:0:0:0:
320,192,180456,1,0,0:0:0:0:
192,192,180551,1,0,0:0:0:0:
320,192,180647,1,0,0:0:0:0:
448,192,180647,128,0,180837:0:0:0:0:
64,192,180742,1,0,0:0:0:0:
320,192,180837,1,0,0:0:0:0:
192,192,180885,1,0,0:0:0:0:
64,192,180932,1,0,0:0:0:0:
320,192,180968,1,0,0:0:0:0:
192,192,180996,1,0,0:0:0:0:
448,192,181028,1,0,0:0:0:0:
64,192,181063,1,0,0:0:0:0:
320,192,181091,1,0,0:0:0:0:
192,192,181123,1,0,0:0:0:0:
448,192,181171,1,0,0:0:0:0:
64,192,181218,1,0,0:0:0:0:
192,192,181218,128,0,181266:0:0:0:0:
64,192,181313,1,0,0:0:0:0:
448,192,181313,128,0,181361:0:0:0:0:
64,192,181409,1,0,0:0:0:0:
192,192,181409,128,0,181456:0:0:0:0:
320,192,181504,128,0,181551:0:0:0:0:
448,192,181504,1,0,0:0:0:0:
192,192,181599,1,0,0:0:0:0:
448,192,181694,1,0,0:0:0:0:
192,192,181790,128,0,181837:0:0:0:0:
320,192,181790,1,0,0:0:0:0:
64,192,181885,128,0,181932:0:0:0:0:
320,192,181885,1,0,0:0:0:0:
192,192,181980,128,0,182028:0:0:0:0:
320,192,181980,1,0,0:0:0:0:
64,192,182075,1,0,0:0:0:0:
192,192,182075,1,0,0:0:0:0:
448,192,182075,128,0,182123:0:0:0:0:
320,192,182171,1,0,0:0:0:0:
64,192,182266,1,0,0:0:0:0:
192,192,182361,1,0,0:0:0:0:
448,192,182361,128,0,182409:0:0:0:0:
192,192,182456,1,0,0:0:0:0:
320,192,182456,128,0,182504:0:0:0:0:
192,192,182551,1,0,0:0:0:0:
448,192,182551,128,0,182599:0:0:0:0:
64,192,182647,128,0,182694:0:0:0:0:
320,192,182647,1,0,0:0:0:0:
448,192,182647,1,0,0:0:0:0:
320,192,182742,1,0,0:0:0:0:
64,192,182837,1,0,0:0:0:0:
192,192,182837,1,0,0:0:0:0:
448,192,182837,128,0,182885:0:0:0:0:
192,192,182932,1,0,0:0:0:0:
320,192,183028,1,0,0:0:0:0:
448,192,183123,1,0,0:0:0:0:
64,192,183218,1,0,0:0:0:0:
320,192,183218,1,0,0:0:0:0:
192,192,183266,1,0,0:0:0:0:
448,192,183313,1,0,0:0:0:0:
64,192,183361,1,0,0:0:0:0:
192,192,183409,1,0,0:0:0:0:
448,192,183432,1,0,0:0:0:0:
64,192,183504,1,0,0:0:0:0:
192,192,183551,1,0,0:0:0:0:
448,192,183575,1,0,0:0:0:0:
64,192,183631,1,0,0:0:0:0:
320,192,183663,1,0,0:0:0:0:
192,192,183694,1,0,0:0:0:0:
320,192,183742,1,0,0:0:0:0:
448,192,183790,1,0,0:0:0:0:
64,192,183821,1,0,0:0:0:0:
320,192,183853,1,0,0:0:0:0:
192,192,183885,1,0,0:0:0:0:
64,192,183932,1,0,0:0:0:0:
320,192,183980,1,0,0:0:0:0:
448,192,183980,1,0,0:0:0:0:
192,192,184044,1,0,0:0:0:0:
320,192,184075,1,0,0:0:0:0:
448,192,184107,1,0,0:0:0:0:
64,192,184171,1,0,0:0:0:0:
192,192,184171,1,0,0:0:0:0:
320,192,184234,1,0,0:0:0:0:
192,192,184266,1,0,0:0:0:0:
64,192,184297,1,0,0:0:0:0:
192,192,184361,1,0,0:0:0:0:
320,192,184361,1,0,0:0:0:0:
448,192,184361,1,0,0:0:0:0:
64,192,184424,1,0,0:0:0:0:
320,192,184456,1,0,0:0:0:0:
192,192,184488,1,0,0:0:0:0:
448,192,184551,1,0,0:0:0:0:
320,192,184575,1,0,0:0:0:0:
192,192,184647,1,0,0:0:0:0:
448,192,184742,1,0,0:0:0:0:
320,192,184766,1,0,0:0:0:0:
192,192,184837,1,0,0:0:0:0:
64,192,184932,1,0,0:0:0:0:
448,192,184932,1,0,0:0:0:0:
320,192,185028,1,0,0:0:0:0:
192,192,185123,1,0,0:0:0:0:
448,192,185123,1,0,0:0:0:0:
64,192,185147,1,0,0:0:0:0:
320,192,185218,1,0,0:0:0:0:
64,192,185313,1,0,0:0:0:0:
192,192,185409,1,0,0:0:0:0:
64,192,185504,1,0,0:0:0:0:
320,192,185504,128,0,185551:0:0:0:0:
64,192,185599,1,0,0:0:0:0:
320,192,185599,1,0,0:0:0:0:
192,192,185694,128,0,185742:0:0:0:0:
448,192,185694,1,0,0:0:0:0:
192,192,185790,1,0,0:0:0:0:
320,192,185790,1,0,0:0:0:0:
64,192,185885,1,0,0:0:0:0:
320,192,185885,1,0,0:0:0:0:
64,192,185980,1,0,0:0:0:0:
448,192,185980,1,0,0:0:0:0:
192,192,186075,1,0,0:0:0:0:
320,192,186075,1,0,0:0:0:0:
448,192,186075,1,0,0:0:0:0:
64,192,186171,1,0,0:0:0:0:
320,192,186171,1,0,0:0:0:0:
64,192,186266,1,0,0:0:0:0:
192,192,186266,1,0,0:0:0:0:
320,192,186361,1,0,0:0:0:0:
448,192,186361,1,0,0:0:0:0:
192,192,186409,1,0,0:0:0:0:
64,192,186456,1,0,0:0:0:0:
448,192,186456,1,0,0:0:0:0:
320,192,186504,1,0,0:0:0:0:
192,192,186551,1,0,0:0:0:0:
320,192,186599,1,0,0:0:0:0:
192,192,186647,1,0,0:0:0:0:
448,192,186647,1,0,0:0:0:0:
64,192,186678,1,0,0:0:0:0:
320,192,186710,1,0,0:0:0:0:
192,192,186742,1,0,0:0:0:0:
448,192,186774,1,0,0:0:0:0:
320,192,186837,1,0,0:0:0:0:
64,192,186885,1,0,0:0:0:0:
448,192,186932,1,0,0:0:0:0:
192,192,186980,1,0,0:0:0:0:
320,192,187028,1,0,0:0:0:0:
64,192,187075,1,0,0:0:0:0:
192,192,187123,1,0,0:0:0:0:
448,192,187171,1,0,0:0:0:0:
192,192,187218,1,0,0:0:0:0:
320,192,187218,1,0,0:0:0:0:
64,192,187266,1,0,0:0:0:0:
320,192,187313,1,0,0:0:0:0:
192,192,187361,1,0,0:0:0:0:
448,192,187409,1,0,0:0:0:0:
192,192,187456,1,0,0:0:0:0:
320,192,187504,1,0,0:0:0:0:
64,192,187551,1,0,0:0:0:0:
192,192,187599,1,0,0:0:0:0:
448,192,187647,1,0,0:0:0:0:
192,192,187694,1,0,0:0:0:0:
320,192,187742,1,0,0:0:0:0:
64,192,187790,1,0,0:0:0:0:
192,192,187790,1,0,0:0:0:0:
320,192,187885,1,0,0:0:0:0:
448,192,187885,1,0,0:0:0:0:
64,192,187980,1,0,0:0:0:0:
448,192,187980,1,0,0:0:0:0:
192,192,188075,1,0,0:0:0:0:
320,192,188075,1,0,0:0:0:0:
64,192,188171,1,0,0:0:0:0:
320,192,188171,1,0,0:0:0:0:
192,192,188266,1,0,0:0:0:0:
320,192,188266,1,0,0:0:0:0:
64,192,188361,1,0,0:0:0:0:
320,192,188361,1,0,0:0:0:0:
448,192,188361,1,0,0:0:0:0:
192,192,188456,1,0,0:0:0:0:
448,192,188456,1,0,0:0:0:0:
64,192,188551,1,0,0:0:0:0:
320,192,188551,1,0,0:0:0:0:
192,192,188647,1,0,0:0:0:0:
320,192,188647,1,0,0:0:0:0:
192,192,188742,1,0,0:0:0:0:
448,192,188742,1,0,0:0:0:0:
192,192,188837,1,0,0:0:0:0:
320,192,188837,1,0,0:0:0:0:
64,192,188932,1,0,0:0:0:0:
320,192,188932,1,0,0:0:0:0:
448,192,188932,1,0,0:0:0:0:
192,192,189028,1,0,0:0:0:0:
64,192,189123,1,0,0:0:0:0:
448,192,189123,1,0,0:0:0:0:
192,192,189218,1,0,0:0:0:0:
320,192,189218,1,0,0:0:0:0:
64,192,189313,1,0,0:0:0:0:
320,192,189313,1,0,0:0:0:0:
192,192,189409,1,0,0:0:0:0:
320,192,189409,1,0,0:0:0:0:
64,192,189504,1,0,0:0:0:0:
192,192,189504,1,0,0:0:0:0:
448,192,189504,1,0,0:0:0:0:
320,192,189599,1,0,0:0:0:0:
448,192,189599,1,0,0:0:0:0:
64,192,189694,1,0,0:0:0:0:
192,192,189694,1,0,0:0:0:0:
192,192,189790,1,0,0:0:0:0:
320,192,189790,1,0,0:0:0:0:
448,192,189790,1,0,0:0:0:0:
64,192,189885,1,0,0:0:0:0:
320,192,189885,1,0,0:0:0:0:
192,192,189980,1,0,0:0:0:0:
448,192,189980,1,0,0:0:0:0:
64,192,190075,1,0,0:0:0:0:
320,192,190075,128,0,190123:0:0:0:0:
448,192,190075,1,0,0:0:0:0:
192,192,190171,1,0,0:0:0:0:
448,192,190266,1,0,0:0:0:0:
192,192,190361,1,0,0:0:0:0:
320,192,190385,1,0,0:0:0:0:
64,192,190456,1,0,0:0:0:0:
192,192,190551,1,0,0:0:0:0:
320,192,190575,1,0,0:0:0:0:
448,192,190647,1,0,0:0:0:0:
320,192,190742,1,0,0:0:0:0:
192,192,190837,1,0,0:0:0:0:
448,192,190932,1,0,0:0:0:0:
64,192,190956,1,0,0:0:0:0:
192,192,191028,1,0,0:0:0:0:
448,192,191123,1,0,0:0:0:0:
64,192,191147,1,0,0:0:0:0:
192,192,191218,1,0,0:0:0:0:
320,192,191218,1,0,0:0:0:0:
448,192,191218,1,0,0:0:0:0:
64,192,191313,1,0,0:0:0:0:
448,192,191409,1,0,0:0:0:0:
64,192,191504,1,0,0:0:0:0:
320,192,191528,1,0,0:0:0:0:
64,192,191599,1,0,0:0:0:0:
320,192,191623,1,0,0:0:0:0:
192,192,191694,1,0,0:0:0:0:
448,192,191694,1,0,0:0:0:0:
192,192,191790,1,0,0:0:0:0:
320,192,191790,1,0,0:0:0:0:
448,192,191790,1,0,0:0:0:0:
320,192,191885,1,0,0:0:0:0:
448,192,191980,1,0,0:0:0:0:
64,192,192075,1,0,0:0:0:0:
192,192,192075,1,0,0:0:0:0:
320,192,192075,1,0,0:0:0:0:
192,192,192171,1,0,0:0:0:0:
64,192,192266,1,0,0:0:0:0:
448,192,192266,1,0,0:0:0:0:
320,192,192290,1,0,0:0:0:0:
192,192,192361,1,0,0:0:0:0:
320,192,192456,1,0,0:0:0:0:
64,192,192551,1,0,0:0:0:0:
448,192,192647,1,0,0:0:0:0:
320,192,192742,1,0,0:0:0:0:
192,192,192790,1,0,0:0:0:0:
64,192,192837,1,0,0:0:0:0:
448,192,192885,1,0,0:0:0:0:
192,192,192932,1,0,0:0:0:0:
320,192,192980,1,0,0:0:0:0:
448,192,193028,1,0,0:0:0:0:
192,192,193075,1,0,0:0:0:0:
320,192,193123,1,0,0:0:0:0:
64,192,193171,1,0,0:0:0:0:
448,192,193218,1,0,0:0:0:0:
320,192,193266,1,0,0:0:0:0:
192,192,193313,1,0,0:0:0:0:
448,192,193361,1,0,0:0:0:0:
320,192,193409,1,0,0:0:0:0:
64,192,193456,1,0,0:0:0:0:
192,192,193504,1,0,0:0:0:0:
320,192,193504,1,0,0:0:0:0:
448,192,193504,1,0,0:0:0:0:
192,192,193599,1,0,0:0:0:0:
320,192,193694,1,0,0:0:0:0:
64,192,193790,1,0,0:0:0:0:
320,192,193790,1,0,0:0:0:0:
192,192,193821,1,0,0:0:0:0:
448,192,193861,1,0,0:0:0:0:
320,192,193897,1,0,0:0:0:0:
64,192,193932,1,0,0:0:0:0:
448,192,193980,1,0,0:0:0:0:
192,192,194028,1,0,0:0:0:0:
320,192,194075,1,0,0:0:0:0:
64,192,194139,1,0,0:0:0:0:
448,192,194202,1,0,0:0:0:0:
192,192,194266,1,0,0:0:0:0:
320,192,194329,1,0,0:0:0:0:
64,192,194393,1,0,0:0:0:0:
192,192,194456,1,0,0:0:0:0:
448,192,194520,1,0,0:0:0:0:
320,192,194583,1,0,0:0:0:0:
64,192,194647,1,0,0:0:0:0:
192,192,194647,1,0,0:0:0:0:
448,192,194647,1,0,0:0:0:0:
320,192,194694,1,0,0:0:0:0:
192,192,194742,1,0,0:0:0:0:
448,192,194790,1,0,0:0:0:0:
320,192,194837,1,0,0:0:0:0:
64,192,194869,1,0,0:0:0:0:
192,192,194901,1,0,0:0:0:0:
448,192,194932,1,0,0:0:0:0:
320,192,194964,1,0,0:0:0:0:
64,192,195028,1,0,0:0:0:0:
192,192,195075,1,0,0:0:0:0:
448,192,195123,1,0,0:0:0:0:
64,192,195171,1,0,0:0:0:0:
320,192,195218,1,0,0:0:0:0:
448,192,195218,1,0,0:0:0:0:
192,192,195250,1,0,0:0:0:0:
64,192,195282,1,0,0:0:0:0:
320,192,195313,1,0,0:0:0:0:
448,192,195345,1,0,0:0:0:0:
192,192,195409,1,0,0:0:0:0:
320,192,195456,1,0,0:0:0:0:
192,192,195504,1,0,0:0:0:0:
64,192,195551,1,0,0:0:0:0:
320,192,195599,1,0,0:0:0:0:
448,192,195631,1,0,0:0:0:0:
192,192,195663,1,0,0:0:0:0:
320,192,195694,1,0,0:0:0:0:
64,192,195726,1,0,0:0:0:0:
448,192,195758,1,0,0:0:0:0:
192,192,195790,1,0,0:0:0:0:
320,192,195837,1,0,0:0:0:0:
64,192,195885,1,0,0:0:0:0:
192,192,195932,1,0,0:0:0:0:
320,192,195980,1,0,0:0:0:0:
448,192,195980,1,0,0:0:0:0:
64,192,196012,1,0,0:0:0:0:
192,192,196044,1,0,0:0:0:0:
448,192,196075,1,0,0:0:0:0:
64,192,196107,1,0,0:0:0:0:
320,192,196139,1,0,0:0:0:0:
192,192,196171,1,0,0:0:0:0:
448,192,196206,1,0,0:0:0:0:
320,192,196242,1,0,0:0:0:0:
64,192,196266,1,0,0:0:0:0:
192,192,196313,1,0,0:0:0:0:
320,192,196361,1,0,0:0:0:0:
64,192,196397,1,0,0:0:0:0:
448,192,196440,1,0,0:0:0:0:
320,192,196472,1,0,0:0:0:0:
192,192,196516,1,0,0:0:0:0:
64,192,196551,1,0,0:0:0:0:
448,192,196551,1,0,0:0:0:0:
320,192,196583,1,0,0:0:0:0:
192,192,196615,1,0,0:0:0:0:
448,192,196647,1,0,0:0:0:0:
64,192,196678,1,0,0:0:0:0:
320,192,196710,1,0,0:0:0:0:
192,192,196742,1,0,0:0:0:0:
448,192,196774,1,0,0:0:0:0:
64,192,196805,1,0,0:0:0:0:
320,192,196837,128,0,196885:0:0:0:0:
192,192,196932,1,0,0:0:0:0:
192,192,197123,1,0,0:0:0:0:
320,192,197218,1,0,0:0:0:0:
192,192,197313,1,0,0:0:0:0:
320,192,197409,1,0,0:0:0:0:
64,192,197504,1,0,0:0:0:0:
448,192,197504,1,0,0:0:0:0:
320,192,197694,1,0,0:0:0:0:
192,192,197790,1,0,0:0:0:0:
320,192,197885,1,0,0:0:0:0:
192,192,197980,1,0,0:0:0:0:
64,192,198075,1,0,0:0:0:0:
448,192,198075,1,0,0:0:0:0:
320,192,198266,1,0,0:0:0:0:
64,192,198456,1,0,0:0:0:0:
192,192,198647,1,0,0:0:0:0:
448,192,198647,1,0,0:0:0:0:
320,192,198837,1,0,0:0:0:0:
192,192,198932,1,0,0:0:0:0:
320,192,199028,1,0,0:0:0:0:
192,192,199123,1,0,0:0:0:0:
64,192,199218,1,0,0:0:0:0:
448,192,199218,1,0,0:0:0:0:
192,192,199409,1,0,0:0:0:0:
320,192,199409,128,0,199456:0:0:0:0:
64,192,199599,1,0,0:0:0:0:
192,192,199694,1,0,0:0:0:0:
320,192,199790,1,0,0:0:0:0:
448,192,199790,1,0,0:0:0:0:
64,192,199980,1,0,0:0:0:0:
320,192,200075,1,0,0:0:0:0:
64,192,200171,1,0,0:0:0:0:
320,192,200266,1,0,0:0:0:0:
192,192,200361,1,0,0:0:0:0:
448,192,200361,1,0,0:0:0:0:
320,192,200551,1,0,0:0:0:0:
192,192,200647,1,0,0:0:0:0:
64,192,200742,1,0,0:0:0:0:
192,192,200837,1,0,0:0:0:0:
320,192,200932,1,0,0:0:0:0:
448,192,200932,1,0,0:0:0:0:
64,192,201123,1,0,0:0:0:0:
320,192,201123,1,0,0:0:0:0:
192,192,201218,1,0,0:0:0:0:
64,192,201313,1,0,0:0:0:0:
448,192,201313,1,0,0:0:0:0:
320,192,201409,1,0,0:0:0:0:
192,192,201456,1,0,0:0:0:0:
320,192,201504,1,0,0:0:0:0:
448,192,201504,128,0,201551:0:0:0:0:
192,192,201694,1,0,0:0:0:0:
320,192,201790,1,0,0:0:0:0:
64,192,201885,1,0,0:0:0:0:
320,192,201980,1,0,0:0:0:0:
192,192,202075,1,0,0:0:0:0:
448,192,202075,1,0,0:0:0:0:
192,192,202266,1,0,0:0:0:0:
320,192,202266,1,0,0:0:0:0:
448,192,202361,1,0,0:0:0:0:
320,192,202456,1,0,0:0:0:0:
64,192,202551,1,0,0:0:0:0:
192,192,202647,1,0,0:0:0:0:
448,192,202647,1,0,0:0:0:0:
320,192,202837,1,0,0:0:0:0:
64,192,202932,1,0,0:0:0:0:
192,192,203028,1,0,0:0:0:0:
320,192,203123,1,0,0:0:0:0:
64,192,203218,1,0,0:0:0:0:
192,192,203218,1,0,0:0:0:0:
192,192,203409,1,0,0:0:0:0:
448,192,203409,1,0,0:0:0:0:
64,192,203504,1,0,0:0:0:0:
320,192,203599,1,0,0:0:0:0:
448,192,203599,1,0,0:0:0:0:
192,192,203742,1,0,0:0:0:0:
64,192,203790,128,0,203837:0:0:0:0:
448,192,203790,1,0,0:0:0:0:
320,192,203980,1,0,0:0:0:0:
64,192,204171,1,0,0:0:0:0:
448,192,204266,1,0,0:0:0:0:
192,192,204361,1,0,0:0:0:0:
320,192,204361,1,0,0:0:0:0:
64,192,204551,1,0,0:0:0:0:
448,192,204647,1,0,0:0:0:0:
192,192,204742,1,0,0:0:0:0:
448,192,204837,1,0,0:0:0:0:
320,192,204932,1,0,0:0:0:0:
448,192,205028,1,0,0:0:0:0:
64,192,205123,128,0,205218:0:0:0:0:
192,192,205123,128,0,205218:0:0:0:0:
320,192,205313,1,0,0:0:0:0:
320,192,205409,1,0,0:0:0:0:
64,192,205504,128,0,205551:0:0:0:0:
192,192,205504,128,0,205551:0:0:0:0:
64,192,205599,128,0,205694:0:0:0:0:
192,192,205599,128,0,205694:0:0:0:0:
64,192,206075,1,0,0:0:0:0:
192,192,206075,1,0,0:0:0:0:
320,192,206075,1,0,0:0:0:0:
448,192,206075,1,0,0:0:0:0:
64,192,206171,1,0,0:0:0:0:
320,192,206171,1,0,0:0:0:0:
192,192,206266,1,0,0:0:0:0:
448,192,206266,1,0,0:0:0:0:
320,192,206361,1,0,0:0:0:0:
448,192,206361,1,0,0:0:0:0:
64,192,206456,1,0,0:0:0:0:
192,192,206456,1,0,0:0:0:0:
192,192,206551,1,0,0:0:0:0:
320,192,206551,1,0,0:0:0:0:
64,192,206647,1,0,0:0:0:0:
320,192,206647,1,0,0:0:0:0:
448,192,206647,1,0,0:0:0:0:
320,192,206742,1,0,0:0:0:0:
448,192,206742,1,0,0:0:0:0:
320,192,206837,1,0,0:0:0:0:
448,192,206837,1,0,0:0:0:0:
64,192,206932,1,0,0:0:0:0:
192,192,206932,1,0,0:0:0:0:
64,192,207028,1,0,0:0:0:0:
448,192,207028,1,0,0:0:0:0:
192,192,207123,1,0,0:0:0:0:
448,192,207123,1,0,0:0:0:0:
64,192,207218,1,0,0:0:0:0:
192,192,207218,1,0,0:0:0:0:
320,192,207218,1,0,0:0:0:0:
64,192,207313,1,0,0:0:0:0:
448,192,207313,1,0,0:0:0:0:
192,192,207409,1,0,0:0:0:0:
320,192,207409,1,0,0:0:0:0:
192,192,207504,1,0,0:0:0:0:
448,192,207504,1,0,0:0:0:0:
64,192,207599,1,0,0:0:0:0:
320,192,207599,1,0,0:0:0:0:
64,192,207694,1,0,0:0:0:0:
192,192,207694,1,0,0:0:0:0:
192,192,207790,1,0,0:0:0:0:
320,192,207790,1,0,0:0:0:0:
448,192,207790,1,0,0:0:0:0:
64,192,207885,1,0,0:0:0:0:
320,192,207885,1,0,0:0:0:0:
192,192,207980,1,0,0:0:0:0:
448,192,207980,1,0,0:0:0:0:
64,192,208075,1,0,0:0:0:0:
192,192,208075,1,0,0:0:0:0:
320,192,208171,1,0,0:0:0:0:
448,192,208171,1,0,0:0:0:0:
64,192,208266,1,0,0:0:0:0:
448,192,208266,1,0,0:0:0:0:
64,192,208361,1,0,0:0:0:0:
192,192,208361,1,0,0:0:0:0:
320,192,208361,1,0,0:0:0:0:
192,192,208456,1,0,0:0:0:0:
448,192,208456,1,0,0:0:0:0:
64,192,208551,1,0,0:0:0:0:
320,192,208551,1,0,0:0:0:0:
448,192,208551,1,0,0:0:0:0:
64,192,208647,1,0,0:0:0:0:
192,192,208647,1,0,0:0:0:0:
192,192,208742,1,0,0:0:0:0:
320,192,208742,1,0,0:0:0:0:
448,192,208742,1,0,0:0:0:0:
64,192,208837,1,0,0:0:0:0:
448,192,208837,1,0,0:0:0:0:
64,192,208932,1,0,0:0:0:0:
192,192,208932,1,0,0:0:0:0:
320,192,208932,1,0,0:0:0:0:
192,192,209028,1,0,0:0:0:0:
448,192,209028,1,0,0:0:0:0:
64,192,209123,1,0,0:0:0:0:
320,192,209123,1,0,0:0:0:0:
64,192,209218,1,0,0:0:0:0:
192,192,209218,1,0,0:0:0:0:
320,192,209313,1,0,0:0:0:0:
448,192,209313,1,0,0:0:0:0:
64,192,209409,1,0,0:0:0:0:
192,192,209409,1,0,0:0:0:0:
64,192,209504,1,0,0:0:0:0:
192,192,209504,1,0,0:0:0:0:
448,192,209504,1,0,0:0:0:0:
320,192,209599,1,0,0:0:0:0:
448,192,209599,1,0,0:0:0:0:
64,192,209694,1,0,0:0:0:0:
192,192,209694,1,0,0:0:0:0:
192,192,209790,1,0,0:0:0:0:
448,192,209790,1,0,0:0:0:0:
64,192,209885,1,0,0:0:0:0:
320,192,209885,1,0,0:0:0:0:
192,192,209980,1,0,0:0:0:0:
320,192,209980,1,0,0:0:0:0:
64,192,210075,1,0,0:0:0:0:
192,192,210075,1,0,0:0:0:0:
448,192,210075,1,0,0:0:0:0:
320,192,210171,1,0,0:0:0:0:
448,192,210171,1,0,0:0:0:0:
64,192,210266,1,0,0:0:0:0:
192,192,210266,1,0,0:0:0:0:
64,192,210361,1,0,0:0:0:0:
448,192,210361,1,0,0:0:0:0:
192,192,210456,1,0,0:0:0:0:
320,192,210456,1,0,0:0:0:0:
192,192,210551,1,0,0:0:0:0:
320,192,210551,1,0,0:0:0:0:
64,192,210647,1,0,0:0:0:0:
320,192,210647,1,0,0:0:0:0:
448,192,210647,1,0,0:0:0:0:
64,192,210742,1,0,0:0:0:0:
192,192,210742,1,0,0:0:0:0:
320,192,210837,1,0,0:0:0:0:
448,192,210837,1,0,0:0:0:0:
64,192,210932,1,0,0:0:0:0:
448,192,210932,1,0,0:0:0:0:
192,192,211028,1,0,0:0:0:0:
320,192,211028,1,0,0:0:0:0:
192,192,211123,1,0,0:0:0:0:
448,192,211123,1,0,0:0:0:0:
64,192,211218,1,0,0:0:0:0:
320,192,211218,1,0,0:0:0:0:
448,192,211218,1,0,0:0:0:0:
64,192,211313,1,0,0:0:0:0:
192,192,211313,1,0,0:0:0:0:
192,192,211409,1,0,0:0:0:0:
320,192,211409,1,0,0:0:0:0:
448,192,211409,1,0,0:0:0:0:
64,192,211504,1,0,0:0:0:0:
320,192,211504,1,0,0:0:0:0:
192,192,211599,1,0,0:0:0:0:
448,192,211599,1,0,0:0:0:0:
320,192,211694,1,0,0:0:0:0:
448,192,211694,1,0,0:0:0:0:
64,192,211790,1,0,0:0:0:0:
192,192,211790,1,0,0:0:0:0:
320,192,211790,1,0,0:0:0:0:
192,192,211885,1,0,0:0:0:0:
448,192,211885,1,0,0:0:0:0:
64,192,211980,1,0,0:0:0:0:
320,192,211980,1,0,0:0:0:0:
64,192,212075,1,0,0:0:0:0:
192,192,212075,1,0,0:0:0:0:
320,192,212171,1,0,0:0:0:0:
448,192,212171,1,0,0:0:0:0:
64,192,212266,1,0,0:0:0:0:
320,192,212266,1,0,0:0:0:0:
64,192,212361,1,0,0:0:0:0:
192,192,212361,1,0,0:0:0:0:
448,192,212361,1,0,0:0:0:0:
320,192,212456,1,0,0:0:0:0:
448,192,212456,1,0,0:0:0:0:
64,192,212551,1,0,0:0:0:0:
320,192,212551,1,0,0:0:0:0:
64,192,212647,1,0,0:0:0:0:
192,192,212647,1,0,0:0:0:0:
192,192,212742,1,0,0:0:0:0:
448,192,212742,1,0,0:0:0:0:
64,192,212837,1,0,0:0:0:0:
448,192,212837,1,0,0:0:0:0:
192,192,212932,1,0,0:0:0:0:
320,192,212932,1,0,0:0:0:0:
64,192,213028,1,0,0:0:0:0:
448,192,213028,1,0,0:0:0:0:
64,192,213123,1,0,0:0:0:0:
320,192,213123,1,0,0:0:0:0:
192,192,213218,1,0,0:0:0:0:
320,192,213218,1,0,0:0:0:0:
448,192,213218,1,0,0:0:0:0:
64,192,213313,1,0,0:0:0:0:
192,192,213313,1,0,0:0:0:0:
320,192,213409,1,0,0:0:0:0:
448,192,213409,1,0,0:0:0:0:
64,192,213504,1,0,0:0:0:0:
192,192,213504,1,0,0:0:0:0:
448,192,213504,1,0,0:0:0:0:
192,192,213599,1,0,0:0:0:0:
320,192,213599,1,0,0:0:0:0:
64,192,213694,1,0,0:0:0:0:
448,192,213694,1,0,0:0:0:0:
192,192,213790,1,0,0:0:0:0:
448,192,213790,1,0,0:0:0:0:
64,192,213885,1,0,0:0:0:0:
192,192,213885,1,0,0:0:0:0:
320,192,213980,1,0,0:0:0:0:
448,192,213980,1,0,0:0:0:0:
64,192,214075,1,0,0:0:0:0:
192,192,214075,1,0,0:0:0:0:
64,192,214171,1,0,0:0:0:0:
192,192,214171,1,0,0:0:0:0:
64,192,214266,1,0,0:0:0:0:
192,192,214266,1,0,0:0:0:0:
448,192,214266,1,0,0:0:0:0:
320,192,214329,1,0,0:0:0:0:
64,192,214393,1,0,0:0:0:0:
192,192,214456,1,0,0:0:0:0:
320,192,214456,1,0,0:0:0:0:
448,192,214456,1,0,0:0:0:0:
64,192,214520,1,0,0:0:0:0:
448,192,214583,1,0,0:0:0:0:
64,192,214647,1,0,0:0:0:0:
192,192,214647,1,0,0:0:0:0:
320,192,214647,1,0,0:0:0:0:
448,192,214710,1,0,0:0:0:0:
192,192,214774,1,0,0:0:0:0:
64,192,214837,1,0,0:0:0:0:
320,192,214837,1,0,0:0:0:0:
448,192,214837,1,0,0:0:0:0:
192,192,214901,1,0,0:0:0:0:
320,192,214964,1,0,0:0:0:0:
64,192,215028,1,0,0:0:0:0:
192,192,215028,1,0,0:0:0:0:
448,192,215028,1,0,0:0:0:0:
64,192,215123,1,0,0:0:0:0:
192,192,215123,1,0,0:0:0:0:
448,192,215123,1,0,0:0:0:0:
64,192,215218,1,0,0:0:0:0:
192,192,215218,1,0,0:0:0:0:
448,192,215218,1,0,0:0:0:0:
64,192,215313,1,0,0:0:0:0:
320,192,215313,1,0,0:0:0:0:
192,192,215409,1,0,0:0:0:0:
320,192,215409,1,0,0:0:0:0:
448,192,215409,1,0,0:0:0:0:
64,192,215504,1,0,0:0:0:0:
192,192,215504,1,0,0:0:0:0:
320,192,215599,1,0,0:0:0:0:
448,192,215599,1,0,0:0:0:0:
64,192,215694,1,0,0:0:0:0:
448,192,215694,1,0,0:0:0:0:
64,192,215790,1,0,0:0:0:0:
192,192,215790,1,0,0:0:0:0:
320,192,215790,1,0,0:0:0:0:
192,192,215885,1,0,0:0:0:0:
448,192,215885,1,0,0:0:0:0:
64,192,215980,1,0,0:0:0:0:
320,192,215980,1,0,0:0:0:0:
64,192,216075,1,0,0:0:0:0:
192,192,216075,1,0,0:0:0:0:
320,192,216171,1,0,0:0:0:0:
448,192,216171,1,0,0:0:0:0:
64,192,216266,1,0,0:0:0:0:
192,192,216266,1,0,0:0:0:0:
64,192,216361,1,0,0:0:0:0:
192,192,216361,1,0,0:0:0:0:
448,192,216361,1,0,0:0:0:0:
320,192,216456,1,0,0:0:0:0:
448,192,216456,1,0,0:0:0:0:
64,192,216551,1,0,0:0:0:0:
192,192,216551,1,0,0:0:0:0:
192,192,216647,1,0,0:0:0:0:
448,192,216647,1,0,0:0:0:0:
64,192,216742,1,0,0:0:0:0:
320,192,216742,1,0,0:0:0:0:
192,192,216837,1,0,0:0:0:0:
320,192,216837,1,0,0:0:0:0:
64,192,216932,1,0,0:0:0:0:
192,192,216932,1,0,0:0:0:0:
448,192,216932,1,0,0:0:0:0:
320,192,217028,1,0,0:0:0:0:
448,192,217028,1,0,0:0:0:0:
64,192,217123,1,0,0:0:0:0:
192,192,217123,1,0,0:0:0:0:
64,192,217218,1,0,0:0:0:0:
320,192,217218,1,0,0:0:0:0:
448,192,217218,1,0,0:0:0:0:
192,192,217313,1,0,0:0:0:0:
320,192,217313,1,0,0:0:0:0:
64,192,217409,1,0,0:0:0:0:
448,192,217409,1,0,0:0:0:0:
64,192,217504,1,0,0:0:0:0:
192,192,217504,1,0,0:0:0:0:
320,192,217504,1,0,0:0:0:0:
192,192,217599,1,0,0:0:0:0:
448,192,217599,1,0,0:0:0:0:
64,192,217694,1,0,0:0:0:0:
320,192,217694,1,0,0:0:0:0:
448,192,217694,1,0,0:0:0:0:
64,192,217790,1,0,0:0:0:0:
192,192,217790,1,0,0:0:0:0:
192,192,217885,1,0,0:0:0:0:
320,192,217885,1,0,0:0:0:0:
448,192,217885,1,0,0:0:0:0:
64,192,217980,1,0,0:0:0:0:
448,192,217980,1,0,0:0:0:0:
64,192,218075,1,0,0:0:0:0:
192,192,218075,1,0,0:0:0:0:
320,192,218075,1,0,0:0:0:0:
192,192,218171,1,0,0:0:0:0:
320,192,218171,1,0,0:0:0:0:
192,192,218266,1,0,0:0:0:0:
448,192,218266,1,0,0:0:0:0:
320,192,218361,1,0,0:0:0:0:
448,192,218361,1,0,0:0:0:0:
64,192,218456,1,0,0:0:0:0:
192,192,218456,1,0,0:0:0:0:
192,192,218551,1,0,0:0:0:0:
448,192,218551,1,0,0:0:0:0:
64,192,218647,1,0,0:0:0:0:
320,192,218647,1,0,0:0:0:0:
448,192,218647,1,0,0:0:0:0:
64,192,218742,1,0,0:0:0:0:
192,192,218742,1,0,0:0:0:0:
192,192,218837,1,0,0:0:0:0:
448,192,218837,1,0,0:0:0:0:
64,192,218932,1,0,0:0:0:0:
320,192,218932,1,0,0:0:0:0:
448,192,218932,1,0,0:0:0:0:
192,192,219028,1,0,0:0:0:0:
320,192,219028,1,0,0:0:0:0:
64,192,219123,1,0,0:0:0:0:
448,192,219123,1,0,0:0:0:0:
192,192,219218,1,0,0:0:0:0:
320,192,219218,1,0,0:0:0:0:
448,192,219218,1,0,0:0:0:0:
64,192,219313,1,0,0:0:0:0:
320,192,219313,1,0,0:0:0:0:
192,192,219409,1,0,0:0:0:0:
448,192,219409,1,0,0:0:0:0:
64,192,219504,1,0,0:0:0:0:
320,192,219504,1,0,0:0:0:0:
448,192,219504,1,0,0:0:0:0:
192,192,219599,1,0,0:0:0:0:
320,192,219599,1,0,0:0:0:0:
64,192,219694,1,0,0:0:0:0:
448,192,219694,1,0,0:0:0:0:
64,192,219790,1,0,0:0:0:0:
192,192,219790,1,0,0:0:0:0:
320,192,219885,1,0,0:0:0:0:
448,192,219885,1,0,0:0:0:0:
320,192,219980,1,0,0:0:0:0:
448,192,219980,1,0,0:0:0:0:
64,192,220075,1,0,0:0:0:0:
192,192,220075,1,0,0:0:0:0:
448,192,220075,1,0,0:0:0:0:
64,192,220171,1,0,0:0:0:0:
320,192,220171,1,0,0:0:0:0:
64,192,220266,1,0,0:0:0:0:
192,192,220266,1,0,0:0:0:0:
192,192,220361,1,0,0:0:0:0:
320,192,220361,1,0,0:0:0:0:
448,192,220361,1,0,0:0:0:0:
64,192,220456,1,0,0:0:0:0:
448,192,220456,1,0,0:0:0:0:
64,192,220551,1,0,0:0:0:0:
192,192,220551,1,0,0:0:0:0:
320,192,220551,1,0,0:0:0:0:
320,192,220647,1,0,0:0:0:0:
448,192,220647,1,0,0:0:0:0:
64,192,220742,1,0,0:0:0:0:
192,192,220742,1,0,0:0:0:0:
448,192,220742,1,0,0:0:0:0:
192,192,220837,1,0,0:0:0:0:
320,192,220837,1,0,0:0:0:0:
64,192,220932,1,0,0:0:0:0:
320,192,220932,1,0,0:0:0:0:
448,192,220932,1,0,0:0:0:0:
192,192,221028,1,0,0:0:0:0:
448,192,221028,1,0,0:0:0:0:
64,192,221123,1,0,0:0:0:0:
320,192,221123,1,0,0:0:0:0:
64,192,221218,1,0,0:0:0:0:
192,192,221218,1,0,0:0:0:0:
448,192,221218,1,0,0:0:0:0:
320,192,221313,1,0,0:0:0:0:
448,192,221313,1,0,0:0:0:0:
64,192,221409,1,0,0:0:0:0:
320,192,221409,1,0,0:0:0:0:
64,192,221504,1,0,0:0:0:0:
192,192,221504,1,0,0:0:0:0:
320,192,221599,1,0,0:0:0:0:
448,192,221599,1,0,0:0:0:0:
64,192,221694,1,0,0:0:0:0:
192,192,221694,1,0,0:0:0:0:
448,192,221694,1,0,0:0:0:0:
64,192,221790,1,0,0:0:0:0:
320,192,221790,1,0,0:0:0:0:
192,192,221885,1,0,0:0:0:0:
448,192,221885,1,0,0:0:0:0:
320,192,221980,1,0,0:0:0:0:
448,192,221980,1,0,0:0:0:0:
192,192,222075,1,0,0:0:0:0:
320,192,222075,1,0,0:0:0:0:
448,192,222075,1,0,0:0:0:0:
64,192,222171,1,0,0:0:0:0:
192,192,222171,1,0,0:0:0:0:
64,192,222266,1,0,0:0:0:0:
320,192,222266,1,0,0:0:0:0:
448,192,222266,1,0,0:0:0:0:
192,192,222361,1,0,0:0:0:0:
320,192,222361,1,0,0:0:0:0:
64,192,222456,1,0,0:0:0:0:
192,192,222456,1,0,0:0:0:0:
448,192,222456,1,0,0:0:0:0:
320,192,222551,1,0,0:0:0:0:
448,192,222551,1,0,0:0:0:0:
64,192,222647,1,0,0:0:0:0:
192,192,222647,1,0,0:0:0:0:
320,192,222647,1,0,0:0:0:0:
192,192,222742,1,0,0:0:0:0:
448,192,222742,1,0,0:0:0:0:
64,192,222837,1,0,0:0:0:0:
320,192,222837,1,0,0:0:0:0:
64,192,222932,1,0,0:0:0:0:
192,192,222932,1,0,0:0:0:0:
448,192,222932,1,0,0:0:0:0:
320,192,223028,1,0,0:0:0:0:
448,192,223028,1,0,0:0:0:0:
64,192,223123,1,0,0:0:0:0:
192,192,223123,1,0,0:0:0:0:
64,192,223218,1,0,0:0:0:0:
320,192,223218,1,0,0:0:0:0:
448,192,223218,1,0,0:0:0:0:
192,192,223313,1,0,0:0:0:0:
320,192,223313,1,0,0:0:0:0:
64,192,223409,1,0,0:0:0:0:
192,192,223409,1,0,0:0:0:0:
448,192,223409,1,0,0:0:0:0:
64,192,223504,1,0,0:0:0:0:
192,192,223504,1,0,0:0:0:0:
448,192,223504,1,0,0:0:0:0:
64,192,223599,1,0,0:0:0:0:
192,192,223599,1,0,0:0:0:0:
448,192,223599,1,0,0:0:0:0:
192,192,223694,1,0,0:0:0:0:
64,192,223790,1,0,0:0:0:0:
320,192,223790,1,0,0:0:0:0:
448,192,223790,1,0,0:0:0:0:
64,192,223885,1,0,0:0:0:0:
320,192,223885,1,0,0:0:0:0:
448,192,223885,1,0,0:0:0:0:
64,192,223980,1,0,0:0:0:0:
320,192,223980,1,0,0:0:0:0:
448,192,223980,1,0,0:0:0:0:
448,192,224075,1,0,0:0:0:0:
64,192,224171,1,0,0:0:0:0:
192,192,224171,1,0,0:0:0:0:
320,192,224171,1,0,0:0:0:0:
64,192,224266,1,0,0:0:0:0:
192,192,224266,1,0,0:0:0:0:
320,192,224266,1,0,0:0:0:0:
64,192,224361,1,0,0:0:0:0:
320,192,224361,1,0,0:0:0:0:
448,192,224361,1,0,0:0:0:0:
320,192,224456,1,0,0:0:0:0:
448,192,224456,1,0,0:0:0:0:
320,192,224551,1,0,0:0:0:0:
448,192,224551,1,0,0:0:0:0:
320,192,224647,1,0,0:0:0:0:
448,192,224647,1,0,0:0:0:0:
320,192,224742,1,0,0:0:0:0:
448,192,224742,1,0,0:0:0:0:
64,192,224837,1,0,0:0:0:0:
192,192,224932,1,0,0:0:0:0:
448,192,224932,1,0,0:0:0:0:
64,192,225028,1,0,0:0:0:0:
320,192,225028,1,0,0:0:0:0:
192,192,225123,1,0,0:0:0:0:
448,192,225123,1,0,0:0:0:0:
320,192,225218,1,0,0:0:0:0:
64,192,225313,1,0,0:0:0:0:
192,192,225313,1,0,0:0:0:0:
64,192,225409,1,0,0:0:0:0:
192,192,225409,1,0,0:0:0:0:
64,192,225504,1,0,0:0:0:0:
192,192,225504,1,0,0:0:0:0:
448,192,225504,1,0,0:0:0:0:
320,192,225599,1,0,0:0:0:0:
448,192,225599,1,0,0:0:0:0:
64,192,225694,1,0,0:0:0:0:
192,192,225694,1,0,0:0:0:0:
320,192,225790,1,0,0:0:0:0:
448,192,225790,1,0,0:0:0:0:
64,192,225885,1,0,0:0:0:0:
192,192,225885,1,0,0:0:0:0:
64,192,225980,1,0,0:0:0:0:
192,192,225980,1,0,0:0:0:0:
64,192,226075,1,0,0:0:0:0:
320,192,226075,1,0,0:0:0:0:
448,192,226075,1,0,0:0:0:0:
192,192,226171,1,0,0:0:0:0:
320,192,226266,1,0,0:0:0:0:
448,192,226266,1,0,0:0:0:0:
64,192,226361,1,0,0:0:0:0:
192,192,226361,1,0,0:0:0:0:
192,192,226456,1,0,0:0:0:0:
448,192,226456,1,0,0:0:0:0:
320,192,226551,1,0,0:0:0:0:
448,192,226551,1,0,0:0:0:0:
64,192,226647,1,0,0:0:0:0:
192,192,226647,1,0,0:0:0:0:
320,192,226647,1,0,0:0:0:0:
448,192,226742,1,0,0:0:0:0:
192,192,226837,1,0,0:0:0:0:
320,192,226837,1,0,0:0:0:0:
192,192,226932,1,0,0:0:0:0:
320,192,226932,1,0,0:0:0:0:
192,192,227028,1,0,0:0:0:0:
320,192,227028,1,0,0:0:0:0:
64,192,227123,1,0,0:0:0:0:
192,192,227218,1,0,0:0:0:0:
320,192,227218,1,0,0:0:0:0:
448,192,227218,1,0,0:0:0:0:
64,192,227313,1,0,0:0:0:0:
320,192,227313,1,0,0:0:0:0:
192,192,227409,1,0,0:0:0:0:
448,192,227409,1,0,0:0:0:0:
320,192,227504,1,0,0:0:0:0:
64,192,227599,1,0,0:0:0:0:
192,192,227647,1,0,0:0:0:0:
320,192,227694,1,0,0:0:0:0:
192,192,227742,1,0,0:0:0:0:
64,192,227790,1,0,0:0:0:0:
320,192,227790,1,0,0:0:0:0:
448,192,227790,1,0,0:0:0:0:
192,192,227885,1,0,0:0:0:0:
448,192,227885,1,0,0:0:0:0:
192,192,227980,1,0,0:0:0:0:
320,192,227980,1,0,0:0:0:0:
64,192,228075,1,0,0:0:0:0:
320,192,228075,1,0,0:0:0:0:
192,192,228171,1,0,0:0:0:0:
448,192,228171,1,0,0:0:0:0:
64,192,228266,1,0,0:0:0:0:
320,192,228266,1,0,0:0:0:0:
64,192,228361,1,0,0:0:0:0:
192,192,228361,1,0,0:0:0:0:
448,192,228361,1,0,0:0:0:0:
320,192,228456,1,0,0:0:0:0:
192,192,228551,1,0,0:0:0:0:
448,192,228551,1,0,0:0:0:0:
192,192,228647,1,0,0:0:0:0:
448,192,228647,1,0,0:0:0:0:
192,192,228742,1,0,0:0:0:0:
448,192,228742,1,0,0:0:0:0:
192,192,228837,1,0,0:0:0:0:
448,192,228837,1,0,0:0:0:0:
64,192,228932,1,0,0:0:0:0:
320,192,228932,1,0,0:0:0:0:
448,192,228932,1,0,0:0:0:0:
192,192,228980,1,0,0:0:0:0:
64,192,229028,1,0,0:0:0:0:
448,192,229075,1,0,0:0:0:0:
192,192,229123,1,0,0:0:0:0:
320,192,229123,1,0,0:0:0:0:
64,192,229171,1,0,0:0:0:0:
192,192,229218,1,0,0:0:0:0:
320,192,229218,1,0,0:0:0:0:
64,192,229266,1,0,0:0:0:0:
192,192,229313,1,0,0:0:0:0:
448,192,229313,1,0,0:0:0:0:
320,192,229361,1,0,0:0:0:0:
448,192,229409,1,0,0:0:0:0:
320,192,229456,1,0,0:0:0:0:
64,192,229504,1,0,0:0:0:0:
192,192,229504,1,0,0:0:0:0:
448,192,229551,1,0,0:0:0:0:
64,192,229599,1,0,0:0:0:0:
192,192,229599,1,0,0:0:0:0:
320,192,229647,1,0,0:0:0:0:
64,192,229694,1,0,0:0:0:0:
192,192,229694,1,0,0:0:0:0:
448,192,229742,1,0,0:0:0:0:
320,192,229790,1,0,0:0:0:0:
192,192,229837,1,0,0:0:0:0:
320,192,229885,1,0,0:0:0:0:
448,192,229885,1,0,0:0:0:0:
64,192,229932,1,0,0:0:0:0:
320,192,229980,1,0,0:0:0:0:
448,192,229980,1,0,0:0:0:0:
192,192,230028,1,0,0:0:0:0:
64,192,230075,1,0,0:0:0:0:
320,192,230075,1,0,0:0:0:0:
448,192,230075,1,0,0:0:0:0:
192,192,230123,1,0,0:0:0:0:
64,192,230171,1,0,0:0:0:0:
448,192,230171,1,0,0:0:0:0:
320,192,230218,1,0,0:0:0:0:
64,192,230266,1,0,0:0:0:0:
192,192,230266,1,0,0:0:0:0:
448,192,230313,1,0,0:0:0:0:
64,192,230361,1,0,0:0:0:0:
320,192,230361,1,0,0:0:0:0:
192,192,230409,1,0,0:0:0:0:
320,192,230456,1,0,0:0:0:0:
448,192,230456,1,0,0:0:0:0:
64,192,230504,1,0,0:0:0:0:
320,192,230551,1,0,0:0:0:0:
448,192,230551,1,0,0:0:0:0:
192,192,230599,1,0,0:0:0:0:
64,192,230647,1,0,0:0:0:0:
320,192,230647,1,0,0:0:0:0:
448,192,230647,1,0,0:0:0:0:
192,192,230694,1,0,0:0:0:0:
64,192,230742,1,0,0:0:0:0:
448,192,230742,1,0,0:0:0:0:
320,192,230790,1,0,0:0:0:0:
64,192,230837,1,0,0:0:0:0:
192,192,230837,1,0,0:0:0:0:
448,192,230885,1,0,0:0:0:0:
64,192,230932,1,0,0:0:0:0:
320,192,230932,1,0,0:0:0:0:
192,192,230980,1,0,0:0:0:0:
320,192,231028,1,0,0:0:0:0:
448,192,231028,1,0,0:0:0:0:
64,192,231075,1,0,0:0:0:0:
320,192,231123,1,0,0:0:0:0:
448,192,231123,1,0,0:0:0:0:
192,192,231171,1,0,0:0:0:0:
64,192,231218,1,0,0:0:0:0:
320,192,231218,1,0,0:0:0:0:
448,192,231218,1,0,0:0:0:0:
192,192,231266,1,0,0:0:0:0:
64,192,231313,1,0,0:0:0:0:
448,192,231361,1,0,0:0:0:0:
192,192,231409,1,0,0:0:0:0:
320,192,231409,1,0,0:0:0:0:
64,192,231456,1,0,0:0:0:0:
192,192,231504,1,0,0:0:0:0:
448,192,231504,1,0,0:0:0:0:
320,192,231551,1,0,0:0:0:0:
64,192,231599,1,0,0:0:0:0:
192,192,231599,1,0,0:0:0:0:
448,192,231599,1,0,0:0:0:0:
320,192,231647,1,0,0:0:0:0:
64,192,231694,1,0,0:0:0:0:
192,192,231742,1,0,0:0:0:0:
320,192,231790,1,0,0:0:0:0:
448,192,231790,1,0,0:0:0:0:
64,192,231837,1,0,0:0:0:0:
192,192,231885,1,0,0:0:0:0:
320,192,231885,1,0,0:0:0:0:
448,192,231932,1,0,0:0:0:0:
64,192,231980,1,0,0:0:0:0:
192,192,231980,1,0,0:0:0:0:
320,192,231980,1,0,0:0:0:0:
448,192,232028,1,0,0:0:0:0:
320,192,232075,1,0,0:0:0:0:
64,192,232123,1,0,0:0:0:0:
192,192,232171,1,0,0:0:0:0:
448,192,232171,1,0,0:0:0:0:
320,192,232218,1,0,0:0:0:0:
64,192,232266,1,0,0:0:0:0:
192,192,232266,1,0,0:0:0:0:
448,192,232313,1,0,0:0:0:0:
64,192,232361,128,0,232456:0:0:0:0:
192,192,232361,128,0,232456:0:0:0:0:
320,192,232361,128,0,232456:0:0:0:0:
