osu file format v14

[General]
AudioFilename: audio110.mp3
AudioLeadIn: 0
PreviewTime: -1
Countdown: 0
SampleSet: None
StackLeniency: 0.8
Mode: 3
LetterboxInBreaks: 0
SpecialStyle: 1
WidescreenStoryboard: 0

[Editor]
DistanceSpacing: 0.8
BeatDivisor: 4
GridSize: 32
TimelineZoom: 2.3

[Metadata]
Title:In Aeternum
TitleUnicode:In Aeternum
Artist:Fleshgod Apocalypse
ArtistUnicode:Fleshgod Apocalypse
Creator:Herkkupala
Version:Evermore [1.1x]
Source:
Tags:the king nuclear blast records technical death metal
BeatmapID:1581858
BeatmapSetID:751362

[Difficulty]
HPDrainRate:8.6
CircleSize:4
OverallDifficulty:9
ApproachRate:5
SliderMultiplier:1.4
SliderTickRate:1

[Events]
//Background and Video events
0,0,"bg.png",0,0
//Break Periods
//Storyboard Layer 0 (Background)
//Storyboard Layer 1 (Fail)
//Storyboard Layer 2 (Pass)
//Storyboard Layer 3 (Foreground)
//Storyboard Sound Samples

[TimingPoints]
199,242.424242727273,4,3,0,30,1,0
35108,-100,4,3,0,30,0,1
46017,-100,4,3,0,30,0,0
68562,-100,4,3,0,30,0,1
70017,-100,4,3,0,30,0,0
71471,-100,4,3,0,30,0,1
73047,-100,4,3,0,30,0,0
77289,-100,4,3,0,30,0,1
78017,-100,4,3,0,30,0,0
78744,-100,4,3,0,30,0,1
83835,-100,4,3,0,30,0,0
84562,-100,4,3,0,30,0,1
89653,-100,4,3,0,30,0,0
112926,-100,4,3,0,30,0,1
136199,-100,4,3,0,30,0,0
146865,-100,4,3,0,30,0,1
154623,-100,4,3,0,30,0,0
166502,-100,4,3,0,30,0,1
167714,-100,4,3,0,30,0,0
169168,-100,4,3,0,30,0,1
170623,-100,4,3,0,30,0,0
172077,-100,4,3,0,30,0,1
173532,-100,4,3,0,30,0,0
174986,-100,4,3,0,30,0,1
176441,-100,4,3,0,30,0,0
193895,-100,4,3,0,30,0,1
195350,-100,4,3,0,30,0,0
196805,-100,4,3,0,30,0,1
198259,-100,4,3,0,30,0,0
199714,-100,4,3,0,30,0,1
201168,-100,4,3,0,30,0,0
202623,-100,4,3,0,30,0,1
204077,-100,4,3,0,30,0,0
227350,-100,4,3,0,30,0,1
250623,-100,4,3,0,30,0,0
262259,-100,4,3,0,30,0,1
285532,-100,4,3,0,30,0,0
291350,-100,4,3,0,30,0,1
295714,-100,4,3,0,30,0,0

[HitObjects]
64,192,199,5,0,0:0:0:0:
320,192,199,1,0,0:0:0:0:
448,192,199,1,0,0:0:0:0:
192,192,259,1,0,0:0:0:0:
448,192,320,1,0,0:0:0:0:
64,192,380,1,0,0:0:0:0:
320,192,441,1,0,0:0:0:0:
192,192,502,1,0,0:0:0:0:
320,192,562,1,0,0:0:0:0:
448,192,562,1,0,0:0:0:0:
64,192,623,1,0,0:0:0:0:
192,192,683,1,0,0:0:0:0:
448,192,683,1,0,0:0:0:0:
64,192,744,1,0,0:0:0:0:
320,192,805,1,0,0:0:0:0:
448,192,805,1,0,0:0:0:0:
192,192,865,1,0,0:0:0:0:
64,192,926,1,0,0:0:0:0:
320,192,926,1,0,0:0:0:0:
448,192,926,1,0,0:0:0:0:
192,192,986,1,0,0:0:0:0:
64,192,1047,1,0,0:0:0:0:
320,192,1108,1,0,0:0:0:0:
448,192,1168,1,0,0:0:0:0:
320,192,1229,1,0,0:0:0:0:
64,192,1289,1,0,0:0:0:0:
192,192,1289,1,0,0:0:0:0:
448,192,1350,1,0,0:0:0:0:
64,192,1411,1,0,0:0:0:0:
320,192,1411,1,0,0:0:0:0:
448,192,1471,1,0,0:0:0:0:
64,192,1532,1,0,0:0:0:0:
192,192,1532,1,0,0:0:0:0:
320,192,1592,1,0,0:0:0:0:
64,192,1653,1,0,0:0:0:0:
192,192,1653,1,0,0:0:0:0:
448,192,1653,1,0,0:0:0:0:
320,192,1714,1,0,0:0:0:0:
448,192,1774,1,0,0:0:0:0:
192,192,1835,1,0,0:0:0:0:
64,192,1895,1,0,0:0:0:0:
192,192,1956,1,0,0:0:0:0:
320,192,2017,1,0,0:0:0:0:
448,192,2017,1,0,0:0:0:0:
64,192,2077,1,0,0:0:0:0:
192,192,2138,1,0,0:0:0:0:
448,192,2138,1,0,0:0:0:0:
64,192,2199,1,0,0:0:0:0:
320,192,2259,1,0,0:0:0:0:
448,192,2259,1,0,0:0:0:0:
192,192,2320,1,0,0:0:0:0:
64,192,2380,1,0,0:0:0:0:
320,192,2380,1,0,0:0:0:0:
448,192,2380,1,0,0:0:0:0:
192,192,2441,1,0,0:0:0:0:
64,192,2502,1,0,0:0:0:0:
320,192,2562,1,0,0:0:0:0:
192,192,2623,1,0,0:0:0:0:
448,192,2683,1,0,0:0:0:0:
64,192,2744,1,0,0:0:0:0:
192,192,2744,1,0,0:0:0:0:
320,192,2744,1,0,0:0:0:0:
448,192,2805,1,0,0:0:0:0:
192,192,2865,1,0,0:0:0:0:
320,192,2926,1,0,0:0:0:0:
64,192,2986,1,0,0:0:0:0:
192,192,3047,1,0,0:0:0:0:
64,192,3108,1,0,0:0:0:0:
320,192,3108,1,0,0:0:0:0:
448,192,3108,1,0,0:0:0:0:
192,192,3168,1,0,0:0:0:0:
320,192,3229,1,0,0:0:0:0:
64,192,3289,1,0,0:0:0:0:
192,192,3350,1,0,0:0:0:0:
320,192,3411,1,0,0:0:0:0:
64,192,3471,1,0,0:0:0:0:
192,192,3471,1,0,0:0:0:0:
448,192,3532,1,0,0:0:0:0:
64,192,3592,1,0,0:0:0:0:
320,192,3592,1,0,0:0:0:0:
448,192,3653,1,0,0:0:0:0:
64,192,3714,1,0,0:0:0:0:
192,192,3714,1,0,0:0:0:0:
320,192,3774,1,0,0:0:0:0:
64,192,3835,1,0,0:0:0:0:
192,192,3835,1,0,0:0:0:0:
448,192,3835,1,0,0:0:0:0:
320,192,3895,1,0,0:0:0:0:
448,192,3956,1,0,0:0:0:0:
192,192,4017,1,0,0:0:0:0:
64,192,4077,1,0,0:0:0:0:
192,192,4138,1,0,0:0:0:0:
320,192,4199,1,0,0:0:0:0:
448,192,4199,1,0,0:0:0:0:
64,192,4259,1,0,0:0:0:0:
192,192,4320,1,0,0:0:0:0:
448,192,4320,1,0,0:0:0:0:
64,192,4380,1,0,0:0:0:0:
320,192,4441,1,0,0:0:0:0:
448,192,4441,1,0,0:0:0:0:
192,192,4502,1,0,0:0:0:0:
64,192,4562,1,0,0:0:0:0:
320,192,4562,1,0,0:0:0:0:
448,192,4562,1,0,0:0:0:0:
192,192,4623,1,0,0:0:0:0:
64,192,4683,1,0,0:0:0:0:
320,192,4744,1,0,0:0:0:0:
448,192,4805,1,0,0:0:0:0:
320,192,4865,1,0,0:0:0:0:
64,192,4926,1,0,0:0:0:0:
192,192,4926,1,0,0:0:0:0:
448,192,4986,1,0,0:0:0:0:
64,192,5047,1,0,0:0:0:0:
320,192,5047,1,0,0:0:0:0:
448,192,5108,1,0,0:0:0:0:
64,192,5168,1,0,0:0:0:0:
192,192,5168,1,0,0:0:0:0:
320,192,5229,1,0,0:0:0:0:
64,192,5289,1,0,0:0:0:0:
192,192,5289,1,0,0:0:0:0:
448,192,5289,1,0,0:0:0:0:
320,192,5350,1,0,0:0:0:0:
448,192,5411,1,0,0:0:0:0:
192,192,5471,1,0,0:0:0:0:
64,192,5532,1,0,0:0:0:0:
320,192,5532,1,0,0:0:0:0:
448,192,5532,1,0,0:0:0:0:
192,192,5592,1,0,0:0:0:0:
64,192,5653,1,0,0:0:0:0:
448,192,5714,1,0,0:0:0:0:
64,192,5774,1,0,0:0:0:0:
192,192,5774,1,0,0:0:0:0:
320,192,5774,1,0,0:0:0:0:
448,192,5835,1,0,0:0:0:0:
320,192,5895,1,0,0:0:0:0:
64,192,5956,1,0,0:0:0:0:
192,192,6017,1,0,0:0:0:0:
320,192,6017,1,0,0:0:0:0:
448,192,6017,1,0,0:0:0:0:
64,192,6077,1,0,0:0:0:0:
192,192,6138,1,0,0:0:0:0:
320,192,6199,1,0,0:0:0:0:
64,192,6259,1,0,0:0:0:0:
192,192,6320,1,0,0:0:0:0:
320,192,6380,1,0,0:0:0:0:
448,192,6380,1,0,0:0:0:0:
64,192,6441,1,0,0:0:0:0:
192,192,6502,1,0,0:0:0:0:
448,192,6502,1,0,0:0:0:0:
64,192,6562,1,0,0:0:0:0:
320,192,6623,1,0,0:0:0:0:
448,192,6623,1,0,0:0:0:0:
192,192,6683,1,0,0:0:0:0:
64,192,6744,1,0,0:0:0:0:
320,192,6744,1,0,0:0:0:0:
448,192,6744,1,0,0:0:0:0:
192,192,6805,1,0,0:0:0:0:
64,192,6865,1,0,0:0:0:0:
320,192,6926,1,0,0:0:0:0:
448,192,6986,1,0,0:0:0:0:
320,192,7047,1,0,0:0:0:0:
64,192,7108,1,0,0:0:0:0:
192,192,7108,1,0,0:0:0:0:
448,192,7168,1,0,0:0:0:0:
64,192,7229,1,0,0:0:0:0:
320,192,7229,1,0,0:0:0:0:
448,192,7289,1,0,0:0:0:0:
64,192,7350,1,0,0:0:0:0:
192,192,7350,1,0,0:0:0:0:
320,192,7411,1,0,0:0:0:0:
64,192,7471,1,0,0:0:0:0:
192,192,7471,1,0,0:0:0:0:
448,192,7471,1,0,0:0:0:0:
320,192,7532,1,0,0:0:0:0:
448,192,7592,1,0,0:0:0:0:
192,192,7653,1,0,0:0:0:0:
64,192,7714,1,0,0:0:0:0:
192,192,7774,1,0,0:0:0:0:
320,192,7835,1,0,0:0:0:0:
448,192,7835,1,0,0:0:0:0:
64,192,7895,1,0,0:0:0:0:
192,192,7956,1,0,0:0:0:0:
448,192,7956,1,0,0:0:0:0:
64,192,8017,1,0,0:0:0:0:
320,192,8077,1,0,0:0:0:0:
448,192,8077,1,0,0:0:0:0:
192,192,8138,1,0,0:0:0:0:
64,192,8199,1,0,0:0:0:0:
320,192,8199,1,0,0:0:0:0:
448,192,8199,1,0,0:0:0:0:
192,192,8259,1,0,0:0:0:0:
64,192,8320,1,0,0:0:0:0:
320,192,8380,1,0,0:0:0:0:
192,192,8441,1,0,0:0:0:0:
448,192,8502,1,0,0:0:0:0:
64,192,8562,1,0,0:0:0:0:
320,192,8562,1,0,0:0:0:0:
192,192,8623,1,0,0:0:0:0:
320,192,8683,1,0,0:0:0:0:
448,192,8683,1,0,0:0:0:0:
64,192,8744,1,0,0:0:0:0:
192,192,8805,1,0,0:0:0:0:
448,192,8805,1,0,0:0:0:0:
320,192,8865,1,0,0:0:0:0:
64,192,8926,1,0,0:0:0:0:
192,192,8926,1,0,0:0:0:0:
64,192,9047,1,0,0:0:0:0:
448,192,9047,1,0,0:0:0:0:
192,192,9168,1,0,0:0:0:0:
320,192,9168,1,0,0:0:0:0:
64,192,9289,1,0,0:0:0:0:
320,192,9289,1,0,0:0:0:0:
448,192,9289,1,0,0:0:0:0:
64,192,9411,1,0,0:0:0:0:
320,192,9411,1,0,0:0:0:0:
448,192,9411,1,0,0:0:0:0:
64,192,9532,1,0,0:0:0:0:
320,192,9532,1,0,0:0:0:0:
448,192,9532,1,0,0:0:0:0:
64,192,9653,1,0,0:0:0:0:
192,192,9653,1,0,0:0:0:0:
448,192,9653,1,0,0:0:0:0:
320,192,9774,1,0,0:0:0:0:
448,192,9774,1,0,0:0:0:0:
64,192,9895,1,0,0:0:0:0:
192,192,9895,1,0,0:0:0:0:
64,192,10017,1,0,0:0:0:0:
320,192,10017,1,0,0:0:0:0:
448,192,10017,1,0,0:0:0:0:
64,192,10138,1,0,0:0:0:0:
320,192,10138,1,0,0:0:0:0:
448,192,10138,1,0,0:0:0:0:
64,192,10259,1,0,0:0:0:0:
320,192,10259,1,0,0:0:0:0:
448,192,10259,1,0,0:0:0:0:
64,192,10380,1,0,0:0:0:0:
192,192,10380,1,0,0:0:0:0:
448,192,10380,1,0,0:0:0:0:
192,192,10502,1,0,0:0:0:0:
320,192,10502,1,0,0:0:0:0:
320,192,10623,1,0,0:0:0:0:
448,192,10623,1,0,0:0:0:0:
64,192,10744,1,0,0:0:0:0:
192,192,10744,1,0,0:0:0:0:
448,192,10744,1,0,0:0:0:0:
192,192,10865,1,0,0:0:0:0:
320,192,10865,1,0,0:0:0:0:
448,192,10865,1,0,0:0:0:0:
64,192,10986,1,0,0:0:0:0:
320,192,10986,1,0,0:0:0:0:
448,192,10986,1,0,0:0:0:0:
64,192,11108,1,0,0:0:0:0:
192,192,11108,1,0,0:0:0:0:
448,192,11168,1,0,0:0:0:0:
320,192,11229,1,0,0:0:0:0:
64,192,11289,1,0,0:0:0:0:
192,192,11350,1,0,0:0:0:0:
320,192,11350,1,0,0:0:0:0:
448,192,11411,1,0,0:0:0:0:
192,192,11471,1,0,0:0:0:0:
64,192,11532,1,0,0:0:0:0:
320,192,11592,1,0,0:0:0:0:
448,192,11592,1,0,0:0:0:0:
192,192,11653,1,0,0:0:0:0:
320,192,11714,1,0,0:0:0:0:
192,192,11774,1,0,0:0:0:0:
64,192,11835,1,0,0:0:0:0:
320,192,11835,1,0,0:0:0:0:
448,192,11835,1,0,0:0:0:0:
192,192,11895,1,0,0:0:0:0:
64,192,11956,1,0,0:0:0:0:
320,192,12017,1,0,0:0:0:0:
192,192,12077,1,0,0:0:0:0:
64,192,12138,1,0,0:0:0:0:
320,192,12199,1,0,0:0:0:0:
448,192,12199,1,0,0:0:0:0:
64,192,12259,1,0,0:0:0:0:
192,192,12320,1,0,0:0:0:0:
448,192,12320,1,0,0:0:0:0:
64,192,12380,1,0,0:0:0:0:
320,192,12441,1,0,0:0:0:0:
448,192,12441,1,0,0:0:0:0:
192,192,12502,1,0,0:0:0:0:
64,192,12562,1,0,0:0:0:0:
320,192,12562,1,0,0:0:0:0:
448,192,12562,1,0,0:0:0:0:
192,192,12623,1,0,0:0:0:0:
64,192,12683,1,0,0:0:0:0:
320,192,12744,1,0,0:0:0:0:
448,192,12805,1,0,0:0:0:0:
320,192,12865,1,0,0:0:0:0:
64,192,12926,1,0,0:0:0:0:
192,192,12926,1,0,0:0:0:0:
448,192,12986,1,0,0:0:0:0:
64,192,13047,1,0,0:0:0:0:
320,192,13047,1,0,0:0:0:0:
448,192,13108,1,0,0:0:0:0:
64,192,13168,1,0,0:0:0:0:
192,192,13168,1,0,0:0:0:0:
320,192,13229,1,0,0:0:0:0:
64,192,13289,1,0,0:0:0:0:
192,192,13289,1,0,0:0:0:0:
448,192,13289,1,0,0:0:0:0:
320,192,13350,1,0,0:0:0:0:
448,192,13411,1,0,0:0:0:0:
192,192,13471,1,0,0:0:0:0:
64,192,13532,1,0,0:0:0:0:
192,192,13592,1,0,0:0:0:0:
320,192,13653,1,0,0:0:0:0:
448,192,13653,1,0,0:0:0:0:
64,192,13714,1,0,0:0:0:0:
192,192,13774,1,0,0:0:0:0:
448,192,13774,1,0,0:0:0:0:
64,192,13835,1,0,0:0:0:0:
320,192,13895,1,0,0:0:0:0:
448,192,13895,1,0,0:0:0:0:
192,192,13956,1,0,0:0:0:0:
64,192,14017,1,0,0:0:0:0:
320,192,14017,1,0,0:0:0:0:
448,192,14017,1,0,0:0:0:0:
192,192,14077,1,0,0:0:0:0:
320,192,14138,1,0,0:0:0:0:
64,192,14199,1,0,0:0:0:0:
448,192,14259,1,0,0:0:0:0:
320,192,14320,1,0,0:0:0:0:
64,192,14380,1,0,0:0:0:0:
192,192,14380,1,0,0:0:0:0:
448,192,14380,1,0,0:0:0:0:
320,192,14441,1,0,0:0:0:0:
64,192,14502,1,0,0:0:0:0:
448,192,14562,1,0,0:0:0:0:
192,192,14623,1,0,0:0:0:0:
64,192,14683,1,0,0:0:0:0:
192,192,14744,1,0,0:0:0:0:
320,192,14744,1,0,0:0:0:0:
448,192,14744,1,0,0:0:0:0:
64,192,14805,1,0,0:0:0:0:
320,192,14865,1,0,0:0:0:0:
192,192,14926,1,0,0:0:0:0:
448,192,14986,1,0,0:0:0:0:
320,192,15047,1,0,0:0:0:0:
64,192,15108,1,0,0:0:0:0:
192,192,15108,1,0,0:0:0:0:
448,192,15168,1,0,0:0:0:0:
64,192,15229,1,0,0:0:0:0:
192,192,15229,1,0,0:0:0:0:
320,192,15289,1,0,0:0:0:0:
64,192,15350,1,0,0:0:0:0:
192,192,15350,1,0,0:0:0:0:
448,192,15411,1,0,0:0:0:0:
64,192,15471,1,0,0:0:0:0:
192,192,15471,1,0,0:0:0:0:
320,192,15471,1,0,0:0:0:0:
448,192,15532,1,0,0:0:0:0:
320,192,15592,1,0,0:0:0:0:
64,192,15653,1,0,0:0:0:0:
192,192,15714,1,0,0:0:0:0:
320,192,15714,1,0,0:0:0:0:
448,192,15714,1,0,0:0:0:0:
64,192,15774,1,0,0:0:0:0:
192,192,15835,1,0,0:0:0:0:
320,192,15895,1,0,0:0:0:0:
64,192,15956,1,0,0:0:0:0:
192,192,15956,1,0,0:0:0:0:
448,192,15956,1,0,0:0:0:0:
320,192,16017,1,0,0:0:0:0:
64,192,16077,1,0,0:0:0:0:
192,192,16077,1,0,0:0:0:0:
448,192,16077,1,0,0:0:0:0:
320,192,16138,1,0,0:0:0:0:
64,192,16199,1,0,0:0:0:0:
192,192,16199,1,0,0:0:0:0:
448,192,16199,1,0,0:0:0:0:
320,192,16259,1,0,0:0:0:0:
64,192,16320,1,0,0:0:0:0:
192,192,16380,1,0,0:0:0:0:
320,192,16441,1,0,0:0:0:0:
448,192,16441,1,0,0:0:0:0:
192,192,16502,1,0,0:0:0:0:
320,192,16562,1,0,0:0:0:0:
448,192,16623,1,0,0:0:0:0:
64,192,16683,1,0,0:0:0:0:
320,192,16683,1,0,0:0:0:0:
192,192,16744,1,0,0:0:0:0:
64,192,16805,1,0,0:0:0:0:
448,192,16805,1,0,0:0:0:0:
320,192,16865,1,0,0:0:0:0:
64,192,16926,1,0,0:0:0:0:
192,192,16926,1,0,0:0:0:0:
320,192,16986,1,0,0:0:0:0:
448,192,17047,1,0,0:0:0:0:
192,192,17108,1,0,0:0:0:0:
320,192,17168,1,0,0:0:0:0:
64,192,17229,1,0,0:0:0:0:
320,192,17289,1,0,0:0:0:0:
448,192,17350,1,0,0:0:0:0:
192,192,17411,1,0,0:0:0:0:
64,192,17471,1,0,0:0:0:0:
448,192,17532,1,0,0:0:0:0:
320,192,17592,1,0,0:0:0:0:
64,192,17653,1,0,0:0:0:0:
192,192,17653,1,0,0:0:0:0:
448,192,17653,1,0,0:0:0:0:
320,192,17774,1,0,0:0:0:0:
448,192,17774,1,0,0:0:0:0:
64,192,17895,1,0,0:0:0:0:
320,192,17895,1,0,0:0:0:0:
64,192,18017,1,0,0:0:0:0:
192,192,18017,1,0,0:0:0:0:
448,192,18017,1,0,0:0:0:0:
64,192,18138,1,0,0:0:0:0:
192,192,18138,1,0,0:0:0:0:
448,192,18138,1,0,0:0:0:0:
64,192,18259,1,0,0:0:0:0:
192,192,18259,1,0,0:0:0:0:
448,192,18259,1,0,0:0:0:0:
64,192,18380,1,0,0:0:0:0:
320,192,18380,1,0,0:0:0:0:
448,192,18380,1,0,0:0:0:0:
192,192,18502,1,0,0:0:0:0:
320,192,18502,1,0,0:0:0:0:
192,192,18623,1,0,0:0:0:0:
448,192,18623,1,0,0:0:0:0:
64,192,18744,1,0,0:0:0:0:
320,192,18744,1,0,0:0:0:0:
448,192,18744,1,0,0:0:0:0:
64,192,18865,1,0,0:0:0:0:
320,192,18865,1,0,0:0:0:0:
448,192,18865,1,0,0:0:0:0:
64,192,18986,1,0,0:0:0:0:
320,192,18986,1,0,0:0:0:0:
448,192,18986,1,0,0:0:0:0:
64,192,19108,1,0,0:0:0:0:
192,192,19108,1,0,0:0:0:0:
448,192,19108,1,0,0:0:0:0:
192,192,19229,1,0,0:0:0:0:
320,192,19229,1,0,0:0:0:0:
64,192,19350,1,0,0:0:0:0:
448,192,19350,1,0,0:0:0:0:
192,192,19471,1,0,0:0:0:0:
320,192,19471,1,0,0:0:0:0:
448,192,19471,1,0,0:0:0:0:
192,192,19592,1,0,0:0:0:0:
320,192,19592,1,0,0:0:0:0:
448,192,19592,1,0,0:0:0:0:
192,192,19714,1,0,0:0:0:0:
320,192,19714,1,0,0:0:0:0:
448,192,19714,1,0,0:0:0:0:
64,192,19835,1,0,0:0:0:0:
320,192,19835,1,0,0:0:0:0:
448,192,19835,1,0,0:0:0:0:
192,192,19956,1,0,0:0:0:0:
320,192,19956,1,0,0:0:0:0:
192,192,20077,1,0,0:0:0:0:
448,192,20077,1,0,0:0:0:0:
64,192,20199,1,0,0:0:0:0:
320,192,20199,1,0,0:0:0:0:
448,192,20199,1,0,0:0:0:0:
192,192,20320,1,0,0:0:0:0:
320,192,20320,1,0,0:0:0:0:
448,192,20320,1,0,0:0:0:0:
64,192,20441,1,0,0:0:0:0:
320,192,20441,1,0,0:0:0:0:
448,192,20441,1,0,0:0:0:0:
64,192,20562,1,0,0:0:0:0:
192,192,20562,1,0,0:0:0:0:
448,192,20562,1,0,0:0:0:0:
320,192,20623,1,0,0:0:0:0:
192,192,20683,1,0,0:0:0:0:
448,192,20744,1,0,0:0:0:0:
64,192,20805,1,0,0:0:0:0:
192,192,20865,1,0,0:0:0:0:
320,192,20926,1,0,0:0:0:0:
448,192,20926,1,0,0:0:0:0:
64,192,20986,1,0,0:0:0:0:
192,192,21047,1,0,0:0:0:0:
448,192,21108,1,0,0:0:0:0:
320,192,21168,1,0,0:0:0:0:
448,192,21229,1,0,0:0:0:0:
64,192,21289,1,0,0:0:0:0:
192,192,21289,1,0,0:0:0:0:
320,192,21289,1,0,0:0:0:0:
64,192,21411,1,0,0:0:0:0:
192,192,21411,1,0,0:0:0:0:
448,192,21411,1,0,0:0:0:0:
64,192,21532,1,0,0:0:0:0:
192,192,21532,1,0,0:0:0:0:
448,192,21532,1,0,0:0:0:0:
64,192,21653,1,0,0:0:0:0:
192,192,21653,1,0,0:0:0:0:
448,192,21653,1,0,0:0:0:0:
64,192,21774,1,0,0:0:0:0:
320,192,21774,1,0,0:0:0:0:
448,192,21774,1,0,0:0:0:0:
192,192,21835,1,0,0:0:0:0:
320,192,21895,1,0,0:0:0:0:
64,192,21956,1,0,0:0:0:0:
448,192,22017,1,0,0:0:0:0:
192,192,22077,1,0,0:0:0:0:
320,192,22138,1,0,0:0:0:0:
64,192,22199,1,0,0:0:0:0:
448,192,22259,1,0,0:0:0:0:
320,192,22320,1,0,0:0:0:0:
64,192,22380,1,0,0:0:0:0:
192,192,22380,1,0,0:0:0:0:
448,192,22441,1,0,0:0:0:0:
320,192,22502,1,0,0:0:0:0:
192,192,22562,1,0,0:0:0:0:
320,192,22623,1,0,0:0:0:0:
192,192,22683,1,0,0:0:0:0:
64,192,22744,1,0,0:0:0:0:
448,192,22744,1,0,0:0:0:0:
320,192,22805,1,0,0:0:0:0:
192,192,22865,1,0,0:0:0:0:
320,192,22926,1,0,0:0:0:0:
448,192,22986,1,0,0:0:0:0:
320,192,23047,1,0,0:0:0:0:
64,192,23108,1,0,0:0:0:0:
192,192,23108,1,0,0:0:0:0:
448,192,23108,1,0,0:0:0:0:
64,192,23229,1,0,0:0:0:0:
192,192,23229,1,0,0:0:0:0:
320,192,23229,1,0,0:0:0:0:
64,192,23350,1,0,0:0:0:0:
192,192,23350,1,0,0:0:0:0:
448,192,23350,1,0,0:0:0:0:
64,192,23471,128,0,24926:0:0:0:0:
192,192,23471,1,0,0:0:0:0:
320,192,23471,1,0,0:0:0:0:
192,192,23835,1,0,0:0:0:0:
448,192,23835,1,0,0:0:0:0:
192,192,24562,1,0,0:0:0:0:
448,192,24562,1,0,0:0:0:0:
192,192,24926,1,0,0:0:0:0:
448,192,24926,1,0,0:0:0:0:
320,192,24986,1,0,0:0:0:0:
192,192,25047,1,0,0:0:0:0:
320,192,25108,1,0,0:0:0:0:
64,192,25168,1,0,0:0:0:0:
192,192,25229,1,0,0:0:0:0:
64,192,25289,1,0,0:0:0:0:
320,192,25289,1,0,0:0:0:0:
448,192,25289,1,0,0:0:0:0:
64,192,25411,1,0,0:0:0:0:
320,192,25411,1,0,0:0:0:0:
448,192,25411,1,0,0:0:0:0:
64,192,25532,1,0,0:0:0:0:
320,192,25532,1,0,0:0:0:0:
448,192,25532,1,0,0:0:0:0:
64,192,25653,1,0,0:0:0:0:
192,192,25653,1,0,0:0:0:0:
448,192,25653,1,0,0:0:0:0:
320,192,25714,1,0,0:0:0:0:
192,192,25774,1,0,0:0:0:0:
320,192,25835,1,0,0:0:0:0:
64,192,25895,1,0,0:0:0:0:
192,192,25956,1,0,0:0:0:0:
64,192,26017,1,0,0:0:0:0:
320,192,26017,1,0,0:0:0:0:
448,192,26017,1,0,0:0:0:0:
64,192,26138,1,0,0:0:0:0:
320,192,26138,1,0,0:0:0:0:
448,192,26138,1,0,0:0:0:0:
64,192,26259,1,0,0:0:0:0:
320,192,26259,1,0,0:0:0:0:
448,192,26259,1,0,0:0:0:0:
192,192,26380,128,0,26411:0:0:0:0:
320,192,26502,128,0,26532:0:0:0:0:
192,192,26623,128,0,26653:0:0:0:0:
64,192,26744,128,0,26774:0:0:0:0:
320,192,26865,128,0,26895:0:0:0:0:
64,192,26986,128,0,27017:0:0:0:0:
448,192,27108,128,0,27138:0:0:0:0:
192,192,27229,128,0,27259:0:0:0:0:
448,192,27350,128,0,27380:0:0:0:0:
64,192,27471,128,0,27592:0:0:0:0:
64,192,27714,1,0,0:0:0:0:
64,192,27835,1,0,0:0:0:0:
320,192,27835,1,0,0:0:0:0:
448,192,27835,1,0,0:0:0:0:
192,192,27895,1,0,0:0:0:0:
320,192,27956,1,0,0:0:0:0:
192,192,28017,1,0,0:0:0:0:
448,192,28077,1,0,0:0:0:0:
320,192,28138,1,0,0:0:0:0:
64,192,28199,1,0,0:0:0:0:
192,192,28199,1,0,0:0:0:0:
448,192,28199,1,0,0:0:0:0:
64,192,28320,1,0,0:0:0:0:
192,192,28320,1,0,0:0:0:0:
448,192,28320,1,0,0:0:0:0:
64,192,28441,1,0,0:0:0:0:
192,192,28441,1,0,0:0:0:0:
448,192,28441,1,0,0:0:0:0:
64,192,28562,1,0,0:0:0:0:
320,192,28562,1,0,0:0:0:0:
448,192,28562,1,0,0:0:0:0:
192,192,28683,1,0,0:0:0:0:
448,192,28683,1,0,0:0:0:0:
192,192,28805,1,0,0:0:0:0:
320,192,28805,1,0,0:0:0:0:
192,192,28926,1,0,0:0:0:0:
448,192,28926,1,0,0:0:0:0:
448,192,29047,1,0,0:0:0:0:
320,192,29108,1,0,0:0:0:0:
64,192,29168,1,0,0:0:0:0:
192,192,29229,1,0,0:0:0:0:
64,192,29289,1,0,0:0:0:0:
320,192,29289,1,0,0:0:0:0:
448,192,29289,1,0,0:0:0:0:
192,192,29411,1,0,0:0:0:0:
448,192,29411,1,0,0:0:0:0:
320,192,29532,1,0,0:0:0:0:
64,192,29653,1,0,0:0:0:0:
192,192,29653,1,0,0:0:0:0:
448,192,29653,1,0,0:0:0:0:
64,192,29774,1,0,0:0:0:0:
320,192,29774,1,0,0:0:0:0:
192,192,29895,1,0,0:0:0:0:
64,192,30017,1,0,0:0:0:0:
320,192,30017,1,0,0:0:0:0:
448,192,30017,1,0,0:0:0:0:
192,192,30138,1,0,0:0:0:0:
448,192,30138,1,0,0:0:0:0:
320,192,30259,1,0,0:0:0:0:
64,192,30380,1,0,0:0:0:0:
192,192,30380,128,0,30744:0:0:0:0:
448,192,30380,1,0,0:0:0:0:
320,192,30502,1,0,0:0:0:0:
64,192,30744,1,0,0:0:0:0:
320,192,30744,1,0,0:0:0:0:
448,192,30744,1,0,0:0:0:0:
64,192,30865,1,0,0:0:0:0:
320,192,30865,1,0,0:0:0:0:
448,192,30865,1,0,0:0:0:0:
64,192,30986,1,0,0:0:0:0:
320,192,30986,1,0,0:0:0:0:
448,192,30986,1,0,0:0:0:0:
192,192,31108,1,0,0:0:0:0:
320,192,31108,1,0,0:0:0:0:
192,192,31229,1,0,0:0:0:0:
320,192,31229,1,0,0:0:0:0:
192,192,31350,1,0,0:0:0:0:
320,192,31350,1,0,0:0:0:0:
64,192,31471,1,0,0:0:0:0:
192,192,31471,1,0,0:0:0:0:
448,192,31471,1,0,0:0:0:0:
64,192,31592,1,0,0:0:0:0:
192,192,31592,1,0,0:0:0:0:
448,192,31592,1,0,0:0:0:0:
64,192,31714,1,0,0:0:0:0:
192,192,31714,1,0,0:0:0:0:
448,192,31714,1,0,0:0:0:0:
192,192,31835,1,0,0:0:0:0:
320,192,31835,1,0,0:0:0:0:
192,192,31956,1,0,0:0:0:0:
320,192,31956,1,0,0:0:0:0:
192,192,32077,1,0,0:0:0:0:
320,192,32077,1,0,0:0:0:0:
64,192,32199,1,0,0:0:0:0:
320,192,32199,1,0,0:0:0:0:
448,192,32199,1,0,0:0:0:0:
192,192,32320,1,0,0:0:0:0:
320,192,32441,1,0,0:0:0:0:
64,192,32562,1,0,0:0:0:0:
192,192,32562,1,0,0:0:0:0:
448,192,32683,1,0,0:0:0:0:
64,192,32805,1,0,0:0:0:0:
320,192,32926,1,0,0:0:0:0:
448,192,32926,1,0,0:0:0:0:
192,192,33047,1,0,0:0:0:0:
448,192,33168,1,0,0:0:0:0:
320,192,33229,1,0,0:0:0:0:
64,192,33289,1,0,0:0:0:0:
192,192,33289,1,0,0:0:0:0:
448,192,33350,1,0,0:0:0:0:
64,192,33411,1,0,0:0:0:0:
320,192,33411,1,0,0:0:0:0:
192,192,33471,1,0,0:0:0:0:
320,192,33532,1,0,0:0:0:0:
448,192,33532,1,0,0:0:0:0:
64,192,33592,1,0,0:0:0:0:
192,192,33592,1,0,0:0:0:0:
320,192,33653,1,0,0:0:0:0:
448,192,33653,128,0,34017:0:0:0:0:
64,192,34017,1,0,0:0:0:0:
192,192,34017,1,0,0:0:0:0:
64,192,34138,1,0,0:0:0:0:
192,192,34138,1,0,0:0:0:0:
64,192,34259,1,0,0:0:0:0:
192,192,34259,1,0,0:0:0:0:
448,192,34380,1,0,0:0:0:0:
64,192,34502,1,0,0:0:0:0:
64,192,34623,1,0,0:0:0:0:
64,192,34744,1,0,0:0:0:0:
448,192,34865,1,0,0:0:0:0:
448,192,34986,1,0,0:0:0:0:
64,192,35108,1,0,0:0:0:0:
192,192,35108,1,0,0:0:0:0:
448,192,35108,1,0,0:0:0:0:
320,192,35168,1,0,0:0:0:0:
64,192,35229,1,0,0:0:0:0:
192,192,35229,1,0,0:0:0:0:
448,192,35289,1,0,0:0:0:0:
320,192,35350,1,0,0:0:0:0:
192,192,35411,1,0,0:0:0:0:
320,192,35471,1,0,0:0:0:0:
448,192,35471,1,0,0:0:0:0:
64,192,35532,1,0,0:0:0:0:
192,192,35592,1,0,0:0:0:0:
448,192,35592,1,0,0:0:0:0:
320,192,35653,1,0,0:0:0:0:
64,192,35714,1,0,0:0:0:0:
192,192,35714,1,0,0:0:0:0:
448,192,35774,1,0,0:0:0:0:
64,192,35835,1,0,0:0:0:0:
192,192,35835,1,0,0:0:0:0:
320,192,35835,1,0,0:0:0:0:
448,192,35895,1,0,0:0:0:0:
320,192,35956,1,0,0:0:0:0:
64,192,36017,1,0,0:0:0:0:
192,192,36077,1,0,0:0:0:0:
448,192,36138,1,0,0:0:0:0:
64,192,36199,1,0,0:0:0:0:
320,192,36199,1,0,0:0:0:0:
192,192,36259,1,0,0:0:0:0:
320,192,36320,1,0,0:0:0:0:
448,192,36320,1,0,0:0:0:0:
64,192,36380,1,0,0:0:0:0:
192,192,36441,1,0,0:0:0:0:
448,192,36441,1,0,0:0:0:0:
320,192,36502,1,0,0:0:0:0:
64,192,36562,1,0,0:0:0:0:
192,192,36562,1,0,0:0:0:0:
320,192,36623,1,0,0:0:0:0:
448,192,36623,1,0,0:0:0:0:
64,192,36683,1,0,0:0:0:0:
192,192,36683,1,0,0:0:0:0:
320,192,36744,1,0,0:0:0:0:
448,192,36744,1,0,0:0:0:0:
64,192,36805,1,0,0:0:0:0:
192,192,36805,1,0,0:0:0:0:
320,192,36865,1,0,0:0:0:0:
448,192,36865,1,0,0:0:0:0:
64,192,36926,1,0,0:0:0:0:
192,192,36926,1,0,0:0:0:0:
448,192,36986,1,0,0:0:0:0:
192,192,37047,1,0,0:0:0:0:
320,192,37047,1,0,0:0:0:0:
64,192,37108,1,0,0:0:0:0:
320,192,37168,1,0,0:0:0:0:
448,192,37168,1,0,0:0:0:0:
192,192,37229,1,0,0:0:0:0:
64,192,37289,1,0,0:0:0:0:
448,192,37289,1,0,0:0:0:0:
192,192,37350,1,0,0:0:0:0:
320,192,37350,1,0,0:0:0:0:
64,192,37411,1,0,0:0:0:0:
448,192,37411,1,0,0:0:0:0:
192,192,37471,1,0,0:0:0:0:
320,192,37471,1,0,0:0:0:0:
64,192,37532,1,0,0:0:0:0:
448,192,37532,1,0,0:0:0:0:
192,192,37592,1,0,0:0:0:0:
320,192,37592,1,0,0:0:0:0:
64,192,37653,1,0,0:0:0:0:
448,192,37653,1,0,0:0:0:0:
320,192,37714,1,0,0:0:0:0:
64,192,37774,1,0,0:0:0:0:
192,192,37774,1,0,0:0:0:0:
448,192,37835,1,0,0:0:0:0:
192,192,37895,1,0,0:0:0:0:
320,192,37895,1,0,0:0:0:0:
64,192,37956,1,0,0:0:0:0:
192,192,38017,1,0,0:0:0:0:
320,192,38017,1,0,0:0:0:0:
448,192,38017,1,0,0:0:0:0:
64,192,38077,1,0,0:0:0:0:
192,192,38138,1,0,0:0:0:0:
448,192,38199,1,0,0:0:0:0:
320,192,38259,1,0,0:0:0:0:
192,192,38320,1,0,0:0:0:0:
64,192,38380,1,0,0:0:0:0:
448,192,38380,1,0,0:0:0:0:
320,192,38441,1,0,0:0:0:0:
64,192,38502,1,0,0:0:0:0:
192,192,38502,1,0,0:0:0:0:
320,192,38562,1,0,0:0:0:0:
192,192,38623,1,0,0:0:0:0:
448,192,38623,1,0,0:0:0:0:
64,192,38683,1,0,0:0:0:0:
192,192,38744,1,0,0:0:0:0:
320,192,38744,1,0,0:0:0:0:
448,192,38744,1,0,0:0:0:0:
64,192,38805,1,0,0:0:0:0:
320,192,38865,1,0,0:0:0:0:
448,192,38926,1,0,0:0:0:0:
192,192,38986,1,0,0:0:0:0:
320,192,39047,1,0,0:0:0:0:
64,192,39108,1,0,0:0:0:0:
448,192,39108,1,0,0:0:0:0:
192,192,39168,1,0,0:0:0:0:
320,192,39229,1,0,0:0:0:0:
448,192,39229,1,0,0:0:0:0:
64,192,39289,1,0,0:0:0:0:
192,192,39350,1,0,0:0:0:0:
320,192,39350,1,0,0:0:0:0:
448,192,39411,1,0,0:0:0:0:
64,192,39471,1,0,0:0:0:0:
192,192,39471,1,0,0:0:0:0:
320,192,39532,1,0,0:0:0:0:
448,192,39532,1,0,0:0:0:0:
64,192,39592,1,0,0:0:0:0:
192,192,39592,1,0,0:0:0:0:
320,192,39653,1,0,0:0:0:0:
448,192,39653,1,0,0:0:0:0:
64,192,39714,1,0,0:0:0:0:
192,192,39714,1,0,0:0:0:0:
320,192,39774,1,0,0:0:0:0:
448,192,39774,1,0,0:0:0:0:
64,192,39835,1,0,0:0:0:0:
192,192,39835,1,0,0:0:0:0:
448,192,39895,1,0,0:0:0:0:
64,192,39956,1,0,0:0:0:0:
320,192,39956,1,0,0:0:0:0:
192,192,40017,1,0,0:0:0:0:
320,192,40077,1,0,0:0:0:0:
448,192,40077,1,0,0:0:0:0:
64,192,40138,1,0,0:0:0:0:
192,192,40199,1,0,0:0:0:0:
320,192,40199,1,0,0:0:0:0:
448,192,40199,1,0,0:0:0:0:
64,192,40259,1,0,0:0:0:0:
192,192,40320,1,0,0:0:0:0:
448,192,40320,1,0,0:0:0:0:
320,192,40380,1,0,0:0:0:0:
192,192,40441,1,0,0:0:0:0:
448,192,40441,1,0,0:0:0:0:
64,192,40502,1,0,0:0:0:0:
192,192,40562,1,0,0:0:0:0:
320,192,40562,1,0,0:0:0:0:
448,192,40562,1,0,0:0:0:0:
64,192,40623,1,0,0:0:0:0:
320,192,40683,1,0,0:0:0:0:
448,192,40744,1,0,0:0:0:0:
192,192,40805,1,0,0:0:0:0:
320,192,40865,1,0,0:0:0:0:
64,192,40926,1,0,0:0:0:0:
192,192,40926,1,0,0:0:0:0:
448,192,40926,1,0,0:0:0:0:
320,192,40986,1,0,0:0:0:0:
448,192,41047,1,0,0:0:0:0:
192,192,41108,1,0,0:0:0:0:
320,192,41168,1,0,0:0:0:0:
64,192,41229,1,0,0:0:0:0:
192,192,41289,1,0,0:0:0:0:
448,192,41289,1,0,0:0:0:0:
320,192,41350,1,0,0:0:0:0:
64,192,41411,1,0,0:0:0:0:
192,192,41411,1,0,0:0:0:0:
448,192,41471,1,0,0:0:0:0:
64,192,41532,1,0,0:0:0:0:
320,192,41532,1,0,0:0:0:0:
192,192,41592,1,0,0:0:0:0:
64,192,41653,1,0,0:0:0:0:
320,192,41653,1,0,0:0:0:0:
448,192,41653,1,0,0:0:0:0:
192,192,41714,1,0,0:0:0:0:
320,192,41774,1,0,0:0:0:0:
192,192,41835,1,0,0:0:0:0:
64,192,41895,1,0,0:0:0:0:
448,192,41895,1,0,0:0:0:0:
320,192,41956,1,0,0:0:0:0:
192,192,42017,1,0,0:0:0:0:
448,192,42017,1,0,0:0:0:0:
320,192,42077,1,0,0:0:0:0:
64,192,42138,1,0,0:0:0:0:
192,192,42138,1,0,0:0:0:0:
448,192,42199,1,0,0:0:0:0:
64,192,42259,1,0,0:0:0:0:
320,192,42259,1,0,0:0:0:0:
192,192,42320,1,0,0:0:0:0:
320,192,42380,1,0,0:0:0:0:
448,192,42380,1,0,0:0:0:0:
64,192,42441,1,0,0:0:0:0:
192,192,42441,1,0,0:0:0:0:
320,192,42502,1,0,0:0:0:0:
448,192,42502,1,0,0:0:0:0:
64,192,42562,1,0,0:0:0:0:
192,192,42562,1,0,0:0:0:0:
320,192,42623,1,0,0:0:0:0:
448,192,42623,1,0,0:0:0:0:
64,192,42683,1,0,0:0:0:0:
192,192,42683,1,0,0:0:0:0:
320,192,42744,1,0,0:0:0:0:
448,192,42744,1,0,0:0:0:0:
64,192,42805,1,0,0:0:0:0:
192,192,42865,1,0,0:0:0:0:
448,192,42865,1,0,0:0:0:0:
320,192,42926,1,0,0:0:0:0:
64,192,42986,1,0,0:0:0:0:
192,192,42986,1,0,0:0:0:0:
448,192,43047,1,0,0:0:0:0:
64,192,43108,1,0,0:0:0:0:
192,192,43108,1,0,0:0:0:0:
320,192,43108,1,0,0:0:0:0:
448,192,43168,1,0,0:0:0:0:
320,192,43229,1,0,0:0:0:0:
192,192,43289,1,0,0:0:0:0:
64,192,43350,1,0,0:0:0:0:
192,192,43411,1,0,0:0:0:0:
320,192,43471,1,0,0:0:0:0:
448,192,43471,1,0,0:0:0:0:
64,192,43532,1,0,0:0:0:0:
192,192,43592,1,0,0:0:0:0:
320,192,43592,1,0,0:0:0:0:
448,192,43653,1,0,0:0:0:0:
64,192,43714,1,0,0:0:0:0:
192,192,43714,1,0,0:0:0:0:
320,192,43774,1,0,0:0:0:0:
64,192,43835,1,0,0:0:0:0:
192,192,43835,1,0,0:0:0:0:
448,192,43835,1,0,0:0:0:0:
320,192,43895,1,0,0:0:0:0:
448,192,43956,1,0,0:0:0:0:
64,192,44017,1,0,0:0:0:0:
320,192,44077,1,0,0:0:0:0:
192,192,44138,1,0,0:0:0:0:
64,192,44199,1,0,0:0:0:0:
448,192,44199,1,0,0:0:0:0:
320,192,44259,1,0,0:0:0:0:
64,192,44320,1,0,0:0:0:0:
192,192,44320,1,0,0:0:0:0:
448,192,44380,1,0,0:0:0:0:
192,192,44441,1,0,0:0:0:0:
320,192,44441,1,0,0:0:0:0:
64,192,44502,1,0,0:0:0:0:
192,192,44562,1,0,0:0:0:0:
320,192,44562,1,0,0:0:0:0:
448,192,44562,1,0,0:0:0:0:
64,192,44623,1,0,0:0:0:0:
448,192,44683,1,0,0:0:0:0:
192,192,44744,1,0,0:0:0:0:
320,192,44805,1,0,0:0:0:0:
64,192,44865,1,0,0:0:0:0:
192,192,44926,1,0,0:0:0:0:
448,192,44926,1,0,0:0:0:0:
320,192,44986,1,0,0:0:0:0:
64,192,45047,1,0,0:0:0:0:
192,192,45047,1,0,0:0:0:0:
448,192,45108,1,0,0:0:0:0:
64,192,45168,1,0,0:0:0:0:
320,192,45168,1,0,0:0:0:0:
192,192,45229,1,0,0:0:0:0:
64,192,45289,1,0,0:0:0:0:
320,192,45289,1,0,0:0:0:0:
448,192,45289,1,0,0:0:0:0:
192,192,45350,1,0,0:0:0:0:
448,192,45411,1,0,0:0:0:0:
64,192,45471,1,0,0:0:0:0:
320,192,45532,1,0,0:0:0:0:
448,192,45592,1,0,0:0:0:0:
64,192,45653,1,0,0:0:0:0:
192,192,45653,1,0,0:0:0:0:
64,192,45774,1,0,0:0:0:0:
192,192,45774,1,0,0:0:0:0:
64,192,45895,1,0,0:0:0:0:
192,192,45895,1,0,0:0:0:0:
64,192,46017,1,0,0:0:0:0:
320,192,46017,1,0,0:0:0:0:
448,192,46017,1,0,0:0:0:0:
192,192,46259,1,0,0:0:0:0:
64,192,46380,1,0,0:0:0:0:
320,192,46380,1,0,0:0:0:0:
448,192,46380,1,0,0:0:0:0:
320,192,46502,1,0,0:0:0:0:
448,192,46502,1,0,0:0:0:0:
64,192,46744,1,0,0:0:0:0:
320,192,46744,1,0,0:0:0:0:
448,192,46744,1,0,0:0:0:0:
320,192,46986,1,0,0:0:0:0:
448,192,46986,1,0,0:0:0:0:
64,192,47108,1,0,0:0:0:0:
320,192,47108,1,0,0:0:0:0:
448,192,47108,1,0,0:0:0:0:
320,192,47229,1,0,0:0:0:0:
448,192,47229,1,0,0:0:0:0:
64,192,47471,1,0,0:0:0:0:
192,192,47471,1,0,0:0:0:0:
320,192,47532,1,0,0:0:0:0:
448,192,47532,1,0,0:0:0:0:
64,192,47592,1,0,0:0:0:0:
192,192,47592,1,0,0:0:0:0:
320,192,47653,1,0,0:0:0:0:
448,192,47653,1,0,0:0:0:0:
64,192,47714,1,0,0:0:0:0:
192,192,47714,1,0,0:0:0:0:
320,192,47774,1,0,0:0:0:0:
448,192,47774,1,0,0:0:0:0:
64,192,47835,1,0,0:0:0:0:
192,192,47835,1,0,0:0:0:0:
448,192,47895,1,0,0:0:0:0:
64,192,47956,1,0,0:0:0:0:
320,192,47956,1,0,0:0:0:0:
448,192,48017,1,0,0:0:0:0:
192,192,48077,1,0,0:0:0:0:
320,192,48077,1,0,0:0:0:0:
64,192,48138,1,0,0:0:0:0:
320,192,48199,1,0,0:0:0:0:
448,192,48199,1,0,0:0:0:0:
64,192,48259,1,0,0:0:0:0:
192,192,48259,1,0,0:0:0:0:
320,192,48320,1,0,0:0:0:0:
448,192,48320,1,0,0:0:0:0:
64,192,48380,1,0,0:0:0:0:
192,192,48380,1,0,0:0:0:0:
320,192,48441,1,0,0:0:0:0:
448,192,48441,1,0,0:0:0:0:
64,192,48502,1,0,0:0:0:0:
192,192,48502,1,0,0:0:0:0:
320,192,48562,1,0,0:0:0:0:
448,192,48562,1,0,0:0:0:0:
64,192,48623,1,0,0:0:0:0:
192,192,48683,1,0,0:0:0:0:
448,192,48683,1,0,0:0:0:0:
64,192,48744,1,0,0:0:0:0:
192,192,48805,1,0,0:0:0:0:
320,192,48805,1,0,0:0:0:0:
448,192,48865,1,0,0:0:0:0:
64,192,48926,1,0,0:0:0:0:
192,192,48926,1,0,0:0:0:0:
320,192,48926,1,0,0:0:0:0:
448,192,48986,1,0,0:0:0:0:
320,192,49047,1,0,0:0:0:0:
64,192,49108,1,0,0:0:0:0:
192,192,49168,1,0,0:0:0:0:
448,192,49168,1,0,0:0:0:0:
320,192,49229,1,0,0:0:0:0:
64,192,49289,1,0,0:0:0:0:
192,192,49289,1,0,0:0:0:0:
448,192,49289,1,0,0:0:0:0:
320,192,49350,1,0,0:0:0:0:
64,192,49411,1,0,0:0:0:0:
192,192,49471,1,0,0:0:0:0:
320,192,49532,1,0,0:0:0:0:
448,192,49532,1,0,0:0:0:0:
192,192,49592,1,0,0:0:0:0:
64,192,49653,1,0,0:0:0:0:
320,192,49653,1,0,0:0:0:0:
448,192,49653,1,0,0:0:0:0:
192,192,49714,1,0,0:0:0:0:
448,192,49774,1,0,0:0:0:0:
320,192,49835,1,0,0:0:0:0:
64,192,49895,1,0,0:0:0:0:
192,192,49895,1,0,0:0:0:0:
448,192,49956,1,0,0:0:0:0:
64,192,50017,1,0,0:0:0:0:
192,192,50017,1,0,0:0:0:0:
320,192,50017,1,0,0:0:0:0:
448,192,50077,1,0,0:0:0:0:
320,192,50138,1,0,0:0:0:0:
64,192,50199,1,0,0:0:0:0:
192,192,50199,1,0,0:0:0:0:
320,192,50259,1,0,0:0:0:0:
448,192,50320,1,0,0:0:0:0:
64,192,50380,1,0,0:0:0:0:
192,192,50380,1,0,0:0:0:0:
320,192,50441,1,0,0:0:0:0:
448,192,50441,1,0,0:0:0:0:
64,192,50502,1,0,0:0:0:0:
192,192,50502,1,0,0:0:0:0:
320,192,50562,1,0,0:0:0:0:
448,192,50562,1,0,0:0:0:0:
64,192,50623,1,0,0:0:0:0:
192,192,50623,1,0,0:0:0:0:
320,192,50683,1,0,0:0:0:0:
448,192,50683,1,0,0:0:0:0:
64,192,50744,1,0,0:0:0:0:
192,192,50744,1,0,0:0:0:0:
448,192,50805,1,0,0:0:0:0:
64,192,50865,1,0,0:0:0:0:
320,192,50865,1,0,0:0:0:0:
192,192,50926,1,0,0:0:0:0:
320,192,50986,1,0,0:0:0:0:
448,192,50986,1,0,0:0:0:0:
64,192,51047,1,0,0:0:0:0:
192,192,51108,1,0,0:0:0:0:
320,192,51108,1,0,0:0:0:0:
448,192,51108,1,0,0:0:0:0:
64,192,51168,1,0,0:0:0:0:
192,192,51229,1,0,0:0:0:0:
448,192,51229,1,0,0:0:0:0:
320,192,51289,1,0,0:0:0:0:
64,192,51350,1,0,0:0:0:0:
192,192,51350,1,0,0:0:0:0:
448,192,51411,1,0,0:0:0:0:
64,192,51471,1,0,0:0:0:0:
192,192,51471,1,0,0:0:0:0:
320,192,51471,1,0,0:0:0:0:
448,192,51532,1,0,0:0:0:0:
64,192,51592,1,0,0:0:0:0:
320,192,51592,1,0,0:0:0:0:
192,192,51653,1,0,0:0:0:0:
320,192,51714,1,0,0:0:0:0:
448,192,51714,1,0,0:0:0:0:
192,192,51774,1,0,0:0:0:0:
64,192,51835,1,0,0:0:0:0:
320,192,51835,1,0,0:0:0:0:
448,192,51835,1,0,0:0:0:0:
192,192,51895,1,0,0:0:0:0:
320,192,51956,1,0,0:0:0:0:
64,192,52017,1,0,0:0:0:0:
192,192,52077,1,0,0:0:0:0:
448,192,52077,1,0,0:0:0:0:
320,192,52138,1,0,0:0:0:0:
64,192,52199,1,0,0:0:0:0:
192,192,52199,1,0,0:0:0:0:
448,192,52199,1,0,0:0:0:0:
320,192,52259,1,0,0:0:0:0:
64,192,52320,1,0,0:0:0:0:
192,192,52380,1,0,0:0:0:0:
448,192,52441,1,0,0:0:0:0:
192,192,52502,1,0,0:0:0:0:
64,192,52562,1,0,0:0:0:0:
320,192,52562,1,0,0:0:0:0:
448,192,52562,1,0,0:0:0:0:
192,192,52623,1,0,0:0:0:0:
320,192,52683,1,0,0:0:0:0:
448,192,52744,1,0,0:0:0:0:
192,192,52805,1,0,0:0:0:0:
320,192,52805,1,0,0:0:0:0:
64,192,52865,1,0,0:0:0:0:
320,192,52926,1,0,0:0:0:0:
448,192,52926,1,0,0:0:0:0:
192,192,52986,1,0,0:0:0:0:
320,192,53047,1,0,0:0:0:0:
448,192,53047,1,0,0:0:0:0:
64,192,53108,1,0,0:0:0:0:
192,192,53168,1,0,0:0:0:0:
320,192,53229,1,0,0:0:0:0:
64,192,53289,1,0,0:0:0:0:
192,192,53289,1,0,0:0:0:0:
320,192,53350,1,0,0:0:0:0:
448,192,53350,1,0,0:0:0:0:
64,192,53411,1,0,0:0:0:0:
192,192,53411,1,0,0:0:0:0:
320,192,53471,1,0,0:0:0:0:
448,192,53471,1,0,0:0:0:0:
64,192,53532,1,0,0:0:0:0:
192,192,53532,1,0,0:0:0:0:
320,192,53592,1,0,0:0:0:0:
448,192,53592,1,0,0:0:0:0:
64,192,53653,1,0,0:0:0:0:
192,192,53653,1,0,0:0:0:0:
448,192,53714,1,0,0:0:0:0:
64,192,53774,1,0,0:0:0:0:
320,192,53774,1,0,0:0:0:0:
192,192,53835,1,0,0:0:0:0:
320,192,53895,1,0,0:0:0:0:
448,192,53895,1,0,0:0:0:0:
64,192,53956,1,0,0:0:0:0:
192,192,54017,1,0,0:0:0:0:
320,192,54017,1,0,0:0:0:0:
64,192,54077,1,0,0:0:0:0:
448,192,54077,1,0,0:0:0:0:
192,192,54138,1,0,0:0:0:0:
320,192,54138,1,0,0:0:0:0:
64,192,54199,1,0,0:0:0:0:
448,192,54199,1,0,0:0:0:0:
192,192,54259,1,0,0:0:0:0:
320,192,54259,1,0,0:0:0:0:
64,192,54320,1,0,0:0:0:0:
448,192,54320,1,0,0:0:0:0:
192,192,54380,1,0,0:0:0:0:
320,192,54380,1,0,0:0:0:0:
448,192,54441,1,0,0:0:0:0:
64,192,54502,1,0,0:0:0:0:
320,192,54502,1,0,0:0:0:0:
192,192,54562,1,0,0:0:0:0:
320,192,54623,1,0,0:0:0:0:
448,192,54623,1,0,0:0:0:0:
64,192,54683,1,0,0:0:0:0:
192,192,54744,1,0,0:0:0:0:
320,192,54744,1,0,0:0:0:0:
448,192,54744,1,0,0:0:0:0:
64,192,54805,1,0,0:0:0:0:
192,192,54865,1,0,0:0:0:0:
448,192,54926,1,0,0:0:0:0:
64,192,54986,1,0,0:0:0:0:
320,192,54986,1,0,0:0:0:0:
192,192,55047,1,0,0:0:0:0:
64,192,55108,1,0,0:0:0:0:
320,192,55108,1,0,0:0:0:0:
448,192,55108,1,0,0:0:0:0:
192,192,55168,1,0,0:0:0:0:
448,192,55229,1,0,0:0:0:0:
320,192,55289,1,0,0:0:0:0:
64,192,55350,1,0,0:0:0:0:
192,192,55350,1,0,0:0:0:0:
448,192,55411,1,0,0:0:0:0:
64,192,55471,1,0,0:0:0:0:
192,192,55471,1,0,0:0:0:0:
320,192,55471,1,0,0:0:0:0:
448,192,55532,1,0,0:0:0:0:
320,192,55592,1,0,0:0:0:0:
64,192,55653,1,0,0:0:0:0:
192,192,55714,1,0,0:0:0:0:
448,192,55714,1,0,0:0:0:0:
320,192,55774,1,0,0:0:0:0:
64,192,55835,1,0,0:0:0:0:
192,192,55835,1,0,0:0:0:0:
448,192,55835,1,0,0:0:0:0:
320,192,55895,1,0,0:0:0:0:
64,192,55956,1,0,0:0:0:0:
192,192,55956,1,0,0:0:0:0:
448,192,56017,1,0,0:0:0:0:
320,192,56077,1,0,0:0:0:0:
192,192,56138,1,0,0:0:0:0:
64,192,56199,1,0,0:0:0:0:
448,192,56199,1,0,0:0:0:0:
192,192,56259,1,0,0:0:0:0:
320,192,56259,1,0,0:0:0:0:
64,192,56320,1,0,0:0:0:0:
448,192,56320,1,0,0:0:0:0:
320,192,56380,1,0,0:0:0:0:
64,192,56441,1,0,0:0:0:0:
192,192,56441,1,0,0:0:0:0:
448,192,56441,1,0,0:0:0:0:
64,192,56562,1,0,0:0:0:0:
320,192,56562,1,0,0:0:0:0:
448,192,56562,1,0,0:0:0:0:
192,192,56683,1,0,0:0:0:0:
320,192,56683,1,0,0:0:0:0:
192,192,56805,1,0,0:0:0:0:
448,192,56805,1,0,0:0:0:0:
64,192,56926,1,0,0:0:0:0:
320,192,56926,1,0,0:0:0:0:
448,192,56926,1,0,0:0:0:0:
64,192,57047,1,0,0:0:0:0:
192,192,57047,1,0,0:0:0:0:
192,192,57168,1,0,0:0:0:0:
448,192,57168,1,0,0:0:0:0:
64,192,57289,1,0,0:0:0:0:
320,192,57289,1,0,0:0:0:0:
448,192,57289,1,0,0:0:0:0:
192,192,57411,1,0,0:0:0:0:
320,192,57411,1,0,0:0:0:0:
64,192,57532,1,0,0:0:0:0:
192,192,57532,1,0,0:0:0:0:
64,192,57653,1,0,0:0:0:0:
320,192,57653,1,0,0:0:0:0:
448,192,57653,1,0,0:0:0:0:
192,192,57714,1,0,0:0:0:0:
320,192,57774,1,0,0:0:0:0:
64,192,57835,1,0,0:0:0:0:
192,192,57895,1,0,0:0:0:0:
448,192,57895,1,0,0:0:0:0:
320,192,57956,1,0,0:0:0:0:
64,192,58017,1,0,0:0:0:0:
192,192,58017,1,0,0:0:0:0:
320,192,58077,1,0,0:0:0:0:
64,192,58138,1,0,0:0:0:0:
448,192,58138,1,0,0:0:0:0:
192,192,58199,1,0,0:0:0:0:
320,192,58259,1,0,0:0:0:0:
448,192,58259,1,0,0:0:0:0:
64,192,58320,1,0,0:0:0:0:
192,192,58380,1,0,0:0:0:0:
448,192,58380,1,0,0:0:0:0:
320,192,58441,1,0,0:0:0:0:
192,192,58502,1,0,0:0:0:0:
448,192,58562,1,0,0:0:0:0:
64,192,58623,1,0,0:0:0:0:
320,192,58623,1,0,0:0:0:0:
192,192,58683,1,0,0:0:0:0:
64,192,58744,1,0,0:0:0:0:
320,192,58744,1,0,0:0:0:0:
448,192,58744,1,0,0:0:0:0:
192,192,58805,1,0,0:0:0:0:
320,192,58865,1,0,0:0:0:0:
448,192,58865,1,0,0:0:0:0:
64,192,58926,1,0,0:0:0:0:
192,192,58986,1,0,0:0:0:0:
448,192,58986,1,0,0:0:0:0:
320,192,59047,1,0,0:0:0:0:
64,192,59108,1,0,0:0:0:0:
192,192,59108,1,0,0:0:0:0:
320,192,59168,1,0,0:0:0:0:
448,192,59168,1,0,0:0:0:0:
64,192,59229,1,0,0:0:0:0:
192,192,59229,1,0,0:0:0:0:
320,192,59289,1,0,0:0:0:0:
448,192,59289,1,0,0:0:0:0:
64,192,59350,1,0,0:0:0:0:
192,192,59350,1,0,0:0:0:0:
320,192,59411,1,0,0:0:0:0:
448,192,59411,1,0,0:0:0:0:
64,192,59471,1,0,0:0:0:0:
192,192,59471,1,0,0:0:0:0:
448,192,59532,1,0,0:0:0:0:
64,192,59592,1,0,0:0:0:0:
320,192,59592,1,0,0:0:0:0:
192,192,59653,1,0,0:0:0:0:
320,192,59714,1,0,0:0:0:0:
448,192,59714,1,0,0:0:0:0:
64,192,59774,1,0,0:0:0:0:
320,192,59835,1,0,0:0:0:0:
448,192,59835,1,0,0:0:0:0:
64,192,59895,1,0,0:0:0:0:
192,192,59895,1,0,0:0:0:0:
320,192,59956,1,0,0:0:0:0:
448,192,59956,1,0,0:0:0:0:
64,192,60017,1,0,0:0:0:0:
192,192,60017,1,0,0:0:0:0:
320,192,60077,1,0,0:0:0:0:
448,192,60077,1,0,0:0:0:0:
64,192,60138,1,0,0:0:0:0:
192,192,60138,1,0,0:0:0:0:
320,192,60199,1,0,0:0:0:0:
448,192,60199,1,0,0:0:0:0:
192,192,60259,1,0,0:0:0:0:
64,192,60320,1,0,0:0:0:0:
448,192,60320,1,0,0:0:0:0:
320,192,60380,1,0,0:0:0:0:
64,192,60441,1,0,0:0:0:0:
192,192,60441,1,0,0:0:0:0:
448,192,60502,1,0,0:0:0:0:
64,192,60562,1,0,0:0:0:0:
192,192,60562,1,0,0:0:0:0:
320,192,60562,1,0,0:0:0:0:
448,192,60623,1,0,0:0:0:0:
320,192,60683,1,0,0:0:0:0:
64,192,60744,1,0,0:0:0:0:
192,192,60805,1,0,0:0:0:0:
320,192,60805,1,0,0:0:0:0:
448,192,60865,1,0,0:0:0:0:
64,192,60926,1,0,0:0:0:0:
192,192,60926,1,0,0:0:0:0:
320,192,60926,1,0,0:0:0:0:
448,192,60986,1,0,0:0:0:0:
64,192,61047,1,0,0:0:0:0:
192,192,61108,1,0,0:0:0:0:
320,192,61168,1,0,0:0:0:0:
448,192,61168,1,0,0:0:0:0:
64,192,61229,1,0,0:0:0:0:
192,192,61289,1,0,0:0:0:0:
320,192,61289,1,0,0:0:0:0:
448,192,61289,1,0,0:0:0:0:
64,192,61350,1,0,0:0:0:0:
192,192,61411,1,0,0:0:0:0:
448,192,61471,1,0,0:0:0:0:
64,192,61532,1,0,0:0:0:0:
320,192,61532,1,0,0:0:0:0:
192,192,61592,1,0,0:0:0:0:
64,192,61653,1,0,0:0:0:0:
320,192,61653,1,0,0:0:0:0:
448,192,61653,1,0,0:0:0:0:
192,192,61714,1,0,0:0:0:0:
64,192,61774,1,0,0:0:0:0:
448,192,61835,1,0,0:0:0:0:
192,192,61895,1,0,0:0:0:0:
320,192,61895,1,0,0:0:0:0:
64,192,61956,1,0,0:0:0:0:
320,192,62017,1,0,0:0:0:0:
448,192,62017,1,0,0:0:0:0:
64,192,62077,1,0,0:0:0:0:
192,192,62077,1,0,0:0:0:0:
320,192,62138,1,0,0:0:0:0:
448,192,62138,1,0,0:0:0:0:
64,192,62199,1,0,0:0:0:0:
192,192,62199,1,0,0:0:0:0:
320,192,62259,1,0,0:0:0:0:
448,192,62259,1,0,0:0:0:0:
192,192,62320,1,0,0:0:0:0:
64,192,62380,1,0,0:0:0:0:
320,192,62380,1,0,0:0:0:0:
448,192,62380,1,0,0:0:0:0:
192,192,62441,1,0,0:0:0:0:
64,192,62502,1,0,0:0:0:0:
448,192,62502,1,0,0:0:0:0:
320,192,62562,1,0,0:0:0:0:
64,192,62623,1,0,0:0:0:0:
192,192,62623,1,0,0:0:0:0:
320,192,62683,1,0,0:0:0:0:
64,192,62744,1,0,0:0:0:0:
192,192,62744,1,0,0:0:0:0:
448,192,62744,1,0,0:0:0:0:
320,192,62805,1,0,0:0:0:0:
448,192,62865,1,0,0:0:0:0:
64,192,62926,1,0,0:0:0:0:
192,192,62986,1,0,0:0:0:0:
320,192,63047,1,0,0:0:0:0:
64,192,63108,1,0,0:0:0:0:
192,192,63108,1,0,0:0:0:0:
448,192,63108,1,0,0:0:0:0:
320,192,63168,1,0,0:0:0:0:
64,192,63229,1,0,0:0:0:0:
448,192,63289,1,0,0:0:0:0:
192,192,63350,1,0,0:0:0:0:
320,192,63411,1,0,0:0:0:0:
64,192,63471,1,0,0:0:0:0:
192,192,63471,1,0,0:0:0:0:
448,192,63532,1,0,0:0:0:0:
192,192,63592,1,0,0:0:0:0:
320,192,63592,1,0,0:0:0:0:
64,192,63653,1,0,0:0:0:0:
320,192,63714,1,0,0:0:0:0:
448,192,63714,1,0,0:0:0:0:
192,192,63774,1,0,0:0:0:0:
64,192,63835,1,0,0:0:0:0:
320,192,63835,1,0,0:0:0:0:
448,192,63835,1,0,0:0:0:0:
192,192,63895,1,0,0:0:0:0:
64,192,63956,1,0,0:0:0:0:
448,192,63956,1,0,0:0:0:0:
320,192,64017,1,0,0:0:0:0:
64,192,64077,1,0,0:0:0:0:
192,192,64077,1,0,0:0:0:0:
320,192,64138,1,0,0:0:0:0:
64,192,64199,1,0,0:0:0:0:
192,192,64199,1,0,0:0:0:0:
448,192,64199,1,0,0:0:0:0:
320,192,64259,1,0,0:0:0:0:
448,192,64320,1,0,0:0:0:0:
64,192,64380,1,0,0:0:0:0:
192,192,64441,1,0,0:0:0:0:
320,192,64441,1,0,0:0:0:0:
448,192,64502,1,0,0:0:0:0:
64,192,64562,1,0,0:0:0:0:
192,192,64562,1,0,0:0:0:0:
320,192,64562,1,0,0:0:0:0:
448,192,64623,1,0,0:0:0:0:
320,192,64683,1,0,0:0:0:0:
64,192,64744,1,0,0:0:0:0:
192,192,64805,1,0,0:0:0:0:
448,192,64805,1,0,0:0:0:0:
320,192,64865,1,0,0:0:0:0:
64,192,64926,1,0,0:0:0:0:
192,192,64926,1,0,0:0:0:0:
320,192,64986,1,0,0:0:0:0:
448,192,64986,1,0,0:0:0:0:
64,192,65047,1,0,0:0:0:0:
192,192,65047,1,0,0:0:0:0:
320,192,65108,1,0,0:0:0:0:
448,192,65108,1,0,0:0:0:0:
64,192,65168,1,0,0:0:0:0:
192,192,65168,1,0,0:0:0:0:
320,192,65229,1,0,0:0:0:0:
448,192,65229,1,0,0:0:0:0:
64,192,65289,1,0,0:0:0:0:
192,192,65289,1,0,0:0:0:0:
448,192,65350,1,0,0:0:0:0:
64,192,65411,1,0,0:0:0:0:
320,192,65411,1,0,0:0:0:0:
192,192,65471,1,0,0:0:0:0:
320,192,65532,1,0,0:0:0:0:
448,192,65532,1,0,0:0:0:0:
64,192,65592,1,0,0:0:0:0:
192,192,65653,1,0,0:0:0:0:
320,192,65653,1,0,0:0:0:0:
64,192,65714,1,0,0:0:0:0:
448,192,65714,1,0,0:0:0:0:
192,192,65774,1,0,0:0:0:0:
320,192,65774,1,0,0:0:0:0:
64,192,65835,1,0,0:0:0:0:
448,192,65835,1,0,0:0:0:0:
192,192,65895,1,0,0:0:0:0:
320,192,65895,1,0,0:0:0:0:
64,192,65956,1,0,0:0:0:0:
448,192,65956,1,0,0:0:0:0:
192,192,66017,1,0,0:0:0:0:
320,192,66017,1,0,0:0:0:0:
448,192,66077,1,0,0:0:0:0:
64,192,66138,1,0,0:0:0:0:
192,192,66138,1,0,0:0:0:0:
320,192,66199,1,0,0:0:0:0:
64,192,66259,1,0,0:0:0:0:
448,192,66259,1,0,0:0:0:0:
192,192,66320,1,0,0:0:0:0:
64,192,66380,1,0,0:0:0:0:
320,192,66380,1,0,0:0:0:0:
448,192,66380,1,0,0:0:0:0:
192,192,66441,1,0,0:0:0:0:
448,192,66502,1,0,0:0:0:0:
320,192,66562,1,0,0:0:0:0:
64,192,66623,1,0,0:0:0:0:
192,192,66623,1,0,0:0:0:0:
448,192,66683,1,0,0:0:0:0:
64,192,66744,1,0,0:0:0:0:
192,192,66744,1,0,0:0:0:0:
320,192,66744,1,0,0:0:0:0:
448,192,66805,1,0,0:0:0:0:
64,192,66865,1,0,0:0:0:0:
320,192,66865,1,0,0:0:0:0:
192,192,66926,1,0,0:0:0:0:
320,192,66986,1,0,0:0:0:0:
448,192,66986,1,0,0:0:0:0:
64,192,67047,1,0,0:0:0:0:
192,192,67108,1,0,0:0:0:0:
320,192,67108,1,0,0:0:0:0:
448,192,67108,1,0,0:0:0:0:
64,192,67168,1,0,0:0:0:0:
192,192,67229,1,0,0:0:0:0:
320,192,67289,1,0,0:0:0:0:
64,192,67350,1,0,0:0:0:0:
192,192,67350,1,0,0:0:0:0:
448,192,67411,1,0,0:0:0:0:
64,192,67471,1,0,0:0:0:0:
192,192,67471,1,0,0:0:0:0:
320,192,67471,1,0,0:0:0:0:
448,192,67532,1,0,0:0:0:0:
320,192,67592,1,0,0:0:0:0:
64,192,67653,1,0,0:0:0:0:
192,192,67714,1,0,0:0:0:0:
448,192,67774,1,0,0:0:0:0:
64,192,67835,1,0,0:0:0:0:
192,192,67835,1,0,0:0:0:0:
320,192,67835,1,0,0:0:0:0:
448,192,67895,1,0,0:0:0:0:
64,192,67956,1,0,0:0:0:0:
320,192,67956,1,0,0:0:0:0:
192,192,68017,1,0,0:0:0:0:
320,192,68077,1,0,0:0:0:0:
448,192,68077,1,0,0:0:0:0:
64,192,68138,1,0,0:0:0:0:
192,192,68199,1,0,0:0:0:0:
448,192,68199,1,0,0:0:0:0:
192,192,68320,1,0,0:0:0:0:
320,192,68320,1,0,0:0:0:0:
64,192,68441,1,0,0:0:0:0:
320,192,68441,1,0,0:0:0:0:
64,192,68562,1,0,0:0:0:0:
192,192,68562,1,0,0:0:0:0:
448,192,68562,1,0,0:0:0:0:
320,192,68623,1,0,0:0:0:0:
64,192,68683,1,0,0:0:0:0:
192,192,68683,1,0,0:0:0:0:
448,192,68744,1,0,0:0:0:0:
64,192,68805,1,0,0:0:0:0:
320,192,68805,1,0,0:0:0:0:
192,192,68865,1,0,0:0:0:0:
320,192,68926,1,0,0:0:0:0:
448,192,68926,1,0,0:0:0:0:
64,192,68986,1,0,0:0:0:0:
192,192,69047,1,0,0:0:0:0:
320,192,69047,1,0,0:0:0:0:
448,192,69108,1,0,0:0:0:0:
64,192,69168,1,0,0:0:0:0:
192,192,69168,1,0,0:0:0:0:
320,192,69229,1,0,0:0:0:0:
64,192,69289,1,0,0:0:0:0:
448,192,69289,1,0,0:0:0:0:
192,192,69350,1,0,0:0:0:0:
320,192,69411,1,0,0:0:0:0:
448,192,69411,1,0,0:0:0:0:
64,192,69471,1,0,0:0:0:0:
192,192,69532,1,0,0:0:0:0:
448,192,69532,1,0,0:0:0:0:
320,192,69592,1,0,0:0:0:0:
64,192,69653,1,0,0:0:0:0:
192,192,69653,1,0,0:0:0:0:
448,192,69714,1,0,0:0:0:0:
192,192,69774,1,0,0:0:0:0:
320,192,69774,1,0,0:0:0:0:
64,192,69835,1,0,0:0:0:0:
320,192,69895,1,0,0:0:0:0:
448,192,69895,1,0,0:0:0:0:
192,192,69956,1,0,0:0:0:0:
64,192,70017,128,0,70077:0:0:0:0:
320,192,70017,128,0,70077:0:0:0:0:
448,192,70017,128,0,70077:0:0:0:0:
64,192,70138,1,0,0:0:0:0:
192,192,70138,1,0,0:0:0:0:
320,192,70138,1,0,0:0:0:0:
64,192,70380,128,0,70441:0:0:0:0:
192,192,70380,128,0,70441:0:0:0:0:
448,192,70380,128,0,70441:0:0:0:0:
64,192,70502,1,0,0:0:0:0:
320,192,70502,1,0,0:0:0:0:
448,192,70502,1,0,0:0:0:0:
192,192,70562,1,0,0:0:0:0:
320,192,70623,1,0,0:0:0:0:
192,192,70683,1,0,0:0:0:0:
64,192,70744,1,0,0:0:0:0:
320,192,70744,1,0,0:0:0:0:
448,192,70744,1,0,0:0:0:0:
192,192,70865,1,0,0:0:0:0:
320,192,70865,1,0,0:0:0:0:
192,192,70986,1,0,0:0:0:0:
448,192,70986,1,0,0:0:0:0:
64,192,71108,128,0,71168:0:0:0:0:
320,192,71108,128,0,71168:0:0:0:0:
448,192,71108,128,0,71168:0:0:0:0:
64,192,71229,1,0,0:0:0:0:
192,192,71229,1,0,0:0:0:0:
448,192,71229,1,0,0:0:0:0:
64,192,71471,1,0,0:0:0:0:
448,192,71471,1,0,0:0:0:0:
192,192,71532,1,0,0:0:0:0:
320,192,71532,1,0,0:0:0:0:
64,192,71592,1,0,0:0:0:0:
448,192,71592,1,0,0:0:0:0:
192,192,71653,1,0,0:0:0:0:
320,192,71653,1,0,0:0:0:0:
64,192,71714,1,0,0:0:0:0:
448,192,71714,1,0,0:0:0:0:
320,192,71774,1,0,0:0:0:0:
64,192,71835,1,0,0:0:0:0:
192,192,71835,1,0,0:0:0:0:
448,192,71895,1,0,0:0:0:0:
192,192,71956,1,0,0:0:0:0:
320,192,71956,1,0,0:0:0:0:
64,192,72017,1,0,0:0:0:0:
320,192,72077,1,0,0:0:0:0:
448,192,72077,1,0,0:0:0:0:
192,192,72138,1,0,0:0:0:0:
64,192,72199,1,0,0:0:0:0:
448,192,72199,1,0,0:0:0:0:
320,192,72259,1,0,0:0:0:0:
64,192,72320,1,0,0:0:0:0:
192,192,72320,1,0,0:0:0:0:
320,192,72380,1,0,0:0:0:0:
64,192,72441,1,0,0:0:0:0:
448,192,72441,1,0,0:0:0:0:
192,192,72502,1,0,0:0:0:0:
320,192,72562,1,0,0:0:0:0:
448,192,72562,1,0,0:0:0:0:
64,192,72623,1,0,0:0:0:0:
192,192,72623,1,0,0:0:0:0:
320,192,72683,1,0,0:0:0:0:
448,192,72683,1,0,0:0:0:0:
64,192,72744,1,0,0:0:0:0:
192,192,72744,1,0,0:0:0:0:
448,192,72805,1,0,0:0:0:0:
192,192,72850,1,0,0:0:0:0:
64,192,72906,1,0,0:0:0:0:
320,192,72941,1,0,0:0:0:0:
192,192,72986,1,0,0:0:0:0:
448,192,73017,1,0,0:0:0:0:
64,192,73047,1,0,0:0:0:0:
320,192,73047,1,0,0:0:0:0:
192,192,73168,1,0,0:0:0:0:
64,192,73289,1,0,0:0:0:0:
192,192,73289,1,0,0:0:0:0:
448,192,73289,1,0,0:0:0:0:
320,192,73411,1,0,0:0:0:0:
64,192,73532,1,0,0:0:0:0:
192,192,73532,1,0,0:0:0:0:
64,192,73653,1,0,0:0:0:0:
192,192,73653,1,0,0:0:0:0:
448,192,73653,1,0,0:0:0:0:
320,192,73774,1,0,0:0:0:0:
64,192,73895,1,0,0:0:0:0:
448,192,73895,1,0,0:0:0:0:
192,192,74017,1,0,0:0:0:0:
448,192,74017,1,0,0:0:0:0:
192,192,74138,1,0,0:0:0:0:
320,192,74138,1,0,0:0:0:0:
64,192,74259,1,0,0:0:0:0:
320,192,74259,1,0,0:0:0:0:
448,192,74259,1,0,0:0:0:0:
192,192,74320,1,0,0:0:0:0:
320,192,74380,1,0,0:0:0:0:
448,192,74380,1,0,0:0:0:0:
192,192,74441,1,0,0:0:0:0:
320,192,74502,1,0,0:0:0:0:
448,192,74502,1,0,0:0:0:0:
192,192,74562,1,0,0:0:0:0:
64,192,74623,1,0,0:0:0:0:
320,192,74623,1,0,0:0:0:0:
448,192,74623,1,0,0:0:0:0:
192,192,74683,1,0,0:0:0:0:
64,192,74744,1,0,0:0:0:0:
448,192,74744,1,0,0:0:0:0:
320,192,74805,1,0,0:0:0:0:
64,192,74865,1,0,0:0:0:0:
192,192,74865,1,0,0:0:0:0:
448,192,74926,1,0,0:0:0:0:
192,192,74986,1,0,0:0:0:0:
320,192,74986,1,0,0:0:0:0:
64,192,75047,1,0,0:0:0:0:
192,192,75108,1,0,0:0:0:0:
320,192,75108,1,0,0:0:0:0:
448,192,75108,1,0,0:0:0:0:
64,192,75168,1,0,0:0:0:0:
320,192,75229,1,0,0:0:0:0:
448,192,75229,1,0,0:0:0:0:
192,192,75289,1,0,0:0:0:0:
64,192,75350,1,0,0:0:0:0:
448,192,75350,1,0,0:0:0:0:
320,192,75411,1,0,0:0:0:0:
64,192,75471,1,0,0:0:0:0:
192,192,75471,1,0,0:0:0:0:
320,192,75532,1,0,0:0:0:0:
64,192,75592,1,0,0:0:0:0:
192,192,75592,1,0,0:0:0:0:
448,192,75592,1,0,0:0:0:0:
64,192,75714,1,0,0:0:0:0:
320,192,75714,1,0,0:0:0:0:
448,192,75714,1,0,0:0:0:0:
64,192,75835,1,0,0:0:0:0:
320,192,75835,1,0,0:0:0:0:
192,192,75895,1,0,0:0:0:0:
64,192,75956,1,0,0:0:0:0:
320,192,75956,1,0,0:0:0:0:
448,192,75956,1,0,0:0:0:0:
192,192,76017,1,0,0:0:0:0:
448,192,76077,1,0,0:0:0:0:
320,192,76138,1,0,0:0:0:0:
64,192,76199,1,0,0:0:0:0:
192,192,76199,1,0,0:0:0:0:
448,192,76259,1,0,0:0:0:0:
64,192,76320,1,0,0:0:0:0:
192,192,76320,1,0,0:0:0:0:
320,192,76320,1,0,0:0:0:0:
448,192,76380,1,0,0:0:0:0:
64,192,76441,1,0,0:0:0:0:
192,192,76502,1,0,0:0:0:0:
320,192,76562,1,0,0:0:0:0:
448,192,76562,1,0,0:0:0:0:
192,192,76623,1,0,0:0:0:0:
320,192,76683,1,0,0:0:0:0:
448,192,76683,1,0,0:0:0:0:
64,192,76744,1,0,0:0:0:0:
192,192,76805,1,0,0:0:0:0:
448,192,76805,1,0,0:0:0:0:
320,192,76865,1,0,0:0:0:0:
64,192,76926,1,0,0:0:0:0:
192,192,76926,1,0,0:0:0:0:
448,192,76986,1,0,0:0:0:0:
64,192,77047,1,0,0:0:0:0:
320,192,77047,1,0,0:0:0:0:
192,192,77108,1,0,0:0:0:0:
320,192,77168,1,0,0:0:0:0:
448,192,77229,1,0,0:0:0:0:
64,192,77289,1,0,0:0:0:0:
192,192,77289,1,0,0:0:0:0:
320,192,77350,1,0,0:0:0:0:
448,192,77350,1,0,0:0:0:0:
64,192,77411,1,0,0:0:0:0:
192,192,77411,1,0,0:0:0:0:
320,192,77471,1,0,0:0:0:0:
448,192,77471,1,0,0:0:0:0:
64,192,77532,1,0,0:0:0:0:
192,192,77532,1,0,0:0:0:0:
448,192,77592,1,0,0:0:0:0:
64,192,77653,1,0,0:0:0:0:
320,192,77653,1,0,0:0:0:0:
192,192,77714,1,0,0:0:0:0:
320,192,77774,1,0,0:0:0:0:
448,192,77774,1,0,0:0:0:0:
64,192,77835,1,0,0:0:0:0:
192,192,77895,1,0,0:0:0:0:
320,192,77895,1,0,0:0:0:0:
448,192,77956,1,0,0:0:0:0:
64,192,78017,1,0,0:0:0:0:
192,192,78017,1,0,0:0:0:0:
320,192,78017,1,0,0:0:0:0:
448,192,78077,1,0,0:0:0:0:
64,192,78138,1,0,0:0:0:0:
192,192,78199,1,0,0:0:0:0:
448,192,78259,1,0,0:0:0:0:
320,192,78320,1,0,0:0:0:0:
64,192,78380,1,0,0:0:0:0:
192,192,78380,1,0,0:0:0:0:
448,192,78380,1,0,0:0:0:0:
320,192,78441,1,0,0:0:0:0:
192,192,78502,1,0,0:0:0:0:
448,192,78562,1,0,0:0:0:0:
192,192,78623,1,0,0:0:0:0:
64,192,78683,1,0,0:0:0:0:
320,192,78744,1,0,0:0:0:0:
448,192,78744,1,0,0:0:0:0:
64,192,78805,1,0,0:0:0:0:
192,192,78805,1,0,0:0:0:0:
320,192,78865,1,0,0:0:0:0:
448,192,78865,1,0,0:0:0:0:
64,192,78926,1,0,0:0:0:0:
192,192,78926,1,0,0:0:0:0:
320,192,78986,1,0,0:0:0:0:
448,192,78986,1,0,0:0:0:0:
64,192,79047,1,0,0:0:0:0:
192,192,79108,1,0,0:0:0:0:
320,192,79108,1,0,0:0:0:0:
448,192,79168,1,0,0:0:0:0:
64,192,79229,1,0,0:0:0:0:
192,192,79229,1,0,0:0:0:0:
320,192,79289,1,0,0:0:0:0:
64,192,79350,1,0,0:0:0:0:
448,192,79350,1,0,0:0:0:0:
192,192,79411,1,0,0:0:0:0:
320,192,79471,1,0,0:0:0:0:
448,192,79471,1,0,0:0:0:0:
64,192,79532,1,0,0:0:0:0:
192,192,79532,1,0,0:0:0:0:
320,192,79592,1,0,0:0:0:0:
448,192,79592,1,0,0:0:0:0:
64,192,79653,1,0,0:0:0:0:
192,192,79653,1,0,0:0:0:0:
320,192,79714,1,0,0:0:0:0:
448,192,79714,1,0,0:0:0:0:
192,192,79774,1,0,0:0:0:0:
64,192,79835,1,0,0:0:0:0:
448,192,79835,1,0,0:0:0:0:
320,192,79895,1,0,0:0:0:0:
64,192,79956,1,0,0:0:0:0:
192,192,79956,1,0,0:0:0:0:
320,192,80017,1,0,0:0:0:0:
192,192,80077,1,0,0:0:0:0:
448,192,80077,1,0,0:0:0:0:
64,192,80138,1,0,0:0:0:0:
320,192,80199,1,0,0:0:0:0:
448,192,80199,1,0,0:0:0:0:
64,192,80259,1,0,0:0:0:0:
192,192,80259,1,0,0:0:0:0:
320,192,80320,1,0,0:0:0:0:
448,192,80320,1,0,0:0:0:0:
64,192,80380,1,0,0:0:0:0:
192,192,80380,1,0,0:0:0:0:
320,192,80441,1,0,0:0:0:0:
448,192,80441,1,0,0:0:0:0:
64,192,80502,1,0,0:0:0:0:
192,192,80562,1,0,0:0:0:0:
320,192,80562,1,0,0:0:0:0:
448,192,80562,1,0,0:0:0:0:
64,192,80683,1,0,0:0:0:0:
320,192,80683,1,0,0:0:0:0:
448,192,80683,1,0,0:0:0:0:
64,192,80805,1,0,0:0:0:0:
192,192,80805,1,0,0:0:0:0:
320,192,80805,1,0,0:0:0:0:
64,192,80926,1,0,0:0:0:0:
192,192,80926,1,0,0:0:0:0:
448,192,80926,1,0,0:0:0:0:
320,192,80986,1,0,0:0:0:0:
64,192,81047,1,0,0:0:0:0:
192,192,81047,1,0,0:0:0:0:
448,192,81108,1,0,0:0:0:0:
64,192,81168,1,0,0:0:0:0:
320,192,81168,1,0,0:0:0:0:
192,192,81229,1,0,0:0:0:0:
320,192,81289,1,0,0:0:0:0:
448,192,81289,1,0,0:0:0:0:
64,192,81350,1,0,0:0:0:0:
192,192,81411,1,0,0:0:0:0:
448,192,81411,1,0,0:0:0:0:
320,192,81471,1,0,0:0:0:0:
64,192,81532,1,0,0:0:0:0:
192,192,81532,1,0,0:0:0:0:
448,192,81592,1,0,0:0:0:0:
64,192,81653,1,0,0:0:0:0:
192,192,81653,1,0,0:0:0:0:
320,192,81653,1,0,0:0:0:0:
448,192,81714,1,0,0:0:0:0:
64,192,81774,1,0,0:0:0:0:
320,192,81774,1,0,0:0:0:0:
192,192,81835,1,0,0:0:0:0:
320,192,81895,1,0,0:0:0:0:
448,192,81895,1,0,0:0:0:0:
64,192,81956,1,0,0:0:0:0:
192,192,82017,1,0,0:0:0:0:
320,192,82017,1,0,0:0:0:0:
448,192,82017,1,0,0:0:0:0:
64,192,82077,1,0,0:0:0:0:
192,192,82138,1,0,0:0:0:0:
448,192,82138,1,0,0:0:0:0:
320,192,82199,1,0,0:0:0:0:
64,192,82259,1,0,0:0:0:0:
192,192,82259,1,0,0:0:0:0:
448,192,82320,1,0,0:0:0:0:
64,192,82380,1,0,0:0:0:0:
192,192,82380,1,0,0:0:0:0:
320,192,82380,1,0,0:0:0:0:
448,192,82441,1,0,0:0:0:0:
64,192,82502,1,0,0:0:0:0:
320,192,82502,1,0,0:0:0:0:
192,192,82562,1,0,0:0:0:0:
320,192,82623,1,0,0:0:0:0:
448,192,82623,1,0,0:0:0:0:
64,192,82683,1,0,0:0:0:0:
192,192,82744,1,0,0:0:0:0:
320,192,82744,1,0,0:0:0:0:
448,192,82744,1,0,0:0:0:0:
64,192,82805,1,0,0:0:0:0:
192,192,82865,1,0,0:0:0:0:
448,192,82865,1,0,0:0:0:0:
320,192,82926,1,0,0:0:0:0:
64,192,82986,1,0,0:0:0:0:
192,192,82986,1,0,0:0:0:0:
448,192,83047,1,0,0:0:0:0:
192,192,83108,1,0,0:0:0:0:
320,192,83108,1,0,0:0:0:0:
64,192,83168,1,0,0:0:0:0:
448,192,83168,1,0,0:0:0:0:
192,192,83229,1,0,0:0:0:0:
320,192,83229,1,0,0:0:0:0:
64,192,83289,1,0,0:0:0:0:
448,192,83289,1,0,0:0:0:0:
192,192,83350,1,0,0:0:0:0:
320,192,83350,1,0,0:0:0:0:
64,192,83411,1,0,0:0:0:0:
192,192,83471,1,0,0:0:0:0:
448,192,83471,1,0,0:0:0:0:
320,192,83532,1,0,0:0:0:0:
64,192,83592,1,0,0:0:0:0:
192,192,83592,1,0,0:0:0:0:
448,192,83653,1,0,0:0:0:0:
64,192,83714,1,0,0:0:0:0:
320,192,83714,1,0,0:0:0:0:
192,192,83774,1,0,0:0:0:0:
64,192,83835,1,0,0:0:0:0:
320,192,83835,1,0,0:0:0:0:
448,192,83835,1,0,0:0:0:0:
192,192,83956,1,0,0:0:0:0:
448,192,83956,1,0,0:0:0:0:
64,192,84077,1,0,0:0:0:0:
192,192,84077,1,0,0:0:0:0:
448,192,84077,1,0,0:0:0:0:
64,192,84199,1,0,0:0:0:0:
320,192,84199,1,0,0:0:0:0:
448,192,84199,1,0,0:0:0:0:
192,192,84259,1,0,0:0:0:0:
320,192,84320,1,0,0:0:0:0:
448,192,84365,1,0,0:0:0:0:
192,192,84411,1,0,0:0:0:0:
320,192,84456,1,0,0:0:0:0:
64,192,84486,1,0,0:0:0:0:
192,192,84532,1,0,0:0:0:0:
320,192,84562,1,0,0:0:0:0:
448,192,84562,1,0,0:0:0:0:
64,192,84623,1,0,0:0:0:0:
192,192,84683,1,0,0:0:0:0:
448,192,84683,1,0,0:0:0:0:
320,192,84744,1,0,0:0:0:0:
64,192,84805,1,0,0:0:0:0:
192,192,84805,1,0,0:0:0:0:
320,192,84865,1,0,0:0:0:0:
64,192,84926,1,0,0:0:0:0:
192,192,84926,1,0,0:0:0:0:
448,192,84926,1,0,0:0:0:0:
320,192,84986,1,0,0:0:0:0:
64,192,85047,1,0,0:0:0:0:
448,192,85047,1,0,0:0:0:0:
192,192,85108,1,0,0:0:0:0:
320,192,85168,1,0,0:0:0:0:
448,192,85168,1,0,0:0:0:0:
64,192,85229,1,0,0:0:0:0:
192,192,85289,1,0,0:0:0:0:
320,192,85289,1,0,0:0:0:0:
448,192,85350,1,0,0:0:0:0:
64,192,85411,1,0,0:0:0:0:
320,192,85411,1,0,0:0:0:0:
192,192,85471,1,0,0:0:0:0:
320,192,85532,1,0,0:0:0:0:
448,192,85532,1,0,0:0:0:0:
64,192,85592,1,0,0:0:0:0:
192,192,85653,1,0,0:0:0:0:
320,192,85653,1,0,0:0:0:0:
448,192,85653,1,0,0:0:0:0:
64,192,85714,1,0,0:0:0:0:
192,192,85774,1,0,0:0:0:0:
448,192,85774,1,0,0:0:0:0:
320,192,85835,1,0,0:0:0:0:
64,192,85895,1,0,0:0:0:0:
448,192,85895,1,0,0:0:0:0:
192,192,85956,1,0,0:0:0:0:
320,192,86017,1,0,0:0:0:0:
448,192,86017,1,0,0:0:0:0:
64,192,86077,1,0,0:0:0:0:
192,192,86077,1,0,0:0:0:0:
320,192,86138,1,0,0:0:0:0:
448,192,86138,1,0,0:0:0:0:
64,192,86199,1,0,0:0:0:0:
192,192,86199,1,0,0:0:0:0:
320,192,86259,1,0,0:0:0:0:
448,192,86259,1,0,0:0:0:0:
64,192,86320,1,0,0:0:0:0:
192,192,86320,1,0,0:0:0:0:
320,192,86380,1,0,0:0:0:0:
448,192,86380,1,0,0:0:0:0:
64,192,86441,1,0,0:0:0:0:
192,192,86502,1,0,0:0:0:0:
320,192,86502,1,0,0:0:0:0:
448,192,86562,1,0,0:0:0:0:
64,192,86623,1,0,0:0:0:0:
320,192,86623,1,0,0:0:0:0:
192,192,86683,1,0,0:0:0:0:
64,192,86744,1,0,0:0:0:0:
320,192,86744,1,0,0:0:0:0:
448,192,86744,1,0,0:0:0:0:
192,192,86805,1,0,0:0:0:0:
320,192,86865,1,0,0:0:0:0:
448,192,86865,1,0,0:0:0:0:
192,192,86926,1,0,0:0:0:0:
64,192,86986,1,0,0:0:0:0:
448,192,86986,1,0,0:0:0:0:
320,192,87047,1,0,0:0:0:0:
64,192,87108,1,0,0:0:0:0:
192,192,87108,1,0,0:0:0:0:
448,192,87168,1,0,0:0:0:0:
192,192,87229,1,0,0:0:0:0:
320,192,87229,1,0,0:0:0:0:
64,192,87289,1,0,0:0:0:0:
320,192,87350,1,0,0:0:0:0:
448,192,87350,1,0,0:0:0:0:
192,192,87411,1,0,0:0:0:0:
64,192,87471,1,0,0:0:0:0:
448,192,87471,1,0,0:0:0:0:
192,192,87532,1,0,0:0:0:0:
320,192,87532,1,0,0:0:0:0:
64,192,87592,1,0,0:0:0:0:
448,192,87592,1,0,0:0:0:0:
192,192,87653,1,0,0:0:0:0:
320,192,87653,1,0,0:0:0:0:
64,192,87714,1,0,0:0:0:0:
448,192,87714,1,0,0:0:0:0:
320,192,87774,1,0,0:0:0:0:
64,192,87835,1,0,0:0:0:0:
192,192,87835,1,0,0:0:0:0:
320,192,87895,1,0,0:0:0:0:
448,192,87895,1,0,0:0:0:0:
64,192,87956,1,0,0:0:0:0:
192,192,87956,1,0,0:0:0:0:
320,192,88017,1,0,0:0:0:0:
448,192,88017,1,0,0:0:0:0:
64,192,88077,1,0,0:0:0:0:
192,192,88077,1,0,0:0:0:0:
448,192,88138,1,0,0:0:0:0:
64,192,88199,1,0,0:0:0:0:
192,192,88199,1,0,0:0:0:0:
320,192,88199,1,0,0:0:0:0:
448,192,88259,1,0,0:0:0:0:
64,192,88320,1,0,0:0:0:0:
320,192,88320,1,0,0:0:0:0:
192,192,88380,1,0,0:0:0:0:
320,192,88441,1,0,0:0:0:0:
448,192,88441,1,0,0:0:0:0:
64,192,88502,1,0,0:0:0:0:
192,192,88562,1,0,0:0:0:0:
448,192,88562,1,0,0:0:0:0:
320,192,88623,1,0,0:0:0:0:
64,192,88683,1,0,0:0:0:0:
192,192,88683,1,0,0:0:0:0:
448,192,88744,1,0,0:0:0:0:
64,192,88805,1,0,0:0:0:0:
320,192,88805,1,0,0:0:0:0:
192,192,88865,1,0,0:0:0:0:
320,192,88926,1,0,0:0:0:0:
448,192,88926,1,0,0:0:0:0:
64,192,88986,1,0,0:0:0:0:
192,192,89047,1,0,0:0:0:0:
448,192,89047,1,0,0:0:0:0:
320,192,89108,1,0,0:0:0:0:
64,192,89168,1,0,0:0:0:0:
192,192,89168,1,0,0:0:0:0:
448,192,89229,1,0,0:0:0:0:
192,192,89289,1,0,0:0:0:0:
320,192,89289,1,0,0:0:0:0:
64,192,89350,1,0,0:0:0:0:
320,192,89411,1,0,0:0:0:0:
448,192,89411,1,0,0:0:0:0:
192,192,89471,1,0,0:0:0:0:
64,192,89532,1,0,0:0:0:0:
320,192,89532,1,0,0:0:0:0:
448,192,89532,1,0,0:0:0:0:
192,192,89592,1,0,0:0:0:0:
64,192,89653,128,0,89714:0:0:0:0:
320,192,89653,128,0,89714:0:0:0:0:
448,192,89653,128,0,89714:0:0:0:0:
64,192,89895,1,0,0:0:0:0:
320,192,89895,1,0,0:0:0:0:
448,192,89895,1,0,0:0:0:0:
192,192,89956,1,0,0:0:0:0:
320,192,90017,1,0,0:0:0:0:
448,192,90017,1,0,0:0:0:0:
64,192,90077,1,0,0:0:0:0:
192,192,90077,1,0,0:0:0:0:
320,192,90138,1,0,0:0:0:0:
448,192,90138,1,0,0:0:0:0:
64,192,90380,128,0,90441:0:0:0:0:
192,192,90380,128,0,90441:0:0:0:0:
448,192,90380,128,0,90441:0:0:0:0:
64,192,90623,1,0,0:0:0:0:
192,192,90623,1,0,0:0:0:0:
448,192,90623,1,0,0:0:0:0:
320,192,90683,1,0,0:0:0:0:
64,192,90744,1,0,0:0:0:0:
192,192,90744,1,0,0:0:0:0:
320,192,90805,1,0,0:0:0:0:
448,192,90805,1,0,0:0:0:0:
64,192,90865,1,0,0:0:0:0:
192,192,90865,1,0,0:0:0:0:
320,192,91108,1,0,0:0:0:0:
448,192,91108,1,0,0:0:0:0:
64,192,91168,1,0,0:0:0:0:
192,192,91168,1,0,0:0:0:0:
320,192,91229,1,0,0:0:0:0:
448,192,91229,1,0,0:0:0:0:
64,192,91289,1,0,0:0:0:0:
192,192,91289,1,0,0:0:0:0:
320,192,91350,1,0,0:0:0:0:
448,192,91350,1,0,0:0:0:0:
192,192,91411,1,0,0:0:0:0:
64,192,91471,1,0,0:0:0:0:
448,192,91532,1,0,0:0:0:0:
192,192,91592,1,0,0:0:0:0:
320,192,91592,1,0,0:0:0:0:
192,192,91714,1,0,0:0:0:0:
320,192,91714,1,0,0:0:0:0:
64,192,91835,1,0,0:0:0:0:
192,192,91835,1,0,0:0:0:0:
320,192,91895,1,0,0:0:0:0:
448,192,91895,1,0,0:0:0:0:
64,192,91956,1,0,0:0:0:0:
192,192,91956,1,0,0:0:0:0:
320,192,92017,1,0,0:0:0:0:
448,192,92017,1,0,0:0:0:0:
64,192,92077,1,0,0:0:0:0:
192,192,92077,1,0,0:0:0:0:
320,192,92138,1,0,0:0:0:0:
448,192,92199,1,0,0:0:0:0:
64,192,92259,1,0,0:0:0:0:
192,192,92320,1,0,0:0:0:0:
320,192,92320,1,0,0:0:0:0:
192,192,92441,1,0,0:0:0:0:
320,192,92441,1,0,0:0:0:0:
64,192,92562,128,0,92623:0:0:0:0:
320,192,92562,128,0,92623:0:0:0:0:
448,192,92562,128,0,92623:0:0:0:0:
64,192,92805,1,0,0:0:0:0:
320,192,92805,1,0,0:0:0:0:
448,192,92805,1,0,0:0:0:0:
192,192,92865,1,0,0:0:0:0:
320,192,92926,1,0,0:0:0:0:
448,192,92926,1,0,0:0:0:0:
64,192,92986,1,0,0:0:0:0:
192,192,92986,1,0,0:0:0:0:
320,192,93047,1,0,0:0:0:0:
448,192,93047,1,0,0:0:0:0:
64,192,93289,128,0,93350:0:0:0:0:
192,192,93289,128,0,93350:0:0:0:0:
448,192,93289,128,0,93350:0:0:0:0:
64,192,93532,1,0,0:0:0:0:
192,192,93532,1,0,0:0:0:0:
448,192,93532,1,0,0:0:0:0:
320,192,93592,1,0,0:0:0:0:
64,192,93653,1,0,0:0:0:0:
192,192,93653,1,0,0:0:0:0:
320,192,93714,1,0,0:0:0:0:
448,192,93714,1,0,0:0:0:0:
64,192,93774,1,0,0:0:0:0:
192,192,93774,1,0,0:0:0:0:
320,192,94017,1,0,0:0:0:0:
448,192,94017,1,0,0:0:0:0:
64,192,94077,1,0,0:0:0:0:
192,192,94077,1,0,0:0:0:0:
320,192,94138,1,0,0:0:0:0:
448,192,94138,1,0,0:0:0:0:
64,192,94199,1,0,0:0:0:0:
192,192,94199,1,0,0:0:0:0:
320,192,94259,1,0,0:0:0:0:
448,192,94259,1,0,0:0:0:0:
192,192,94320,1,0,0:0:0:0:
64,192,94380,1,0,0:0:0:0:
448,192,94441,1,0,0:0:0:0:
192,192,94502,1,0,0:0:0:0:
320,192,94502,1,0,0:0:0:0:
192,192,94623,1,0,0:0:0:0:
320,192,94623,1,0,0:0:0:0:
64,192,94744,1,0,0:0:0:0:
192,192,94744,1,0,0:0:0:0:
448,192,94744,1,0,0:0:0:0:
320,192,94805,1,0,0:0:0:0:
64,192,94865,1,0,0:0:0:0:
192,192,94865,1,0,0:0:0:0:
448,192,94926,1,0,0:0:0:0:
64,192,94986,1,0,0:0:0:0:
320,192,94986,1,0,0:0:0:0:
192,192,95047,1,0,0:0:0:0:
64,192,95108,1,0,0:0:0:0:
320,192,95108,1,0,0:0:0:0:
448,192,95108,1,0,0:0:0:0:
192,192,95168,1,0,0:0:0:0:
320,192,95229,1,0,0:0:0:0:
448,192,95229,1,0,0:0:0:0:
64,192,95289,1,0,0:0:0:0:
192,192,95350,1,0,0:0:0:0:
448,192,95350,1,0,0:0:0:0:
320,192,95411,1,0,0:0:0:0:
64,192,95471,128,0,95532:0:0:0:0:
192,192,95471,128,0,95532:0:0:0:0:
448,192,95471,128,0,95532:0:0:0:0:
64,192,95714,1,0,0:0:0:0:
192,192,95714,1,0,0:0:0:0:
448,192,95714,1,0,0:0:0:0:
320,192,95774,1,0,0:0:0:0:
64,192,95835,1,0,0:0:0:0:
192,192,95835,1,0,0:0:0:0:
320,192,95895,1,0,0:0:0:0:
448,192,95895,1,0,0:0:0:0:
64,192,95956,1,0,0:0:0:0:
192,192,95956,1,0,0:0:0:0:
192,192,96199,128,0,96259:0:0:0:0:
320,192,96199,128,0,96259:0:0:0:0:
448,192,96199,128,0,96259:0:0:0:0:
64,192,96441,1,0,0:0:0:0:
320,192,96441,1,0,0:0:0:0:
448,192,96441,1,0,0:0:0:0:
192,192,96502,1,0,0:0:0:0:
320,192,96562,1,0,0:0:0:0:
448,192,96562,1,0,0:0:0:0:
64,192,96623,1,0,0:0:0:0:
192,192,96623,1,0,0:0:0:0:
320,192,96683,1,0,0:0:0:0:
448,192,96683,1,0,0:0:0:0:
64,192,96926,1,0,0:0:0:0:
192,192,96926,1,0,0:0:0:0:
320,192,96986,1,0,0:0:0:0:
448,192,96986,1,0,0:0:0:0:
64,192,97047,1,0,0:0:0:0:
192,192,97047,1,0,0:0:0:0:
320,192,97108,1,0,0:0:0:0:
448,192,97108,1,0,0:0:0:0:
64,192,97168,1,0,0:0:0:0:
192,192,97168,1,0,0:0:0:0:
320,192,97229,1,0,0:0:0:0:
448,192,97289,1,0,0:0:0:0:
64,192,97350,1,0,0:0:0:0:
192,192,97411,1,0,0:0:0:0:
320,192,97411,1,0,0:0:0:0:
192,192,97532,1,0,0:0:0:0:
320,192,97532,1,0,0:0:0:0:
64,192,97653,1,0,0:0:0:0:
192,192,97653,1,0,0:0:0:0:
320,192,97714,1,0,0:0:0:0:
448,192,97714,1,0,0:0:0:0:
64,192,97774,1,0,0:0:0:0:
192,192,97774,1,0,0:0:0:0:
320,192,97835,1,0,0:0:0:0:
448,192,97835,1,0,0:0:0:0:
64,192,97895,1,0,0:0:0:0:
192,192,97895,1,0,0:0:0:0:
320,192,97956,1,0,0:0:0:0:
448,192,98017,1,0,0:0:0:0:
64,192,98077,1,0,0:0:0:0:
192,192,98138,1,0,0:0:0:0:
320,192,98138,1,0,0:0:0:0:
192,192,98259,1,0,0:0:0:0:
320,192,98259,1,0,0:0:0:0:
64,192,98380,128,0,98441:0:0:0:0:
320,192,98380,128,0,98441:0:0:0:0:
448,192,98380,128,0,98441:0:0:0:0:
64,192,98623,1,0,0:0:0:0:
320,192,98623,1,0,0:0:0:0:
448,192,98623,1,0,0:0:0:0:
192,192,98683,1,0,0:0:0:0:
320,192,98744,1,0,0:0:0:0:
448,192,98744,1,0,0:0:0:0:
64,192,98805,1,0,0:0:0:0:
192,192,98805,1,0,0:0:0:0:
320,192,98865,1,0,0:0:0:0:
448,192,98865,1,0,0:0:0:0:
64,192,99108,128,0,99168:0:0:0:0:
192,192,99108,128,0,99168:0:0:0:0:
448,192,99108,128,0,99168:0:0:0:0:
64,192,99350,1,0,0:0:0:0:
192,192,99350,1,0,0:0:0:0:
448,192,99350,1,0,0:0:0:0:
320,192,99411,1,0,0:0:0:0:
64,192,99471,1,0,0:0:0:0:
192,192,99471,1,0,0:0:0:0:
320,192,99532,1,0,0:0:0:0:
448,192,99532,1,0,0:0:0:0:
64,192,99592,1,0,0:0:0:0:
192,192,99592,1,0,0:0:0:0:
64,192,99835,1,0,0:0:0:0:
320,192,99835,1,0,0:0:0:0:
448,192,99835,1,0,0:0:0:0:
64,192,99956,1,0,0:0:0:0:
192,192,99956,1,0,0:0:0:0:
448,192,99956,1,0,0:0:0:0:
192,192,100077,1,0,0:0:0:0:
320,192,100077,1,0,0:0:0:0:
64,192,100199,1,0,0:0:0:0:
448,192,100199,1,0,0:0:0:0:
320,192,100320,1,0,0:0:0:0:
448,192,100320,1,0,0:0:0:0:
192,192,100380,1,0,0:0:0:0:
64,192,100441,1,0,0:0:0:0:
320,192,100502,1,0,0:0:0:0:
192,192,100562,1,0,0:0:0:0:
320,192,100623,1,0,0:0:0:0:
448,192,100683,1,0,0:0:0:0:
192,192,100744,1,0,0:0:0:0:
64,192,100805,1,0,0:0:0:0:
320,192,100865,1,0,0:0:0:0:
448,192,100926,1,0,0:0:0:0:
192,192,100986,1,0,0:0:0:0:
320,192,101047,1,0,0:0:0:0:
192,192,101108,1,0,0:0:0:0:
64,192,101168,1,0,0:0:0:0:
448,192,101229,1,0,0:0:0:0:
192,192,101289,1,0,0:0:0:0:
320,192,101289,1,0,0:0:0:0:
192,192,101411,1,0,0:0:0:0:
320,192,101411,1,0,0:0:0:0:
64,192,101532,1,0,0:0:0:0:
320,192,101532,1,0,0:0:0:0:
448,192,101532,1,0,0:0:0:0:
64,192,101653,1,0,0:0:0:0:
192,192,101653,1,0,0:0:0:0:
448,192,101653,1,0,0:0:0:0:
192,192,101774,1,0,0:0:0:0:
320,192,101774,1,0,0:0:0:0:
64,192,101895,1,0,0:0:0:0:
320,192,101895,1,0,0:0:0:0:
448,192,101895,1,0,0:0:0:0:
64,192,102017,1,0,0:0:0:0:
192,192,102017,1,0,0:0:0:0:
448,192,102017,1,0,0:0:0:0:
320,192,102138,1,0,0:0:0:0:
448,192,102138,1,0,0:0:0:0:
64,192,102259,1,0,0:0:0:0:
192,192,102259,1,0,0:0:0:0:
64,192,102380,1,0,0:0:0:0:
320,192,102380,1,0,0:0:0:0:
448,192,102380,1,0,0:0:0:0:
192,192,102502,1,0,0:0:0:0:
448,192,102502,1,0,0:0:0:0:
320,192,102562,1,0,0:0:0:0:
64,192,102623,1,0,0:0:0:0:
192,192,102683,1,0,0:0:0:0:
320,192,102744,1,0,0:0:0:0:
448,192,102744,1,0,0:0:0:0:
64,192,102805,1,0,0:0:0:0:
192,192,102805,1,0,0:0:0:0:
320,192,102865,1,0,0:0:0:0:
448,192,102865,1,0,0:0:0:0:
64,192,102926,1,0,0:0:0:0:
192,192,102926,1,0,0:0:0:0:
320,192,102986,1,0,0:0:0:0:
448,192,102986,1,0,0:0:0:0:
64,192,103047,1,0,0:0:0:0:
192,192,103047,1,0,0:0:0:0:
320,192,103108,1,0,0:0:0:0:
448,192,103108,1,0,0:0:0:0:
64,192,103168,1,0,0:0:0:0:
192,192,103229,1,0,0:0:0:0:
320,192,103229,1,0,0:0:0:0:
448,192,103289,1,0,0:0:0:0:
64,192,103350,1,0,0:0:0:0:
192,192,103350,1,0,0:0:0:0:
320,192,103411,1,0,0:0:0:0:
64,192,103471,1,0,0:0:0:0:
448,192,103471,1,0,0:0:0:0:
192,192,103532,1,0,0:0:0:0:
320,192,103532,1,0,0:0:0:0:
64,192,103592,1,0,0:0:0:0:
448,192,103592,1,0,0:0:0:0:
192,192,103653,1,0,0:0:0:0:
320,192,103653,1,0,0:0:0:0:
64,192,103714,1,0,0:0:0:0:
448,192,103714,1,0,0:0:0:0:
192,192,103774,1,0,0:0:0:0:
320,192,103774,1,0,0:0:0:0:
64,192,103835,1,0,0:0:0:0:
448,192,103835,1,0,0:0:0:0:
192,192,103895,1,0,0:0:0:0:
320,192,103956,1,0,0:0:0:0:
448,192,103956,1,0,0:0:0:0:
64,192,104017,1,0,0:0:0:0:
192,192,104077,1,0,0:0:0:0:
320,192,104077,1,0,0:0:0:0:
448,192,104138,1,0,0:0:0:0:
64,192,104199,1,0,0:0:0:0:
320,192,104199,1,0,0:0:0:0:
64,192,104320,1,0,0:0:0:0:
192,192,104320,1,0,0:0:0:0:
192,192,104441,1,0,0:0:0:0:
320,192,104441,1,0,0:0:0:0:
448,192,104441,1,0,0:0:0:0:
64,192,104562,1,0,0:0:0:0:
320,192,104562,1,0,0:0:0:0:
448,192,104562,1,0,0:0:0:0:
192,192,104683,1,0,0:0:0:0:
448,192,104683,1,0,0:0:0:0:
64,192,104805,1,0,0:0:0:0:
192,192,104805,1,0,0:0:0:0:
320,192,104805,1,0,0:0:0:0:
64,192,104926,1,0,0:0:0:0:
320,192,104926,1,0,0:0:0:0:
448,192,104926,1,0,0:0:0:0:
192,192,105047,1,0,0:0:0:0:
448,192,105047,1,0,0:0:0:0:
64,192,105168,1,0,0:0:0:0:
320,192,105168,1,0,0:0:0:0:
64,192,105289,1,0,0:0:0:0:
192,192,105289,1,0,0:0:0:0:
448,192,105289,1,0,0:0:0:0:
192,192,105411,1,0,0:0:0:0:
64,192,105532,1,0,0:0:0:0:
448,192,105532,1,0,0:0:0:0:
320,192,105653,1,0,0:0:0:0:
448,192,105653,1,0,0:0:0:0:
64,192,105714,1,0,0:0:0:0:
192,192,105714,1,0,0:0:0:0:
320,192,105774,1,0,0:0:0:0:
448,192,105774,1,0,0:0:0:0:
64,192,105835,1,0,0:0:0:0:
192,192,105835,1,0,0:0:0:0:
320,192,105895,1,0,0:0:0:0:
448,192,105895,1,0,0:0:0:0:
192,192,105956,1,0,0:0:0:0:
64,192,106017,1,0,0:0:0:0:
320,192,106017,1,0,0:0:0:0:
448,192,106017,1,0,0:0:0:0:
192,192,106077,1,0,0:0:0:0:
448,192,106138,1,0,0:0:0:0:
320,192,106199,1,0,0:0:0:0:
64,192,106259,1,0,0:0:0:0:
192,192,106259,1,0,0:0:0:0:
64,192,106380,1,0,0:0:0:0:
320,192,106380,1,0,0:0:0:0:
448,192,106380,1,0,0:0:0:0:
192,192,106441,1,0,0:0:0:0:
64,192,106502,1,0,0:0:0:0:
320,192,106502,1,0,0:0:0:0:
448,192,106562,1,0,0:0:0:0:
192,192,106623,1,0,0:0:0:0:
320,192,106623,1,0,0:0:0:0:
64,192,106683,1,0,0:0:0:0:
192,192,106744,1,0,0:0:0:0:
448,192,106744,1,0,0:0:0:0:
320,192,106805,1,0,0:0:0:0:
64,192,106865,1,0,0:0:0:0:
448,192,106865,1,0,0:0:0:0:
320,192,106926,1,0,0:0:0:0:
64,192,106986,1,0,0:0:0:0:
192,192,106986,1,0,0:0:0:0:
448,192,107047,1,0,0:0:0:0:
64,192,107108,1,0,0:0:0:0:
192,192,107108,1,0,0:0:0:0:
320,192,107108,1,0,0:0:0:0:
448,192,107168,1,0,0:0:0:0:
320,192,107229,1,0,0:0:0:0:
64,192,107289,1,0,0:0:0:0:
192,192,107350,1,0,0:0:0:0:
448,192,107350,1,0,0:0:0:0:
320,192,107411,1,0,0:0:0:0:
64,192,107471,1,0,0:0:0:0:
448,192,107471,1,0,0:0:0:0:
192,192,107532,1,0,0:0:0:0:
320,192,107592,1,0,0:0:0:0:
448,192,107653,1,0,0:0:0:0:
64,192,107714,1,0,0:0:0:0:
192,192,107714,1,0,0:0:0:0:
320,192,107774,1,0,0:0:0:0:
64,192,107835,1,0,0:0:0:0:
192,192,107835,1,0,0:0:0:0:
448,192,107895,1,0,0:0:0:0:
64,192,107956,1,0,0:0:0:0:
320,192,107956,1,0,0:0:0:0:
192,192,108017,1,0,0:0:0:0:
448,192,108077,1,0,0:0:0:0:
64,192,108138,1,0,0:0:0:0:
192,192,108199,1,0,0:0:0:0:
448,192,108199,1,0,0:0:0:0:
320,192,108259,1,0,0:0:0:0:
64,192,108320,1,0,0:0:0:0:
448,192,108380,1,0,0:0:0:0:
192,192,108441,1,0,0:0:0:0:
320,192,108441,1,0,0:0:0:0:
64,192,108502,1,0,0:0:0:0:
320,192,108562,1,0,0:0:0:0:
448,192,108562,1,0,0:0:0:0:
64,192,108623,1,0,0:0:0:0:
192,192,108623,1,0,0:0:0:0:
320,192,108683,1,0,0:0:0:0:
448,192,108683,1,0,0:0:0:0:
64,192,108744,1,0,0:0:0:0:
192,192,108744,1,0,0:0:0:0:
320,192,108805,1,0,0:0:0:0:
448,192,108805,1,0,0:0:0:0:
64,192,108865,1,0,0:0:0:0:
192,192,108865,1,0,0:0:0:0:
320,192,108926,1,0,0:0:0:0:
448,192,108926,1,0,0:0:0:0:
64,192,108986,1,0,0:0:0:0:
192,192,109047,1,0,0:0:0:0:
448,192,109047,1,0,0:0:0:0:
320,192,109108,1,0,0:0:0:0:
192,192,109168,1,0,0:0:0:0:
448,192,109168,1,0,0:0:0:0:
320,192,109229,1,0,0:0:0:0:
64,192,109289,1,0,0:0:0:0:
192,192,109289,1,0,0:0:0:0:
320,192,109350,1,0,0:0:0:0:
448,192,109350,1,0,0:0:0:0:
64,192,109411,1,0,0:0:0:0:
192,192,109411,1,0,0:0:0:0:
320,192,109471,1,0,0:0:0:0:
448,192,109471,1,0,0:0:0:0:
64,192,109532,1,0,0:0:0:0:
192,192,109532,1,0,0:0:0:0:
320,192,109592,1,0,0:0:0:0:
64,192,109653,1,0,0:0:0:0:
192,192,109653,1,0,0:0:0:0:
448,192,109653,1,0,0:0:0:0:
320,192,109774,1,0,0:0:0:0:
448,192,109774,1,0,0:0:0:0:
64,192,109835,1,0,0:0:0:0:
192,192,109835,1,0,0:0:0:0:
320,192,109895,1,0,0:0:0:0:
448,192,109895,1,0,0:0:0:0:
64,192,110017,1,0,0:0:0:0:
192,192,110017,1,0,0:0:0:0:
320,192,110017,1,0,0:0:0:0:
448,192,110017,1,0,0:0:0:0:
64,192,110259,1,0,0:0:0:0:
192,192,110259,1,0,0:0:0:0:
320,192,110259,1,0,0:0:0:0:
448,192,110259,1,0,0:0:0:0:
64,192,110380,1,0,0:0:0:0:
192,192,110380,1,0,0:0:0:0:
448,192,110380,1,0,0:0:0:0:
64,192,110502,1,0,0:0:0:0:
192,192,110502,1,0,0:0:0:0:
320,192,110502,1,0,0:0:0:0:
448,192,110502,1,0,0:0:0:0:
64,192,110744,1,0,0:0:0:0:
192,192,110744,1,0,0:0:0:0:
320,192,110744,1,0,0:0:0:0:
448,192,110744,1,0,0:0:0:0:
64,192,110986,1,0,0:0:0:0:
192,192,110986,1,0,0:0:0:0:
320,192,110986,1,0,0:0:0:0:
448,192,110986,1,0,0:0:0:0:
64,192,111108,1,0,0:0:0:0:
320,192,111108,1,0,0:0:0:0:
448,192,111108,1,0,0:0:0:0:
64,192,111229,1,0,0:0:0:0:
192,192,111229,1,0,0:0:0:0:
320,192,111229,1,0,0:0:0:0:
448,192,111229,1,0,0:0:0:0:
64,192,111471,1,0,0:0:0:0:
448,192,111471,1,0,0:0:0:0:
192,192,111471,1,0,0:0:0:0:
448,192,111592,1,0,0:0:0:0:
192,192,111592,1,0,0:0:0:0:
448,192,111714,1,0,0:0:0:0:
192,192,111714,1,0,0:0:0:0:
64,192,111835,1,0,0:0:0:0:
448,192,111835,1,0,0:0:0:0:
320,192,111835,1,0,0:0:0:0:
64,192,111956,1,0,0:0:0:0:
320,192,111956,1,0,0:0:0:0:
64,192,112077,1,0,0:0:0:0:
448,192,112077,1,0,0:0:0:0:
320,192,112077,1,0,0:0:0:0:
64,192,112199,1,0,0:0:0:0:
192,192,112199,1,0,0:0:0:0:
448,192,112199,1,0,0:0:0:0:
192,192,112320,1,0,0:0:0:0:
320,192,112320,1,0,0:0:0:0:
448,192,112441,1,0,0:0:0:0:
64,192,112441,1,0,0:0:0:0:
320,192,112562,1,0,0:0:0:0:
448,192,112562,1,0,0:0:0:0:
192,192,112562,1,0,0:0:0:0:
192,192,112683,1,0,0:0:0:0:
64,192,112683,1,0,0:0:0:0:
64,192,112805,1,0,0:0:0:0:
320,192,112805,1,0,0:0:0:0:
64,192,112926,1,0,0:0:0:0:
192,192,112926,1,0,0:0:0:0:
320,192,112926,1,0,0:0:0:0:
448,192,112926,1,0,0:0:0:0:
192,192,113047,1,0,0:0:0:0:
448,192,113047,1,0,0:0:0:0:
64,192,113168,1,0,0:0:0:0:
320,192,113168,1,0,0:0:0:0:
64,192,113289,1,0,0:0:0:0:
192,192,113289,1,0,0:0:0:0:
320,192,113411,1,0,0:0:0:0:
448,192,113411,1,0,0:0:0:0:
192,192,113532,1,0,0:0:0:0:
320,192,113532,1,0,0:0:0:0:
64,192,113653,1,0,0:0:0:0:
192,192,113653,1,0,0:0:0:0:
448,192,113653,1,0,0:0:0:0:
64,192,113774,1,0,0:0:0:0:
192,192,113774,1,0,0:0:0:0:
64,192,113895,1,0,0:0:0:0:
192,192,113895,1,0,0:0:0:0:
320,192,114017,1,0,0:0:0:0:
448,192,114017,1,0,0:0:0:0:
64,192,114138,1,0,0:0:0:0:
448,192,114138,1,0,0:0:0:0:
64,192,114259,1,0,0:0:0:0:
320,192,114259,1,0,0:0:0:0:
192,192,114380,1,0,0:0:0:0:
320,192,114380,1,0,0:0:0:0:
448,192,114380,1,0,0:0:0:0:
64,192,114502,1,0,0:0:0:0:
448,192,114502,1,0,0:0:0:0:
192,192,114623,1,0,0:0:0:0:
320,192,114623,1,0,0:0:0:0:
64,192,114744,1,0,0:0:0:0:
320,192,114744,1,0,0:0:0:0:
192,192,114865,1,0,0:0:0:0:
448,192,114865,1,0,0:0:0:0:
320,192,114986,1,0,0:0:0:0:
448,192,114986,1,0,0:0:0:0:
64,192,115108,1,0,0:0:0:0:
192,192,115108,1,0,0:0:0:0:
320,192,115108,1,0,0:0:0:0:
192,192,115229,1,0,0:0:0:0:
448,192,115229,1,0,0:0:0:0:
64,192,115350,1,0,0:0:0:0:
320,192,115350,1,0,0:0:0:0:
320,192,115471,1,0,0:0:0:0:
448,192,115471,1,0,0:0:0:0:
64,192,115592,1,0,0:0:0:0:
192,192,115592,1,0,0:0:0:0:
64,192,115714,1,0,0:0:0:0:
448,192,115714,1,0,0:0:0:0:
192,192,115835,1,0,0:0:0:0:
320,192,115835,1,0,0:0:0:0:
448,192,115835,1,0,0:0:0:0:
192,192,115956,1,0,0:0:0:0:
320,192,115956,1,0,0:0:0:0:
64,192,116077,1,0,0:0:0:0:
192,192,116077,1,0,0:0:0:0:
448,192,116077,1,0,0:0:0:0:
320,192,116199,1,0,0:0:0:0:
448,192,116199,1,0,0:0:0:0:
64,192,116320,1,0,0:0:0:0:
192,192,116320,1,0,0:0:0:0:
320,192,116320,1,0,0:0:0:0:
64,192,116441,1,0,0:0:0:0:
448,192,116441,1,0,0:0:0:0:
192,192,116562,1,0,0:0:0:0:
320,192,116562,1,0,0:0:0:0:
448,192,116562,1,0,0:0:0:0:
64,192,116683,1,0,0:0:0:0:
320,192,116683,1,0,0:0:0:0:
192,192,116805,1,0,0:0:0:0:
448,192,116805,1,0,0:0:0:0:
320,192,116926,1,0,0:0:0:0:
448,192,116926,1,0,0:0:0:0:
64,192,117047,1,0,0:0:0:0:
192,192,117047,1,0,0:0:0:0:
320,192,117168,1,0,0:0:0:0:
448,192,117168,1,0,0:0:0:0:
64,192,117289,1,0,0:0:0:0:
320,192,117289,1,0,0:0:0:0:
448,192,117289,1,0,0:0:0:0:
64,192,117411,1,0,0:0:0:0:
192,192,117411,1,0,0:0:0:0:
320,192,117532,1,0,0:0:0:0:
448,192,117532,1,0,0:0:0:0:
64,192,117653,1,0,0:0:0:0:
320,192,117653,1,0,0:0:0:0:
192,192,117774,1,0,0:0:0:0:
448,192,117774,1,0,0:0:0:0:
192,192,117895,1,0,0:0:0:0:
320,192,117895,1,0,0:0:0:0:
64,192,118017,1,0,0:0:0:0:
320,192,118017,1,0,0:0:0:0:
448,192,118017,1,0,0:0:0:0:
64,192,118138,1,0,0:0:0:0:
192,192,118138,1,0,0:0:0:0:
320,192,118259,1,0,0:0:0:0:
448,192,118259,1,0,0:0:0:0:
64,192,118380,1,0,0:0:0:0:
448,192,118380,1,0,0:0:0:0:
192,192,118502,1,0,0:0:0:0:
320,192,118502,1,0,0:0:0:0:
192,192,118623,1,0,0:0:0:0:
320,192,118623,1,0,0:0:0:0:
64,192,118744,1,0,0:0:0:0:
192,192,118744,1,0,0:0:0:0:
448,192,118744,1,0,0:0:0:0:
320,192,118865,1,0,0:0:0:0:
448,192,118865,1,0,0:0:0:0:
64,192,118986,1,0,0:0:0:0:
192,192,118986,1,0,0:0:0:0:
64,192,119108,1,0,0:0:0:0:
448,192,119108,1,0,0:0:0:0:
192,192,119229,1,0,0:0:0:0:
320,192,119229,1,0,0:0:0:0:
64,192,119350,1,0,0:0:0:0:
320,192,119350,1,0,0:0:0:0:
192,192,119471,1,0,0:0:0:0:
448,192,119471,1,0,0:0:0:0:
64,192,119592,1,0,0:0:0:0:
320,192,119592,1,0,0:0:0:0:
448,192,119592,1,0,0:0:0:0:
64,192,119714,1,0,0:0:0:0:
192,192,119714,1,0,0:0:0:0:
320,192,119835,1,0,0:0:0:0:
448,192,119835,1,0,0:0:0:0:
64,192,119956,1,0,0:0:0:0:
320,192,119956,1,0,0:0:0:0:
192,192,120077,1,0,0:0:0:0:
448,192,120077,1,0,0:0:0:0:
64,192,120199,1,0,0:0:0:0:
192,192,120199,1,0,0:0:0:0:
320,192,120199,1,0,0:0:0:0:
320,192,120320,1,0,0:0:0:0:
448,192,120320,1,0,0:0:0:0:
64,192,120441,1,0,0:0:0:0:
192,192,120441,1,0,0:0:0:0:
192,192,120562,1,0,0:0:0:0:
448,192,120562,1,0,0:0:0:0:
64,192,120683,1,0,0:0:0:0:
320,192,120683,1,0,0:0:0:0:
192,192,120805,1,0,0:0:0:0:
320,192,120805,1,0,0:0:0:0:
64,192,120926,1,0,0:0:0:0:
192,192,120926,1,0,0:0:0:0:
448,192,120926,1,0,0:0:0:0:
320,192,121047,1,0,0:0:0:0:
448,192,121047,1,0,0:0:0:0:
64,192,121168,1,0,0:0:0:0:
192,192,121168,1,0,0:0:0:0:
192,192,121289,1,0,0:0:0:0:
448,192,121289,1,0,0:0:0:0:
64,192,121411,1,0,0:0:0:0:
320,192,121411,1,0,0:0:0:0:
192,192,121532,1,0,0:0:0:0:
320,192,121532,1,0,0:0:0:0:
64,192,121653,1,0,0:0:0:0:
448,192,121653,1,0,0:0:0:0:
64,192,121774,1,0,0:0:0:0:
320,192,121774,1,0,0:0:0:0:
192,192,121895,1,0,0:0:0:0:
320,192,121895,1,0,0:0:0:0:
448,192,121895,1,0,0:0:0:0:
64,192,122017,1,0,0:0:0:0:
448,192,122017,1,0,0:0:0:0:
64,192,122138,1,0,0:0:0:0:
192,192,122138,1,0,0:0:0:0:
320,192,122138,1,0,0:0:0:0:
192,192,122259,1,0,0:0:0:0:
448,192,122259,1,0,0:0:0:0:
64,192,122380,1,0,0:0:0:0:
320,192,122380,1,0,0:0:0:0:
448,192,122380,1,0,0:0:0:0:
192,192,122502,1,0,0:0:0:0:
320,192,122502,1,0,0:0:0:0:
64,192,122623,1,0,0:0:0:0:
448,192,122623,1,0,0:0:0:0:
64,192,122744,1,0,0:0:0:0:
192,192,122744,1,0,0:0:0:0:
320,192,122865,1,0,0:0:0:0:
448,192,122865,1,0,0:0:0:0:
64,192,122986,1,0,0:0:0:0:
320,192,122986,1,0,0:0:0:0:
64,192,123108,1,0,0:0:0:0:
320,192,123108,1,0,0:0:0:0:
192,192,123229,1,0,0:0:0:0:
448,192,123229,1,0,0:0:0:0:
64,192,123350,1,0,0:0:0:0:
320,192,123350,1,0,0:0:0:0:
448,192,123350,1,0,0:0:0:0:
192,192,123431,1,0,0:0:0:0:
448,192,123512,1,0,0:0:0:0:
64,192,123592,1,0,0:0:0:0:
192,192,123592,1,0,0:0:0:0:
320,192,123592,1,0,0:0:0:0:
448,192,123673,1,0,0:0:0:0:
64,192,123754,1,0,0:0:0:0:
192,192,123835,1,0,0:0:0:0:
320,192,123835,1,0,0:0:0:0:
448,192,123835,1,0,0:0:0:0:
64,192,123916,1,0,0:0:0:0:
320,192,123996,1,0,0:0:0:0:
64,192,124077,1,0,0:0:0:0:
192,192,124077,1,0,0:0:0:0:
448,192,124077,1,0,0:0:0:0:
320,192,124158,1,0,0:0:0:0:
192,192,124239,1,0,0:0:0:0:
64,192,124320,1,0,0:0:0:0:
320,192,124320,1,0,0:0:0:0:
448,192,124320,1,0,0:0:0:0:
64,192,124441,1,0,0:0:0:0:
320,192,124441,1,0,0:0:0:0:
448,192,124441,1,0,0:0:0:0:
64,192,124562,1,0,0:0:0:0:
320,192,124562,1,0,0:0:0:0:
448,192,124562,1,0,0:0:0:0:
192,192,124683,1,0,0:0:0:0:
448,192,124683,1,0,0:0:0:0:
64,192,124805,1,0,0:0:0:0:
192,192,124805,1,0,0:0:0:0:
320,192,124805,1,0,0:0:0:0:
320,192,124926,1,0,0:0:0:0:
448,192,124926,1,0,0:0:0:0:
64,192,125047,1,0,0:0:0:0:
192,192,125047,1,0,0:0:0:0:
64,192,125168,1,0,0:0:0:0:
448,192,125168,1,0,0:0:0:0:
192,192,125289,1,0,0:0:0:0:
320,192,125289,1,0,0:0:0:0:
64,192,125411,1,0,0:0:0:0:
320,192,125411,1,0,0:0:0:0:
192,192,125532,1,0,0:0:0:0:
448,192,125532,1,0,0:0:0:0:
320,192,125653,1,0,0:0:0:0:
448,192,125653,1,0,0:0:0:0:
64,192,125774,1,0,0:0:0:0:
192,192,125774,1,0,0:0:0:0:
320,192,125895,1,0,0:0:0:0:
448,192,125895,1,0,0:0:0:0:
64,192,126017,1,0,0:0:0:0:
320,192,126017,1,0,0:0:0:0:
448,192,126017,1,0,0:0:0:0:
64,192,126138,1,0,0:0:0:0:
192,192,126138,1,0,0:0:0:0:
320,192,126259,1,0,0:0:0:0:
448,192,126259,1,0,0:0:0:0:
64,192,126380,1,0,0:0:0:0:
320,192,126380,1,0,0:0:0:0:
192,192,126502,1,0,0:0:0:0:
448,192,126502,1,0,0:0:0:0:
192,192,126623,1,0,0:0:0:0:
320,192,126623,1,0,0:0:0:0:
64,192,126744,1,0,0:0:0:0:
320,192,126744,1,0,0:0:0:0:
448,192,126744,1,0,0:0:0:0:
64,192,126865,1,0,0:0:0:0:
192,192,126865,1,0,0:0:0:0:
320,192,126986,1,0,0:0:0:0:
448,192,126986,1,0,0:0:0:0:
64,192,127108,1,0,0:0:0:0:
192,192,127108,1,0,0:0:0:0:
448,192,127108,1,0,0:0:0:0:
192,192,127229,1,0,0:0:0:0:
320,192,127229,1,0,0:0:0:0:
64,192,127350,1,0,0:0:0:0:
448,192,127350,1,0,0:0:0:0:
192,192,127471,1,0,0:0:0:0:
320,192,127471,1,0,0:0:0:0:
448,192,127471,1,0,0:0:0:0:
64,192,127592,1,0,0:0:0:0:
320,192,127592,1,0,0:0:0:0:
64,192,127714,1,0,0:0:0:0:
192,192,127714,1,0,0:0:0:0:
448,192,127714,1,0,0:0:0:0:
320,192,127835,1,0,0:0:0:0:
448,192,127835,1,0,0:0:0:0:
64,192,127956,1,0,0:0:0:0:
192,192,127956,1,0,0:0:0:0:
320,192,127956,1,0,0:0:0:0:
64,192,128077,1,0,0:0:0:0:
448,192,128077,1,0,0:0:0:0:
192,192,128199,1,0,0:0:0:0:
320,192,128199,1,0,0:0:0:0:
192,192,128320,1,0,0:0:0:0:
448,192,128320,1,0,0:0:0:0:
64,192,128441,1,0,0:0:0:0:
320,192,128441,1,0,0:0:0:0:
64,192,128562,1,0,0:0:0:0:
192,192,128562,1,0,0:0:0:0:
320,192,128683,1,0,0:0:0:0:
448,192,128683,1,0,0:0:0:0:
64,192,128805,1,0,0:0:0:0:
192,192,128805,1,0,0:0:0:0:
64,192,128926,1,0,0:0:0:0:
192,192,128926,1,0,0:0:0:0:
448,192,128926,1,0,0:0:0:0:
320,192,129047,1,0,0:0:0:0:
448,192,129047,1,0,0:0:0:0:
64,192,129168,1,0,0:0:0:0:
320,192,129168,1,0,0:0:0:0:
64,192,129289,1,0,0:0:0:0:
192,192,129289,1,0,0:0:0:0:
192,192,129411,1,0,0:0:0:0:
448,192,129411,1,0,0:0:0:0:
64,192,129532,1,0,0:0:0:0:
320,192,129532,1,0,0:0:0:0:
448,192,129532,1,0,0:0:0:0:
64,192,129653,1,0,0:0:0:0:
192,192,129653,1,0,0:0:0:0:
320,192,129774,1,0,0:0:0:0:
448,192,129774,1,0,0:0:0:0:
64,192,129895,1,0,0:0:0:0:
320,192,129895,1,0,0:0:0:0:
64,192,130017,1,0,0:0:0:0:
192,192,130017,1,0,0:0:0:0:
448,192,130017,1,0,0:0:0:0:
192,192,130138,1,0,0:0:0:0:
320,192,130138,1,0,0:0:0:0:
64,192,130259,1,0,0:0:0:0:
448,192,130259,1,0,0:0:0:0:
320,192,130380,1,0,0:0:0:0:
448,192,130380,1,0,0:0:0:0:
64,192,130502,1,0,0:0:0:0:
192,192,130502,1,0,0:0:0:0:
192,192,130623,1,0,0:0:0:0:
320,192,130623,1,0,0:0:0:0:
448,192,130623,1,0,0:0:0:0:
64,192,130744,1,0,0:0:0:0:
320,192,130744,1,0,0:0:0:0:
192,192,130865,1,0,0:0:0:0:
448,192,130865,1,0,0:0:0:0:
320,192,130986,1,0,0:0:0:0:
448,192,130986,1,0,0:0:0:0:
64,192,131108,1,0,0:0:0:0:
192,192,131108,1,0,0:0:0:0:
320,192,131108,1,0,0:0:0:0:
64,192,131229,1,0,0:0:0:0:
448,192,131229,1,0,0:0:0:0:
192,192,131350,1,0,0:0:0:0:
320,192,131350,1,0,0:0:0:0:
64,192,131471,1,0,0:0:0:0:
320,192,131471,1,0,0:0:0:0:
64,192,131592,1,0,0:0:0:0:
192,192,131592,1,0,0:0:0:0:
320,192,131714,1,0,0:0:0:0:
448,192,131714,1,0,0:0:0:0:
64,192,131835,1,0,0:0:0:0:
320,192,131835,1,0,0:0:0:0:
448,192,131835,1,0,0:0:0:0:
64,192,131956,1,0,0:0:0:0:
192,192,131956,1,0,0:0:0:0:
320,192,132077,1,0,0:0:0:0:
448,192,132077,1,0,0:0:0:0:
64,192,132199,1,0,0:0:0:0:
448,192,132199,1,0,0:0:0:0:
192,192,132320,1,0,0:0:0:0:
320,192,132320,1,0,0:0:0:0:
192,192,132441,1,0,0:0:0:0:
448,192,132441,1,0,0:0:0:0:
64,192,132562,1,0,0:0:0:0:
320,192,132562,1,0,0:0:0:0:
192,192,132683,1,0,0:0:0:0:
320,192,132683,1,0,0:0:0:0:
448,192,132683,1,0,0:0:0:0:
64,192,132805,1,0,0:0:0:0:
192,192,132805,1,0,0:0:0:0:
320,192,132926,1,0,0:0:0:0:
448,192,132926,1,0,0:0:0:0:
192,192,133047,1,0,0:0:0:0:
448,192,133047,1,0,0:0:0:0:
64,192,133168,1,0,0:0:0:0:
320,192,133168,1,0,0:0:0:0:
64,192,133289,1,0,0:0:0:0:
192,192,133289,1,0,0:0:0:0:
320,192,133289,1,0,0:0:0:0:
192,192,133411,1,0,0:0:0:0:
448,192,133411,1,0,0:0:0:0:
64,192,133532,1,0,0:0:0:0:
320,192,133532,1,0,0:0:0:0:
448,192,133532,1,0,0:0:0:0:
192,192,133653,1,0,0:0:0:0:
448,192,133653,1,0,0:0:0:0:
64,192,133774,1,0,0:0:0:0:
192,192,133774,1,0,0:0:0:0:
320,192,133774,1,0,0:0:0:0:
320,192,133895,1,0,0:0:0:0:
448,192,133895,1,0,0:0:0:0:
64,192,134017,1,0,0:0:0:0:
192,192,134017,1,0,0:0:0:0:
448,192,134017,1,0,0:0:0:0:
64,192,134138,1,0,0:0:0:0:
320,192,134138,1,0,0:0:0:0:
192,192,134259,1,0,0:0:0:0:
320,192,134259,1,0,0:0:0:0:
448,192,134259,1,0,0:0:0:0:
64,192,134380,1,0,0:0:0:0:
448,192,134380,1,0,0:0:0:0:
64,192,134502,1,0,0:0:0:0:
192,192,134502,1,0,0:0:0:0:
320,192,134502,1,0,0:0:0:0:
320,192,134623,1,0,0:0:0:0:
448,192,134623,1,0,0:0:0:0:
64,192,134744,1,0,0:0:0:0:
192,192,134744,1,0,0:0:0:0:
448,192,134744,1,0,0:0:0:0:
192,192,134865,1,0,0:0:0:0:
320,192,134865,1,0,0:0:0:0:
64,192,134986,1,0,0:0:0:0:
320,192,134986,1,0,0:0:0:0:
448,192,134986,1,0,0:0:0:0:
64,192,135108,1,0,0:0:0:0:
320,192,135108,1,0,0:0:0:0:
448,192,135108,1,0,0:0:0:0:
64,192,135229,1,0,0:0:0:0:
320,192,135229,1,0,0:0:0:0:
448,192,135229,1,0,0:0:0:0:
320,192,135350,1,0,0:0:0:0:
64,192,135471,1,0,0:0:0:0:
192,192,135471,1,0,0:0:0:0:
448,192,135471,1,0,0:0:0:0:
64,192,135592,1,0,0:0:0:0:
192,192,135592,1,0,0:0:0:0:
448,192,135592,1,0,0:0:0:0:
64,192,135714,1,0,0:0:0:0:
192,192,135714,1,0,0:0:0:0:
448,192,135714,1,0,0:0:0:0:
64,192,135835,1,0,0:0:0:0:
192,192,135956,1,0,0:0:0:0:
320,192,135956,1,0,0:0:0:0:
448,192,135956,1,0,0:0:0:0:
192,192,136077,1,0,0:0:0:0:
320,192,136077,1,0,0:0:0:0:
448,192,136077,1,0,0:0:0:0:
64,192,136199,1,0,0:0:0:0:
192,192,136199,1,0,0:0:0:0:
448,192,136199,1,0,0:0:0:0:
64,192,136320,1,0,0:0:0:0:
192,192,136320,1,0,0:0:0:0:
64,192,136441,1,0,0:0:0:0:
192,192,136441,1,0,0:0:0:0:
320,192,136562,1,0,0:0:0:0:
448,192,136562,1,0,0:0:0:0:
320,192,136683,1,0,0:0:0:0:
448,192,136683,1,0,0:0:0:0:
192,192,136805,1,0,0:0:0:0:
64,192,136926,1,0,0:0:0:0:
320,192,136926,1,0,0:0:0:0:
64,192,137047,1,0,0:0:0:0:
320,192,137047,1,0,0:0:0:0:
64,192,137168,1,0,0:0:0:0:
320,192,137168,1,0,0:0:0:0:
448,192,137289,1,0,0:0:0:0:
64,192,137411,1,0,0:0:0:0:
192,192,137411,1,0,0:0:0:0:
64,192,137532,1,0,0:0:0:0:
192,192,137532,1,0,0:0:0:0:
64,192,137653,1,0,0:0:0:0:
320,192,137653,1,0,0:0:0:0:
448,192,137653,1,0,0:0:0:0:
320,192,137774,1,0,0:0:0:0:
448,192,137774,1,0,0:0:0:0:
320,192,137895,1,0,0:0:0:0:
448,192,137895,1,0,0:0:0:0:
192,192,138017,1,0,0:0:0:0:
448,192,138017,1,0,0:0:0:0:
64,192,138138,1,0,0:0:0:0:
320,192,138138,1,0,0:0:0:0:
64,192,138259,1,0,0:0:0:0:
192,192,138259,1,0,0:0:0:0:
64,192,138380,1,0,0:0:0:0:
320,192,138380,1,0,0:0:0:0:
448,192,138380,1,0,0:0:0:0:
320,192,138502,1,0,0:0:0:0:
448,192,138502,1,0,0:0:0:0:
320,192,138623,1,0,0:0:0:0:
448,192,138623,1,0,0:0:0:0:
192,192,138744,1,0,0:0:0:0:
448,192,138744,1,0,0:0:0:0:
64,192,138865,1,0,0:0:0:0:
320,192,138865,1,0,0:0:0:0:
64,192,138986,1,0,0:0:0:0:
192,192,138986,1,0,0:0:0:0:
64,192,139108,1,0,0:0:0:0:
192,192,139108,1,0,0:0:0:0:
448,192,139108,1,0,0:0:0:0:
320,192,139229,1,0,0:0:0:0:
192,192,139350,1,0,0:0:0:0:
448,192,139350,1,0,0:0:0:0:
192,192,139471,1,0,0:0:0:0:
448,192,139471,1,0,0:0:0:0:
192,192,139592,1,0,0:0:0:0:
448,192,139592,1,0,0:0:0:0:
320,192,139714,1,0,0:0:0:0:
64,192,139835,1,0,0:0:0:0:
192,192,139835,1,0,0:0:0:0:
64,192,139956,1,0,0:0:0:0:
192,192,139956,1,0,0:0:0:0:
64,192,140077,1,0,0:0:0:0:
192,192,140077,1,0,0:0:0:0:
448,192,140199,1,0,0:0:0:0:
320,192,140320,1,0,0:0:0:0:
192,192,140380,1,0,0:0:0:0:
320,192,140441,1,0,0:0:0:0:
192,192,140502,1,0,0:0:0:0:
320,192,140562,1,0,0:0:0:0:
448,192,140562,1,0,0:0:0:0:
192,192,140683,1,0,0:0:0:0:
320,192,140805,1,0,0:0:0:0:
448,192,140805,1,0,0:0:0:0:
320,192,140926,1,0,0:0:0:0:
448,192,140926,1,0,0:0:0:0:
192,192,141047,1,0,0:0:0:0:
320,192,141047,1,0,0:0:0:0:
64,192,141168,1,0,0:0:0:0:
192,192,141168,1,0,0:0:0:0:
64,192,141289,1,0,0:0:0:0:
320,192,141289,1,0,0:0:0:0:
448,192,141289,1,0,0:0:0:0:
192,192,141411,1,0,0:0:0:0:
320,192,141532,1,0,0:0:0:0:
448,192,141532,1,0,0:0:0:0:
320,192,141653,1,0,0:0:0:0:
448,192,141653,1,0,0:0:0:0:
192,192,141774,1,0,0:0:0:0:
320,192,141774,1,0,0:0:0:0:
64,192,141895,1,0,0:0:0:0:
192,192,141895,1,0,0:0:0:0:
64,192,142017,1,0,0:0:0:0:
320,192,142017,1,0,0:0:0:0:
448,192,142017,1,0,0:0:0:0:
192,192,142077,1,0,0:0:0:0:
320,192,142138,1,0,0:0:0:0:
64,192,142199,1,0,0:0:0:0:
192,192,142259,1,0,0:0:0:0:
448,192,142259,1,0,0:0:0:0:
320,192,142320,1,0,0:0:0:0:
64,192,142380,1,0,0:0:0:0:
192,192,142380,1,0,0:0:0:0:
448,192,142441,1,0,0:0:0:0:
64,192,142502,1,0,0:0:0:0:
320,192,142502,1,0,0:0:0:0:
192,192,142562,1,0,0:0:0:0:
448,192,142623,1,0,0:0:0:0:
64,192,142683,1,0,0:0:0:0:
192,192,142744,1,0,0:0:0:0:
320,192,142744,1,0,0:0:0:0:
448,192,142805,1,0,0:0:0:0:
192,192,142865,1,0,0:0:0:0:
320,192,142865,1,0,0:0:0:0:
64,192,142926,1,0,0:0:0:0:
192,192,142986,1,0,0:0:0:0:
320,192,142986,1,0,0:0:0:0:
448,192,143047,1,0,0:0:0:0:
64,192,143108,1,0,0:0:0:0:
192,192,143168,1,0,0:0:0:0:
320,192,143229,1,0,0:0:0:0:
448,192,143229,1,0,0:0:0:0:
64,192,143289,1,0,0:0:0:0:
192,192,143350,1,0,0:0:0:0:
320,192,143350,1,0,0:0:0:0:
448,192,143411,1,0,0:0:0:0:
64,192,143471,1,0,0:0:0:0:
192,192,143471,1,0,0:0:0:0:
320,192,143532,1,0,0:0:0:0:
192,192,143592,1,0,0:0:0:0:
320,192,143653,1,0,0:0:0:0:
192,192,143714,1,0,0:0:0:0:
448,192,143774,1,0,0:0:0:0:
320,192,143835,1,0,0:0:0:0:
192,192,143895,1,0,0:0:0:0:
64,192,143956,1,0,0:0:0:0:
448,192,143956,1,0,0:0:0:0:
320,192,144017,1,0,0:0:0:0:
192,192,144077,1,0,0:0:0:0:
320,192,144138,1,0,0:0:0:0:
64,192,144199,1,0,0:0:0:0:
192,192,144199,1,0,0:0:0:0:
448,192,144199,1,0,0:0:0:0:
320,192,144259,1,0,0:0:0:0:
448,192,144320,1,0,0:0:0:0:
64,192,144380,1,0,0:0:0:0:
192,192,144441,1,0,0:0:0:0:
320,192,144502,1,0,0:0:0:0:
64,192,144562,1,0,0:0:0:0:
192,192,144623,1,0,0:0:0:0:
320,192,144683,1,0,0:0:0:0:
448,192,144683,1,0,0:0:0:0:
192,192,144744,1,0,0:0:0:0:
320,192,144805,1,0,0:0:0:0:
448,192,144805,1,0,0:0:0:0:
64,192,144865,1,0,0:0:0:0:
192,192,144926,1,0,0:0:0:0:
320,192,144926,1,0,0:0:0:0:
448,192,144926,1,0,0:0:0:0:
64,192,144986,1,0,0:0:0:0:
192,192,145047,1,0,0:0:0:0:
320,192,145108,1,0,0:0:0:0:
64,192,145168,1,0,0:0:0:0:
192,192,145168,1,0,0:0:0:0:
320,192,145229,1,0,0:0:0:0:
64,192,145289,1,0,0:0:0:0:
192,192,145289,1,0,0:0:0:0:
448,192,145350,1,0,0:0:0:0:
64,192,145411,1,0,0:0:0:0:
192,192,145411,1,0,0:0:0:0:
320,192,145411,1,0,0:0:0:0:
448,192,145471,1,0,0:0:0:0:
320,192,145532,1,0,0:0:0:0:
192,192,145592,1,0,0:0:0:0:
320,192,145653,1,0,0:0:0:0:
448,192,145653,1,0,0:0:0:0:
192,192,145714,1,0,0:0:0:0:
320,192,145774,1,0,0:0:0:0:
448,192,145774,1,0,0:0:0:0:
64,192,145835,1,0,0:0:0:0:
192,192,145895,1,0,0:0:0:0:
320,192,145895,1,0,0:0:0:0:
448,192,145895,1,0,0:0:0:0:
64,192,145956,1,0,0:0:0:0:
192,192,146017,1,0,0:0:0:0:
320,192,146077,1,0,0:0:0:0:
64,192,146138,1,0,0:0:0:0:
192,192,146138,1,0,0:0:0:0:
320,192,146199,1,0,0:0:0:0:
64,192,146259,1,0,0:0:0:0:
192,192,146259,1,0,0:0:0:0:
448,192,146320,1,0,0:0:0:0:
64,192,146380,1,0,0:0:0:0:
192,192,146380,1,0,0:0:0:0:
320,192,146380,1,0,0:0:0:0:
448,192,146502,1,0,0:0:0:0:
64,192,146623,1,0,0:0:0:0:
320,192,146623,1,0,0:0:0:0:
192,192,146744,1,0,0:0:0:0:
64,192,146865,1,0,0:0:0:0:
192,192,146865,1,0,0:0:0:0:
448,192,146865,1,0,0:0:0:0:
320,192,146986,1,0,0:0:0:0:
64,192,147108,1,0,0:0:0:0:
320,192,147153,1,0,0:0:0:0:
448,192,147199,1,0,0:0:0:0:
64,192,147249,1,0,0:0:0:0:
192,192,147305,1,0,0:0:0:0:
320,192,147350,1,0,0:0:0:0:
448,192,147350,1,0,0:0:0:0:
192,192,147471,1,0,0:0:0:0:
448,192,147592,1,0,0:0:0:0:
320,192,147638,1,0,0:0:0:0:
64,192,147693,1,0,0:0:0:0:
192,192,147734,1,0,0:0:0:0:
320,192,147774,1,0,0:0:0:0:
64,192,147835,1,0,0:0:0:0:
192,192,147835,1,0,0:0:0:0:
448,192,147895,1,0,0:0:0:0:
320,192,147956,1,0,0:0:0:0:
64,192,148017,1,0,0:0:0:0:
192,192,148077,1,0,0:0:0:0:
320,192,148123,1,0,0:0:0:0:
64,192,148178,1,0,0:0:0:0:
448,192,148219,1,0,0:0:0:0:
320,192,148274,1,0,0:0:0:0:
192,192,148320,1,0,0:0:0:0:
320,192,148441,1,0,0:0:0:0:
448,192,148441,1,0,0:0:0:0:
192,192,148486,1,0,0:0:0:0:
64,192,148542,1,0,0:0:0:0:
320,192,148592,1,0,0:0:0:0:
192,192,148643,1,0,0:0:0:0:
448,192,148699,1,0,0:0:0:0:
320,192,148744,1,0,0:0:0:0:
64,192,148784,1,0,0:0:0:0:
192,192,148805,1,0,0:0:0:0:
192,192,148926,1,0,0:0:0:0:
320,192,149047,1,0,0:0:0:0:
448,192,149047,1,0,0:0:0:0:
320,192,149168,1,0,0:0:0:0:
448,192,149168,1,0,0:0:0:0:
64,192,149289,1,0,0:0:0:0:
192,192,149289,1,0,0:0:0:0:
448,192,149289,1,0,0:0:0:0:
320,192,149411,1,0,0:0:0:0:
64,192,149532,1,0,0:0:0:0:
192,192,149532,1,0,0:0:0:0:
64,192,149653,1,0,0:0:0:0:
192,192,149653,1,0,0:0:0:0:
64,192,149774,1,0,0:0:0:0:
320,192,149774,1,0,0:0:0:0:
448,192,149774,1,0,0:0:0:0:
192,192,149895,1,0,0:0:0:0:
320,192,149941,1,0,0:0:0:0:
64,192,149996,1,0,0:0:0:0:
448,192,150037,1,0,0:0:0:0:
320,192,150092,1,0,0:0:0:0:
192,192,150138,1,0,0:0:0:0:
64,192,150183,1,0,0:0:0:0:
320,192,150239,1,0,0:0:0:0:
448,192,150259,1,0,0:0:0:0:
64,192,150380,1,0,0:0:0:0:
192,192,150380,1,0,0:0:0:0:
320,192,150426,1,0,0:0:0:0:
448,192,150471,1,0,0:0:0:0:
64,192,150517,1,0,0:0:0:0:
192,192,150562,1,0,0:0:0:0:
320,192,150603,1,0,0:0:0:0:
448,192,150643,1,0,0:0:0:0:
64,192,150683,1,0,0:0:0:0:
320,192,150744,1,0,0:0:0:0:
448,192,150744,1,0,0:0:0:0:
64,192,150865,1,0,0:0:0:0:
192,192,150986,1,0,0:0:0:0:
320,192,150986,1,0,0:0:0:0:
192,192,151108,1,0,0:0:0:0:
320,192,151108,1,0,0:0:0:0:
192,192,151229,1,0,0:0:0:0:
320,192,151229,1,0,0:0:0:0:
448,192,151350,1,0,0:0:0:0:
64,192,151471,1,0,0:0:0:0:
320,192,151471,1,0,0:0:0:0:
64,192,151592,1,0,0:0:0:0:
320,192,151592,1,0,0:0:0:0:
192,192,151653,1,0,0:0:0:0:
448,192,151714,1,0,0:0:0:0:
64,192,151774,1,0,0:0:0:0:
192,192,151820,1,0,0:0:0:0:
320,192,151875,1,0,0:0:0:0:
64,192,151916,1,0,0:0:0:0:
192,192,151956,1,0,0:0:0:0:
448,192,151996,1,0,0:0:0:0:
320,192,152037,1,0,0:0:0:0:
192,192,152077,1,0,0:0:0:0:
448,192,152118,1,0,0:0:0:0:
64,192,152158,1,0,0:0:0:0:
320,192,152199,1,0,0:0:0:0:
64,192,152320,1,0,0:0:0:0:
192,192,152320,1,0,0:0:0:0:
448,192,152320,1,0,0:0:0:0:
320,192,152380,1,0,0:0:0:0:
192,192,152441,1,0,0:0:0:0:
448,192,152486,1,0,0:0:0:0:
64,192,152542,1,0,0:0:0:0:
448,192,152582,1,0,0:0:0:0:
320,192,152623,1,0,0:0:0:0:
64,192,152683,1,0,0:0:0:0:
192,192,152683,1,0,0:0:0:0:
448,192,152805,1,0,0:0:0:0:
64,192,152926,1,0,0:0:0:0:
320,192,152926,1,0,0:0:0:0:
64,192,153047,1,0,0:0:0:0:
320,192,153047,1,0,0:0:0:0:
192,192,153168,1,0,0:0:0:0:
448,192,153168,1,0,0:0:0:0:
320,192,153229,1,0,0:0:0:0:
192,192,153289,1,0,0:0:0:0:
448,192,153350,1,0,0:0:0:0:
320,192,153395,1,0,0:0:0:0:
192,192,153441,1,0,0:0:0:0:
448,192,153486,1,0,0:0:0:0:
64,192,153532,1,0,0:0:0:0:
320,192,153577,1,0,0:0:0:0:
448,192,153623,1,0,0:0:0:0:
192,192,153653,1,0,0:0:0:0:
320,192,153734,1,0,0:0:0:0:
192,192,153805,1,0,0:0:0:0:
448,192,153855,1,0,0:0:0:0:
64,192,153911,1,0,0:0:0:0:
320,192,153941,1,0,0:0:0:0:
192,192,153986,1,0,0:0:0:0:
448,192,154032,1,0,0:0:0:0:
64,192,154077,1,0,0:0:0:0:
320,192,154138,1,0,0:0:0:0:
192,192,154183,1,0,0:0:0:0:
448,192,154219,1,0,0:0:0:0:
320,192,154259,1,0,0:0:0:0:
192,192,154305,1,0,0:0:0:0:
64,192,154360,1,0,0:0:0:0:
448,192,154401,1,0,0:0:0:0:
320,192,154456,1,0,0:0:0:0:
64,192,154502,1,0,0:0:0:0:
192,192,154562,1,0,0:0:0:0:
64,192,154623,1,0,0:0:0:0:
320,192,154623,1,0,0:0:0:0:
448,192,154623,1,0,0:0:0:0:
320,192,154744,1,0,0:0:0:0:
64,192,154865,1,0,0:0:0:0:
192,192,154865,1,0,0:0:0:0:
448,192,154865,1,0,0:0:0:0:
64,192,154986,1,0,0:0:0:0:
192,192,154986,1,0,0:0:0:0:
64,192,155108,1,0,0:0:0:0:
192,192,155108,1,0,0:0:0:0:
320,192,155108,1,0,0:0:0:0:
320,192,155229,1,0,0:0:0:0:
192,192,155350,1,0,0:0:0:0:
320,192,155350,1,0,0:0:0:0:
448,192,155350,1,0,0:0:0:0:
192,192,155471,1,0,0:0:0:0:
448,192,155471,1,0,0:0:0:0:
64,192,155592,1,0,0:0:0:0:
192,192,155592,1,0,0:0:0:0:
448,192,155592,1,0,0:0:0:0:
64,192,155714,1,0,0:0:0:0:
320,192,155714,1,0,0:0:0:0:
192,192,155774,1,0,0:0:0:0:
320,192,155835,1,0,0:0:0:0:
448,192,155835,1,0,0:0:0:0:
64,192,155895,1,0,0:0:0:0:
192,192,155956,1,0,0:0:0:0:
320,192,155956,1,0,0:0:0:0:
448,192,156017,1,0,0:0:0:0:
64,192,156077,1,0,0:0:0:0:
192,192,156077,1,0,0:0:0:0:
320,192,156077,1,0,0:0:0:0:
64,192,156199,1,0,0:0:0:0:
192,192,156320,1,0,0:0:0:0:
320,192,156320,1,0,0:0:0:0:
448,192,156320,1,0,0:0:0:0:
320,192,156441,1,0,0:0:0:0:
448,192,156441,1,0,0:0:0:0:
64,192,156562,1,0,0:0:0:0:
320,192,156562,1,0,0:0:0:0:
448,192,156562,1,0,0:0:0:0:
64,192,156683,1,0,0:0:0:0:
192,192,156805,1,0,0:0:0:0:
320,192,156805,1,0,0:0:0:0:
448,192,156805,1,0,0:0:0:0:
192,192,156926,1,0,0:0:0:0:
320,192,156926,1,0,0:0:0:0:
64,192,157047,1,0,0:0:0:0:
192,192,157047,1,0,0:0:0:0:
320,192,157047,1,0,0:0:0:0:
64,192,157168,1,0,0:0:0:0:
448,192,157168,1,0,0:0:0:0:
320,192,157289,1,0,0:0:0:0:
448,192,157289,1,0,0:0:0:0:
192,192,157350,1,0,0:0:0:0:
320,192,157411,1,0,0:0:0:0:
448,192,157411,1,0,0:0:0:0:
192,192,157471,1,0,0:0:0:0:
64,192,157532,1,0,0:0:0:0:
448,192,157532,1,0,0:0:0:0:
320,192,157653,1,0,0:0:0:0:
64,192,157774,1,0,0:0:0:0:
192,192,157774,1,0,0:0:0:0:
448,192,157774,1,0,0:0:0:0:
64,192,157895,1,0,0:0:0:0:
192,192,157895,1,0,0:0:0:0:
64,192,158017,1,0,0:0:0:0:
192,192,158017,1,0,0:0:0:0:
320,192,158017,1,0,0:0:0:0:
320,192,158138,1,0,0:0:0:0:
64,192,158259,1,0,0:0:0:0:
192,192,158259,1,0,0:0:0:0:
448,192,158259,1,0,0:0:0:0:
192,192,158380,1,0,0:0:0:0:
448,192,158380,1,0,0:0:0:0:
192,192,158502,1,0,0:0:0:0:
320,192,158502,1,0,0:0:0:0:
448,192,158502,1,0,0:0:0:0:
64,192,158623,1,0,0:0:0:0:
320,192,158623,1,0,0:0:0:0:
192,192,158683,1,0,0:0:0:0:
320,192,158744,1,0,0:0:0:0:
448,192,158744,1,0,0:0:0:0:
192,192,158805,1,0,0:0:0:0:
64,192,158865,1,0,0:0:0:0:
448,192,158865,1,0,0:0:0:0:
192,192,158926,1,0,0:0:0:0:
320,192,158986,1,0,0:0:0:0:
448,192,158986,1,0,0:0:0:0:
64,192,159108,1,0,0:0:0:0:
192,192,159229,1,0,0:0:0:0:
320,192,159229,1,0,0:0:0:0:
448,192,159229,1,0,0:0:0:0:
320,192,159350,1,0,0:0:0:0:
448,192,159350,1,0,0:0:0:0:
64,192,159471,1,0,0:0:0:0:
320,192,159471,1,0,0:0:0:0:
448,192,159471,1,0,0:0:0:0:
192,192,159532,1,0,0:0:0:0:
320,192,159592,1,0,0:0:0:0:
64,192,159653,1,0,0:0:0:0:
192,192,159714,1,0,0:0:0:0:
448,192,159714,1,0,0:0:0:0:
320,192,159759,1,0,0:0:0:0:
64,192,159815,1,0,0:0:0:0:
192,192,159855,1,0,0:0:0:0:
448,192,159895,1,0,0:0:0:0:
64,192,159956,1,0,0:0:0:0:
320,192,159956,1,0,0:0:0:0:
192,192,160017,1,0,0:0:0:0:
320,192,160077,1,0,0:0:0:0:
448,192,160138,1,0,0:0:0:0:
64,192,160199,1,0,0:0:0:0:
192,192,160199,1,0,0:0:0:0:
320,192,160244,1,0,0:0:0:0:
192,192,160289,1,0,0:0:0:0:
448,192,160350,1,0,0:0:0:0:
192,192,160395,1,0,0:0:0:0:
64,192,160441,1,0,0:0:0:0:
320,192,160441,1,0,0:0:0:0:
64,192,160562,1,0,0:0:0:0:
192,192,160683,1,0,0:0:0:0:
320,192,160683,1,0,0:0:0:0:
448,192,160683,1,0,0:0:0:0:
192,192,160805,1,0,0:0:0:0:
448,192,160805,1,0,0:0:0:0:
64,192,160926,1,0,0:0:0:0:
192,192,160926,1,0,0:0:0:0:
448,192,160926,1,0,0:0:0:0:
320,192,161047,1,0,0:0:0:0:
64,192,161168,1,0,0:0:0:0:
192,192,161168,1,0,0:0:0:0:
448,192,161168,1,0,0:0:0:0:
64,192,161289,1,0,0:0:0:0:
192,192,161289,1,0,0:0:0:0:
64,192,161411,1,0,0:0:0:0:
192,192,161411,1,0,0:0:0:0:
320,192,161411,1,0,0:0:0:0:
320,192,161532,1,0,0:0:0:0:
448,192,161532,1,0,0:0:0:0:
192,192,161592,1,0,0:0:0:0:
64,192,161653,1,0,0:0:0:0:
448,192,161653,1,0,0:0:0:0:
320,192,161714,1,0,0:0:0:0:
64,192,161774,1,0,0:0:0:0:
192,192,161774,1,0,0:0:0:0:
448,192,161835,1,0,0:0:0:0:
192,192,161895,1,0,0:0:0:0:
320,192,161895,1,0,0:0:0:0:
448,192,162017,1,0,0:0:0:0:
64,192,162138,1,0,0:0:0:0:
192,192,162138,1,0,0:0:0:0:
320,192,162138,1,0,0:0:0:0:
64,192,162259,1,0,0:0:0:0:
192,192,162259,1,0,0:0:0:0:
64,192,162380,1,0,0:0:0:0:
192,192,162380,1,0,0:0:0:0:
448,192,162380,1,0,0:0:0:0:
448,192,162502,1,0,0:0:0:0:
64,192,162623,1,0,0:0:0:0:
192,192,162623,1,0,0:0:0:0:
320,192,162623,1,0,0:0:0:0:
192,192,162744,1,0,0:0:0:0:
320,192,162744,1,0,0:0:0:0:
64,192,162865,1,0,0:0:0:0:
192,192,162865,1,0,0:0:0:0:
448,192,162865,1,0,0:0:0:0:
320,192,162986,1,0,0:0:0:0:
448,192,162986,1,0,0:0:0:0:
192,192,163047,1,0,0:0:0:0:
320,192,163108,1,0,0:0:0:0:
448,192,163108,1,0,0:0:0:0:
64,192,163153,1,0,0:0:0:0:
192,192,163199,1,0,0:0:0:0:
320,192,163259,1,0,0:0:0:0:
64,192,163305,1,0,0:0:0:0:
192,192,163350,1,0,0:0:0:0:
448,192,163350,1,0,0:0:0:0:
320,192,163471,1,0,0:0:0:0:
64,192,163592,1,0,0:0:0:0:
192,192,163592,1,0,0:0:0:0:
448,192,163592,1,0,0:0:0:0:
64,192,163714,1,0,0:0:0:0:
192,192,163714,1,0,0:0:0:0:
64,192,163835,1,0,0:0:0:0:
192,192,163835,1,0,0:0:0:0:
320,192,163835,1,0,0:0:0:0:
320,192,163956,1,0,0:0:0:0:
64,192,164077,1,0,0:0:0:0:
192,192,164077,1,0,0:0:0:0:
448,192,164077,1,0,0:0:0:0:
192,192,164199,1,0,0:0:0:0:
320,192,164199,1,0,0:0:0:0:
64,192,164320,1,0,0:0:0:0:
320,192,164320,1,0,0:0:0:0:
448,192,164320,1,0,0:0:0:0:
192,192,164441,1,0,0:0:0:0:
448,192,164441,1,0,0:0:0:0:
64,192,164562,1,0,0:0:0:0:
320,192,164562,1,0,0:0:0:0:
192,192,164608,1,0,0:0:0:0:
448,192,164653,1,0,0:0:0:0:
64,192,164714,1,0,0:0:0:0:
192,192,164759,1,0,0:0:0:0:
320,192,164805,1,0,0:0:0:0:
448,192,164805,1,0,0:0:0:0:
192,192,164926,1,0,0:0:0:0:
64,192,165047,1,0,0:0:0:0:
320,192,165047,1,0,0:0:0:0:
448,192,165047,1,0,0:0:0:0:
320,192,165168,1,0,0:0:0:0:
448,192,165168,1,0,0:0:0:0:
64,192,165289,1,0,0:0:0:0:
192,192,165289,1,0,0:0:0:0:
448,192,165289,1,0,0:0:0:0:
320,192,165350,1,0,0:0:0:0:
192,192,165411,1,0,0:0:0:0:
64,192,165471,1,0,0:0:0:0:
320,192,165532,1,0,0:0:0:0:
448,192,165532,1,0,0:0:0:0:
192,192,165572,1,0,0:0:0:0:
320,192,165613,1,0,0:0:0:0:
64,192,165653,1,0,0:0:0:0:
192,192,165714,1,0,0:0:0:0:
448,192,165774,1,0,0:0:0:0:
320,192,165835,1,0,0:0:0:0:
192,192,165895,1,0,0:0:0:0:
320,192,165956,1,0,0:0:0:0:
64,192,166017,1,0,0:0:0:0:
448,192,166017,1,0,0:0:0:0:
192,192,166057,1,0,0:0:0:0:
320,192,166097,1,0,0:0:0:0:
64,192,166138,1,0,0:0:0:0:
192,192,166199,1,0,0:0:0:0:
320,192,166259,1,0,0:0:0:0:
448,192,166259,1,0,0:0:0:0:
192,192,166320,1,0,0:0:0:0:
320,192,166380,1,0,0:0:0:0:
448,192,166380,1,0,0:0:0:0:
192,192,166441,1,0,0:0:0:0:
320,192,166502,1,0,0:0:0:0:
448,192,166502,1,0,0:0:0:0:
64,192,166542,1,0,0:0:0:0:
192,192,166582,1,0,0:0:0:0:
448,192,166623,1,0,0:0:0:0:
320,192,166683,1,0,0:0:0:0:
64,192,166744,1,0,0:0:0:0:
448,192,166784,1,0,0:0:0:0:
192,192,166825,1,0,0:0:0:0:
320,192,166865,1,0,0:0:0:0:
64,192,166926,1,0,0:0:0:0:
192,192,166986,1,0,0:0:0:0:
448,192,167027,1,0,0:0:0:0:
320,192,167067,1,0,0:0:0:0:
64,192,167108,1,0,0:0:0:0:
192,192,167168,1,0,0:0:0:0:
448,192,167229,1,0,0:0:0:0:
64,192,167269,1,0,0:0:0:0:
320,192,167310,1,0,0:0:0:0:
192,192,167350,1,0,0:0:0:0:
448,192,167411,1,0,0:0:0:0:
320,192,167471,1,0,0:0:0:0:
64,192,167512,1,0,0:0:0:0:
448,192,167552,1,0,0:0:0:0:
192,192,167592,1,0,0:0:0:0:
320,192,167653,1,0,0:0:0:0:
64,192,167714,1,0,0:0:0:0:
448,192,167714,1,0,0:0:0:0:
192,192,167835,1,0,0:0:0:0:
320,192,167956,1,0,0:0:0:0:
448,192,167956,1,0,0:0:0:0:
192,192,168017,1,0,0:0:0:0:
320,192,168077,1,0,0:0:0:0:
448,192,168077,1,0,0:0:0:0:
192,192,168138,1,0,0:0:0:0:
320,192,168199,1,0,0:0:0:0:
448,192,168199,1,0,0:0:0:0:
64,192,168259,1,0,0:0:0:0:
192,192,168320,1,0,0:0:0:0:
320,192,168380,1,0,0:0:0:0:
64,192,168441,1,0,0:0:0:0:
192,192,168441,1,0,0:0:0:0:
448,192,168502,1,0,0:0:0:0:
64,192,168562,1,0,0:0:0:0:
192,192,168562,1,0,0:0:0:0:
448,192,168623,1,0,0:0:0:0:
64,192,168683,1,0,0:0:0:0:
192,192,168683,1,0,0:0:0:0:
320,192,168744,1,0,0:0:0:0:
448,192,168805,1,0,0:0:0:0:
192,192,168865,1,0,0:0:0:0:
320,192,168926,1,0,0:0:0:0:
64,192,168986,1,0,0:0:0:0:
192,192,169047,1,0,0:0:0:0:
320,192,169108,1,0,0:0:0:0:
192,192,169168,1,0,0:0:0:0:
448,192,169209,1,0,0:0:0:0:
320,192,169249,1,0,0:0:0:0:
64,192,169289,1,0,0:0:0:0:
192,192,169350,1,0,0:0:0:0:
448,192,169411,1,0,0:0:0:0:
64,192,169451,1,0,0:0:0:0:
320,192,169491,1,0,0:0:0:0:
192,192,169532,1,0,0:0:0:0:
448,192,169592,1,0,0:0:0:0:
320,192,169653,1,0,0:0:0:0:
64,192,169693,1,0,0:0:0:0:
192,192,169734,1,0,0:0:0:0:
448,192,169774,1,0,0:0:0:0:
320,192,169835,1,0,0:0:0:0:
64,192,169895,1,0,0:0:0:0:
448,192,169936,1,0,0:0:0:0:
192,192,169976,1,0,0:0:0:0:
320,192,170017,1,0,0:0:0:0:
64,192,170077,1,0,0:0:0:0:
192,192,170138,1,0,0:0:0:0:
448,192,170178,1,0,0:0:0:0:
64,192,170219,1,0,0:0:0:0:
320,192,170259,1,0,0:0:0:0:
192,192,170320,1,0,0:0:0:0:
448,192,170380,1,0,0:0:0:0:
320,192,170421,1,0,0:0:0:0:
64,192,170461,1,0,0:0:0:0:
192,192,170502,1,0,0:0:0:0:
448,192,170562,1,0,0:0:0:0:
64,192,170623,1,0,0:0:0:0:
320,192,170623,1,0,0:0:0:0:
320,192,170744,1,0,0:0:0:0:
64,192,170865,1,0,0:0:0:0:
192,192,170865,1,0,0:0:0:0:
448,192,170926,1,0,0:0:0:0:
64,192,170986,1,0,0:0:0:0:
192,192,170986,1,0,0:0:0:0:
448,192,171047,1,0,0:0:0:0:
64,192,171108,1,0,0:0:0:0:
192,192,171108,1,0,0:0:0:0:
320,192,171168,1,0,0:0:0:0:
192,192,171229,1,0,0:0:0:0:
64,192,171289,1,0,0:0:0:0:
320,192,171350,1,0,0:0:0:0:
448,192,171350,1,0,0:0:0:0:
192,192,171411,1,0,0:0:0:0:
320,192,171471,1,0,0:0:0:0:
448,192,171471,1,0,0:0:0:0:
192,192,171532,1,0,0:0:0:0:
320,192,171592,1,0,0:0:0:0:
448,192,171592,1,0,0:0:0:0:
64,192,171653,1,0,0:0:0:0:
192,192,171714,1,0,0:0:0:0:
448,192,171714,1,0,0:0:0:0:
320,192,171774,1,0,0:0:0:0:
64,192,171835,1,0,0:0:0:0:
192,192,171835,1,0,0:0:0:0:
448,192,171895,1,0,0:0:0:0:
320,192,171956,1,0,0:0:0:0:
192,192,172017,1,0,0:0:0:0:
320,192,172077,1,0,0:0:0:0:
64,192,172118,1,0,0:0:0:0:
192,192,172158,1,0,0:0:0:0:
448,192,172199,1,0,0:0:0:0:
320,192,172259,1,0,0:0:0:0:
64,192,172320,1,0,0:0:0:0:
448,192,172360,1,0,0:0:0:0:
192,192,172401,1,0,0:0:0:0:
320,192,172441,1,0,0:0:0:0:
64,192,172502,1,0,0:0:0:0:
192,192,172562,1,0,0:0:0:0:
448,192,172603,1,0,0:0:0:0:
320,192,172643,1,0,0:0:0:0:
64,192,172683,1,0,0:0:0:0:
192,192,172744,1,0,0:0:0:0:
448,192,172805,1,0,0:0:0:0:
64,192,172845,1,0,0:0:0:0:
320,192,172885,1,0,0:0:0:0:
192,192,172926,1,0,0:0:0:0:
448,192,172986,1,0,0:0:0:0:
320,192,173047,1,0,0:0:0:0:
64,192,173087,1,0,0:0:0:0:
448,192,173128,1,0,0:0:0:0:
192,192,173168,1,0,0:0:0:0:
320,192,173229,1,0,0:0:0:0:
64,192,173289,1,0,0:0:0:0:
448,192,173330,1,0,0:0:0:0:
192,192,173370,1,0,0:0:0:0:
320,192,173411,1,0,0:0:0:0:
64,192,173471,1,0,0:0:0:0:
192,192,173532,1,0,0:0:0:0:
448,192,173532,1,0,0:0:0:0:
192,192,173653,1,0,0:0:0:0:
320,192,173774,1,0,0:0:0:0:
448,192,173774,1,0,0:0:0:0:
192,192,173835,1,0,0:0:0:0:
320,192,173895,1,0,0:0:0:0:
448,192,173895,1,0,0:0:0:0:
192,192,173956,1,0,0:0:0:0:
320,192,174017,1,0,0:0:0:0:
448,192,174017,1,0,0:0:0:0:
64,192,174077,1,0,0:0:0:0:
192,192,174138,1,0,0:0:0:0:
320,192,174199,1,0,0:0:0:0:
64,192,174259,1,0,0:0:0:0:
192,192,174259,1,0,0:0:0:0:
448,192,174320,1,0,0:0:0:0:
64,192,174380,1,0,0:0:0:0:
192,192,174380,1,0,0:0:0:0:
448,192,174441,1,0,0:0:0:0:
64,192,174502,1,0,0:0:0:0:
192,192,174502,1,0,0:0:0:0:
320,192,174562,1,0,0:0:0:0:
448,192,174623,1,0,0:0:0:0:
192,192,174683,1,0,0:0:0:0:
320,192,174744,1,0,0:0:0:0:
192,192,174805,1,0,0:0:0:0:
64,192,174865,1,0,0:0:0:0:
448,192,174926,1,0,0:0:0:0:
320,192,174986,1,0,0:0:0:0:
64,192,175027,1,0,0:0:0:0:
192,192,175067,1,0,0:0:0:0:
448,192,175108,1,0,0:0:0:0:
320,192,175168,1,0,0:0:0:0:
64,192,175229,1,0,0:0:0:0:
448,192,175269,1,0,0:0:0:0:
192,192,175310,1,0,0:0:0:0:
320,192,175350,1,0,0:0:0:0:
64,192,175411,1,0,0:0:0:0:
192,192,175471,1,0,0:0:0:0:
448,192,175512,1,0,0:0:0:0:
320,192,175552,1,0,0:0:0:0:
64,192,175592,1,0,0:0:0:0:
192,192,175653,1,0,0:0:0:0:
448,192,175714,1,0,0:0:0:0:
64,192,175754,1,0,0:0:0:0:
320,192,175794,1,0,0:0:0:0:
192,192,175835,1,0,0:0:0:0:
448,192,175895,1,0,0:0:0:0:
320,192,175956,1,0,0:0:0:0:
64,192,175996,1,0,0:0:0:0:
448,192,176037,1,0,0:0:0:0:
192,192,176077,1,0,0:0:0:0:
320,192,176138,1,0,0:0:0:0:
64,192,176199,1,0,0:0:0:0:
192,192,176239,1,0,0:0:0:0:
448,192,176279,1,0,0:0:0:0:
320,192,176320,1,0,0:0:0:0:
192,192,176360,1,0,0:0:0:0:
448,192,176401,1,0,0:0:0:0:
64,192,176441,1,0,0:0:0:0:
320,192,176441,1,0,0:0:0:0:
192,192,176502,1,0,0:0:0:0:
448,192,176562,1,0,0:0:0:0:
64,192,176623,1,0,0:0:0:0:
192,192,176683,1,0,0:0:0:0:
320,192,176683,1,0,0:0:0:0:
448,192,176744,1,0,0:0:0:0:
64,192,176805,1,0,0:0:0:0:
192,192,176805,1,0,0:0:0:0:
320,192,176805,1,0,0:0:0:0:
448,192,176865,1,0,0:0:0:0:
192,192,176926,1,0,0:0:0:0:
320,192,176926,1,0,0:0:0:0:
64,192,176986,1,0,0:0:0:0:
192,192,177047,1,0,0:0:0:0:
448,192,177108,1,0,0:0:0:0:
64,192,177168,1,0,0:0:0:0:
320,192,177168,1,0,0:0:0:0:
192,192,177229,1,0,0:0:0:0:
320,192,177289,1,0,0:0:0:0:
448,192,177289,1,0,0:0:0:0:
192,192,177350,1,0,0:0:0:0:
64,192,177411,1,0,0:0:0:0:
320,192,177411,1,0,0:0:0:0:
192,192,177471,1,0,0:0:0:0:
320,192,177532,1,0,0:0:0:0:
448,192,177532,1,0,0:0:0:0:
64,192,177592,1,0,0:0:0:0:
192,192,177592,1,0,0:0:0:0:
320,192,177653,1,0,0:0:0:0:
448,192,177653,1,0,0:0:0:0:
64,192,177714,1,0,0:0:0:0:
192,192,177714,1,0,0:0:0:0:
320,192,177774,1,0,0:0:0:0:
448,192,177774,1,0,0:0:0:0:
64,192,177835,1,0,0:0:0:0:
192,192,177835,1,0,0:0:0:0:
320,192,177895,1,0,0:0:0:0:
448,192,177895,1,0,0:0:0:0:
192,192,177956,1,0,0:0:0:0:
320,192,178017,1,0,0:0:0:0:
448,192,178077,1,0,0:0:0:0:
64,192,178138,1,0,0:0:0:0:
192,192,178138,1,0,0:0:0:0:
320,192,178199,1,0,0:0:0:0:
64,192,178259,1,0,0:0:0:0:
192,192,178259,1,0,0:0:0:0:
448,192,178259,1,0,0:0:0:0:
320,192,178320,1,0,0:0:0:0:
64,192,178380,1,0,0:0:0:0:
192,192,178380,1,0,0:0:0:0:
448,192,178441,1,0,0:0:0:0:
320,192,178502,1,0,0:0:0:0:
64,192,178562,1,0,0:0:0:0:
192,192,178623,1,0,0:0:0:0:
448,192,178623,1,0,0:0:0:0:
64,192,178683,1,0,0:0:0:0:
320,192,178744,1,0,0:0:0:0:
448,192,178744,1,0,0:0:0:0:
64,192,178805,1,0,0:0:0:0:
192,192,178865,1,0,0:0:0:0:
448,192,178865,1,0,0:0:0:0:
320,192,178926,1,0,0:0:0:0:
64,192,178986,1,0,0:0:0:0:
192,192,178986,1,0,0:0:0:0:
320,192,179047,1,0,0:0:0:0:
448,192,179047,1,0,0:0:0:0:
64,192,179108,1,0,0:0:0:0:
192,192,179108,1,0,0:0:0:0:
320,192,179168,1,0,0:0:0:0:
448,192,179168,1,0,0:0:0:0:
64,192,179229,1,0,0:0:0:0:
192,192,179229,1,0,0:0:0:0:
320,192,179289,1,0,0:0:0:0:
448,192,179289,1,0,0:0:0:0:
64,192,179350,1,0,0:0:0:0:
192,192,179350,1,0,0:0:0:0:
320,192,179411,1,0,0:0:0:0:
448,192,179471,1,0,0:0:0:0:
320,192,179532,1,0,0:0:0:0:
64,192,179592,1,0,0:0:0:0:
192,192,179592,1,0,0:0:0:0:
448,192,179653,1,0,0:0:0:0:
64,192,179714,1,0,0:0:0:0:
192,192,179714,1,0,0:0:0:0:
320,192,179714,1,0,0:0:0:0:
448,192,179774,1,0,0:0:0:0:
64,192,179835,1,0,0:0:0:0:
192,192,179835,1,0,0:0:0:0:
320,192,179895,1,0,0:0:0:0:
448,192,179956,1,0,0:0:0:0:
192,192,180017,1,0,0:0:0:0:
64,192,180077,1,0,0:0:0:0:
320,192,180077,1,0,0:0:0:0:
448,192,180138,1,0,0:0:0:0:
64,192,180199,1,0,0:0:0:0:
192,192,180199,1,0,0:0:0:0:
448,192,180259,1,0,0:0:0:0:
64,192,180320,1,0,0:0:0:0:
320,192,180320,1,0,0:0:0:0:
192,192,180380,1,0,0:0:0:0:
64,192,180441,1,0,0:0:0:0:
320,192,180441,1,0,0:0:0:0:
448,192,180441,1,0,0:0:0:0:
192,192,180502,1,0,0:0:0:0:
320,192,180562,1,0,0:0:0:0:
448,192,180562,1,0,0:0:0:0:
64,192,180623,1,0,0:0:0:0:
192,192,180683,1,0,0:0:0:0:
448,192,180683,1,0,0:0:0:0:
320,192,180744,1,0,0:0:0:0:
64,192,180805,128,0,180865:0:0:0:0:
192,192,180805,128,0,180865:0:0:0:0:
320,192,180926,1,0,0:0:0:0:
64,192,181047,128,0,181108:0:0:0:0:
192,192,181047,128,0,181108:0:0:0:0:
64,192,181168,1,0,0:0:0:0:
320,192,181168,128,0,181229:0:0:0:0:
448,192,181168,128,0,181229:0:0:0:0:
192,192,181289,1,0,0:0:0:0:
64,192,181411,128,0,181471:0:0:0:0:
192,192,181411,128,0,181471:0:0:0:0:
64,192,181532,1,0,0:0:0:0:
320,192,181532,128,0,181592:0:0:0:0:
448,192,181532,128,0,181592:0:0:0:0:
192,192,181653,1,0,0:0:0:0:
64,192,181774,1,0,0:0:0:0:
320,192,181774,128,0,181835:0:0:0:0:
448,192,181774,128,0,181835:0:0:0:0:
64,192,181895,1,0,0:0:0:0:
192,192,181895,1,0,0:0:0:0:
448,192,181895,1,0,0:0:0:0:
320,192,181956,1,0,0:0:0:0:
192,192,182017,1,0,0:0:0:0:
320,192,182077,1,0,0:0:0:0:
64,192,182138,1,0,0:0:0:0:
192,192,182138,1,0,0:0:0:0:
448,192,182138,1,0,0:0:0:0:
320,192,182199,1,0,0:0:0:0:
64,192,182259,1,0,0:0:0:0:
192,192,182259,1,0,0:0:0:0:
448,192,182380,1,0,0:0:0:0:
192,192,182502,1,0,0:0:0:0:
64,192,182623,1,0,0:0:0:0:
320,192,182623,1,0,0:0:0:0:
448,192,182623,1,0,0:0:0:0:
64,192,182744,1,0,0:0:0:0:
192,192,182744,1,0,0:0:0:0:
448,192,182744,1,0,0:0:0:0:
320,192,182865,1,0,0:0:0:0:
64,192,182986,1,0,0:0:0:0:
192,192,182986,1,0,0:0:0:0:
448,192,182986,1,0,0:0:0:0:
64,192,183108,1,0,0:0:0:0:
320,192,183108,1,0,0:0:0:0:
192,192,183229,1,0,0:0:0:0:
448,192,183229,1,0,0:0:0:0:
64,192,183350,1,0,0:0:0:0:
320,192,183350,1,0,0:0:0:0:
448,192,183350,1,0,0:0:0:0:
192,192,183411,1,0,0:0:0:0:
320,192,183471,1,0,0:0:0:0:
192,192,183532,1,0,0:0:0:0:
320,192,183592,1,0,0:0:0:0:
192,192,183653,1,0,0:0:0:0:
64,192,183714,1,0,0:0:0:0:
320,192,183714,1,0,0:0:0:0:
448,192,183714,1,0,0:0:0:0:
192,192,183835,1,0,0:0:0:0:
448,192,183835,1,0,0:0:0:0:
64,192,183956,1,0,0:0:0:0:
320,192,183956,1,0,0:0:0:0:
64,192,184077,1,0,0:0:0:0:
192,192,184077,1,0,0:0:0:0:
448,192,184077,1,0,0:0:0:0:
320,192,184199,1,0,0:0:0:0:
192,192,184320,1,0,0:0:0:0:
64,192,184441,1,0,0:0:0:0:
320,192,184562,1,0,0:0:0:0:
448,192,184562,1,0,0:0:0:0:
64,192,184683,1,0,0:0:0:0:
192,192,184683,1,0,0:0:0:0:
64,192,184805,1,0,0:0:0:0:
320,192,184805,1,0,0:0:0:0:
448,192,184805,1,0,0:0:0:0:
192,192,184926,1,0,0:0:0:0:
448,192,184926,1,0,0:0:0:0:
64,192,185047,1,0,0:0:0:0:
320,192,185047,1,0,0:0:0:0:
192,192,185168,1,0,0:0:0:0:
320,192,185168,1,0,0:0:0:0:
448,192,185168,1,0,0:0:0:0:
192,192,185289,1,0,0:0:0:0:
64,192,185411,1,0,0:0:0:0:
320,192,185411,1,0,0:0:0:0:
448,192,185411,1,0,0:0:0:0:
64,192,185532,1,0,0:0:0:0:
192,192,185532,1,0,0:0:0:0:
448,192,185532,1,0,0:0:0:0:
192,192,185653,1,0,0:0:0:0:
320,192,185653,1,0,0:0:0:0:
448,192,185774,1,0,0:0:0:0:
64,192,185895,1,0,0:0:0:0:
192,192,185895,1,0,0:0:0:0:
320,192,185895,1,0,0:0:0:0:
192,192,186017,1,0,0:0:0:0:
448,192,186017,1,0,0:0:0:0:
64,192,186138,1,0,0:0:0:0:
320,192,186138,1,0,0:0:0:0:
192,192,186259,1,0,0:0:0:0:
448,192,186259,1,0,0:0:0:0:
320,192,186320,1,0,0:0:0:0:
64,192,186380,1,0,0:0:0:0:
448,192,186441,1,0,0:0:0:0:
320,192,186502,1,0,0:0:0:0:
64,192,186562,1,0,0:0:0:0:
320,192,186623,1,0,0:0:0:0:
448,192,186623,1,0,0:0:0:0:
64,192,186744,1,0,0:0:0:0:
192,192,186744,1,0,0:0:0:0:
192,192,186865,1,0,0:0:0:0:
320,192,186865,1,0,0:0:0:0:
64,192,186986,1,0,0:0:0:0:
320,192,186986,1,0,0:0:0:0:
448,192,186986,1,0,0:0:0:0:
64,192,187108,1,0,0:0:0:0:
192,192,187229,1,0,0:0:0:0:
320,192,187229,1,0,0:0:0:0:
448,192,187229,1,0,0:0:0:0:
64,192,187350,1,0,0:0:0:0:
320,192,187350,1,0,0:0:0:0:
448,192,187350,1,0,0:0:0:0:
192,192,187471,1,0,0:0:0:0:
320,192,187592,1,0,0:0:0:0:
448,192,187592,1,0,0:0:0:0:
64,192,187714,1,0,0:0:0:0:
192,192,187714,1,0,0:0:0:0:
320,192,187774,1,0,0:0:0:0:
448,192,187774,1,0,0:0:0:0:
64,192,187835,1,0,0:0:0:0:
192,192,187835,1,0,0:0:0:0:
320,192,187895,1,0,0:0:0:0:
448,192,187895,1,0,0:0:0:0:
64,192,187956,1,0,0:0:0:0:
192,192,187956,1,0,0:0:0:0:
320,192,188017,1,0,0:0:0:0:
448,192,188017,1,0,0:0:0:0:
64,192,188077,1,0,0:0:0:0:
192,192,188077,1,0,0:0:0:0:
320,192,188199,1,0,0:0:0:0:
64,192,188320,1,0,0:0:0:0:
192,192,188320,1,0,0:0:0:0:
448,192,188320,1,0,0:0:0:0:
64,192,188441,1,0,0:0:0:0:
320,192,188441,1,0,0:0:0:0:
448,192,188441,1,0,0:0:0:0:
192,192,188562,1,0,0:0:0:0:
320,192,188683,1,0,0:0:0:0:
64,192,188805,1,0,0:0:0:0:
192,192,188805,1,0,0:0:0:0:
448,192,188805,1,0,0:0:0:0:
64,192,188926,1,0,0:0:0:0:
320,192,188926,1,0,0:0:0:0:
448,192,188926,1,0,0:0:0:0:
64,192,189047,1,0,0:0:0:0:
192,192,189047,1,0,0:0:0:0:
320,192,189047,1,0,0:0:0:0:
320,192,189168,1,0,0:0:0:0:
448,192,189168,1,0,0:0:0:0:
64,192,189229,1,0,0:0:0:0:
192,192,189229,1,0,0:0:0:0:
320,192,189289,1,0,0:0:0:0:
448,192,189289,1,0,0:0:0:0:
64,192,189350,1,0,0:0:0:0:
192,192,189350,1,0,0:0:0:0:
320,192,189411,1,0,0:0:0:0:
448,192,189411,1,0,0:0:0:0:
64,192,189471,1,0,0:0:0:0:
192,192,189471,1,0,0:0:0:0:
320,192,189532,1,0,0:0:0:0:
448,192,189532,1,0,0:0:0:0:
192,192,189653,1,0,0:0:0:0:
64,192,189774,1,0,0:0:0:0:
320,192,189774,1,0,0:0:0:0:
448,192,189774,1,0,0:0:0:0:
64,192,189895,1,0,0:0:0:0:
192,192,189895,1,0,0:0:0:0:
64,192,190017,1,0,0:0:0:0:
192,192,190017,1,0,0:0:0:0:
320,192,190138,1,0,0:0:0:0:
64,192,190259,1,0,0:0:0:0:
192,192,190259,1,0,0:0:0:0:
448,192,190259,1,0,0:0:0:0:
64,192,190380,1,0,0:0:0:0:
320,192,190380,1,0,0:0:0:0:
448,192,190380,1,0,0:0:0:0:
192,192,190502,1,0,0:0:0:0:
320,192,190502,1,0,0:0:0:0:
64,192,190623,1,0,0:0:0:0:
192,192,190623,1,0,0:0:0:0:
320,192,190683,1,0,0:0:0:0:
448,192,190683,1,0,0:0:0:0:
64,192,190744,1,0,0:0:0:0:
192,192,190744,1,0,0:0:0:0:
320,192,190805,1,0,0:0:0:0:
448,192,190805,1,0,0:0:0:0:
64,192,190865,1,0,0:0:0:0:
192,192,190865,1,0,0:0:0:0:
320,192,190926,1,0,0:0:0:0:
448,192,190926,1,0,0:0:0:0:
64,192,190986,1,0,0:0:0:0:
192,192,190986,1,0,0:0:0:0:
320,192,191108,1,0,0:0:0:0:
64,192,191229,1,0,0:0:0:0:
192,192,191229,1,0,0:0:0:0:
448,192,191229,1,0,0:0:0:0:
64,192,191350,1,0,0:0:0:0:
320,192,191350,1,0,0:0:0:0:
448,192,191350,1,0,0:0:0:0:
192,192,191471,1,0,0:0:0:0:
64,192,191592,1,0,0:0:0:0:
192,192,191714,1,0,0:0:0:0:
320,192,191714,1,0,0:0:0:0:
448,192,191714,1,0,0:0:0:0:
64,192,191835,1,0,0:0:0:0:
192,192,191835,1,0,0:0:0:0:
320,192,191835,1,0,0:0:0:0:
64,192,191956,1,0,0:0:0:0:
448,192,191956,1,0,0:0:0:0:
320,192,192077,1,0,0:0:0:0:
448,192,192077,1,0,0:0:0:0:
64,192,192138,1,0,0:0:0:0:
192,192,192138,1,0,0:0:0:0:
320,192,192199,1,0,0:0:0:0:
448,192,192199,1,0,0:0:0:0:
64,192,192259,1,0,0:0:0:0:
192,192,192259,1,0,0:0:0:0:
320,192,192320,1,0,0:0:0:0:
448,192,192320,1,0,0:0:0:0:
192,192,192380,1,0,0:0:0:0:
64,192,192441,1,0,0:0:0:0:
320,192,192441,1,0,0:0:0:0:
448,192,192441,1,0,0:0:0:0:
192,192,192562,1,0,0:0:0:0:
192,192,192683,1,0,0:0:0:0:
320,192,192683,1,0,0:0:0:0:
448,192,192683,1,0,0:0:0:0:
64,192,192805,1,0,0:0:0:0:
320,192,192805,1,0,0:0:0:0:
448,192,192805,1,0,0:0:0:0:
64,192,192926,1,0,0:0:0:0:
192,192,193047,1,0,0:0:0:0:
320,192,193047,1,0,0:0:0:0:
448,192,193047,1,0,0:0:0:0:
64,192,193168,1,0,0:0:0:0:
192,192,193168,1,0,0:0:0:0:
448,192,193168,1,0,0:0:0:0:
320,192,193289,1,0,0:0:0:0:
64,192,193411,1,0,0:0:0:0:
192,192,193411,1,0,0:0:0:0:
320,192,193411,1,0,0:0:0:0:
64,192,193532,1,0,0:0:0:0:
192,192,193532,1,0,0:0:0:0:
448,192,193532,1,0,0:0:0:0:
64,192,193653,1,0,0:0:0:0:
320,192,193653,1,0,0:0:0:0:
448,192,193653,1,0,0:0:0:0:
192,192,193774,1,0,0:0:0:0:
448,192,193774,1,0,0:0:0:0:
64,192,193895,1,0,0:0:0:0:
320,192,193895,1,0,0:0:0:0:
192,192,193956,1,0,0:0:0:0:
320,192,194017,1,0,0:0:0:0:
448,192,194017,1,0,0:0:0:0:
64,192,194077,1,0,0:0:0:0:
192,192,194138,1,0,0:0:0:0:
320,192,194138,1,0,0:0:0:0:
448,192,194199,1,0,0:0:0:0:
64,192,194259,1,0,0:0:0:0:
192,192,194259,1,0,0:0:0:0:
320,192,194320,1,0,0:0:0:0:
64,192,194380,1,0,0:0:0:0:
448,192,194380,1,0,0:0:0:0:
192,192,194441,1,0,0:0:0:0:
320,192,194502,1,0,0:0:0:0:
448,192,194502,1,0,0:0:0:0:
64,192,194562,1,0,0:0:0:0:
192,192,194623,1,0,0:0:0:0:
320,192,194623,1,0,0:0:0:0:
448,192,194683,1,0,0:0:0:0:
64,192,194744,1,0,0:0:0:0:
192,192,194805,1,0,0:0:0:0:
320,192,194865,1,0,0:0:0:0:
64,192,194926,1,0,0:0:0:0:
448,192,194986,1,0,0:0:0:0:
320,192,195047,1,0,0:0:0:0:
64,192,195108,1,0,0:0:0:0:
192,192,195108,1,0,0:0:0:0:
448,192,195168,1,0,0:0:0:0:
64,192,195229,1,0,0:0:0:0:
320,192,195229,1,0,0:0:0:0:
192,192,195289,1,0,0:0:0:0:
64,192,195350,1,0,0:0:0:0:
320,192,195350,1,0,0:0:0:0:
448,192,195350,1,0,0:0:0:0:
448,192,195471,1,0,0:0:0:0:
64,192,195592,1,0,0:0:0:0:
192,192,195592,1,0,0:0:0:0:
320,192,195592,1,0,0:0:0:0:
64,192,195714,1,0,0:0:0:0:
192,192,195714,1,0,0:0:0:0:
448,192,195714,1,0,0:0:0:0:
64,192,195835,1,0,0:0:0:0:
192,192,195835,1,0,0:0:0:0:
320,192,195835,1,0,0:0:0:0:
448,192,195956,1,0,0:0:0:0:
64,192,196077,1,0,0:0:0:0:
192,192,196077,1,0,0:0:0:0:
320,192,196077,1,0,0:0:0:0:
64,192,196199,1,0,0:0:0:0:
192,192,196199,1,0,0:0:0:0:
320,192,196199,1,0,0:0:0:0:
192,192,196320,1,0,0:0:0:0:
320,192,196320,1,0,0:0:0:0:
448,192,196320,1,0,0:0:0:0:
64,192,196441,1,0,0:0:0:0:
320,192,196441,1,0,0:0:0:0:
448,192,196441,1,0,0:0:0:0:
192,192,196502,1,0,0:0:0:0:
320,192,196562,1,0,0:0:0:0:
64,192,196623,1,0,0:0:0:0:
448,192,196683,1,0,0:0:0:0:
320,192,196744,1,0,0:0:0:0:
192,192,196805,1,0,0:0:0:0:
448,192,196845,1,0,0:0:0:0:
64,192,196885,1,0,0:0:0:0:
320,192,196926,1,0,0:0:0:0:
192,192,196986,1,0,0:0:0:0:
448,192,197047,1,0,0:0:0:0:
64,192,197087,1,0,0:0:0:0:
320,192,197128,1,0,0:0:0:0:
192,192,197168,1,0,0:0:0:0:
448,192,197229,1,0,0:0:0:0:
320,192,197289,1,0,0:0:0:0:
64,192,197330,1,0,0:0:0:0:
192,192,197370,1,0,0:0:0:0:
448,192,197411,1,0,0:0:0:0:
320,192,197471,1,0,0:0:0:0:
64,192,197532,1,0,0:0:0:0:
192,192,197532,1,0,0:0:0:0:
448,192,197572,1,0,0:0:0:0:
320,192,197613,1,0,0:0:0:0:
64,192,197653,1,0,0:0:0:0:
192,192,197714,1,0,0:0:0:0:
448,192,197774,1,0,0:0:0:0:
64,192,197815,1,0,0:0:0:0:
320,192,197855,1,0,0:0:0:0:
192,192,197895,1,0,0:0:0:0:
448,192,197956,1,0,0:0:0:0:
64,192,198017,1,0,0:0:0:0:
320,192,198057,1,0,0:0:0:0:
448,192,198097,1,0,0:0:0:0:
64,192,198138,1,0,0:0:0:0:
192,192,198138,1,0,0:0:0:0:
192,192,198259,1,0,0:0:0:0:
448,192,198259,1,0,0:0:0:0:
320,192,198380,1,0,0:0:0:0:
448,192,198380,1,0,0:0:0:0:
64,192,198502,1,0,0:0:0:0:
192,192,198502,1,0,0:0:0:0:
64,192,198623,1,0,0:0:0:0:
192,192,198623,1,0,0:0:0:0:
64,192,198744,1,0,0:0:0:0:
320,192,198744,1,0,0:0:0:0:
448,192,198744,1,0,0:0:0:0:
192,192,198865,1,0,0:0:0:0:
64,192,198986,1,0,0:0:0:0:
192,192,198986,1,0,0:0:0:0:
320,192,198986,1,0,0:0:0:0:
448,192,198986,1,0,0:0:0:0:
320,192,199108,1,0,0:0:0:0:
448,192,199108,1,0,0:0:0:0:
320,192,199229,1,0,0:0:0:0:
448,192,199229,1,0,0:0:0:0:
64,192,199350,1,0,0:0:0:0:
192,192,199350,1,0,0:0:0:0:
448,192,199350,1,0,0:0:0:0:
192,192,199471,1,0,0:0:0:0:
64,192,199592,1,0,0:0:0:0:
320,192,199592,1,0,0:0:0:0:
448,192,199592,1,0,0:0:0:0:
64,192,199714,1,0,0:0:0:0:
192,192,199714,1,0,0:0:0:0:
448,192,199754,1,0,0:0:0:0:
320,192,199794,1,0,0:0:0:0:
64,192,199835,1,0,0:0:0:0:
192,192,199895,1,0,0:0:0:0:
320,192,199956,1,0,0:0:0:0:
64,192,200017,1,0,0:0:0:0:
192,192,200077,1,0,0:0:0:0:
448,192,200077,1,0,0:0:0:0:
320,192,200138,1,0,0:0:0:0:
64,192,200199,1,0,0:0:0:0:
448,192,200259,1,0,0:0:0:0:
192,192,200320,1,0,0:0:0:0:
64,192,200380,1,0,0:0:0:0:
320,192,200441,1,0,0:0:0:0:
448,192,200441,1,0,0:0:0:0:
192,192,200481,1,0,0:0:0:0:
64,192,200522,1,0,0:0:0:0:
448,192,200562,1,0,0:0:0:0:
320,192,200623,1,0,0:0:0:0:
64,192,200683,1,0,0:0:0:0:
192,192,200744,1,0,0:0:0:0:
320,192,200805,1,0,0:0:0:0:
448,192,200805,1,0,0:0:0:0:
64,192,200865,1,0,0:0:0:0:
192,192,200926,1,0,0:0:0:0:
448,192,200926,1,0,0:0:0:0:
192,192,201047,1,0,0:0:0:0:
320,192,201047,1,0,0:0:0:0:
64,192,201168,1,0,0:0:0:0:
320,192,201168,1,0,0:0:0:0:
192,192,201289,1,0,0:0:0:0:
64,192,201411,1,0,0:0:0:0:
320,192,201411,1,0,0:0:0:0:
448,192,201411,1,0,0:0:0:0:
320,192,201532,1,0,0:0:0:0:
64,192,201653,1,0,0:0:0:0:
192,192,201653,1,0,0:0:0:0:
448,192,201653,1,0,0:0:0:0:
192,192,201774,1,0,0:0:0:0:
64,192,201895,1,0,0:0:0:0:
192,192,201895,1,0,0:0:0:0:
320,192,201895,1,0,0:0:0:0:
448,192,201895,1,0,0:0:0:0:
320,192,202017,1,0,0:0:0:0:
448,192,202017,1,0,0:0:0:0:
64,192,202138,1,0,0:0:0:0:
192,192,202138,1,0,0:0:0:0:
320,192,202138,1,0,0:0:0:0:
64,192,202259,1,0,0:0:0:0:
192,192,202259,1,0,0:0:0:0:
448,192,202259,1,0,0:0:0:0:
320,192,202380,1,0,0:0:0:0:
448,192,202380,1,0,0:0:0:0:
64,192,202502,1,0,0:0:0:0:
192,192,202502,1,0,0:0:0:0:
64,192,202623,1,0,0:0:0:0:
192,192,202623,1,0,0:0:0:0:
320,192,202668,1,0,0:0:0:0:
448,192,202744,1,0,0:0:0:0:
192,192,202805,1,0,0:0:0:0:
64,192,202865,1,0,0:0:0:0:
320,192,202865,1,0,0:0:0:0:
448,192,202911,1,0,0:0:0:0:
192,192,202986,1,0,0:0:0:0:
64,192,203047,1,0,0:0:0:0:
320,192,203108,1,0,0:0:0:0:
448,192,203108,1,0,0:0:0:0:
192,192,203153,1,0,0:0:0:0:
64,192,203229,1,0,0:0:0:0:
320,192,203289,1,0,0:0:0:0:
192,192,203350,1,0,0:0:0:0:
448,192,203350,1,0,0:0:0:0:
64,192,203395,1,0,0:0:0:0:
192,192,203471,1,0,0:0:0:0:
448,192,203532,1,0,0:0:0:0:
192,192,203592,1,0,0:0:0:0:
320,192,203592,1,0,0:0:0:0:
448,192,203653,1,0,0:0:0:0:
64,192,203714,1,0,0:0:0:0:
320,192,203714,1,0,0:0:0:0:
192,192,203774,1,0,0:0:0:0:
320,192,203835,1,0,0:0:0:0:
448,192,203835,1,0,0:0:0:0:
64,192,203895,1,0,0:0:0:0:
192,192,203956,1,0,0:0:0:0:
448,192,203956,1,0,0:0:0:0:
320,192,204017,1,0,0:0:0:0:
64,192,204077,1,0,0:0:0:0:
192,192,204077,1,0,0:0:0:0:
448,192,204077,1,0,0:0:0:0:
320,192,204138,1,0,0:0:0:0:
64,192,204199,1,0,0:0:0:0:
192,192,204259,1,0,0:0:0:0:
448,192,204320,1,0,0:0:0:0:
320,192,204380,1,0,0:0:0:0:
64,192,204441,1,0,0:0:0:0:
192,192,204441,1,0,0:0:0:0:
448,192,204502,1,0,0:0:0:0:
192,192,204562,1,0,0:0:0:0:
320,192,204562,1,0,0:0:0:0:
64,192,204623,1,0,0:0:0:0:
320,192,204683,1,0,0:0:0:0:
448,192,204683,1,0,0:0:0:0:
192,192,204744,1,0,0:0:0:0:
64,192,204805,1,0,0:0:0:0:
320,192,204805,1,0,0:0:0:0:
448,192,204805,1,0,0:0:0:0:
192,192,204865,1,0,0:0:0:0:
64,192,204926,1,0,0:0:0:0:
320,192,204986,1,0,0:0:0:0:
192,192,205047,1,0,0:0:0:0:
448,192,205108,1,0,0:0:0:0:
64,192,205168,1,0,0:0:0:0:
320,192,205168,1,0,0:0:0:0:
192,192,205229,1,0,0:0:0:0:
320,192,205289,1,0,0:0:0:0:
448,192,205289,1,0,0:0:0:0:
64,192,205350,1,0,0:0:0:0:
192,192,205411,1,0,0:0:0:0:
448,192,205411,1,0,0:0:0:0:
320,192,205471,1,0,0:0:0:0:
64,192,205532,1,0,0:0:0:0:
192,192,205532,1,0,0:0:0:0:
448,192,205532,1,0,0:0:0:0:
320,192,205592,1,0,0:0:0:0:
64,192,205653,1,0,0:0:0:0:
448,192,205714,1,0,0:0:0:0:
320,192,205774,1,0,0:0:0:0:
192,192,205835,1,0,0:0:0:0:
320,192,205895,1,0,0:0:0:0:
448,192,205895,1,0,0:0:0:0:
64,192,205956,1,0,0:0:0:0:
192,192,206017,1,0,0:0:0:0:
448,192,206017,1,0,0:0:0:0:
320,192,206077,1,0,0:0:0:0:
64,192,206138,1,0,0:0:0:0:
192,192,206138,1,0,0:0:0:0:
448,192,206199,1,0,0:0:0:0:
64,192,206259,1,0,0:0:0:0:
192,192,206259,1,0,0:0:0:0:
320,192,206259,1,0,0:0:0:0:
448,192,206320,1,0,0:0:0:0:
320,192,206380,1,0,0:0:0:0:
192,192,206441,1,0,0:0:0:0:
448,192,206502,1,0,0:0:0:0:
320,192,206562,1,0,0:0:0:0:
64,192,206623,1,0,0:0:0:0:
192,192,206623,1,0,0:0:0:0:
448,192,206623,1,0,0:0:0:0:
320,192,206683,1,0,0:0:0:0:
64,192,206744,1,0,0:0:0:0:
192,192,206805,1,0,0:0:0:0:
320,192,206865,1,0,0:0:0:0:
64,192,206926,1,0,0:0:0:0:
192,192,206986,1,0,0:0:0:0:
320,192,206986,1,0,0:0:0:0:
448,192,206986,1,0,0:0:0:0:
64,192,207047,1,0,0:0:0:0:
192,192,207108,1,0,0:0:0:0:
448,192,207168,1,0,0:0:0:0:
320,192,207229,1,0,0:0:0:0:
64,192,207289,1,0,0:0:0:0:
192,192,207350,1,0,0:0:0:0:
448,192,207350,1,0,0:0:0:0:
320,192,207411,1,0,0:0:0:0:
64,192,207471,1,0,0:0:0:0:
192,192,207471,1,0,0:0:0:0:
448,192,207532,1,0,0:0:0:0:
64,192,207592,1,0,0:0:0:0:
320,192,207592,1,0,0:0:0:0:
192,192,207653,1,0,0:0:0:0:
64,192,207714,1,0,0:0:0:0:
320,192,207714,1,0,0:0:0:0:
448,192,207714,1,0,0:0:0:0:
192,192,207774,1,0,0:0:0:0:
448,192,207835,1,0,0:0:0:0:
64,192,207895,1,0,0:0:0:0:
192,192,207956,1,0,0:0:0:0:
448,192,208017,1,0,0:0:0:0:
192,192,208077,1,0,0:0:0:0:
320,192,208077,1,0,0:0:0:0:
64,192,208138,1,0,0:0:0:0:
320,192,208199,1,0,0:0:0:0:
448,192,208199,1,0,0:0:0:0:
192,192,208259,1,0,0:0:0:0:
64,192,208320,1,0,0:0:0:0:
448,192,208320,1,0,0:0:0:0:
320,192,208380,1,0,0:0:0:0:
64,192,208441,1,0,0:0:0:0:
192,192,208441,1,0,0:0:0:0:
448,192,208441,1,0,0:0:0:0:
320,192,208502,1,0,0:0:0:0:
192,192,208562,1,0,0:0:0:0:
448,192,208623,1,0,0:0:0:0:
64,192,208683,1,0,0:0:0:0:
192,192,208744,1,0,0:0:0:0:
320,192,208805,1,0,0:0:0:0:
448,192,208805,1,0,0:0:0:0:
64,192,208865,1,0,0:0:0:0:
192,192,208926,1,0,0:0:0:0:
448,192,208926,1,0,0:0:0:0:
320,192,208986,1,0,0:0:0:0:
64,192,209047,1,0,0:0:0:0:
192,192,209047,1,0,0:0:0:0:
448,192,209108,1,0,0:0:0:0:
64,192,209168,1,0,0:0:0:0:
192,192,209168,1,0,0:0:0:0:
320,192,209168,1,0,0:0:0:0:
448,192,209229,1,0,0:0:0:0:
320,192,209289,1,0,0:0:0:0:
64,192,209350,1,0,0:0:0:0:
192,192,209411,1,0,0:0:0:0:
320,192,209411,1,0,0:0:0:0:
448,192,209411,1,0,0:0:0:0:
64,192,209471,1,0,0:0:0:0:
192,192,209532,1,0,0:0:0:0:
320,192,209592,1,0,0:0:0:0:
64,192,209653,1,0,0:0:0:0:
192,192,209653,1,0,0:0:0:0:
448,192,209653,1,0,0:0:0:0:
320,192,209714,1,0,0:0:0:0:
448,192,209774,1,0,0:0:0:0:
64,192,209835,1,0,0:0:0:0:
192,192,209895,1,0,0:0:0:0:
320,192,209895,1,0,0:0:0:0:
448,192,209895,1,0,0:0:0:0:
64,192,209956,1,0,0:0:0:0:
192,192,210017,1,0,0:0:0:0:
448,192,210077,1,0,0:0:0:0:
320,192,210138,1,0,0:0:0:0:
64,192,210199,1,0,0:0:0:0:
192,192,210259,1,0,0:0:0:0:
320,192,210259,1,0,0:0:0:0:
448,192,210320,1,0,0:0:0:0:
64,192,210380,1,0,0:0:0:0:
192,192,210380,1,0,0:0:0:0:
320,192,210441,1,0,0:0:0:0:
64,192,210502,1,0,0:0:0:0:
448,192,210502,1,0,0:0:0:0:
192,192,210562,1,0,0:0:0:0:
64,192,210623,1,0,0:0:0:0:
320,192,210623,1,0,0:0:0:0:
448,192,210623,1,0,0:0:0:0:
192,192,210683,1,0,0:0:0:0:
448,192,210744,1,0,0:0:0:0:
320,192,210805,1,0,0:0:0:0:
192,192,210865,1,0,0:0:0:0:
448,192,210926,1,0,0:0:0:0:
64,192,210986,1,0,0:0:0:0:
320,192,210986,1,0,0:0:0:0:
192,192,211047,1,0,0:0:0:0:
320,192,211108,1,0,0:0:0:0:
448,192,211108,1,0,0:0:0:0:
64,192,211168,1,0,0:0:0:0:
192,192,211229,1,0,0:0:0:0:
448,192,211229,1,0,0:0:0:0:
320,192,211289,1,0,0:0:0:0:
64,192,211350,1,0,0:0:0:0:
192,192,211350,1,0,0:0:0:0:
448,192,211350,1,0,0:0:0:0:
320,192,211411,1,0,0:0:0:0:
64,192,211471,1,0,0:0:0:0:
192,192,211532,1,0,0:0:0:0:
448,192,211592,1,0,0:0:0:0:
320,192,211653,1,0,0:0:0:0:
64,192,211714,1,0,0:0:0:0:
192,192,211714,1,0,0:0:0:0:
448,192,211774,1,0,0:0:0:0:
192,192,211835,1,0,0:0:0:0:
320,192,211835,1,0,0:0:0:0:
64,192,211895,1,0,0:0:0:0:
320,192,211956,1,0,0:0:0:0:
448,192,211956,1,0,0:0:0:0:
192,192,212017,1,0,0:0:0:0:
64,192,212077,1,0,0:0:0:0:
320,192,212077,1,0,0:0:0:0:
448,192,212077,1,0,0:0:0:0:
192,192,212138,1,0,0:0:0:0:
64,192,212199,1,0,0:0:0:0:
320,192,212259,1,0,0:0:0:0:
448,192,212320,1,0,0:0:0:0:
64,192,212380,1,0,0:0:0:0:
192,192,212441,1,0,0:0:0:0:
320,192,212441,1,0,0:0:0:0:
448,192,212441,1,0,0:0:0:0:
64,192,212562,1,0,0:0:0:0:
192,192,212562,1,0,0:0:0:0:
320,192,212562,1,0,0:0:0:0:
64,192,212683,1,0,0:0:0:0:
320,192,212683,1,0,0:0:0:0:
448,192,212683,1,0,0:0:0:0:
64,192,212805,1,0,0:0:0:0:
192,192,212805,1,0,0:0:0:0:
320,192,212865,1,0,0:0:0:0:
448,192,212926,1,0,0:0:0:0:
192,192,212986,1,0,0:0:0:0:
320,192,213047,1,0,0:0:0:0:
448,192,213108,1,0,0:0:0:0:
192,192,213168,1,0,0:0:0:0:
64,192,213229,1,0,0:0:0:0:
320,192,213289,1,0,0:0:0:0:
448,192,213289,1,0,0:0:0:0:
192,192,213350,1,0,0:0:0:0:
64,192,213411,1,0,0:0:0:0:
320,192,213411,1,0,0:0:0:0:
448,192,213471,1,0,0:0:0:0:
64,192,213532,1,0,0:0:0:0:
192,192,213532,1,0,0:0:0:0:
320,192,213592,1,0,0:0:0:0:
64,192,213653,1,0,0:0:0:0:
192,192,213653,1,0,0:0:0:0:
448,192,213653,1,0,0:0:0:0:
320,192,213714,1,0,0:0:0:0:
448,192,213774,1,0,0:0:0:0:
192,192,213835,1,0,0:0:0:0:
320,192,213895,1,0,0:0:0:0:
64,192,213956,1,0,0:0:0:0:
192,192,214017,1,0,0:0:0:0:
448,192,214017,1,0,0:0:0:0:
320,192,214077,1,0,0:0:0:0:
64,192,214138,1,0,0:0:0:0:
192,192,214199,1,0,0:0:0:0:
64,192,214259,1,0,0:0:0:0:
320,192,214259,1,0,0:0:0:0:
448,192,214259,1,0,0:0:0:0:
192,192,214320,1,0,0:0:0:0:
448,192,214380,1,0,0:0:0:0:
320,192,214441,1,0,0:0:0:0:
64,192,214502,1,0,0:0:0:0:
192,192,214502,1,0,0:0:0:0:
448,192,214562,1,0,0:0:0:0:
192,192,214623,1,0,0:0:0:0:
64,192,214683,1,0,0:0:0:0:
320,192,214744,1,0,0:0:0:0:
448,192,214744,1,0,0:0:0:0:
192,192,214805,1,0,0:0:0:0:
320,192,214865,1,0,0:0:0:0:
448,192,214865,1,0,0:0:0:0:
192,192,214926,1,0,0:0:0:0:
64,192,214986,1,0,0:0:0:0:
320,192,214986,1,0,0:0:0:0:
448,192,214986,1,0,0:0:0:0:
192,192,215047,1,0,0:0:0:0:
320,192,215108,1,0,0:0:0:0:
448,192,215168,1,0,0:0:0:0:
64,192,215229,1,0,0:0:0:0:
192,192,215229,1,0,0:0:0:0:
320,192,215229,1,0,0:0:0:0:
448,192,215289,1,0,0:0:0:0:
192,192,215350,1,0,0:0:0:0:
64,192,215411,1,0,0:0:0:0:
192,192,215471,1,0,0:0:0:0:
320,192,215471,1,0,0:0:0:0:
448,192,215471,1,0,0:0:0:0:
64,192,215532,1,0,0:0:0:0:
448,192,215592,1,0,0:0:0:0:
320,192,215653,1,0,0:0:0:0:
64,192,215714,1,0,0:0:0:0:
192,192,215714,1,0,0:0:0:0:
448,192,215714,1,0,0:0:0:0:
320,192,215774,1,0,0:0:0:0:
64,192,215835,1,0,0:0:0:0:
192,192,215895,1,0,0:0:0:0:
320,192,215956,1,0,0:0:0:0:
192,192,216017,1,0,0:0:0:0:
320,192,216077,1,0,0:0:0:0:
448,192,216077,1,0,0:0:0:0:
64,192,216138,1,0,0:0:0:0:
192,192,216199,1,0,0:0:0:0:
448,192,216199,1,0,0:0:0:0:
320,192,216259,1,0,0:0:0:0:
64,192,216320,1,0,0:0:0:0:
192,192,216320,1,0,0:0:0:0:
448,192,216380,1,0,0:0:0:0:
64,192,216441,1,0,0:0:0:0:
192,192,216441,1,0,0:0:0:0:
320,192,216441,1,0,0:0:0:0:
448,192,216502,1,0,0:0:0:0:
320,192,216562,1,0,0:0:0:0:
64,192,216623,1,0,0:0:0:0:
192,192,216683,1,0,0:0:0:0:
448,192,216744,1,0,0:0:0:0:
64,192,216805,1,0,0:0:0:0:
320,192,216805,1,0,0:0:0:0:
192,192,216865,1,0,0:0:0:0:
64,192,216926,1,0,0:0:0:0:
448,192,216926,1,0,0:0:0:0:
320,192,216986,1,0,0:0:0:0:
64,192,217047,1,0,0:0:0:0:
192,192,217047,1,0,0:0:0:0:
448,192,217108,1,0,0:0:0:0:
64,192,217168,1,0,0:0:0:0:
192,192,217168,1,0,0:0:0:0:
320,192,217168,1,0,0:0:0:0:
448,192,217229,1,0,0:0:0:0:
320,192,217289,1,0,0:0:0:0:
192,192,217350,1,0,0:0:0:0:
64,192,217411,1,0,0:0:0:0:
448,192,217411,1,0,0:0:0:0:
320,192,217471,1,0,0:0:0:0:
192,192,217532,1,0,0:0:0:0:
448,192,217532,1,0,0:0:0:0:
64,192,217592,1,0,0:0:0:0:
192,192,217653,1,0,0:0:0:0:
320,192,217653,1,0,0:0:0:0:
448,192,217714,1,0,0:0:0:0:
64,192,217774,1,0,0:0:0:0:
320,192,217774,1,0,0:0:0:0:
192,192,217835,1,0,0:0:0:0:
64,192,217895,1,0,0:0:0:0:
320,192,217895,1,0,0:0:0:0:
448,192,217895,1,0,0:0:0:0:
192,192,217956,1,0,0:0:0:0:
320,192,218017,1,0,0:0:0:0:
448,192,218077,1,0,0:0:0:0:
192,192,218138,1,0,0:0:0:0:
320,192,218199,1,0,0:0:0:0:
64,192,218259,1,0,0:0:0:0:
192,192,218259,1,0,0:0:0:0:
448,192,218259,1,0,0:0:0:0:
320,192,218320,1,0,0:0:0:0:
192,192,218380,1,0,0:0:0:0:
64,192,218441,1,0,0:0:0:0:
448,192,218502,1,0,0:0:0:0:
320,192,218562,1,0,0:0:0:0:
64,192,218623,1,0,0:0:0:0:
192,192,218623,1,0,0:0:0:0:
448,192,218623,1,0,0:0:0:0:
320,192,218683,1,0,0:0:0:0:
192,192,218744,1,0,0:0:0:0:
448,192,218805,1,0,0:0:0:0:
64,192,218865,1,0,0:0:0:0:
192,192,218926,1,0,0:0:0:0:
64,192,218986,1,0,0:0:0:0:
448,192,218986,1,0,0:0:0:0:
192,192,219047,1,0,0:0:0:0:
320,192,219108,1,0,0:0:0:0:
448,192,219108,1,0,0:0:0:0:
64,192,219168,1,0,0:0:0:0:
192,192,219229,1,0,0:0:0:0:
320,192,219229,1,0,0:0:0:0:
448,192,219289,1,0,0:0:0:0:
64,192,219350,1,0,0:0:0:0:
192,192,219350,1,0,0:0:0:0:
320,192,219350,1,0,0:0:0:0:
448,192,219411,1,0,0:0:0:0:
320,192,219471,1,0,0:0:0:0:
64,192,219532,1,0,0:0:0:0:
192,192,219592,1,0,0:0:0:0:
320,192,219592,1,0,0:0:0:0:
448,192,219592,1,0,0:0:0:0:
64,192,219653,1,0,0:0:0:0:
192,192,219714,1,0,0:0:0:0:
320,192,219774,1,0,0:0:0:0:
64,192,219835,1,0,0:0:0:0:
192,192,219835,1,0,0:0:0:0:
448,192,219835,1,0,0:0:0:0:
320,192,219895,1,0,0:0:0:0:
64,192,219956,1,0,0:0:0:0:
448,192,219956,1,0,0:0:0:0:
192,192,220017,1,0,0:0:0:0:
64,192,220077,1,0,0:0:0:0:
320,192,220077,1,0,0:0:0:0:
448,192,220077,1,0,0:0:0:0:
192,192,220138,1,0,0:0:0:0:
448,192,220199,1,0,0:0:0:0:
320,192,220259,1,0,0:0:0:0:
192,192,220320,1,0,0:0:0:0:
64,192,220380,1,0,0:0:0:0:
320,192,220441,1,0,0:0:0:0:
448,192,220502,1,0,0:0:0:0:
64,192,220562,1,0,0:0:0:0:
192,192,220562,1,0,0:0:0:0:
320,192,220623,1,0,0:0:0:0:
64,192,220683,1,0,0:0:0:0:
192,192,220683,1,0,0:0:0:0:
320,192,220744,1,0,0:0:0:0:
64,192,220805,1,0,0:0:0:0:
192,192,220805,1,0,0:0:0:0:
448,192,220805,1,0,0:0:0:0:
320,192,220865,1,0,0:0:0:0:
448,192,220926,1,0,0:0:0:0:
192,192,220986,1,0,0:0:0:0:
64,192,221047,1,0,0:0:0:0:
320,192,221047,1,0,0:0:0:0:
448,192,221047,1,0,0:0:0:0:
192,192,221108,1,0,0:0:0:0:
64,192,221168,1,0,0:0:0:0:
448,192,221229,1,0,0:0:0:0:
64,192,221289,1,0,0:0:0:0:
192,192,221289,1,0,0:0:0:0:
320,192,221289,1,0,0:0:0:0:
448,192,221350,1,0,0:0:0:0:
320,192,221411,1,0,0:0:0:0:
64,192,221471,1,0,0:0:0:0:
192,192,221532,1,0,0:0:0:0:
320,192,221532,1,0,0:0:0:0:
448,192,221532,1,0,0:0:0:0:
64,192,221592,1,0,0:0:0:0:
192,192,221653,1,0,0:0:0:0:
448,192,221714,1,0,0:0:0:0:
320,192,221774,1,0,0:0:0:0:
192,192,221835,1,0,0:0:0:0:
320,192,221895,1,0,0:0:0:0:
448,192,221895,1,0,0:0:0:0:
64,192,221956,1,0,0:0:0:0:
192,192,222017,1,0,0:0:0:0:
448,192,222017,1,0,0:0:0:0:
320,192,222077,1,0,0:0:0:0:
64,192,222138,1,0,0:0:0:0:
192,192,222138,1,0,0:0:0:0:
448,192,222199,1,0,0:0:0:0:
64,192,222259,1,0,0:0:0:0:
192,192,222259,1,0,0:0:0:0:
320,192,222259,1,0,0:0:0:0:
448,192,222320,1,0,0:0:0:0:
320,192,222380,1,0,0:0:0:0:
64,192,222441,1,0,0:0:0:0:
192,192,222502,1,0,0:0:0:0:
448,192,222562,1,0,0:0:0:0:
64,192,222623,1,0,0:0:0:0:
320,192,222623,1,0,0:0:0:0:
192,192,222683,1,0,0:0:0:0:
320,192,222744,1,0,0:0:0:0:
448,192,222744,1,0,0:0:0:0:
64,192,222805,1,0,0:0:0:0:
192,192,222865,1,0,0:0:0:0:
448,192,222865,1,0,0:0:0:0:
320,192,222926,1,0,0:0:0:0:
64,192,222986,1,0,0:0:0:0:
192,192,222986,1,0,0:0:0:0:
448,192,222986,1,0,0:0:0:0:
320,192,223047,1,0,0:0:0:0:
64,192,223108,1,0,0:0:0:0:
448,192,223168,1,0,0:0:0:0:
320,192,223229,1,0,0:0:0:0:
192,192,223289,1,0,0:0:0:0:
64,192,223350,1,0,0:0:0:0:
448,192,223350,1,0,0:0:0:0:
320,192,223411,1,0,0:0:0:0:
64,192,223471,1,0,0:0:0:0:
192,192,223471,1,0,0:0:0:0:
448,192,223532,1,0,0:0:0:0:
192,192,223592,1,0,0:0:0:0:
320,192,223592,1,0,0:0:0:0:
64,192,223653,1,0,0:0:0:0:
192,192,223714,1,0,0:0:0:0:
320,192,223714,1,0,0:0:0:0:
448,192,223714,1,0,0:0:0:0:
64,192,223774,1,0,0:0:0:0:
448,192,223835,1,0,0:0:0:0:
192,192,223895,1,0,0:0:0:0:
320,192,223956,1,0,0:0:0:0:
448,192,224017,1,0,0:0:0:0:
64,192,224077,1,0,0:0:0:0:
192,192,224077,1,0,0:0:0:0:
320,192,224138,1,0,0:0:0:0:
64,192,224199,1,0,0:0:0:0:
448,192,224199,1,0,0:0:0:0:
192,192,224259,1,0,0:0:0:0:
320,192,224320,1,0,0:0:0:0:
448,192,224320,1,0,0:0:0:0:
64,192,224380,1,0,0:0:0:0:
192,192,224441,1,0,0:0:0:0:
320,192,224441,1,0,0:0:0:0:
448,192,224441,1,0,0:0:0:0:
64,192,224502,1,0,0:0:0:0:
192,192,224562,1,0,0:0:0:0:
448,192,224623,1,0,0:0:0:0:
64,192,224683,1,0,0:0:0:0:
320,192,224683,1,0,0:0:0:0:
192,192,224744,1,0,0:0:0:0:
448,192,224805,1,0,0:0:0:0:
64,192,224865,1,0,0:0:0:0:
192,192,224926,1,0,0:0:0:0:
320,192,224926,1,0,0:0:0:0:
448,192,224986,1,0,0:0:0:0:
64,192,225047,1,0,0:0:0:0:
192,192,225108,1,0,0:0:0:0:
64,192,225168,1,0,0:0:0:0:
320,192,225168,1,0,0:0:0:0:
448,192,225168,1,0,0:0:0:0:
64,192,225289,1,0,0:0:0:0:
320,192,225289,1,0,0:0:0:0:
448,192,225289,1,0,0:0:0:0:
64,192,225411,1,0,0:0:0:0:
192,192,225411,1,0,0:0:0:0:
448,192,225411,1,0,0:0:0:0:
64,192,225532,1,0,0:0:0:0:
192,192,225532,1,0,0:0:0:0:
448,192,225532,1,0,0:0:0:0:
320,192,225653,1,0,0:0:0:0:
448,192,225653,1,0,0:0:0:0:
64,192,225714,1,0,0:0:0:0:
192,192,225714,1,0,0:0:0:0:
320,192,225774,1,0,0:0:0:0:
448,192,225774,1,0,0:0:0:0:
64,192,225835,1,0,0:0:0:0:
192,192,225835,1,0,0:0:0:0:
320,192,225895,1,0,0:0:0:0:
448,192,225895,1,0,0:0:0:0:
64,192,225956,1,0,0:0:0:0:
192,192,226017,1,0,0:0:0:0:
448,192,226077,1,0,0:0:0:0:
64,192,226138,1,0,0:0:0:0:
192,192,226199,1,0,0:0:0:0:
320,192,226259,1,0,0:0:0:0:
448,192,226259,1,0,0:0:0:0:
64,192,226320,1,0,0:0:0:0:
192,192,226380,1,0,0:0:0:0:
320,192,226441,1,0,0:0:0:0:
192,192,226502,1,0,0:0:0:0:
320,192,226562,1,0,0:0:0:0:
64,192,226623,1,0,0:0:0:0:
448,192,226623,1,0,0:0:0:0:
192,192,226683,1,0,0:0:0:0:
320,192,226744,1,0,0:0:0:0:
192,192,226805,1,0,0:0:0:0:
64,192,226865,1,0,0:0:0:0:
192,192,226926,1,0,0:0:0:0:
320,192,226986,1,0,0:0:0:0:
448,192,226986,1,0,0:0:0:0:
64,192,227047,1,0,0:0:0:0:
320,192,227108,1,0,0:0:0:0:
448,192,227108,1,0,0:0:0:0:
192,192,227168,1,0,0:0:0:0:
320,192,227229,1,0,0:0:0:0:
448,192,227229,1,0,0:0:0:0:
64,192,227289,1,0,0:0:0:0:
192,192,227350,128,0,227411:0:0:0:0:
448,192,227350,1,0,0:0:0:0:
320,192,227471,1,0,0:0:0:0:
192,192,227592,1,0,0:0:0:0:
320,192,227714,1,0,0:0:0:0:
448,192,227714,128,0,227774:0:0:0:0:
64,192,227835,128,0,227895:0:0:0:0:
192,192,227835,1,0,0:0:0:0:
192,192,227956,1,0,0:0:0:0:
448,192,227956,128,0,228017:0:0:0:0:
64,192,228077,1,0,0:0:0:0:
320,192,228077,128,0,228138:0:0:0:0:
192,192,228199,1,0,0:0:0:0:
448,192,228320,1,0,0:0:0:0:
64,192,228441,1,0,0:0:0:0:
320,192,228441,128,0,228502:0:0:0:0:
192,192,228562,128,0,228623:0:0:0:0:
448,192,228562,1,0,0:0:0:0:
320,192,228683,128,0,228744:0:0:0:0:
448,192,228683,1,0,0:0:0:0:
64,192,228805,128,0,228865:0:0:0:0:
192,192,228805,1,0,0:0:0:0:
320,192,228805,1,0,0:0:0:0:
448,192,228926,1,0,0:0:0:0:
320,192,229047,1,0,0:0:0:0:
64,192,229168,1,0,0:0:0:0:
192,192,229168,128,0,229229:0:0:0:0:
320,192,229289,1,0,0:0:0:0:
448,192,229289,128,0,229350:0:0:0:0:
192,192,229411,128,0,229471:0:0:0:0:
320,192,229411,1,0,0:0:0:0:
64,192,229532,128,0,229895:0:0:0:0:
448,192,229532,1,0,0:0:0:0:
320,192,229653,1,0,0:0:0:0:
192,192,229774,1,0,0:0:0:0:
320,192,229895,1,0,0:0:0:0:
448,192,229895,128,0,230138:0:0:0:0:
64,192,230017,1,0,0:0:0:0:
320,192,230138,1,0,0:0:0:0:
192,192,230199,1,0,0:0:0:0:
64,192,230259,1,0,0:0:0:0:
320,192,230305,1,0,0:0:0:0:
192,192,230340,1,0,0:0:0:0:
448,192,230380,1,0,0:0:0:0:
64,192,230426,1,0,0:0:0:0:
320,192,230461,1,0,0:0:0:0:
192,192,230502,1,0,0:0:0:0:
448,192,230562,1,0,0:0:0:0:
64,192,230623,1,0,0:0:0:0:
192,192,230623,128,0,230683:0:0:0:0:
64,192,230744,1,0,0:0:0:0:
448,192,230744,128,0,230805:0:0:0:0:
64,192,230865,1,0,0:0:0:0:
192,192,230865,128,0,230926:0:0:0:0:
320,192,230986,128,0,231047:0:0:0:0:
448,192,230986,1,0,0:0:0:0:
192,192,231108,1,0,0:0:0:0:
448,192,231229,1,0,0:0:0:0:
192,192,231350,128,0,231411:0:0:0:0:
320,192,231350,1,0,0:0:0:0:
64,192,231471,128,0,231532:0:0:0:0:
320,192,231471,1,0,0:0:0:0:
192,192,231592,128,0,231653:0:0:0:0:
320,192,231592,1,0,0:0:0:0:
64,192,231714,1,0,0:0:0:0:
192,192,231714,1,0,0:0:0:0:
448,192,231714,128,0,231774:0:0:0:0:
320,192,231835,1,0,0:0:0:0:
64,192,231956,1,0,0:0:0:0:
192,192,232077,1,0,0:0:0:0:
448,192,232077,128,0,232138:0:0:0:0:
192,192,232199,1,0,0:0:0:0:
320,192,232199,128,0,232259:0:0:0:0:
192,192,232320,1,0,0:0:0:0:
448,192,232320,128,0,232380:0:0:0:0:
64,192,232441,128,0,232502:0:0:0:0:
320,192,232441,1,0,0:0:0:0:
448,192,232441,1,0,0:0:0:0:
320,192,232562,1,0,0:0:0:0:
64,192,232683,1,0,0:0:0:0:
192,192,232683,1,0,0:0:0:0:
448,192,232683,128,0,232744:0:0:0:0:
192,192,232805,1,0,0:0:0:0:
320,192,232926,1,0,0:0:0:0:
448,192,233047,1,0,0:0:0:0:
64,192,233168,1,0,0:0:0:0:
320,192,233168,1,0,0:0:0:0:
192,192,233229,1,0,0:0:0:0:
448,192,233289,1,0,0:0:0:0:
64,192,233350,1,0,0:0:0:0:
192,192,233411,1,0,0:0:0:0:
448,192,233441,1,0,0:0:0:0:
64,192,233532,1,0,0:0:0:0:
192,192,233592,1,0,0:0:0:0:
448,192,233623,1,0,0:0:0:0:
64,192,233693,1,0,0:0:0:0:
320,192,233734,1,0,0:0:0:0:
192,192,233774,1,0,0:0:0:0:
320,192,233835,1,0,0:0:0:0:
448,192,233895,1,0,0:0:0:0:
64,192,233936,1,0,0:0:0:0:
320,192,233976,1,0,0:0:0:0:
192,192,234017,1,0,0:0:0:0:
64,192,234077,1,0,0:0:0:0:
320,192,234138,1,0,0:0:0:0:
448,192,234138,1,0,0:0:0:0:
192,192,234219,1,0,0:0:0:0:
320,192,234259,1,0,0:0:0:0:
448,192,234300,1,0,0:0:0:0:
64,192,234380,1,0,0:0:0:0:
192,192,234380,1,0,0:0:0:0:
320,192,234461,1,0,0:0:0:0:
192,192,234502,1,0,0:0:0:0:
64,192,234542,1,0,0:0:0:0:
192,192,234623,1,0,0:0:0:0:
320,192,234623,1,0,0:0:0:0:
448,192,234623,1,0,0:0:0:0:
64,192,234704,1,0,0:0:0:0:
320,192,234744,1,0,0:0:0:0:
192,192,234784,1,0,0:0:0:0:
448,192,234865,1,0,0:0:0:0:
320,192,234895,1,0,0:0:0:0:
192,192,234986,1,0,0:0:0:0:
448,192,235108,1,0,0:0:0:0:
320,192,235138,1,0,0:0:0:0:
192,192,235229,1,0,0:0:0:0:
64,192,235350,1,0,0:0:0:0:
448,192,235350,1,0,0:0:0:0:
320,192,235471,1,0,0:0:0:0:
192,192,235592,1,0,0:0:0:0:
448,192,235592,1,0,0:0:0:0:
64,192,235623,1,0,0:0:0:0:
320,192,235714,1,0,0:0:0:0:
64,192,235835,1,0,0:0:0:0:
192,192,235956,1,0,0:0:0:0:
64,192,236077,1,0,0:0:0:0:
320,192,236077,128,0,236138:0:0:0:0:
64,192,236199,1,0,0:0:0:0:
320,192,236199,1,0,0:0:0:0:
192,192,236320,128,0,236380:0:0:0:0:
448,192,236320,1,0,0:0:0:0:
192,192,236441,1,0,0:0:0:0:
320,192,236441,1,0,0:0:0:0:
64,192,236562,1,0,0:0:0:0:
320,192,236562,1,0,0:0:0:0:
64,192,236683,1,0,0:0:0:0:
448,192,236683,1,0,0:0:0:0:
192,192,236805,1,0,0:0:0:0:
320,192,236805,1,0,0:0:0:0:
448,192,236805,1,0,0:0:0:0:
64,192,236926,1,0,0:0:0:0:
320,192,236926,1,0,0:0:0:0:
64,192,237047,1,0,0:0:0:0:
192,192,237047,1,0,0:0:0:0:
320,192,237168,1,0,0:0:0:0:
448,192,237168,1,0,0:0:0:0:
192,192,237229,1,0,0:0:0:0:
64,192,237289,1,0,0:0:0:0:
448,192,237289,1,0,0:0:0:0:
320,192,237350,1,0,0:0:0:0:
192,192,237411,1,0,0:0:0:0:
320,192,237471,1,0,0:0:0:0:
192,192,237532,1,0,0:0:0:0:
448,192,237532,1,0,0:0:0:0:
64,192,237572,1,0,0:0:0:0:
320,192,237613,1,0,0:0:0:0:
192,192,237653,1,0,0:0:0:0:
448,192,237693,1,0,0:0:0:0:
320,192,237774,1,0,0:0:0:0:
64,192,237835,1,0,0:0:0:0:
448,192,237895,1,0,0:0:0:0:
192,192,237956,1,0,0:0:0:0:
320,192,238017,1,0,0:0:0:0:
64,192,238077,1,0,0:0:0:0:
192,192,238138,1,0,0:0:0:0:
448,192,238199,1,0,0:0:0:0:
192,192,238259,1,0,0:0:0:0:
320,192,238259,1,0,0:0:0:0:
64,192,238320,1,0,0:0:0:0:
320,192,238380,1,0,0:0:0:0:
192,192,238441,1,0,0:0:0:0:
448,192,238502,1,0,0:0:0:0:
192,192,238562,1,0,0:0:0:0:
320,192,238623,1,0,0:0:0:0:
64,192,238683,1,0,0:0:0:0:
192,192,238744,1,0,0:0:0:0:
448,192,238805,1,0,0:0:0:0:
192,192,238865,1,0,0:0:0:0:
320,192,238926,1,0,0:0:0:0:
64,192,238986,1,0,0:0:0:0:
192,192,238986,1,0,0:0:0:0:
320,192,239108,1,0,0:0:0:0:
448,192,239108,1,0,0:0:0:0:
64,192,239229,1,0,0:0:0:0:
448,192,239229,1,0,0:0:0:0:
192,192,239350,1,0,0:0:0:0:
320,192,239350,1,0,0:0:0:0:
64,192,239471,1,0,0:0:0:0:
320,192,239471,1,0,0:0:0:0:
192,192,239592,1,0,0:0:0:0:
320,192,239592,1,0,0:0:0:0:
64,192,239714,1,0,0:0:0:0:
320,192,239714,1,0,0:0:0:0:
448,192,239714,1,0,0:0:0:0:
192,192,239835,1,0,0:0:0:0:
448,192,239835,1,0,0:0:0:0:
64,192,239956,1,0,0:0:0:0:
320,192,239956,1,0,0:0:0:0:
192,192,240077,1,0,0:0:0:0:
320,192,240077,1,0,0:0:0:0:
192,192,240199,1,0,0:0:0:0:
448,192,240199,1,0,0:0:0:0:
192,192,240320,1,0,0:0:0:0:
320,192,240320,1,0,0:0:0:0:
64,192,240441,1,0,0:0:0:0:
320,192,240441,1,0,0:0:0:0:
448,192,240441,1,0,0:0:0:0:
192,192,240562,1,0,0:0:0:0:
64,192,240683,1,0,0:0:0:0:
448,192,240683,1,0,0:0:0:0:
192,192,240805,1,0,0:0:0:0:
320,192,240805,1,0,0:0:0:0:
64,192,240926,1,0,0:0:0:0:
320,192,240926,1,0,0:0:0:0:
192,192,241047,1,0,0:0:0:0:
320,192,241047,1,0,0:0:0:0:
64,192,241168,1,0,0:0:0:0:
192,192,241168,1,0,0:0:0:0:
448,192,241168,1,0,0:0:0:0:
320,192,241289,1,0,0:0:0:0:
448,192,241289,1,0,0:0:0:0:
64,192,241411,1,0,0:0:0:0:
192,192,241411,1,0,0:0:0:0:
192,192,241532,1,0,0:0:0:0:
320,192,241532,1,0,0:0:0:0:
448,192,241532,1,0,0:0:0:0:
64,192,241653,1,0,0:0:0:0:
320,192,241653,1,0,0:0:0:0:
192,192,241774,1,0,0:0:0:0:
448,192,241774,1,0,0:0:0:0:
64,192,241895,1,0,0:0:0:0:
320,192,241895,128,0,241956:0:0:0:0:
448,192,241895,1,0,0:0:0:0:
192,192,242017,1,0,0:0:0:0:
448,192,242138,1,0,0:0:0:0:
192,192,242259,1,0,0:0:0:0:
320,192,242289,1,0,0:0:0:0:
64,192,242380,1,0,0:0:0:0:
192,192,242502,1,0,0:0:0:0:
320,192,242532,1,0,0:0:0:0:
448,192,242623,1,0,0:0:0:0:
320,192,242744,1,0,0:0:0:0:
192,192,242865,1,0,0:0:0:0:
448,192,242986,1,0,0:0:0:0:
64,192,243017,1,0,0:0:0:0:
192,192,243108,1,0,0:0:0:0:
448,192,243229,1,0,0:0:0:0:
64,192,243259,1,0,0:0:0:0:
192,192,243350,1,0,0:0:0:0:
320,192,243350,1,0,0:0:0:0:
448,192,243350,1,0,0:0:0:0:
64,192,243471,1,0,0:0:0:0:
448,192,243592,1,0,0:0:0:0:
64,192,243714,1,0,0:0:0:0:
320,192,243744,1,0,0:0:0:0:
64,192,243835,1,0,0:0:0:0:
320,192,243865,1,0,0:0:0:0:
192,192,243956,1,0,0:0:0:0:
448,192,243956,1,0,0:0:0:0:
192,192,244077,1,0,0:0:0:0:
320,192,244077,1,0,0:0:0:0:
448,192,244077,1,0,0:0:0:0:
320,192,244199,1,0,0:0:0:0:
448,192,244320,1,0,0:0:0:0:
64,192,244441,1,0,0:0:0:0:
192,192,244441,1,0,0:0:0:0:
320,192,244441,1,0,0:0:0:0:
192,192,244562,1,0,0:0:0:0:
64,192,244683,1,0,0:0:0:0:
448,192,244683,1,0,0:0:0:0:
320,192,244714,1,0,0:0:0:0:
192,192,244805,1,0,0:0:0:0:
320,192,244926,1,0,0:0:0:0:
64,192,245047,1,0,0:0:0:0:
448,192,245168,1,0,0:0:0:0:
320,192,245289,1,0,0:0:0:0:
192,192,245350,1,0,0:0:0:0:
64,192,245411,1,0,0:0:0:0:
448,192,245471,1,0,0:0:0:0:
192,192,245532,1,0,0:0:0:0:
320,192,245592,1,0,0:0:0:0:
448,192,245653,1,0,0:0:0:0:
192,192,245714,1,0,0:0:0:0:
320,192,245774,1,0,0:0:0:0:
64,192,245835,1,0,0:0:0:0:
448,192,245895,1,0,0:0:0:0:
320,192,245956,1,0,0:0:0:0:
192,192,246017,1,0,0:0:0:0:
448,192,246077,1,0,0:0:0:0:
320,192,246138,1,0,0:0:0:0:
64,192,246199,1,0,0:0:0:0:
192,192,246259,1,0,0:0:0:0:
320,192,246259,1,0,0:0:0:0:
448,192,246259,1,0,0:0:0:0:
192,192,246380,1,0,0:0:0:0:
320,192,246502,1,0,0:0:0:0:
64,192,246623,1,0,0:0:0:0:
320,192,246623,1,0,0:0:0:0:
192,192,246663,1,0,0:0:0:0:
448,192,246714,1,0,0:0:0:0:
320,192,246759,1,0,0:0:0:0:
64,192,246805,1,0,0:0:0:0:
448,192,246865,1,0,0:0:0:0:
192,192,246926,1,0,0:0:0:0:
320,192,246986,1,0,0:0:0:0:
64,192,247067,1,0,0:0:0:0:
448,192,247148,1,0,0:0:0:0:
192,192,247229,1,0,0:0:0:0:
320,192,247310,1,0,0:0:0:0:
64,192,247390,1,0,0:0:0:0:
192,192,247471,1,0,0:0:0:0:
448,192,247552,1,0,0:0:0:0:
320,192,247633,1,0,0:0:0:0:
64,192,247714,1,0,0:0:0:0:
192,192,247714,1,0,0:0:0:0:
448,192,247714,1,0,0:0:0:0:
320,192,247774,1,0,0:0:0:0:
192,192,247835,1,0,0:0:0:0:
448,192,247895,1,0,0:0:0:0:
320,192,247956,1,0,0:0:0:0:
64,192,247996,1,0,0:0:0:0:
192,192,248037,1,0,0:0:0:0:
448,192,248077,1,0,0:0:0:0:
320,192,248118,1,0,0:0:0:0:
64,192,248199,1,0,0:0:0:0:
192,192,248259,1,0,0:0:0:0:
448,192,248320,1,0,0:0:0:0:
64,192,248380,1,0,0:0:0:0:
320,192,248441,1,0,0:0:0:0:
448,192,248441,1,0,0:0:0:0:
192,192,248481,1,0,0:0:0:0:
64,192,248522,1,0,0:0:0:0:
320,192,248562,1,0,0:0:0:0:
448,192,248603,1,0,0:0:0:0:
192,192,248683,1,0,0:0:0:0:
320,192,248744,1,0,0:0:0:0:
192,192,248805,1,0,0:0:0:0:
64,192,248865,1,0,0:0:0:0:
320,192,248926,1,0,0:0:0:0:
448,192,248966,1,0,0:0:0:0:
192,192,249007,1,0,0:0:0:0:
320,192,249047,1,0,0:0:0:0:
64,192,249087,1,0,0:0:0:0:
448,192,249128,1,0,0:0:0:0:
192,192,249168,1,0,0:0:0:0:
320,192,249229,1,0,0:0:0:0:
64,192,249289,1,0,0:0:0:0:
192,192,249350,1,0,0:0:0:0:
320,192,249411,1,0,0:0:0:0:
448,192,249411,1,0,0:0:0:0:
64,192,249451,1,0,0:0:0:0:
192,192,249491,1,0,0:0:0:0:
448,192,249532,1,0,0:0:0:0:
64,192,249572,1,0,0:0:0:0:
320,192,249613,1,0,0:0:0:0:
192,192,249653,1,0,0:0:0:0:
448,192,249699,1,0,0:0:0:0:
320,192,249744,1,0,0:0:0:0:
64,192,249774,1,0,0:0:0:0:
192,192,249835,1,0,0:0:0:0:
320,192,249895,1,0,0:0:0:0:
64,192,249941,1,0,0:0:0:0:
448,192,249996,1,0,0:0:0:0:
320,192,250037,1,0,0:0:0:0:
192,192,250092,1,0,0:0:0:0:
64,192,250138,1,0,0:0:0:0:
448,192,250138,1,0,0:0:0:0:
320,192,250178,1,0,0:0:0:0:
192,192,250219,1,0,0:0:0:0:
448,192,250259,1,0,0:0:0:0:
64,192,250300,1,0,0:0:0:0:
320,192,250340,1,0,0:0:0:0:
192,192,250380,1,0,0:0:0:0:
448,192,250421,1,0,0:0:0:0:
64,192,250461,1,0,0:0:0:0:
320,192,250502,128,0,250562:0:0:0:0:
192,192,250623,1,0,0:0:0:0:
192,192,250865,1,0,0:0:0:0:
320,192,250986,1,0,0:0:0:0:
192,192,251108,1,0,0:0:0:0:
320,192,251229,1,0,0:0:0:0:
64,192,251350,1,0,0:0:0:0:
448,192,251350,1,0,0:0:0:0:
320,192,251592,1,0,0:0:0:0:
192,192,251714,1,0,0:0:0:0:
320,192,251835,1,0,0:0:0:0:
192,192,251956,1,0,0:0:0:0:
64,192,252077,1,0,0:0:0:0:
448,192,252077,1,0,0:0:0:0:
320,192,252320,1,0,0:0:0:0:
64,192,252562,1,0,0:0:0:0:
192,192,252805,1,0,0:0:0:0:
448,192,252805,1,0,0:0:0:0:
320,192,253047,1,0,0:0:0:0:
192,192,253168,1,0,0:0:0:0:
320,192,253289,1,0,0:0:0:0:
192,192,253411,1,0,0:0:0:0:
64,192,253532,1,0,0:0:0:0:
448,192,253532,1,0,0:0:0:0:
192,192,253774,1,0,0:0:0:0:
320,192,253774,128,0,253835:0:0:0:0:
64,192,254017,1,0,0:0:0:0:
192,192,254138,1,0,0:0:0:0:
320,192,254259,1,0,0:0:0:0:
448,192,254259,1,0,0:0:0:0:
64,192,254502,1,0,0:0:0:0:
320,192,254623,1,0,0:0:0:0:
64,192,254744,1,0,0:0:0:0:
320,192,254865,1,0,0:0:0:0:
192,192,254986,1,0,0:0:0:0:
448,192,254986,1,0,0:0:0:0:
320,192,255229,1,0,0:0:0:0:
192,192,255350,1,0,0:0:0:0:
64,192,255471,1,0,0:0:0:0:
192,192,255592,1,0,0:0:0:0:
320,192,255714,1,0,0:0:0:0:
448,192,255714,1,0,0:0:0:0:
64,192,255956,1,0,0:0:0:0:
320,192,255956,1,0,0:0:0:0:
192,192,256077,1,0,0:0:0:0:
64,192,256199,1,0,0:0:0:0:
448,192,256199,1,0,0:0:0:0:
320,192,256320,1,0,0:0:0:0:
192,192,256380,1,0,0:0:0:0:
320,192,256441,1,0,0:0:0:0:
448,192,256441,128,0,256502:0:0:0:0:
192,192,256683,1,0,0:0:0:0:
320,192,256805,1,0,0:0:0:0:
64,192,256926,1,0,0:0:0:0:
320,192,257047,1,0,0:0:0:0:
192,192,257168,1,0,0:0:0:0:
448,192,257168,1,0,0:0:0:0:
192,192,257411,1,0,0:0:0:0:
320,192,257411,1,0,0:0:0:0:
448,192,257532,1,0,0:0:0:0:
320,192,257653,1,0,0:0:0:0:
64,192,257774,1,0,0:0:0:0:
192,192,257895,1,0,0:0:0:0:
448,192,257895,1,0,0:0:0:0:
320,192,258138,1,0,0:0:0:0:
64,192,258259,1,0,0:0:0:0:
192,192,258380,1,0,0:0:0:0:
320,192,258502,1,0,0:0:0:0:
64,192,258623,1,0,0:0:0:0:
192,192,258623,1,0,0:0:0:0:
192,192,258865,1,0,0:0:0:0:
448,192,258865,1,0,0:0:0:0:
64,192,258986,1,0,0:0:0:0:
320,192,259108,1,0,0:0:0:0:
448,192,259108,1,0,0:0:0:0:
192,192,259289,1,0,0:0:0:0:
64,192,259350,128,0,259411:0:0:0:0:
448,192,259350,1,0,0:0:0:0:
320,192,259592,1,0,0:0:0:0:
64,192,259835,1,0,0:0:0:0:
448,192,259956,1,0,0:0:0:0:
192,192,260077,1,0,0:0:0:0:
320,192,260077,1,0,0:0:0:0:
64,192,260320,1,0,0:0:0:0:
448,192,260441,1,0,0:0:0:0:
192,192,260562,1,0,0:0:0:0:
448,192,260683,1,0,0:0:0:0:
320,192,260805,1,0,0:0:0:0:
448,192,260926,1,0,0:0:0:0:
64,192,261047,128,0,261168:0:0:0:0:
192,192,261047,128,0,261168:0:0:0:0:
320,192,261289,1,0,0:0:0:0:
320,192,261411,1,0,0:0:0:0:
64,192,261532,128,0,261592:0:0:0:0:
192,192,261532,128,0,261592:0:0:0:0:
64,192,261653,128,0,261774:0:0:0:0:
192,192,261653,128,0,261774:0:0:0:0:
64,192,262259,1,0,0:0:0:0:
192,192,262259,1,0,0:0:0:0:
320,192,262259,1,0,0:0:0:0:
448,192,262259,1,0,0:0:0:0:
64,192,262380,1,0,0:0:0:0:
320,192,262380,1,0,0:0:0:0:
192,192,262502,1,0,0:0:0:0:
448,192,262502,1,0,0:0:0:0:
320,192,262623,1,0,0:0:0:0:
448,192,262623,1,0,0:0:0:0:
64,192,262744,1,0,0:0:0:0:
192,192,262744,1,0,0:0:0:0:
192,192,262865,1,0,0:0:0:0:
320,192,262865,1,0,0:0:0:0:
64,192,262986,1,0,0:0:0:0:
320,192,262986,1,0,0:0:0:0:
448,192,262986,1,0,0:0:0:0:
320,192,263108,1,0,0:0:0:0:
448,192,263108,1,0,0:0:0:0:
320,192,263229,1,0,0:0:0:0:
448,192,263229,1,0,0:0:0:0:
64,192,263350,1,0,0:0:0:0:
192,192,263350,1,0,0:0:0:0:
64,192,263471,1,0,0:0:0:0:
448,192,263471,1,0,0:0:0:0:
192,192,263592,1,0,0:0:0:0:
448,192,263592,1,0,0:0:0:0:
64,192,263714,1,0,0:0:0:0:
192,192,263714,1,0,0:0:0:0:
320,192,263714,1,0,0:0:0:0:
64,192,263835,1,0,0:0:0:0:
448,192,263835,1,0,0:0:0:0:
192,192,263956,1,0,0:0:0:0:
320,192,263956,1,0,0:0:0:0:
192,192,264077,1,0,0:0:0:0:
448,192,264077,1,0,0:0:0:0:
64,192,264199,1,0,0:0:0:0:
320,192,264199,1,0,0:0:0:0:
64,192,264320,1,0,0:0:0:0:
192,192,264320,1,0,0:0:0:0:
192,192,264441,1,0,0:0:0:0:
320,192,264441,1,0,0:0:0:0:
448,192,264441,1,0,0:0:0:0:
64,192,264562,1,0,0:0:0:0:
320,192,264562,1,0,0:0:0:0:
192,192,264683,1,0,0:0:0:0:
448,192,264683,1,0,0:0:0:0:
64,192,264805,1,0,0:0:0:0:
192,192,264805,1,0,0:0:0:0:
320,192,264926,1,0,0:0:0:0:
448,192,264926,1,0,0:0:0:0:
64,192,265047,1,0,0:0:0:0:
448,192,265047,1,0,0:0:0:0:
64,192,265168,1,0,0:0:0:0:
192,192,265168,1,0,0:0:0:0:
320,192,265168,1,0,0:0:0:0:
192,192,265289,1,0,0:0:0:0:
448,192,265289,1,0,0:0:0:0:
64,192,265411,1,0,0:0:0:0:
320,192,265411,1,0,0:0:0:0:
448,192,265411,1,0,0:0:0:0:
64,192,265532,1,0,0:0:0:0:
192,192,265532,1,0,0:0:0:0:
192,192,265653,1,0,0:0:0:0:
320,192,265653,1,0,0:0:0:0:
448,192,265653,1,0,0:0:0:0:
64,192,265774,1,0,0:0:0:0:
448,192,265774,1,0,0:0:0:0:
64,192,265895,1,0,0:0:0:0:
192,192,265895,1,0,0:0:0:0:
320,192,265895,1,0,0:0:0:0:
192,192,266017,1,0,0:0:0:0:
448,192,266017,1,0,0:0:0:0:
64,192,266138,1,0,0:0:0:0:
320,192,266138,1,0,0:0:0:0:
64,192,266259,1,0,0:0:0:0:
192,192,266259,1,0,0:0:0:0:
320,192,266380,1,0,0:0:0:0:
448,192,266380,1,0,0:0:0:0:
64,192,266502,1,0,0:0:0:0:
192,192,266502,1,0,0:0:0:0:
64,192,266623,1,0,0:0:0:0:
192,192,266623,1,0,0:0:0:0:
448,192,266623,1,0,0:0:0:0:
320,192,266744,1,0,0:0:0:0:
448,192,266744,1,0,0:0:0:0:
64,192,266865,1,0,0:0:0:0:
192,192,266865,1,0,0:0:0:0:
192,192,266986,1,0,0:0:0:0:
448,192,266986,1,0,0:0:0:0:
64,192,267108,1,0,0:0:0:0:
320,192,267108,1,0,0:0:0:0:
192,192,267229,1,0,0:0:0:0:
320,192,267229,1,0,0:0:0:0:
64,192,267350,1,0,0:0:0:0:
192,192,267350,1,0,0:0:0:0:
448,192,267350,1,0,0:0:0:0:
320,192,267471,1,0,0:0:0:0:
448,192,267471,1,0,0:0:0:0:
64,192,267592,1,0,0:0:0:0:
192,192,267592,1,0,0:0:0:0:
64,192,267714,1,0,0:0:0:0:
448,192,267714,1,0,0:0:0:0:
192,192,267835,1,0,0:0:0:0:
320,192,267835,1,0,0:0:0:0:
192,192,267956,1,0,0:0:0:0:
320,192,267956,1,0,0:0:0:0:
64,192,268077,1,0,0:0:0:0:
320,192,268077,1,0,0:0:0:0:
448,192,268077,1,0,0:0:0:0:
64,192,268199,1,0,0:0:0:0:
192,192,268199,1,0,0:0:0:0:
320,192,268320,1,0,0:0:0:0:
448,192,268320,1,0,0:0:0:0:
64,192,268441,1,0,0:0:0:0:
448,192,268441,1,0,0:0:0:0:
192,192,268562,1,0,0:0:0:0:
320,192,268562,1,0,0:0:0:0:
192,192,268683,1,0,0:0:0:0:
448,192,268683,1,0,0:0:0:0:
64,192,268805,1,0,0:0:0:0:
320,192,268805,1,0,0:0:0:0:
448,192,268805,1,0,0:0:0:0:
64,192,268926,1,0,0:0:0:0:
192,192,268926,1,0,0:0:0:0:
192,192,269047,1,0,0:0:0:0:
320,192,269047,1,0,0:0:0:0:
448,192,269047,1,0,0:0:0:0:
64,192,269168,1,0,0:0:0:0:
320,192,269168,1,0,0:0:0:0:
192,192,269289,1,0,0:0:0:0:
448,192,269289,1,0,0:0:0:0:
320,192,269411,1,0,0:0:0:0:
448,192,269411,1,0,0:0:0:0:
64,192,269532,1,0,0:0:0:0:
192,192,269532,1,0,0:0:0:0:
320,192,269532,1,0,0:0:0:0:
192,192,269653,1,0,0:0:0:0:
448,192,269653,1,0,0:0:0:0:
64,192,269774,1,0,0:0:0:0:
320,192,269774,1,0,0:0:0:0:
64,192,269895,1,0,0:0:0:0:
192,192,269895,1,0,0:0:0:0:
320,192,270017,1,0,0:0:0:0:
448,192,270017,1,0,0:0:0:0:
64,192,270138,1,0,0:0:0:0:
320,192,270138,1,0,0:0:0:0:
64,192,270259,1,0,0:0:0:0:
192,192,270259,1,0,0:0:0:0:
448,192,270259,1,0,0:0:0:0:
320,192,270380,1,0,0:0:0:0:
448,192,270380,1,0,0:0:0:0:
64,192,270502,1,0,0:0:0:0:
320,192,270502,1,0,0:0:0:0:
64,192,270623,1,0,0:0:0:0:
192,192,270623,1,0,0:0:0:0:
192,192,270744,1,0,0:0:0:0:
448,192,270744,1,0,0:0:0:0:
64,192,270865,1,0,0:0:0:0:
448,192,270865,1,0,0:0:0:0:
192,192,270986,1,0,0:0:0:0:
320,192,270986,1,0,0:0:0:0:
64,192,271108,1,0,0:0:0:0:
448,192,271108,1,0,0:0:0:0:
64,192,271229,1,0,0:0:0:0:
320,192,271229,1,0,0:0:0:0:
192,192,271350,1,0,0:0:0:0:
320,192,271350,1,0,0:0:0:0:
448,192,271350,1,0,0:0:0:0:
64,192,271471,1,0,0:0:0:0:
192,192,271471,1,0,0:0:0:0:
320,192,271592,1,0,0:0:0:0:
448,192,271592,1,0,0:0:0:0:
64,192,271714,1,0,0:0:0:0:
192,192,271714,1,0,0:0:0:0:
448,192,271714,1,0,0:0:0:0:
192,192,271835,1,0,0:0:0:0:
320,192,271835,1,0,0:0:0:0:
64,192,271956,1,0,0:0:0:0:
448,192,271956,1,0,0:0:0:0:
192,192,272077,1,0,0:0:0:0:
448,192,272077,1,0,0:0:0:0:
64,192,272199,1,0,0:0:0:0:
192,192,272199,1,0,0:0:0:0:
320,192,272320,1,0,0:0:0:0:
448,192,272320,1,0,0:0:0:0:
64,192,272441,1,0,0:0:0:0:
192,192,272441,1,0,0:0:0:0:
64,192,272562,1,0,0:0:0:0:
192,192,272562,1,0,0:0:0:0:
64,192,272683,1,0,0:0:0:0:
192,192,272683,1,0,0:0:0:0:
448,192,272683,1,0,0:0:0:0:
320,192,272764,1,0,0:0:0:0:
64,192,272845,1,0,0:0:0:0:
192,192,272926,1,0,0:0:0:0:
320,192,272926,1,0,0:0:0:0:
448,192,272926,1,0,0:0:0:0:
64,192,273007,1,0,0:0:0:0:
448,192,273087,1,0,0:0:0:0:
64,192,273168,1,0,0:0:0:0:
192,192,273168,1,0,0:0:0:0:
320,192,273168,1,0,0:0:0:0:
448,192,273249,1,0,0:0:0:0:
192,192,273330,1,0,0:0:0:0:
64,192,273411,1,0,0:0:0:0:
320,192,273411,1,0,0:0:0:0:
448,192,273411,1,0,0:0:0:0:
192,192,273491,1,0,0:0:0:0:
320,192,273572,1,0,0:0:0:0:
64,192,273653,1,0,0:0:0:0:
192,192,273653,1,0,0:0:0:0:
448,192,273653,1,0,0:0:0:0:
64,192,273774,1,0,0:0:0:0:
192,192,273774,1,0,0:0:0:0:
448,192,273774,1,0,0:0:0:0:
64,192,273895,1,0,0:0:0:0:
192,192,273895,1,0,0:0:0:0:
448,192,273895,1,0,0:0:0:0:
64,192,274017,1,0,0:0:0:0:
320,192,274017,1,0,0:0:0:0:
192,192,274138,1,0,0:0:0:0:
320,192,274138,1,0,0:0:0:0:
448,192,274138,1,0,0:0:0:0:
64,192,274259,1,0,0:0:0:0:
192,192,274259,1,0,0:0:0:0:
320,192,274380,1,0,0:0:0:0:
448,192,274380,1,0,0:0:0:0:
64,192,274502,1,0,0:0:0:0:
448,192,274502,1,0,0:0:0:0:
64,192,274623,1,0,0:0:0:0:
192,192,274623,1,0,0:0:0:0:
320,192,274623,1,0,0:0:0:0:
192,192,274744,1,0,0:0:0:0:
448,192,274744,1,0,0:0:0:0:
64,192,274865,1,0,0:0:0:0:
320,192,274865,1,0,0:0:0:0:
64,192,274986,1,0,0:0:0:0:
192,192,274986,1,0,0:0:0:0:
320,192,275108,1,0,0:0:0:0:
448,192,275108,1,0,0:0:0:0:
64,192,275229,1,0,0:0:0:0:
192,192,275229,1,0,0:0:0:0:
64,192,275350,1,0,0:0:0:0:
192,192,275350,1,0,0:0:0:0:
448,192,275350,1,0,0:0:0:0:
320,192,275471,1,0,0:0:0:0:
448,192,275471,1,0,0:0:0:0:
64,192,275592,1,0,0:0:0:0:
192,192,275592,1,0,0:0:0:0:
192,192,275714,1,0,0:0:0:0:
448,192,275714,1,0,0:0:0:0:
64,192,275835,1,0,0:0:0:0:
320,192,275835,1,0,0:0:0:0:
192,192,275956,1,0,0:0:0:0:
320,192,275956,1,0,0:0:0:0:
64,192,276077,1,0,0:0:0:0:
192,192,276077,1,0,0:0:0:0:
448,192,276077,1,0,0:0:0:0:
320,192,276199,1,0,0:0:0:0:
448,192,276199,1,0,0:0:0:0:
64,192,276320,1,0,0:0:0:0:
192,192,276320,1,0,0:0:0:0:
64,192,276441,1,0,0:0:0:0:
320,192,276441,1,0,0:0:0:0:
448,192,276441,1,0,0:0:0:0:
192,192,276562,1,0,0:0:0:0:
320,192,276562,1,0,0:0:0:0:
64,192,276683,1,0,0:0:0:0:
448,192,276683,1,0,0:0:0:0:
64,192,276805,1,0,0:0:0:0:
192,192,276805,1,0,0:0:0:0:
320,192,276805,1,0,0:0:0:0:
192,192,276926,1,0,0:0:0:0:
448,192,276926,1,0,0:0:0:0:
64,192,277047,1,0,0:0:0:0:
320,192,277047,1,0,0:0:0:0:
448,192,277047,1,0,0:0:0:0:
64,192,277168,1,0,0:0:0:0:
192,192,277168,1,0,0:0:0:0:
192,192,277289,1,0,0:0:0:0:
320,192,277289,1,0,0:0:0:0:
448,192,277289,1,0,0:0:0:0:
64,192,277411,1,0,0:0:0:0:
448,192,277411,1,0,0:0:0:0:
64,192,277532,1,0,0:0:0:0:
192,192,277532,1,0,0:0:0:0:
320,192,277532,1,0,0:0:0:0:
192,192,277653,1,0,0:0:0:0:
320,192,277653,1,0,0:0:0:0:
192,192,277774,1,0,0:0:0:0:
448,192,277774,1,0,0:0:0:0:
320,192,277895,1,0,0:0:0:0:
448,192,277895,1,0,0:0:0:0:
64,192,278017,1,0,0:0:0:0:
192,192,278017,1,0,0:0:0:0:
192,192,278138,1,0,0:0:0:0:
448,192,278138,1,0,0:0:0:0:
64,192,278259,1,0,0:0:0:0:
320,192,278259,1,0,0:0:0:0:
448,192,278259,1,0,0:0:0:0:
64,192,278380,1,0,0:0:0:0:
192,192,278380,1,0,0:0:0:0:
192,192,278502,1,0,0:0:0:0:
448,192,278502,1,0,0:0:0:0:
64,192,278623,1,0,0:0:0:0:
320,192,278623,1,0,0:0:0:0:
448,192,278623,1,0,0:0:0:0:
192,192,278744,1,0,0:0:0:0:
320,192,278744,1,0,0:0:0:0:
64,192,278865,1,0,0:0:0:0:
448,192,278865,1,0,0:0:0:0:
192,192,278986,1,0,0:0:0:0:
320,192,278986,1,0,0:0:0:0:
448,192,278986,1,0,0:0:0:0:
64,192,279108,1,0,0:0:0:0:
320,192,279108,1,0,0:0:0:0:
192,192,279229,1,0,0:0:0:0:
448,192,279229,1,0,0:0:0:0:
64,192,279350,1,0,0:0:0:0:
320,192,279350,1,0,0:0:0:0:
448,192,279350,1,0,0:0:0:0:
192,192,279471,1,0,0:0:0:0:
320,192,279471,1,0,0:0:0:0:
64,192,279592,1,0,0:0:0:0:
448,192,279592,1,0,0:0:0:0:
64,192,279714,1,0,0:0:0:0:
192,192,279714,1,0,0:0:0:0:
320,192,279835,1,0,0:0:0:0:
448,192,279835,1,0,0:0:0:0:
320,192,279956,1,0,0:0:0:0:
448,192,279956,1,0,0:0:0:0:
64,192,280077,1,0,0:0:0:0:
192,192,280077,1,0,0:0:0:0:
448,192,280077,1,0,0:0:0:0:
64,192,280199,1,0,0:0:0:0:
320,192,280199,1,0,0:0:0:0:
64,192,280320,1,0,0:0:0:0:
192,192,280320,1,0,0:0:0:0:
192,192,280441,1,0,0:0:0:0:
320,192,280441,1,0,0:0:0:0:
448,192,280441,1,0,0:0:0:0:
64,192,280562,1,0,0:0:0:0:
448,192,280562,1,0,0:0:0:0:
64,192,280683,1,0,0:0:0:0:
192,192,280683,1,0,0:0:0:0:
320,192,280683,1,0,0:0:0:0:
320,192,280805,1,0,0:0:0:0:
448,192,280805,1,0,0:0:0:0:
64,192,280926,1,0,0:0:0:0:
192,192,280926,1,0,0:0:0:0:
448,192,280926,1,0,0:0:0:0:
192,192,281047,1,0,0:0:0:0:
320,192,281047,1,0,0:0:0:0:
64,192,281168,1,0,0:0:0:0:
320,192,281168,1,0,0:0:0:0:
448,192,281168,1,0,0:0:0:0:
192,192,281289,1,0,0:0:0:0:
448,192,281289,1,0,0:0:0:0:
64,192,281411,1,0,0:0:0:0:
320,192,281411,1,0,0:0:0:0:
64,192,281532,1,0,0:0:0:0:
192,192,281532,1,0,0:0:0:0:
448,192,281532,1,0,0:0:0:0:
320,192,281653,1,0,0:0:0:0:
448,192,281653,1,0,0:0:0:0:
64,192,281774,1,0,0:0:0:0:
320,192,281774,1,0,0:0:0:0:
64,192,281895,1,0,0:0:0:0:
192,192,281895,1,0,0:0:0:0:
320,192,282017,1,0,0:0:0:0:
448,192,282017,1,0,0:0:0:0:
64,192,282138,1,0,0:0:0:0:
192,192,282138,1,0,0:0:0:0:
448,192,282138,1,0,0:0:0:0:
64,192,282259,1,0,0:0:0:0:
320,192,282259,1,0,0:0:0:0:
192,192,282380,1,0,0:0:0:0:
448,192,282380,1,0,0:0:0:0:
320,192,282502,1,0,0:0:0:0:
448,192,282502,1,0,0:0:0:0:
192,192,282623,1,0,0:0:0:0:
320,192,282623,1,0,0:0:0:0:
448,192,282623,1,0,0:0:0:0:
64,192,282744,1,0,0:0:0:0:
192,192,282744,1,0,0:0:0:0:
64,192,282865,1,0,0:0:0:0:
320,192,282865,1,0,0:0:0:0:
448,192,282865,1,0,0:0:0:0:
192,192,282986,1,0,0:0:0:0:
320,192,282986,1,0,0:0:0:0:
64,192,283108,1,0,0:0:0:0:
192,192,283108,1,0,0:0:0:0:
448,192,283108,1,0,0:0:0:0:
320,192,283229,1,0,0:0:0:0:
448,192,283229,1,0,0:0:0:0:
64,192,283350,1,0,0:0:0:0:
192,192,283350,1,0,0:0:0:0:
320,192,283350,1,0,0:0:0:0:
192,192,283471,1,0,0:0:0:0:
448,192,283471,1,0,0:0:0:0:
64,192,283592,1,0,0:0:0:0:
320,192,283592,1,0,0:0:0:0:
64,192,283714,1,0,0:0:0:0:
192,192,283714,1,0,0:0:0:0:
448,192,283714,1,0,0:0:0:0:
320,192,283835,1,0,0:0:0:0:
448,192,283835,1,0,0:0:0:0:
64,192,283956,1,0,0:0:0:0:
192,192,283956,1,0,0:0:0:0:
64,192,284077,1,0,0:0:0:0:
320,192,284077,1,0,0:0:0:0:
448,192,284077,1,0,0:0:0:0:
192,192,284199,1,0,0:0:0:0:
320,192,284199,1,0,0:0:0:0:
64,192,284320,1,0,0:0:0:0:
192,192,284320,1,0,0:0:0:0:
448,192,284320,1,0,0:0:0:0:
64,192,284441,1,0,0:0:0:0:
192,192,284441,1,0,0:0:0:0:
448,192,284441,1,0,0:0:0:0:
64,192,284562,1,0,0:0:0:0:
192,192,284562,1,0,0:0:0:0:
448,192,284562,1,0,0:0:0:0:
192,192,284683,1,0,0:0:0:0:
64,192,284805,1,0,0:0:0:0:
320,192,284805,1,0,0:0:0:0:
448,192,284805,1,0,0:0:0:0:
64,192,284926,1,0,0:0:0:0:
320,192,284926,1,0,0:0:0:0:
448,192,284926,1,0,0:0:0:0:
64,192,285047,1,0,0:0:0:0:
320,192,285047,1,0,0:0:0:0:
448,192,285047,1,0,0:0:0:0:
448,192,285168,1,0,0:0:0:0:
64,192,285289,1,0,0:0:0:0:
192,192,285289,1,0,0:0:0:0:
320,192,285289,1,0,0:0:0:0:
64,192,285411,1,0,0:0:0:0:
192,192,285411,1,0,0:0:0:0:
320,192,285411,1,0,0:0:0:0:
64,192,285532,1,0,0:0:0:0:
320,192,285532,1,0,0:0:0:0:
448,192,285532,1,0,0:0:0:0:
320,192,285653,1,0,0:0:0:0:
448,192,285653,1,0,0:0:0:0:
320,192,285774,1,0,0:0:0:0:
448,192,285774,1,0,0:0:0:0:
320,192,285895,1,0,0:0:0:0:
448,192,285895,1,0,0:0:0:0:
320,192,286017,1,0,0:0:0:0:
448,192,286017,1,0,0:0:0:0:
64,192,286138,1,0,0:0:0:0:
192,192,286259,1,0,0:0:0:0:
448,192,286259,1,0,0:0:0:0:
64,192,286380,1,0,0:0:0:0:
320,192,286380,1,0,0:0:0:0:
192,192,286502,1,0,0:0:0:0:
448,192,286502,1,0,0:0:0:0:
320,192,286623,1,0,0:0:0:0:
64,192,286744,1,0,0:0:0:0:
192,192,286744,1,0,0:0:0:0:
64,192,286865,1,0,0:0:0:0:
192,192,286865,1,0,0:0:0:0:
64,192,286986,1,0,0:0:0:0:
192,192,286986,1,0,0:0:0:0:
448,192,286986,1,0,0:0:0:0:
320,192,287108,1,0,0:0:0:0:
448,192,287108,1,0,0:0:0:0:
64,192,287229,1,0,0:0:0:0:
192,192,287229,1,0,0:0:0:0:
320,192,287350,1,0,0:0:0:0:
448,192,287350,1,0,0:0:0:0:
64,192,287471,1,0,0:0:0:0:
192,192,287471,1,0,0:0:0:0:
64,192,287592,1,0,0:0:0:0:
192,192,287592,1,0,0:0:0:0:
64,192,287714,1,0,0:0:0:0:
320,192,287714,1,0,0:0:0:0:
448,192,287714,1,0,0:0:0:0:
192,192,287835,1,0,0:0:0:0:
320,192,287956,1,0,0:0:0:0:
448,192,287956,1,0,0:0:0:0:
64,192,288077,1,0,0:0:0:0:
192,192,288077,1,0,0:0:0:0:
192,192,288199,1,0,0:0:0:0:
448,192,288199,1,0,0:0:0:0:
320,192,288320,1,0,0:0:0:0:
448,192,288320,1,0,0:0:0:0:
64,192,288441,1,0,0:0:0:0:
192,192,288441,1,0,0:0:0:0:
320,192,288441,1,0,0:0:0:0:
448,192,288562,1,0,0:0:0:0:
192,192,288683,1,0,0:0:0:0:
320,192,288683,1,0,0:0:0:0:
192,192,288805,1,0,0:0:0:0:
320,192,288805,1,0,0:0:0:0:
192,192,288926,1,0,0:0:0:0:
320,192,288926,1,0,0:0:0:0:
64,192,289047,1,0,0:0:0:0:
192,192,289168,1,0,0:0:0:0:
320,192,289168,1,0,0:0:0:0:
448,192,289168,1,0,0:0:0:0:
64,192,289289,1,0,0:0:0:0:
320,192,289289,1,0,0:0:0:0:
192,192,289411,1,0,0:0:0:0:
448,192,289411,1,0,0:0:0:0:
320,192,289532,1,0,0:0:0:0:
64,192,289653,1,0,0:0:0:0:
192,192,289714,1,0,0:0:0:0:
320,192,289774,1,0,0:0:0:0:
192,192,289835,1,0,0:0:0:0:
64,192,289895,1,0,0:0:0:0:
320,192,289895,1,0,0:0:0:0:
448,192,289895,1,0,0:0:0:0:
192,192,290017,1,0,0:0:0:0:
448,192,290017,1,0,0:0:0:0:
192,192,290138,1,0,0:0:0:0:
320,192,290138,1,0,0:0:0:0:
64,192,290259,1,0,0:0:0:0:
320,192,290259,1,0,0:0:0:0:
192,192,290380,1,0,0:0:0:0:
448,192,290380,1,0,0:0:0:0:
64,192,290502,1,0,0:0:0:0:
320,192,290502,1,0,0:0:0:0:
64,192,290623,1,0,0:0:0:0:
192,192,290623,1,0,0:0:0:0:
448,192,290623,1,0,0:0:0:0:
320,192,290744,1,0,0:0:0:0:
192,192,290865,1,0,0:0:0:0:
448,192,290865,1,0,0:0:0:0:
192,192,290986,1,0,0:0:0:0:
448,192,290986,1,0,0:0:0:0:
192,192,291108,1,0,0:0:0:0:
448,192,291108,1,0,0:0:0:0:
192,192,291229,1,0,0:0:0:0:
448,192,291229,1,0,0:0:0:0:
64,192,291350,1,0,0:0:0:0:
320,192,291350,1,0,0:0:0:0:
448,192,291350,1,0,0:0:0:0:
192,192,291411,1,0,0:0:0:0:
64,192,291471,1,0,0:0:0:0:
448,192,291532,1,0,0:0:0:0:
192,192,291592,1,0,0:0:0:0:
320,192,291592,1,0,0:0:0:0:
64,192,291653,1,0,0:0:0:0:
192,192,291714,1,0,0:0:0:0:
320,192,291714,1,0,0:0:0:0:
64,192,291774,1,0,0:0:0:0:
192,192,291835,1,0,0:0:0:0:
448,192,291835,1,0,0:0:0:0:
320,192,291895,1,0,0:0:0:0:
448,192,291956,1,0,0:0:0:0:
320,192,292017,1,0,0:0:0:0:
64,192,292077,1,0,0:0:0:0:
192,192,292077,1,0,0:0:0:0:
448,192,292138,1,0,0:0:0:0:
64,192,292199,1,0,0:0:0:0:
192,192,292199,1,0,0:0:0:0:
320,192,292259,1,0,0:0:0:0:
64,192,292320,1,0,0:0:0:0:
192,192,292320,1,0,0:0:0:0:
448,192,292380,1,0,0:0:0:0:
320,192,292441,1,0,0:0:0:0:
192,192,292502,1,0,0:0:0:0:
320,192,292562,1,0,0:0:0:0:
448,192,292562,1,0,0:0:0:0:
64,192,292623,1,0,0:0:0:0:
320,192,292683,1,0,0:0:0:0:
448,192,292683,1,0,0:0:0:0:
192,192,292744,1,0,0:0:0:0:
64,192,292805,1,0,0:0:0:0:
320,192,292805,1,0,0:0:0:0:
448,192,292805,1,0,0:0:0:0:
192,192,292865,1,0,0:0:0:0:
64,192,292926,1,0,0:0:0:0:
448,192,292926,1,0,0:0:0:0:
320,192,292986,1,0,0:0:0:0:
64,192,293047,1,0,0:0:0:0:
192,192,293047,1,0,0:0:0:0:
448,192,293108,1,0,0:0:0:0:
64,192,293168,1,0,0:0:0:0:
320,192,293168,1,0,0:0:0:0:
192,192,293229,1,0,0:0:0:0:
320,192,293289,1,0,0:0:0:0:
448,192,293289,1,0,0:0:0:0:
64,192,293350,1,0,0:0:0:0:
320,192,293411,1,0,0:0:0:0:
448,192,293411,1,0,0:0:0:0:
192,192,293471,1,0,0:0:0:0:
64,192,293532,1,0,0:0:0:0:
320,192,293532,1,0,0:0:0:0:
448,192,293532,1,0,0:0:0:0:
192,192,293592,1,0,0:0:0:0:
64,192,293653,1,0,0:0:0:0:
448,192,293653,1,0,0:0:0:0:
320,192,293714,1,0,0:0:0:0:
64,192,293774,1,0,0:0:0:0:
192,192,293774,1,0,0:0:0:0:
448,192,293835,1,0,0:0:0:0:
64,192,293895,1,0,0:0:0:0:
320,192,293895,1,0,0:0:0:0:
192,192,293956,1,0,0:0:0:0:
320,192,294017,1,0,0:0:0:0:
448,192,294017,1,0,0:0:0:0:
64,192,294077,1,0,0:0:0:0:
320,192,294138,1,0,0:0:0:0:
448,192,294138,1,0,0:0:0:0:
192,192,294199,1,0,0:0:0:0:
64,192,294259,1,0,0:0:0:0:
320,192,294259,1,0,0:0:0:0:
448,192,294259,1,0,0:0:0:0:
192,192,294320,1,0,0:0:0:0:
64,192,294380,1,0,0:0:0:0:
448,192,294441,1,0,0:0:0:0:
192,192,294502,1,0,0:0:0:0:
320,192,294502,1,0,0:0:0:0:
64,192,294562,1,0,0:0:0:0:
192,192,294623,1,0,0:0:0:0:
448,192,294623,1,0,0:0:0:0:
320,192,294683,1,0,0:0:0:0:
64,192,294744,1,0,0:0:0:0:
192,192,294744,1,0,0:0:0:0:
448,192,294744,1,0,0:0:0:0:
320,192,294805,1,0,0:0:0:0:
64,192,294865,1,0,0:0:0:0:
192,192,294926,1,0,0:0:0:0:
320,192,294986,1,0,0:0:0:0:
448,192,294986,1,0,0:0:0:0:
64,192,295047,1,0,0:0:0:0:
192,192,295108,1,0,0:0:0:0:
320,192,295108,1,0,0:0:0:0:
448,192,295168,1,0,0:0:0:0:
64,192,295229,1,0,0:0:0:0:
192,192,295229,1,0,0:0:0:0:
320,192,295229,1,0,0:0:0:0:
448,192,295289,1,0,0:0:0:0:
320,192,295350,1,0,0:0:0:0:
64,192,295411,1,0,0:0:0:0:
192,192,295471,1,0,0:0:0:0:
448,192,295471,1,0,0:0:0:0:
320,192,295532,1,0,0:0:0:0:
64,192,295592,1,0,0:0:0:0:
192,192,295592,1,0,0:0:0:0:
448,192,295653,1,0,0:0:0:0:
64,192,295714,128,0,295835:0:0:0:0:
192,192,295714,128,0,295835:0:0:0:0:
320,192,295714,128,0,295835:0:0:0:0:
