osu file format v14

[General]
AudioFilename: audio.ogg
AudioLeadIn: 0
PreviewTime: 61425
Countdown: 0
SampleSet: Soft
StackLeniency: 0.7
Mode: 3
LetterboxInBreaks: 0
SpecialStyle: 0
WidescreenStoryboard: 1

[Editor]
Bookmarks: 103164,227346
DistanceSpacing: 0.8
BeatDivisor: 4
GridSize: 16
TimelineZoom: 3

[Metadata]
Title:Fury
TitleUnicode:Fury
Artist:Fleshgod Apocalypse
ArtistUnicode:Fleshgod Apocalypse
Creator:DannyPX
Version:Conflagration
Source:
Tags:4dm4 4 Digit osu!mania World Cup 4 qualifiers stage 4 jumpstream js stamina speed FA featured artist Veleno symphonic death metal Nuclear Blast NB 4974 NB 4540 english Francesco Paoli Francesco Ferrini Paolo Rossi Fabio Bartoletti Veronica Bordacchini
BeatmapID:3399979
BeatmapSetID:1665436

[Difficulty]
HPDrainRate:8
CircleSize:4
OverallDifficulty:8
ApproachRate:5
SliderMultiplier:1.4
SliderTickRate:1

[Events]
//Background and Video events
0,0,"bg.png",0,0
//Break Periods
//Storyboard Layer 0 (Background)
//Storyboard Layer 1 (Fail)
//Storyboard Layer 2 (Pass)
//Storyboard Layer 3 (Foreground)
//Storyboard Layer 4 (Overlay)
//Storyboard Sound Samples

[TimingPoints]
2977,260.869565217391,4,2,1,50,1,0

[HitObjects]
320,192,2977,5,0,0:0:0:0:
64,192,2977,1,0,0:0:0:0:
192,192,3042,1,0,0:0:0:0:
320,192,3107,1,0,0:0:0:0:
448,192,3172,1,0,0:0:0:0:
192,192,3237,1,0,0:0:0:0:
320,192,3303,1,0,0:0:0:0:
64,192,3368,1,0,0:0:0:0:
192,192,3433,1,0,0:0:0:0:
64,192,3498,1,0,0:0:0:0:
192,192,3563,1,0,0:0:0:0:
320,192,3629,1,0,0:0:0:0:
64,192,3694,1,0,0:0:0:0:
448,192,3759,1,0,0:0:0:0:
320,192,3824,1,0,0:0:0:0:
192,192,3890,1,0,0:0:0:0:
448,192,3955,1,0,0:0:0:0:
64,192,4020,1,0,0:0:0:0:
192,192,4085,1,0,0:0:0:0:
448,192,4150,1,0,0:0:0:0:
320,192,4216,1,0,0:0:0:0:
448,192,4281,1,0,0:0:0:0:
320,192,4346,1,0,0:0:0:0:
64,192,4411,1,0,0:0:0:0:
192,192,4476,1,0,0:0:0:0:
448,192,4542,1,0,0:0:0:0:
320,192,4607,1,0,0:0:0:0:
64,192,4672,1,0,0:0:0:0:
192,192,4737,1,0,0:0:0:0:
64,192,4803,1,0,0:0:0:0:
320,192,4868,1,0,0:0:0:0:
192,192,4933,1,0,0:0:0:0:
448,192,4998,1,0,0:0:0:0:
64,192,5063,1,0,0:0:0:0:
192,192,5129,1,0,0:0:0:0:
320,192,5194,1,0,0:0:0:0:
64,192,5259,1,0,0:0:0:0:
448,192,5324,1,0,0:0:0:0:
192,192,5390,1,0,0:0:0:0:
64,192,5455,1,0,0:0:0:0:
320,192,5520,1,0,0:0:0:0:
64,192,5585,1,0,0:0:0:0:
320,192,5650,1,0,0:0:0:0:
448,192,5716,1,0,0:0:0:0:
192,192,5781,1,0,0:0:0:0:
448,192,5846,1,0,0:0:0:0:
192,192,5911,1,0,0:0:0:0:
320,192,5976,1,0,0:0:0:0:
448,192,6042,1,0,0:0:0:0:
64,192,6107,1,0,0:0:0:0:
192,192,6172,1,0,0:0:0:0:
448,192,6237,1,0,0:0:0:0:
320,192,6303,1,0,0:0:0:0:
192,192,6368,1,0,0:0:0:0:
448,192,6433,1,0,0:0:0:0:
64,192,6498,1,0,0:0:0:0:
320,192,6563,1,0,0:0:0:0:
192,192,6629,1,0,0:0:0:0:
448,192,6694,1,0,0:0:0:0:
320,192,6694,1,0,0:0:0:0:
64,192,6759,1,0,0:0:0:0:
192,192,6759,1,0,0:0:0:0:
320,192,6824,1,0,0:0:0:0:
448,192,6824,1,0,0:0:0:0:
192,192,6890,1,0,0:0:0:0:
320,192,6955,1,0,0:0:0:0:
192,192,7020,1,0,0:0:0:0:
320,192,7085,1,0,0:0:0:0:
192,192,7150,1,0,0:0:0:0:
64,192,7150,1,0,0:0:0:0:
320,192,7216,1,0,0:0:0:0:
448,192,7281,1,0,0:0:0:0:
192,192,7346,1,0,0:0:0:0:
64,192,7411,1,0,0:0:0:0:
320,192,7411,1,0,0:0:0:0:
448,192,7476,1,0,0:0:0:0:
192,192,7542,1,0,0:0:0:0:
320,192,7607,1,0,0:0:0:0:
192,192,7672,1,0,0:0:0:0:
64,192,7672,1,0,0:0:0:0:
448,192,7737,1,0,0:0:0:0:
320,192,7803,1,0,0:0:0:0:
192,192,7868,1,0,0:0:0:0:
320,192,7933,1,0,0:0:0:0:
448,192,7933,1,0,0:0:0:0:
64,192,7998,1,0,0:0:0:0:
192,192,8063,1,0,0:0:0:0:
448,192,8129,1,0,0:0:0:0:
320,192,8194,1,0,0:0:0:0:
64,192,8194,1,0,0:0:0:0:
192,192,8259,1,0,0:0:0:0:
320,192,8324,1,0,0:0:0:0:
448,192,8390,1,0,0:0:0:0:
64,192,8455,1,0,0:0:0:0:
192,192,8455,1,0,0:0:0:0:
320,192,8520,1,0,0:0:0:0:
448,192,8585,1,0,0:0:0:0:
64,192,8650,1,0,0:0:0:0:
320,192,8716,1,0,0:0:0:0:
64,192,8781,1,0,0:0:0:0:
448,192,8846,1,0,0:0:0:0:
192,192,8846,1,0,0:0:0:0:
320,192,8911,1,0,0:0:0:0:
448,192,8976,1,0,0:0:0:0:
64,192,9042,1,0,0:0:0:0:
192,192,9107,1,0,0:0:0:0:
448,192,9172,1,0,0:0:0:0:
64,192,9237,1,0,0:0:0:0:
320,192,9303,1,0,0:0:0:0:
192,192,9368,1,0,0:0:0:0:
448,192,9433,1,0,0:0:0:0:
192,192,9498,1,0,0:0:0:0:
448,192,9563,1,0,0:0:0:0:
192,192,9629,1,0,0:0:0:0:
64,192,9629,1,0,0:0:0:0:
320,192,9694,1,0,0:0:0:0:
64,192,9759,1,0,0:0:0:0:
192,192,9824,1,0,0:0:0:0:
320,192,9890,1,0,0:0:0:0:
64,192,9955,1,0,0:0:0:0:
448,192,10020,1,0,0:0:0:0:
192,192,10085,1,0,0:0:0:0:
64,192,10150,1,0,0:0:0:0:
448,192,10216,1,0,0:0:0:0:
192,192,10281,1,0,0:0:0:0:
64,192,10281,1,0,0:0:0:0:
320,192,10346,1,0,0:0:0:0:
448,192,10411,1,0,0:0:0:0:
64,192,10476,1,0,0:0:0:0:
320,192,10542,1,0,0:0:0:0:
448,192,10542,1,0,0:0:0:0:
192,192,10607,1,0,0:0:0:0:
64,192,10672,1,0,0:0:0:0:
320,192,10737,1,0,0:0:0:0:
448,192,10803,1,0,0:0:0:0:
192,192,10803,1,0,0:0:0:0:
64,192,10868,1,0,0:0:0:0:
448,192,10933,1,0,0:0:0:0:
320,192,10933,1,0,0:0:0:0:
64,192,10998,1,0,0:0:0:0:
192,192,11063,1,0,0:0:0:0:
448,192,11063,1,0,0:0:0:0:
320,192,11129,1,0,0:0:0:0:
192,192,11194,1,0,0:0:0:0:
64,192,11194,1,0,0:0:0:0:
448,192,11259,1,0,0:0:0:0:
320,192,11324,1,0,0:0:0:0:
64,192,11324,1,0,0:0:0:0:
192,192,11390,1,0,0:0:0:0:
320,192,11455,1,0,0:0:0:0:
448,192,11520,1,0,0:0:0:0:
64,192,11585,1,0,0:0:0:0:
192,192,11585,1,0,0:0:0:0:
320,192,11650,1,0,0:0:0:0:
448,192,11716,1,0,0:0:0:0:
192,192,11781,1,0,0:0:0:0:
64,192,11846,1,0,0:0:0:0:
320,192,11846,1,0,0:0:0:0:
448,192,11911,1,0,0:0:0:0:
192,192,11976,1,0,0:0:0:0:
320,192,12042,1,0,0:0:0:0:
64,192,12107,1,0,0:0:0:0:
192,192,12107,1,0,0:0:0:0:
448,192,12172,1,0,0:0:0:0:
320,192,12237,1,0,0:0:0:0:
64,192,12303,1,0,0:0:0:0:
192,192,12368,1,0,0:0:0:0:
448,192,12368,1,0,0:0:0:0:
320,192,12433,1,0,0:0:0:0:
64,192,12498,1,0,0:0:0:0:
192,192,12563,1,0,0:0:0:0:
320,192,12629,1,0,0:0:0:0:
448,192,12629,1,0,0:0:0:0:
192,192,12694,1,0,0:0:0:0:
64,192,12759,1,0,0:0:0:0:
320,192,12824,1,0,0:0:0:0:
448,192,12890,1,0,0:0:0:0:
192,192,12890,1,0,0:0:0:0:
64,192,12955,1,0,0:0:0:0:
320,192,13020,1,0,0:0:0:0:
192,192,13085,1,0,0:0:0:0:
320,192,13150,1,0,0:0:0:0:
448,192,13150,1,0,0:0:0:0:
64,192,13216,1,0,0:0:0:0:
192,192,13281,1,0,0:0:0:0:
448,192,13346,1,0,0:0:0:0:
64,192,13411,1,0,0:0:0:0:
320,192,13476,1,0,0:0:0:0:
192,192,13542,1,0,0:0:0:0:
448,192,13607,1,0,0:0:0:0:
320,192,13672,1,0,0:0:0:0:
64,192,13737,1,0,0:0:0:0:
448,192,13803,1,0,0:0:0:0:
192,192,13868,1,0,0:0:0:0:
448,192,13933,1,0,0:0:0:0:
192,192,13998,1,0,0:0:0:0:
64,192,14063,1,0,0:0:0:0:
320,192,14129,1,0,0:0:0:0:
64,192,14194,1,0,0:0:0:0:
320,192,14259,1,0,0:0:0:0:
192,192,14324,1,0,0:0:0:0:
448,192,14390,1,0,0:0:0:0:
320,192,14455,1,0,0:0:0:0:
64,192,14520,1,0,0:0:0:0:
448,192,14585,1,0,0:0:0:0:
192,192,14650,1,0,0:0:0:0:
64,192,14716,1,0,0:0:0:0:
448,192,14781,1,0,0:0:0:0:
192,192,14846,1,0,0:0:0:0:
320,192,14911,1,0,0:0:0:0:
192,192,14976,1,0,0:0:0:0:
64,192,15042,1,0,0:0:0:0:
448,192,15107,1,0,0:0:0:0:
320,192,15107,1,0,0:0:0:0:
192,192,15172,1,0,0:0:0:0:
64,192,15172,1,0,0:0:0:0:
320,192,15237,1,0,0:0:0:0:
448,192,15237,1,0,0:0:0:0:
192,192,15303,1,0,0:0:0:0:
320,192,15368,1,0,0:0:0:0:
192,192,15433,1,0,0:0:0:0:
320,192,15498,1,0,0:0:0:0:
448,192,15498,1,0,0:0:0:0:
64,192,15563,1,0,0:0:0:0:
192,192,15629,1,0,0:0:0:0:
448,192,15694,1,0,0:0:0:0:
64,192,15759,1,0,0:0:0:0:
320,192,15759,1,0,0:0:0:0:
192,192,15824,1,0,0:0:0:0:
448,192,15890,1,0,0:0:0:0:
320,192,15955,1,0,0:0:0:0:
64,192,16020,1,0,0:0:0:0:
192,192,16020,1,0,0:0:0:0:
320,192,16085,1,0,0:0:0:0:
448,192,16150,1,0,0:0:0:0:
192,192,16216,1,0,0:0:0:0:
64,192,16281,1,0,0:0:0:0:
320,192,16281,1,0,0:0:0:0:
448,192,16346,1,0,0:0:0:0:
192,192,16411,1,0,0:0:0:0:
320,192,16476,1,0,0:0:0:0:
64,192,16542,1,0,0:0:0:0:
192,192,16542,1,0,0:0:0:0:
448,192,16607,1,0,0:0:0:0:
320,192,16672,1,0,0:0:0:0:
192,192,16737,1,0,0:0:0:0:
320,192,16803,1,0,0:0:0:0:
448,192,16803,1,0,0:0:0:0:
64,192,16868,1,0,0:0:0:0:
320,192,16933,1,0,0:0:0:0:
192,192,16998,1,0,0:0:0:0:
64,192,17063,1,0,0:0:0:0:
448,192,17129,1,0,0:0:0:0:
320,192,17194,1,0,0:0:0:0:
64,192,17194,1,0,0:0:0:0:
192,192,17259,1,0,0:0:0:0:
448,192,17324,1,0,0:0:0:0:
320,192,17390,1,0,0:0:0:0:
64,192,17455,1,0,0:0:0:0:
448,192,17520,1,0,0:0:0:0:
320,192,17585,1,0,0:0:0:0:
192,192,17650,1,0,0:0:0:0:
320,192,17716,1,0,0:0:0:0:
192,192,17781,1,0,0:0:0:0:
320,192,17846,1,0,0:0:0:0:
448,192,17911,1,0,0:0:0:0:
192,192,17976,1,0,0:0:0:0:
64,192,17976,1,0,0:0:0:0:
320,192,18042,1,0,0:0:0:0:
448,192,18107,1,0,0:0:0:0:
64,192,18172,1,0,0:0:0:0:
320,192,18237,1,0,0:0:0:0:
448,192,18237,1,0,0:0:0:0:
192,192,18368,1,0,0:0:0:0:
320,192,18368,1,0,0:0:0:0:
192,192,18498,1,0,0:0:0:0:
64,192,18498,1,0,0:0:0:0:
320,192,18629,1,0,0:0:0:0:
448,192,18629,1,0,0:0:0:0:
192,192,18694,1,0,0:0:0:0:
64,192,18759,1,0,0:0:0:0:
320,192,18824,1,0,0:0:0:0:
192,192,18890,1,0,0:0:0:0:
64,192,18890,128,0,19672:0:0:0:0:
448,192,19672,1,0,0:0:0:0:
320,192,19672,1,0,0:0:0:0:
192,192,19737,1,0,0:0:0:0:
64,192,19803,1,0,0:0:0:0:
320,192,19868,1,0,0:0:0:0:
192,192,19933,1,0,0:0:0:0:
448,192,19998,1,0,0:0:0:0:
64,192,20063,1,0,0:0:0:0:
192,192,20129,1,0,0:0:0:0:
448,192,20194,1,0,0:0:0:0:
320,192,20194,1,0,0:0:0:0:
64,192,20259,1,0,0:0:0:0:
192,192,20324,1,0,0:0:0:0:
448,192,20390,1,0,0:0:0:0:
192,192,20455,1,0,0:0:0:0:
64,192,20455,1,0,0:0:0:0:
320,192,20455,1,0,0:0:0:0:
64,192,20585,1,0,0:0:0:0:
320,192,20585,1,0,0:0:0:0:
192,192,20716,1,0,0:0:0:0:
320,192,20716,1,0,0:0:0:0:
448,192,20716,1,0,0:0:0:0:
192,192,20846,1,0,0:0:0:0:
64,192,20846,1,0,0:0:0:0:
448,192,20976,1,0,0:0:0:0:
320,192,20976,1,0,0:0:0:0:
64,192,21107,1,0,0:0:0:0:
448,192,21107,1,0,0:0:0:0:
64,192,21237,1,0,0:0:0:0:
320,192,21237,1,0,0:0:0:0:
192,192,21303,1,0,0:0:0:0:
448,192,21368,1,0,0:0:0:0:
320,192,21433,1,0,0:0:0:0:
192,192,21498,1,0,0:0:0:0:
64,192,21563,1,0,0:0:0:0:
192,192,21629,1,0,0:0:0:0:
448,192,21694,1,0,0:0:0:0:
64,192,21759,1,0,0:0:0:0:
320,192,21824,1,0,0:0:0:0:
192,192,21890,1,0,0:0:0:0:
448,192,21955,1,0,0:0:0:0:
64,192,22020,1,0,0:0:0:0:
192,192,22085,1,0,0:0:0:0:
320,192,22150,1,0,0:0:0:0:
192,192,22216,1,0,0:0:0:0:
320,192,22281,1,0,0:0:0:0:
448,192,22281,1,0,0:0:0:0:
64,192,22346,1,0,0:0:0:0:
448,192,22411,1,0,0:0:0:0:
320,192,22476,1,0,0:0:0:0:
192,192,22542,1,0,0:0:0:0:
64,192,22542,1,0,0:0:0:0:
64,192,22672,1,0,0:0:0:0:
448,192,22672,1,0,0:0:0:0:
448,192,22803,1,0,0:0:0:0:
192,192,22803,1,0,0:0:0:0:
320,192,22803,1,0,0:0:0:0:
192,192,22933,1,0,0:0:0:0:
320,192,22933,1,0,0:0:0:0:
64,192,23063,1,0,0:0:0:0:
320,192,23063,1,0,0:0:0:0:
192,192,23063,1,0,0:0:0:0:
64,192,23194,1,0,0:0:0:0:
448,192,23194,1,0,0:0:0:0:
448,192,23324,1,0,0:0:0:0:
192,192,23324,1,0,0:0:0:0:
320,192,23390,1,0,0:0:0:0:
64,192,23455,1,0,0:0:0:0:
448,192,23520,1,0,0:0:0:0:
64,192,23585,1,0,0:0:0:0:
448,192,23650,1,0,0:0:0:0:
320,192,23716,1,0,0:0:0:0:
192,192,23781,1,0,0:0:0:0:
320,192,23846,1,0,0:0:0:0:
448,192,23846,1,0,0:0:0:0:
64,192,23911,1,0,0:0:0:0:
320,192,23976,1,0,0:0:0:0:
192,192,24042,1,0,0:0:0:0:
448,192,24107,1,0,0:0:0:0:
64,192,24172,1,0,0:0:0:0:
320,192,24237,1,0,0:0:0:0:
448,192,24303,1,0,0:0:0:0:
192,192,24368,1,0,0:0:0:0:
64,192,24368,1,0,0:0:0:0:
320,192,24433,1,0,0:0:0:0:
448,192,24498,1,0,0:0:0:0:
192,192,24563,1,0,0:0:0:0:
64,192,24629,1,0,0:0:0:0:
320,192,24629,1,0,0:0:0:0:
192,192,24759,1,0,0:0:0:0:
64,192,24759,1,0,0:0:0:0:
192,192,24890,1,0,0:0:0:0:
448,192,24890,1,0,0:0:0:0:
448,192,25020,1,0,0:0:0:0:
64,192,25020,1,0,0:0:0:0:
320,192,25085,1,0,0:0:0:0:
192,192,25150,1,0,0:0:0:0:
192,192,25281,1,0,0:0:0:0:
448,192,25281,1,0,0:0:0:0:
448,192,25411,1,0,0:0:0:0:
320,192,25411,1,0,0:0:0:0:
192,192,25476,1,0,0:0:0:0:
64,192,25542,1,0,0:0:0:0:
320,192,25607,1,0,0:0:0:0:
192,192,25672,1,0,0:0:0:0:
448,192,25737,1,0,0:0:0:0:
64,192,25803,1,0,0:0:0:0:
192,192,25868,1,0,0:0:0:0:
320,192,25933,1,0,0:0:0:0:
64,192,25998,1,0,0:0:0:0:
448,192,26063,1,0,0:0:0:0:
192,192,26129,1,0,0:0:0:0:
320,192,26194,1,0,0:0:0:0:
64,192,26259,1,0,0:0:0:0:
192,192,26324,1,0,0:0:0:0:
448,192,26390,1,0,0:0:0:0:
64,192,26455,1,0,0:0:0:0:
320,192,26455,1,0,0:0:0:0:
192,192,26520,1,0,0:0:0:0:
320,192,26585,1,0,0:0:0:0:
192,192,26650,1,0,0:0:0:0:
64,192,26716,1,0,0:0:0:0:
320,192,26846,1,0,0:0:0:0:
448,192,26976,1,0,0:0:0:0:
192,192,27107,1,0,0:0:0:0:
64,192,27237,1,0,0:0:0:0:
320,192,27368,1,0,0:0:0:0:
192,192,27498,1,0,0:0:0:0:
64,192,27629,1,0,0:0:0:0:
448,192,27759,1,0,0:0:0:0:
320,192,27890,1,0,0:0:0:0:
64,192,28020,1,0,0:0:0:0:
192,192,28020,1,0,0:0:0:0:
320,192,28085,1,0,0:0:0:0:
448,192,28150,1,0,0:0:0:0:
64,192,28216,1,0,0:0:0:0:
192,192,28281,1,0,0:0:0:0:
448,192,28281,1,0,0:0:0:0:
320,192,28346,1,0,0:0:0:0:
192,192,28411,1,0,0:0:0:0:
64,192,28476,1,0,0:0:0:0:
320,192,28542,1,0,0:0:0:0:
192,192,28607,1,0,0:0:0:0:
448,192,28672,1,0,0:0:0:0:
320,192,28737,1,0,0:0:0:0:
64,192,28803,1,0,0:0:0:0:
192,192,28803,1,0,0:0:0:0:
320,192,28868,1,0,0:0:0:0:
448,192,28933,1,0,0:0:0:0:
192,192,28998,1,0,0:0:0:0:
320,192,29063,1,0,0:0:0:0:
64,192,29063,1,0,0:0:0:0:
320,192,29194,1,0,0:0:0:0:
448,192,29194,1,0,0:0:0:0:
448,192,29324,1,0,0:0:0:0:
64,192,29324,1,0,0:0:0:0:
192,192,29324,1,0,0:0:0:0:
64,192,29455,1,0,0:0:0:0:
320,192,29455,1,0,0:0:0:0:
320,192,29585,1,0,0:0:0:0:
448,192,29585,1,0,0:0:0:0:
192,192,29650,1,0,0:0:0:0:
64,192,29716,1,0,0:0:0:0:
320,192,29781,1,0,0:0:0:0:
64,192,29846,1,0,0:0:0:0:
192,192,29846,1,0,0:0:0:0:
448,192,29976,1,0,0:0:0:0:
320,192,29976,1,0,0:0:0:0:
320,192,30107,1,0,0:0:0:0:
64,192,30107,1,0,0:0:0:0:
192,192,30237,1,0,0:0:0:0:
448,192,30303,1,0,0:0:0:0:
64,192,30368,1,0,0:0:0:0:
192,192,30368,1,0,0:0:0:0:
320,192,30433,1,0,0:0:0:0:
64,192,30498,1,0,0:0:0:0:
192,192,30563,1,0,0:0:0:0:
448,192,30629,1,0,0:0:0:0:
320,192,30694,1,0,0:0:0:0:
64,192,30759,1,0,0:0:0:0:
192,192,30824,1,0,0:0:0:0:
448,192,30890,1,0,0:0:0:0:
320,192,30890,1,0,0:0:0:0:
448,192,31020,1,0,0:0:0:0:
64,192,31020,1,0,0:0:0:0:
64,192,31150,1,0,0:0:0:0:
320,192,31150,1,0,0:0:0:0:
192,192,31281,1,0,0:0:0:0:
320,192,31281,1,0,0:0:0:0:
192,192,31411,1,0,0:0:0:0:
64,192,31411,1,0,0:0:0:0:
448,192,31411,1,0,0:0:0:0:
64,192,31542,1,0,0:0:0:0:
320,192,31542,1,0,0:0:0:0:
320,192,31672,1,0,0:0:0:0:
192,192,31672,1,0,0:0:0:0:
192,192,31803,1,0,0:0:0:0:
448,192,31803,1,0,0:0:0:0:
448,192,31933,1,0,0:0:0:0:
320,192,31933,1,0,0:0:0:0:
64,192,31933,1,0,0:0:0:0:
320,192,32063,1,0,0:0:0:0:
192,192,32063,1,0,0:0:0:0:
64,192,32194,1,0,0:0:0:0:
192,192,32194,1,0,0:0:0:0:
320,192,32259,1,0,0:0:0:0:
448,192,32324,1,0,0:0:0:0:
192,192,32390,1,0,0:0:0:0:
320,192,32455,1,0,0:0:0:0:
448,192,32455,1,0,0:0:0:0:
192,192,32520,1,0,0:0:0:0:
64,192,32585,1,0,0:0:0:0:
448,192,32650,1,0,0:0:0:0:
192,192,32716,1,0,0:0:0:0:
320,192,32781,1,0,0:0:0:0:
448,192,32846,1,0,0:0:0:0:
64,192,32911,1,0,0:0:0:0:
448,192,32976,1,0,0:0:0:0:
320,192,32976,1,0,0:0:0:0:
448,192,33107,1,0,0:0:0:0:
64,192,33107,1,0,0:0:0:0:
64,192,33237,1,0,0:0:0:0:
320,192,33237,1,0,0:0:0:0:
320,192,33368,1,0,0:0:0:0:
448,192,33368,1,0,0:0:0:0:
192,192,33433,1,0,0:0:0:0:
64,192,33498,1,0,0:0:0:0:
448,192,33498,1,0,0:0:0:0:
448,192,33629,1,0,0:0:0:0:
192,192,33629,1,0,0:0:0:0:
192,192,33759,1,0,0:0:0:0:
64,192,33759,1,0,0:0:0:0:
320,192,33824,1,0,0:0:0:0:
448,192,33890,1,0,0:0:0:0:
192,192,33955,1,0,0:0:0:0:
64,192,34020,1,0,0:0:0:0:
320,192,34020,1,0,0:0:0:0:
448,192,34085,1,0,0:0:0:0:
192,192,34150,1,0,0:0:0:0:
320,192,34216,1,0,0:0:0:0:
64,192,34281,1,0,0:0:0:0:
192,192,34281,1,0,0:0:0:0:
64,192,34411,1,0,0:0:0:0:
320,192,34476,1,0,0:0:0:0:
192,192,34542,1,0,0:0:0:0:
64,192,34542,1,0,0:0:0:0:
320,192,34607,1,0,0:0:0:0:
448,192,34672,1,0,0:0:0:0:
192,192,34737,1,0,0:0:0:0:
320,192,34803,1,0,0:0:0:0:
64,192,34868,1,0,0:0:0:0:
320,192,34933,1,0,0:0:0:0:
448,192,34998,1,0,0:0:0:0:
192,192,35063,1,0,0:0:0:0:
320,192,35129,1,0,0:0:0:0:
192,192,35194,1,0,0:0:0:0:
320,192,35259,1,0,0:0:0:0:
192,192,35324,1,0,0:0:0:0:
64,192,35390,1,0,0:0:0:0:
448,192,35455,1,0,0:0:0:0:
64,192,35520,1,0,0:0:0:0:
448,192,35585,1,0,0:0:0:0:
192,192,35650,1,0,0:0:0:0:
448,192,35716,1,0,0:0:0:0:
192,192,35781,1,0,0:0:0:0:
64,192,35846,1,0,0:0:0:0:
320,192,35911,1,0,0:0:0:0:
64,192,35976,1,0,0:0:0:0:
320,192,36042,1,0,0:0:0:0:
448,192,36107,1,0,0:0:0:0:
192,192,36172,1,0,0:0:0:0:
64,192,36237,1,0,0:0:0:0:
192,192,36303,1,0,0:0:0:0:
64,192,36368,1,0,0:0:0:0:
320,192,36368,1,0,0:0:0:0:
448,192,36433,1,0,0:0:0:0:
192,192,36498,1,0,0:0:0:0:
64,192,36563,1,0,0:0:0:0:
320,192,36629,1,0,0:0:0:0:
192,192,36694,1,0,0:0:0:0:
64,192,36759,1,0,0:0:0:0:
320,192,36759,1,0,0:0:0:0:
448,192,36824,1,0,0:0:0:0:
192,192,36890,1,0,0:0:0:0:
320,192,36955,1,0,0:0:0:0:
192,192,37020,1,0,0:0:0:0:
64,192,37085,1,0,0:0:0:0:
448,192,37150,1,0,0:0:0:0:
320,192,37150,1,0,0:0:0:0:
192,192,37216,1,0,0:0:0:0:
448,192,37281,1,0,0:0:0:0:
320,192,37346,1,0,0:0:0:0:
192,192,37411,1,0,0:0:0:0:
64,192,37411,1,0,0:0:0:0:
320,192,37542,1,0,0:0:0:0:
192,192,37542,1,0,0:0:0:0:
320,192,37672,1,0,0:0:0:0:
448,192,37672,1,0,0:0:0:0:
64,192,37672,1,0,0:0:0:0:
192,192,37803,1,0,0:0:0:0:
64,192,37803,1,0,0:0:0:0:
192,192,37933,1,0,0:0:0:0:
448,192,37933,1,0,0:0:0:0:
320,192,37998,1,0,0:0:0:0:
64,192,38063,1,0,0:0:0:0:
192,192,38129,1,0,0:0:0:0:
448,192,38194,1,0,0:0:0:0:
320,192,38259,1,0,0:0:0:0:
64,192,38324,1,0,0:0:0:0:
192,192,38324,1,0,0:0:0:0:
64,192,38455,1,0,0:0:0:0:
448,192,38455,1,0,0:0:0:0:
448,192,38585,1,0,0:0:0:0:
192,192,38650,1,0,0:0:0:0:
64,192,38716,1,0,0:0:0:0:
320,192,38716,1,0,0:0:0:0:
448,192,38846,1,0,0:0:0:0:
64,192,38846,1,0,0:0:0:0:
320,192,38976,1,0,0:0:0:0:
448,192,39042,1,0,0:0:0:0:
64,192,39107,1,0,0:0:0:0:
192,192,39107,1,0,0:0:0:0:
320,192,39172,1,0,0:0:0:0:
448,192,39237,1,0,0:0:0:0:
192,192,39237,1,0,0:0:0:0:
64,192,39237,1,0,0:0:0:0:
320,192,39368,1,0,0:0:0:0:
448,192,39368,1,0,0:0:0:0:
64,192,39433,1,0,0:0:0:0:
192,192,39433,1,0,0:0:0:0:
320,192,39498,1,0,0:0:0:0:
448,192,39498,1,0,0:0:0:0:
192,192,39629,1,0,0:0:0:0:
320,192,39629,1,0,0:0:0:0:
192,192,39759,1,0,0:0:0:0:
64,192,39759,1,0,0:0:0:0:
448,192,39759,1,0,0:0:0:0:
448,192,39890,1,0,0:0:0:0:
320,192,39890,1,0,0:0:0:0:
320,192,40020,1,0,0:0:0:0:
64,192,40020,1,0,0:0:0:0:
64,192,40150,1,0,0:0:0:0:
448,192,40150,1,0,0:0:0:0:
448,192,40281,1,0,0:0:0:0:
320,192,40281,1,0,0:0:0:0:
192,192,40281,1,0,0:0:0:0:
320,192,40411,1,0,0:0:0:0:
64,192,40411,1,0,0:0:0:0:
64,192,40542,1,0,0:0:0:0:
192,192,40542,1,0,0:0:0:0:
320,192,40607,1,0,0:0:0:0:
192,192,40672,1,0,0:0:0:0:
64,192,40737,1,0,0:0:0:0:
448,192,40803,1,0,0:0:0:0:
320,192,40803,1,0,0:0:0:0:
192,192,40868,1,0,0:0:0:0:
64,192,40933,1,0,0:0:0:0:
320,192,40933,1,0,0:0:0:0:
448,192,40998,1,0,0:0:0:0:
192,192,41063,1,0,0:0:0:0:
64,192,41129,1,0,0:0:0:0:
320,192,41194,1,0,0:0:0:0:
192,192,41259,1,0,0:0:0:0:
320,192,41324,1,0,0:0:0:0:
448,192,41324,1,0,0:0:0:0:
64,192,41390,1,0,0:0:0:0:
448,192,41455,1,0,0:0:0:0:
192,192,41520,1,0,0:0:0:0:
64,192,41585,1,0,0:0:0:0:
320,192,41585,1,0,0:0:0:0:
320,192,41716,1,0,0:0:0:0:
448,192,41716,1,0,0:0:0:0:
192,192,41781,1,0,0:0:0:0:
448,192,41846,1,0,0:0:0:0:
64,192,41846,1,0,0:0:0:0:
320,192,41976,1,0,0:0:0:0:
64,192,41976,1,0,0:0:0:0:
448,192,42107,1,0,0:0:0:0:
320,192,42107,1,0,0:0:0:0:
192,192,42172,1,0,0:0:0:0:
64,192,42237,1,0,0:0:0:0:
320,192,42303,1,0,0:0:0:0:
192,192,42368,1,0,0:0:0:0:
448,192,42368,1,0,0:0:0:0:
64,192,42433,1,0,0:0:0:0:
192,192,42498,1,0,0:0:0:0:
320,192,42563,1,0,0:0:0:0:
448,192,42629,1,0,0:0:0:0:
64,192,42694,1,0,0:0:0:0:
320,192,42759,1,0,0:0:0:0:
448,192,42824,1,0,0:0:0:0:
192,192,42890,1,0,0:0:0:0:
64,192,42890,1,0,0:0:0:0:
320,192,42955,1,0,0:0:0:0:
192,192,43020,1,0,0:0:0:0:
64,192,43085,1,0,0:0:0:0:
320,192,43150,1,0,0:0:0:0:
192,192,43216,1,0,0:0:0:0:
320,192,43281,1,0,0:0:0:0:
64,192,43281,1,0,0:0:0:0:
448,192,43346,1,0,0:0:0:0:
64,192,43411,1,0,0:0:0:0:
192,192,43411,1,0,0:0:0:0:
64,192,43542,1,0,0:0:0:0:
192,192,43542,1,0,0:0:0:0:
320,192,43607,1,0,0:0:0:0:
448,192,43607,1,0,0:0:0:0:
192,192,43672,1,0,0:0:0:0:
64,192,43672,1,0,0:0:0:0:
192,192,43803,1,0,0:0:0:0:
320,192,43803,1,0,0:0:0:0:
448,192,43933,1,0,0:0:0:0:
192,192,43998,1,0,0:0:0:0:
64,192,44063,1,0,0:0:0:0:
320,192,44063,1,0,0:0:0:0:
192,192,44194,1,0,0:0:0:0:
64,192,44194,1,0,0:0:0:0:
320,192,44259,1,0,0:0:0:0:
448,192,44324,1,0,0:0:0:0:
192,192,44390,1,0,0:0:0:0:
320,192,44455,1,0,0:0:0:0:
64,192,44455,1,0,0:0:0:0:
192,192,44585,1,0,0:0:0:0:
448,192,44585,1,0,0:0:0:0:
320,192,44650,1,0,0:0:0:0:
192,192,44716,1,0,0:0:0:0:
64,192,44716,1,0,0:0:0:0:
64,192,44846,1,0,0:0:0:0:
320,192,44846,1,0,0:0:0:0:
448,192,45237,1,0,0:0:0:0:
320,192,45237,1,0,0:0:0:0:
192,192,45281,1,0,0:0:0:0:
64,192,45324,1,0,0:0:0:0:
448,192,45368,1,0,0:0:0:0:
320,192,45411,1,0,0:0:0:0:
64,192,45455,1,0,0:0:0:0:
192,192,45498,1,0,0:0:0:0:
320,192,45542,1,0,0:0:0:0:
448,192,45585,1,0,0:0:0:0:
192,192,45629,1,0,0:0:0:0:
64,192,45629,1,0,0:0:0:0:
64,192,45759,1,0,0:0:0:0:
192,192,45759,1,0,0:0:0:0:
192,192,45890,1,0,0:0:0:0:
64,192,45890,1,0,0:0:0:0:
448,192,46281,1,0,0:0:0:0:
320,192,46281,1,0,0:0:0:0:
192,192,46324,1,0,0:0:0:0:
64,192,46368,1,0,0:0:0:0:
448,192,46411,1,0,0:0:0:0:
320,192,46455,1,0,0:0:0:0:
64,192,46498,1,0,0:0:0:0:
192,192,46542,1,0,0:0:0:0:
448,192,46542,1,0,0:0:0:0:
320,192,46672,1,0,0:0:0:0:
448,192,46672,1,0,0:0:0:0:
448,192,46803,1,0,0:0:0:0:
320,192,46803,1,0,0:0:0:0:
320,192,46933,1,0,0:0:0:0:
448,192,46933,1,0,0:0:0:0:
448,192,47324,1,0,0:0:0:0:
320,192,47324,1,0,0:0:0:0:
192,192,47368,1,0,0:0:0:0:
64,192,47411,1,0,0:0:0:0:
448,192,47455,1,0,0:0:0:0:
320,192,47498,1,0,0:0:0:0:
64,192,47542,1,0,0:0:0:0:
192,192,47585,1,0,0:0:0:0:
320,192,47650,1,0,0:0:0:0:
192,192,47716,1,0,0:0:0:0:
320,192,47781,1,0,0:0:0:0:
192,192,47846,1,0,0:0:0:0:
448,192,47846,1,0,0:0:0:0:
64,192,47911,1,0,0:0:0:0:
320,192,47976,1,0,0:0:0:0:
192,192,48042,1,0,0:0:0:0:
320,192,48107,1,0,0:0:0:0:
448,192,48172,1,0,0:0:0:0:
192,192,48237,1,0,0:0:0:0:
64,192,48237,1,0,0:0:0:0:
320,192,48303,1,0,0:0:0:0:
448,192,48368,1,0,0:0:0:0:
192,192,48433,1,0,0:0:0:0:
320,192,48498,1,0,0:0:0:0:
64,192,48563,1,0,0:0:0:0:
192,192,48629,1,0,0:0:0:0:
448,192,48629,1,0,0:0:0:0:
320,192,48694,1,0,0:0:0:0:
64,192,48759,1,0,0:0:0:0:
192,192,48824,1,0,0:0:0:0:
320,192,48890,1,0,0:0:0:0:
448,192,48890,1,0,0:0:0:0:
448,192,49020,1,0,0:0:0:0:
64,192,49020,1,0,0:0:0:0:
64,192,49150,1,0,0:0:0:0:
192,192,49150,1,0,0:0:0:0:
320,192,49150,1,0,0:0:0:0:
64,192,49411,1,0,0:0:0:0:
192,192,49411,1,0,0:0:0:0:
320,192,49455,1,0,0:0:0:0:
448,192,49498,1,0,0:0:0:0:
64,192,49542,1,0,0:0:0:0:
320,192,49607,1,0,0:0:0:0:
64,192,49672,1,0,0:0:0:0:
192,192,49672,1,0,0:0:0:0:
320,192,49737,1,0,0:0:0:0:
64,192,49803,1,0,0:0:0:0:
320,192,49868,1,0,0:0:0:0:
64,192,49933,1,0,0:0:0:0:
192,192,49933,1,0,0:0:0:0:
192,192,50063,1,0,0:0:0:0:
448,192,50063,1,0,0:0:0:0:
448,192,50194,1,0,0:0:0:0:
320,192,50194,1,0,0:0:0:0:
64,192,50194,1,0,0:0:0:0:
448,192,50455,1,0,0:0:0:0:
320,192,50455,1,0,0:0:0:0:
192,192,50498,1,0,0:0:0:0:
64,192,50542,1,0,0:0:0:0:
448,192,50585,1,0,0:0:0:0:
192,192,50650,1,0,0:0:0:0:
448,192,50716,1,0,0:0:0:0:
320,192,50716,1,0,0:0:0:0:
192,192,50781,1,0,0:0:0:0:
448,192,50846,1,0,0:0:0:0:
192,192,50911,1,0,0:0:0:0:
320,192,50976,1,0,0:0:0:0:
448,192,50976,1,0,0:0:0:0:
64,192,51042,1,0,0:0:0:0:
192,192,51107,1,0,0:0:0:0:
448,192,51172,1,0,0:0:0:0:
64,192,51237,1,0,0:0:0:0:
320,192,51303,1,0,0:0:0:0:
192,192,51368,1,0,0:0:0:0:
64,192,51368,1,0,0:0:0:0:
448,192,51433,1,0,0:0:0:0:
320,192,51498,1,0,0:0:0:0:
192,192,51563,1,0,0:0:0:0:
448,192,51629,1,0,0:0:0:0:
64,192,51694,1,0,0:0:0:0:
192,192,51759,1,0,0:0:0:0:
448,192,51759,1,0,0:0:0:0:
320,192,51824,1,0,0:0:0:0:
64,192,51890,1,0,0:0:0:0:
192,192,51955,1,0,0:0:0:0:
448,192,52020,1,0,0:0:0:0:
320,192,52020,1,0,0:0:0:0:
448,192,52150,1,0,0:0:0:0:
64,192,52150,1,0,0:0:0:0:
320,192,52281,1,0,0:0:0:0:
192,192,52281,1,0,0:0:0:0:
192,192,52411,1,0,0:0:0:0:
448,192,52411,1,0,0:0:0:0:
448,192,52542,1,0,0:0:0:0:
64,192,52542,1,0,0:0:0:0:
64,192,52672,1,0,0:0:0:0:
320,192,52672,1,0,0:0:0:0:
320,192,52803,1,0,0:0:0:0:
448,192,52803,1,0,0:0:0:0:
192,192,52868,1,0,0:0:0:0:
64,192,52868,1,0,0:0:0:0:
320,192,52933,1,0,0:0:0:0:
192,192,52998,1,0,0:0:0:0:
320,192,53063,1,0,0:0:0:0:
448,192,53063,1,0,0:0:0:0:
64,192,53129,1,0,0:0:0:0:
192,192,53194,1,0,0:0:0:0:
448,192,53259,1,0,0:0:0:0:
192,192,53324,1,0,0:0:0:0:
320,192,53390,1,0,0:0:0:0:
64,192,53455,1,0,0:0:0:0:
448,192,53520,1,0,0:0:0:0:
192,192,53585,1,0,0:0:0:0:
64,192,53585,1,0,0:0:0:0:
320,192,53650,1,0,0:0:0:0:
192,192,53716,1,0,0:0:0:0:
320,192,53781,1,0,0:0:0:0:
192,192,53846,1,0,0:0:0:0:
64,192,53846,1,0,0:0:0:0:
320,192,53911,1,0,0:0:0:0:
64,192,53976,1,0,0:0:0:0:
320,192,54042,1,0,0:0:0:0:
64,192,54107,1,0,0:0:0:0:
448,192,54107,1,0,0:0:0:0:
192,192,54172,1,0,0:0:0:0:
448,192,54237,1,0,0:0:0:0:
320,192,54303,1,0,0:0:0:0:
64,192,54368,1,0,0:0:0:0:
448,192,54433,1,0,0:0:0:0:
192,192,54498,1,0,0:0:0:0:
64,192,54563,1,0,0:0:0:0:
320,192,54629,1,0,0:0:0:0:
448,192,54629,1,0,0:0:0:0:
192,192,54694,1,0,0:0:0:0:
320,192,54759,1,0,0:0:0:0:
192,192,54824,1,0,0:0:0:0:
448,192,54890,1,0,0:0:0:0:
320,192,54890,1,0,0:0:0:0:
192,192,54955,1,0,0:0:0:0:
448,192,55020,1,0,0:0:0:0:
192,192,55085,1,0,0:0:0:0:
448,192,55150,1,0,0:0:0:0:
64,192,55150,1,0,0:0:0:0:
320,192,55216,1,0,0:0:0:0:
64,192,55281,1,0,0:0:0:0:
448,192,55346,1,0,0:0:0:0:
192,192,55411,1,0,0:0:0:0:
64,192,55476,1,0,0:0:0:0:
320,192,55542,1,0,0:0:0:0:
448,192,55607,1,0,0:0:0:0:
64,192,55672,1,0,0:0:0:0:
192,192,55672,1,0,0:0:0:0:
320,192,55737,1,0,0:0:0:0:
192,192,55803,1,0,0:0:0:0:
320,192,55868,1,0,0:0:0:0:
192,192,55933,1,0,0:0:0:0:
64,192,55933,1,0,0:0:0:0:
320,192,55998,1,0,0:0:0:0:
64,192,56063,1,0,0:0:0:0:
320,192,56129,1,0,0:0:0:0:
64,192,56194,1,0,0:0:0:0:
448,192,56194,1,0,0:0:0:0:
448,192,56324,1,0,0:0:0:0:
192,192,56324,1,0,0:0:0:0:
448,192,56455,1,0,0:0:0:0:
64,192,56455,1,0,0:0:0:0:
64,192,56585,1,0,0:0:0:0:
320,192,56585,1,0,0:0:0:0:
64,192,56716,1,0,0:0:0:0:
192,192,56716,1,0,0:0:0:0:
448,192,56846,1,0,0:0:0:0:
320,192,56976,1,0,0:0:0:0:
192,192,56976,1,0,0:0:0:0:
320,192,57107,1,0,0:0:0:0:
64,192,57107,1,0,0:0:0:0:
64,192,57237,1,0,0:0:0:0:
192,192,57237,1,0,0:0:0:0:
448,192,57237,1,0,0:0:0:0:
192,192,57368,1,0,0:0:0:0:
320,192,57368,1,0,0:0:0:0:
448,192,57498,1,0,0:0:0:0:
64,192,57498,1,0,0:0:0:0:
448,192,57629,1,0,0:0:0:0:
320,192,57694,1,0,0:0:0:0:
192,192,57759,1,0,0:0:0:0:
64,192,57759,1,0,0:0:0:0:
448,192,57824,1,0,0:0:0:0:
64,192,57890,1,0,0:0:0:0:
448,192,57955,1,0,0:0:0:0:
64,192,58020,1,0,0:0:0:0:
320,192,58020,1,0,0:0:0:0:
192,192,58085,1,0,0:0:0:0:
320,192,58150,1,0,0:0:0:0:
192,192,58216,1,0,0:0:0:0:
320,192,58281,1,0,0:0:0:0:
448,192,58281,1,0,0:0:0:0:
448,192,58411,1,0,0:0:0:0:
64,192,58411,1,0,0:0:0:0:
320,192,58542,1,0,0:0:0:0:
192,192,58542,1,0,0:0:0:0:
64,192,58672,1,0,0:0:0:0:
192,192,58737,1,0,0:0:0:0:
320,192,58803,1,0,0:0:0:0:
448,192,58803,1,0,0:0:0:0:
64,192,58868,1,0,0:0:0:0:
448,192,58933,1,0,0:0:0:0:
64,192,58998,1,0,0:0:0:0:
448,192,59063,1,0,0:0:0:0:
192,192,59063,1,0,0:0:0:0:
320,192,59129,1,0,0:0:0:0:
192,192,59194,1,0,0:0:0:0:
320,192,59259,1,0,0:0:0:0:
192,192,59324,1,0,0:0:0:0:
64,192,59324,1,0,0:0:0:0:
64,192,59455,1,0,0:0:0:0:
448,192,59455,1,0,0:0:0:0:
320,192,59585,1,0,0:0:0:0:
192,192,59585,1,0,0:0:0:0:
320,192,59716,1,0,0:0:0:0:
448,192,59716,1,0,0:0:0:0:
448,192,59846,1,0,0:0:0:0:
64,192,59846,1,0,0:0:0:0:
64,192,59976,1,0,0:0:0:0:
320,192,59976,1,0,0:0:0:0:
192,192,60107,1,0,0:0:0:0:
320,192,60107,1,0,0:0:0:0:
192,192,60237,1,0,0:0:0:0:
448,192,60237,1,0,0:0:0:0:
448,192,60368,1,0,0:0:0:0:
64,192,60368,1,0,0:0:0:0:
192,192,60498,1,0,0:0:0:0:
320,192,60629,1,0,0:0:0:0:
64,192,60759,1,0,0:0:0:0:
448,192,60890,1,0,0:0:0:0:
320,192,61020,1,0,0:0:0:0:
192,192,61150,1,0,0:0:0:0:
64,192,61281,1,0,0:0:0:0:
448,192,61411,1,0,0:0:0:0:
320,192,61411,1,0,0:0:0:0:
192,192,61455,1,0,0:0:0:0:
64,192,61498,1,0,0:0:0:0:
320,192,61542,1,0,0:0:0:0:
192,192,61585,1,0,0:0:0:0:
448,192,61629,1,0,0:0:0:0:
320,192,61672,1,0,0:0:0:0:
64,192,61672,1,0,0:0:0:0:
192,192,61737,1,0,0:0:0:0:
320,192,61803,1,0,0:0:0:0:
448,192,61868,1,0,0:0:0:0:
192,192,61933,1,0,0:0:0:0:
320,192,61998,1,0,0:0:0:0:
64,192,62063,1,0,0:0:0:0:
192,192,62129,1,0,0:0:0:0:
448,192,62194,1,0,0:0:0:0:
320,192,62194,1,0,0:0:0:0:
192,192,62259,1,0,0:0:0:0:
64,192,62324,1,0,0:0:0:0:
320,192,62390,1,0,0:0:0:0:
192,192,62455,1,0,0:0:0:0:
320,192,62520,1,0,0:0:0:0:
448,192,62585,1,0,0:0:0:0:
192,192,62650,1,0,0:0:0:0:
320,192,62716,1,0,0:0:0:0:
64,192,62716,1,0,0:0:0:0:
448,192,62781,1,0,0:0:0:0:
192,192,62846,1,0,0:0:0:0:
320,192,62911,1,0,0:0:0:0:
64,192,62976,1,0,0:0:0:0:
320,192,63042,1,0,0:0:0:0:
448,192,63107,1,0,0:0:0:0:
192,192,63172,1,0,0:0:0:0:
320,192,63237,1,0,0:0:0:0:
64,192,63237,1,0,0:0:0:0:
448,192,63303,1,0,0:0:0:0:
192,192,63368,1,0,0:0:0:0:
64,192,63433,1,0,0:0:0:0:
320,192,63498,1,0,0:0:0:0:
192,192,63563,1,0,0:0:0:0:
448,192,63629,1,0,0:0:0:0:
320,192,63694,1,0,0:0:0:0:
192,192,63759,1,0,0:0:0:0:
64,192,63759,1,0,0:0:0:0:
320,192,63824,1,0,0:0:0:0:
448,192,63890,1,0,0:0:0:0:
192,192,63955,1,0,0:0:0:0:
64,192,64020,1,0,0:0:0:0:
448,192,64085,1,0,0:0:0:0:
320,192,64150,1,0,0:0:0:0:
192,192,64216,1,0,0:0:0:0:
64,192,64281,1,0,0:0:0:0:
320,192,64281,1,0,0:0:0:0:
448,192,64346,1,0,0:0:0:0:
192,192,64411,1,0,0:0:0:0:
320,192,64476,1,0,0:0:0:0:
192,192,64542,1,0,0:0:0:0:
64,192,64607,1,0,0:0:0:0:
320,192,64672,1,0,0:0:0:0:
192,192,64737,1,0,0:0:0:0:
320,192,64803,1,0,0:0:0:0:
448,192,64803,1,0,0:0:0:0:
64,192,64868,1,0,0:0:0:0:
192,192,64933,1,0,0:0:0:0:
320,192,64998,1,0,0:0:0:0:
64,192,65063,1,0,0:0:0:0:
320,192,65129,1,0,0:0:0:0:
448,192,65194,1,0,0:0:0:0:
192,192,65259,1,0,0:0:0:0:
320,192,65324,1,0,0:0:0:0:
64,192,65324,1,0,0:0:0:0:
448,192,65390,1,0,0:0:0:0:
192,192,65455,1,0,0:0:0:0:
320,192,65520,1,0,0:0:0:0:
64,192,65585,1,0,0:0:0:0:
192,192,65650,1,0,0:0:0:0:
320,192,65716,1,0,0:0:0:0:
192,192,65781,1,0,0:0:0:0:
448,192,65846,1,0,0:0:0:0:
320,192,65846,1,0,0:0:0:0:
64,192,65911,1,0,0:0:0:0:
448,192,65976,1,0,0:0:0:0:
320,192,66042,1,0,0:0:0:0:
192,192,66107,1,0,0:0:0:0:
448,192,66172,1,0,0:0:0:0:
64,192,66237,1,0,0:0:0:0:
192,192,66303,1,0,0:0:0:0:
320,192,66368,1,0,0:0:0:0:
448,192,66368,1,0,0:0:0:0:
64,192,66433,1,0,0:0:0:0:
192,192,66498,1,0,0:0:0:0:
320,192,66563,1,0,0:0:0:0:
64,192,66629,1,0,0:0:0:0:
192,192,66694,1,0,0:0:0:0:
448,192,66759,1,0,0:0:0:0:
320,192,66824,1,0,0:0:0:0:
192,192,66890,1,0,0:0:0:0:
64,192,66890,1,0,0:0:0:0:
320,192,66955,1,0,0:0:0:0:
448,192,67020,1,0,0:0:0:0:
64,192,67085,1,0,0:0:0:0:
192,192,67150,1,0,0:0:0:0:
448,192,67216,1,0,0:0:0:0:
320,192,67281,1,0,0:0:0:0:
192,192,67346,1,0,0:0:0:0:
64,192,67411,1,0,0:0:0:0:
320,192,67411,1,0,0:0:0:0:
448,192,67476,1,0,0:0:0:0:
192,192,67542,1,0,0:0:0:0:
320,192,67607,1,0,0:0:0:0:
192,192,67672,1,0,0:0:0:0:
64,192,67737,1,0,0:0:0:0:
448,192,67803,1,0,0:0:0:0:
192,192,67868,1,0,0:0:0:0:
320,192,67933,1,0,0:0:0:0:
64,192,67933,1,0,0:0:0:0:
448,192,67998,1,0,0:0:0:0:
192,192,68063,1,0,0:0:0:0:
320,192,68129,1,0,0:0:0:0:
64,192,68194,1,0,0:0:0:0:
448,192,68259,1,0,0:0:0:0:
64,192,68324,1,0,0:0:0:0:
320,192,68390,1,0,0:0:0:0:
192,192,68455,1,0,0:0:0:0:
448,192,68455,1,0,0:0:0:0:
64,192,68520,1,0,0:0:0:0:
320,192,68585,1,0,0:0:0:0:
192,192,68650,1,0,0:0:0:0:
448,192,68716,1,0,0:0:0:0:
64,192,68781,1,0,0:0:0:0:
320,192,68846,1,0,0:0:0:0:
192,192,68911,1,0,0:0:0:0:
320,192,68976,1,0,0:0:0:0:
448,192,68976,1,0,0:0:0:0:
64,192,69042,1,0,0:0:0:0:
448,192,69107,1,0,0:0:0:0:
192,192,69172,1,0,0:0:0:0:
320,192,69237,1,0,0:0:0:0:
64,192,69303,1,0,0:0:0:0:
448,192,69368,1,0,0:0:0:0:
192,192,69433,1,0,0:0:0:0:
64,192,69498,1,0,0:0:0:0:
320,192,69498,1,0,0:0:0:0:
448,192,69563,1,0,0:0:0:0:
64,192,69629,1,0,0:0:0:0:
448,192,69694,1,0,0:0:0:0:
64,192,69759,1,0,0:0:0:0:
192,192,69759,1,0,0:0:0:0:
320,192,69824,1,0,0:0:0:0:
448,192,69890,1,0,0:0:0:0:
192,192,69955,1,0,0:0:0:0:
320,192,70020,1,0,0:0:0:0:
64,192,70020,1,0,0:0:0:0:
448,192,70085,1,0,0:0:0:0:
192,192,70150,1,0,0:0:0:0:
320,192,70216,1,0,0:0:0:0:
64,192,70281,1,0,0:0:0:0:
448,192,70346,1,0,0:0:0:0:
320,192,70411,1,0,0:0:0:0:
64,192,70476,1,0,0:0:0:0:
192,192,70542,1,0,0:0:0:0:
448,192,70542,1,0,0:0:0:0:
320,192,70607,1,0,0:0:0:0:
192,192,70672,1,0,0:0:0:0:
64,192,70737,1,0,0:0:0:0:
320,192,70803,1,0,0:0:0:0:
192,192,70868,1,0,0:0:0:0:
448,192,70933,1,0,0:0:0:0:
320,192,70998,1,0,0:0:0:0:
64,192,71063,1,0,0:0:0:0:
192,192,71063,1,0,0:0:0:0:
320,192,71129,1,0,0:0:0:0:
448,192,71194,1,0,0:0:0:0:
192,192,71259,1,0,0:0:0:0:
320,192,71324,1,0,0:0:0:0:
192,192,71390,1,0,0:0:0:0:
64,192,71455,1,0,0:0:0:0:
320,192,71520,1,0,0:0:0:0:
192,192,71585,1,0,0:0:0:0:
448,192,71585,1,0,0:0:0:0:
64,192,71650,1,0,0:0:0:0:
320,192,71716,1,0,0:0:0:0:
192,192,71781,1,0,0:0:0:0:
320,192,71846,1,0,0:0:0:0:
64,192,71911,1,0,0:0:0:0:
192,192,71976,1,0,0:0:0:0:
448,192,72042,1,0,0:0:0:0:
320,192,72107,1,0,0:0:0:0:
64,192,72107,1,0,0:0:0:0:
192,192,72172,1,0,0:0:0:0:
448,192,72237,1,0,0:0:0:0:
320,192,72303,1,0,0:0:0:0:
192,192,72368,1,0,0:0:0:0:
448,192,72433,1,0,0:0:0:0:
64,192,72498,1,0,0:0:0:0:
320,192,72563,1,0,0:0:0:0:
192,192,72629,1,0,0:0:0:0:
64,192,72629,1,0,0:0:0:0:
320,192,72694,1,0,0:0:0:0:
448,192,72759,1,0,0:0:0:0:
192,192,72824,1,0,0:0:0:0:
320,192,72890,1,0,0:0:0:0:
64,192,72955,1,0,0:0:0:0:
192,192,73020,1,0,0:0:0:0:
320,192,73085,1,0,0:0:0:0:
192,192,73150,1,0,0:0:0:0:
448,192,73150,1,0,0:0:0:0:
64,192,73216,1,0,0:0:0:0:
320,192,73281,1,0,0:0:0:0:
192,192,73346,1,0,0:0:0:0:
320,192,73411,1,0,0:0:0:0:
448,192,73476,1,0,0:0:0:0:
192,192,73542,1,0,0:0:0:0:
320,192,73607,1,0,0:0:0:0:
64,192,73672,1,0,0:0:0:0:
192,192,73672,1,0,0:0:0:0:
448,192,73737,1,0,0:0:0:0:
320,192,73803,1,0,0:0:0:0:
64,192,73868,1,0,0:0:0:0:
192,192,73933,1,0,0:0:0:0:
448,192,73933,1,0,0:0:0:0:
320,192,73998,1,0,0:0:0:0:
64,192,74063,1,0,0:0:0:0:
192,192,74129,1,0,0:0:0:0:
320,192,74194,1,0,0:0:0:0:
64,192,74194,1,0,0:0:0:0:
448,192,74259,1,0,0:0:0:0:
192,192,74324,1,0,0:0:0:0:
320,192,74390,1,0,0:0:0:0:
192,192,74455,1,0,0:0:0:0:
64,192,74455,1,0,0:0:0:0:
448,192,74520,1,0,0:0:0:0:
64,192,74585,1,0,0:0:0:0:
192,192,74650,1,0,0:0:0:0:
320,192,74716,1,0,0:0:0:0:
448,192,74716,1,0,0:0:0:0:
192,192,74781,1,0,0:0:0:0:
64,192,74846,1,0,0:0:0:0:
320,192,74911,1,0,0:0:0:0:
192,192,74976,1,0,0:0:0:0:
448,192,74976,1,0,0:0:0:0:
64,192,75042,1,0,0:0:0:0:
320,192,75107,1,0,0:0:0:0:
192,192,75172,1,0,0:0:0:0:
320,192,75237,1,0,0:0:0:0:
448,192,75237,1,0,0:0:0:0:
64,192,75303,1,0,0:0:0:0:
320,192,75368,1,0,0:0:0:0:
192,192,75433,1,0,0:0:0:0:
64,192,75498,1,0,0:0:0:0:
320,192,75498,1,0,0:0:0:0:
448,192,75563,1,0,0:0:0:0:
192,192,75629,1,0,0:0:0:0:
320,192,75694,1,0,0:0:0:0:
64,192,75759,1,0,0:0:0:0:
192,192,75759,1,0,0:0:0:0:
448,192,75824,1,0,0:0:0:0:
320,192,75890,1,0,0:0:0:0:
192,192,75955,1,0,0:0:0:0:
320,192,76020,1,0,0:0:0:0:
64,192,76020,1,0,0:0:0:0:
448,192,76085,1,0,0:0:0:0:
192,192,76150,1,0,0:0:0:0:
320,192,76216,1,0,0:0:0:0:
192,192,76281,1,0,0:0:0:0:
64,192,76281,1,0,0:0:0:0:
448,192,76346,1,0,0:0:0:0:
64,192,76411,1,0,0:0:0:0:
320,192,76476,1,0,0:0:0:0:
192,192,76542,1,0,0:0:0:0:
448,192,76542,1,0,0:0:0:0:
320,192,76607,1,0,0:0:0:0:
64,192,76672,1,0,0:0:0:0:
192,192,76737,1,0,0:0:0:0:
320,192,76803,1,0,0:0:0:0:
448,192,76803,1,0,0:0:0:0:
64,192,76868,1,0,0:0:0:0:
448,192,76933,1,0,0:0:0:0:
192,192,76998,1,0,0:0:0:0:
320,192,77063,1,0,0:0:0:0:
64,192,77063,1,0,0:0:0:0:
192,192,77129,1,0,0:0:0:0:
448,192,77194,1,0,0:0:0:0:
192,192,77259,1,0,0:0:0:0:
320,192,77324,1,0,0:0:0:0:
64,192,77390,1,0,0:0:0:0:
320,192,77455,1,0,0:0:0:0:
192,192,77520,1,0,0:0:0:0:
448,192,77585,1,0,0:0:0:0:
64,192,77650,1,0,0:0:0:0:
320,192,77716,1,0,0:0:0:0:
192,192,77781,1,0,0:0:0:0:
320,192,77846,1,0,0:0:0:0:
192,192,77911,1,0,0:0:0:0:
64,192,77976,1,0,0:0:0:0:
448,192,78042,1,0,0:0:0:0:
192,192,78107,1,0,0:0:0:0:
64,192,78107,1,0,0:0:0:0:
320,192,78172,1,0,0:0:0:0:
64,192,78237,1,0,0:0:0:0:
192,192,78303,1,0,0:0:0:0:
320,192,78368,1,0,0:0:0:0:
64,192,78433,1,0,0:0:0:0:
320,192,78498,1,0,0:0:0:0:
192,192,78563,1,0,0:0:0:0:
64,192,78629,1,0,0:0:0:0:
192,192,78694,1,0,0:0:0:0:
320,192,78759,1,0,0:0:0:0:
64,192,78824,1,0,0:0:0:0:
448,192,78890,1,0,0:0:0:0:
320,192,78890,1,0,0:0:0:0:
192,192,78955,1,0,0:0:0:0:
448,192,79020,1,0,0:0:0:0:
320,192,79085,1,0,0:0:0:0:
192,192,79150,1,0,0:0:0:0:
448,192,79216,1,0,0:0:0:0:
192,192,79281,1,0,0:0:0:0:
320,192,79346,1,0,0:0:0:0:
448,192,79411,1,0,0:0:0:0:
320,192,79476,1,0,0:0:0:0:
192,192,79542,1,0,0:0:0:0:
448,192,79607,1,0,0:0:0:0:
192,192,79672,1,0,0:0:0:0:
64,192,79672,1,0,0:0:0:0:
64,192,79803,1,0,0:0:0:0:
320,192,79803,1,0,0:0:0:0:
320,192,79933,1,0,0:0:0:0:
448,192,79933,1,0,0:0:0:0:
448,192,80063,1,0,0:0:0:0:
64,192,80063,1,0,0:0:0:0:
64,192,80194,1,0,0:0:0:0:
192,192,80194,1,0,0:0:0:0:
320,192,80259,1,0,0:0:0:0:
64,192,80324,1,0,0:0:0:0:
320,192,80390,1,0,0:0:0:0:
192,192,80455,1,0,0:0:0:0:
448,192,80520,1,0,0:0:0:0:
192,192,80585,1,0,0:0:0:0:
64,192,80650,1,0,0:0:0:0:
320,192,80716,1,0,0:0:0:0:
192,192,80781,1,0,0:0:0:0:
448,192,80846,1,0,0:0:0:0:
64,192,80911,1,0,0:0:0:0:
320,192,80976,1,0,0:0:0:0:
192,192,81042,1,0,0:0:0:0:
448,192,81107,1,0,0:0:0:0:
192,192,81172,1,0,0:0:0:0:
320,192,81237,1,0,0:0:0:0:
64,192,81303,1,0,0:0:0:0:
320,192,81368,1,0,0:0:0:0:
192,192,81433,1,0,0:0:0:0:
448,192,81498,1,0,0:0:0:0:
64,192,81563,1,0,0:0:0:0:
448,192,81629,1,0,0:0:0:0:
192,192,81694,1,0,0:0:0:0:
320,192,81759,1,0,0:0:0:0:
64,192,81824,1,0,0:0:0:0:
192,192,81824,1,0,0:0:0:0:
320,192,81890,1,0,0:0:0:0:
448,192,81890,1,0,0:0:0:0:
192,192,81955,1,0,0:0:0:0:
64,192,81955,1,0,0:0:0:0:
320,192,82020,1,0,0:0:0:0:
192,192,82085,1,0,0:0:0:0:
320,192,82150,1,0,0:0:0:0:
192,192,82216,1,0,0:0:0:0:
448,192,82281,1,0,0:0:0:0:
320,192,82281,1,0,0:0:0:0:
64,192,82346,1,0,0:0:0:0:
192,192,82411,1,0,0:0:0:0:
320,192,82476,1,0,0:0:0:0:
448,192,82542,1,0,0:0:0:0:
192,192,82542,1,0,0:0:0:0:
64,192,82607,1,0,0:0:0:0:
320,192,82672,1,0,0:0:0:0:
192,192,82737,1,0,0:0:0:0:
320,192,82803,1,0,0:0:0:0:
448,192,82803,1,0,0:0:0:0:
64,192,82868,1,0,0:0:0:0:
192,192,82933,1,0,0:0:0:0:
320,192,82998,1,0,0:0:0:0:
192,192,83063,1,0,0:0:0:0:
64,192,83063,1,0,0:0:0:0:
448,192,83129,1,0,0:0:0:0:
320,192,83194,1,0,0:0:0:0:
64,192,83259,1,0,0:0:0:0:
192,192,83324,1,0,0:0:0:0:
448,192,83324,1,0,0:0:0:0:
320,192,83390,1,0,0:0:0:0:
192,192,83455,1,0,0:0:0:0:
64,192,83520,1,0,0:0:0:0:
448,192,83585,1,0,0:0:0:0:
320,192,83585,1,0,0:0:0:0:
192,192,83650,1,0,0:0:0:0:
64,192,83716,1,0,0:0:0:0:
448,192,83781,1,0,0:0:0:0:
192,192,83846,1,0,0:0:0:0:
448,192,83911,1,0,0:0:0:0:
64,192,83976,1,0,0:0:0:0:
320,192,83976,1,0,0:0:0:0:
192,192,84042,1,0,0:0:0:0:
64,192,84107,1,0,0:0:0:0:
448,192,84172,1,0,0:0:0:0:
320,192,84237,1,0,0:0:0:0:
64,192,84303,1,0,0:0:0:0:
192,192,84368,1,0,0:0:0:0:
448,192,84433,1,0,0:0:0:0:
320,192,84498,1,0,0:0:0:0:
64,192,84563,1,0,0:0:0:0:
320,192,84629,1,0,0:0:0:0:
64,192,84694,1,0,0:0:0:0:
320,192,84759,1,0,0:0:0:0:
448,192,84759,1,0,0:0:0:0:
192,192,84824,1,0,0:0:0:0:
448,192,84890,1,0,0:0:0:0:
320,192,84955,1,0,0:0:0:0:
192,192,85020,1,0,0:0:0:0:
64,192,85085,1,0,0:0:0:0:
320,192,85150,1,0,0:0:0:0:
192,192,85216,1,0,0:0:0:0:
448,192,85281,1,0,0:0:0:0:
64,192,85346,1,0,0:0:0:0:
320,192,85411,1,0,0:0:0:0:
448,192,85411,1,0,0:0:0:0:
192,192,85476,1,0,0:0:0:0:
64,192,85542,1,0,0:0:0:0:
448,192,85607,1,0,0:0:0:0:
64,192,85672,1,0,0:0:0:0:
320,192,85672,1,0,0:0:0:0:
192,192,85737,1,0,0:0:0:0:
320,192,85803,1,0,0:0:0:0:
448,192,85868,1,0,0:0:0:0:
192,192,85933,1,0,0:0:0:0:
64,192,85933,1,0,0:0:0:0:
448,192,85998,1,0,0:0:0:0:
64,192,86063,1,0,0:0:0:0:
320,192,86063,1,0,0:0:0:0:
192,192,86129,1,0,0:0:0:0:
320,192,86194,1,0,0:0:0:0:
448,192,86194,1,0,0:0:0:0:
64,192,86259,1,0,0:0:0:0:
448,192,86324,1,0,0:0:0:0:
192,192,86324,1,0,0:0:0:0:
320,192,86390,1,0,0:0:0:0:
192,192,86455,1,0,0:0:0:0:
64,192,86455,1,0,0:0:0:0:
448,192,86520,1,0,0:0:0:0:
192,192,86585,1,0,0:0:0:0:
64,192,86650,1,0,0:0:0:0:
448,192,86716,1,0,0:0:0:0:
320,192,86716,1,0,0:0:0:0:
192,192,86781,1,0,0:0:0:0:
64,192,86846,1,0,0:0:0:0:
320,192,86911,1,0,0:0:0:0:
448,192,86976,1,0,0:0:0:0:
192,192,86976,1,0,0:0:0:0:
64,192,87042,1,0,0:0:0:0:
320,192,87107,1,0,0:0:0:0:
192,192,87172,1,0,0:0:0:0:
448,192,87237,1,0,0:0:0:0:
320,192,87237,1,0,0:0:0:0:
64,192,87303,1,0,0:0:0:0:
192,192,87368,1,0,0:0:0:0:
448,192,87433,1,0,0:0:0:0:
320,192,87498,1,0,0:0:0:0:
64,192,87498,1,0,0:0:0:0:
192,192,87563,1,0,0:0:0:0:
448,192,87629,1,0,0:0:0:0:
320,192,87694,1,0,0:0:0:0:
192,192,87759,1,0,0:0:0:0:
64,192,87759,1,0,0:0:0:0:
320,192,87824,1,0,0:0:0:0:
448,192,87890,1,0,0:0:0:0:
192,192,87955,1,0,0:0:0:0:
64,192,88020,1,0,0:0:0:0:
320,192,88020,1,0,0:0:0:0:
448,192,88085,1,0,0:0:0:0:
192,192,88150,1,0,0:0:0:0:
320,192,88216,1,0,0:0:0:0:
192,192,88281,1,0,0:0:0:0:
64,192,88281,1,0,0:0:0:0:
448,192,88346,1,0,0:0:0:0:
320,192,88411,1,0,0:0:0:0:
64,192,88476,1,0,0:0:0:0:
448,192,88542,1,0,0:0:0:0:
192,192,88607,1,0,0:0:0:0:
320,192,88672,1,0,0:0:0:0:
64,192,88737,1,0,0:0:0:0:
192,192,88803,1,0,0:0:0:0:
448,192,88868,1,0,0:0:0:0:
64,192,88933,1,0,0:0:0:0:
320,192,88998,1,0,0:0:0:0:
64,192,89063,1,0,0:0:0:0:
320,192,89129,1,0,0:0:0:0:
448,192,89194,1,0,0:0:0:0:
192,192,89259,1,0,0:0:0:0:
448,192,89324,1,0,0:0:0:0:
192,192,89390,1,0,0:0:0:0:
320,192,89455,1,0,0:0:0:0:
64,192,89520,1,0,0:0:0:0:
192,192,89585,1,0,0:0:0:0:
448,192,89650,1,0,0:0:0:0:
64,192,89716,1,0,0:0:0:0:
320,192,89781,1,0,0:0:0:0:
448,192,89846,1,0,0:0:0:0:
64,192,89911,1,0,0:0:0:0:
320,192,89976,1,0,0:0:0:0:
192,192,90042,1,0,0:0:0:0:
320,192,90107,1,0,0:0:0:0:
448,192,90172,1,0,0:0:0:0:
64,192,90237,1,0,0:0:0:0:
192,192,90237,1,0,0:0:0:0:
320,192,90303,1,0,0:0:0:0:
448,192,90303,1,0,0:0:0:0:
192,192,90368,1,0,0:0:0:0:
64,192,90368,1,0,0:0:0:0:
320,192,90433,1,0,0:0:0:0:
192,192,90498,1,0,0:0:0:0:
320,192,90563,1,0,0:0:0:0:
192,192,90629,1,0,0:0:0:0:
64,192,90629,1,0,0:0:0:0:
448,192,90694,1,0,0:0:0:0:
320,192,90759,1,0,0:0:0:0:
64,192,90824,1,0,0:0:0:0:
448,192,90890,1,0,0:0:0:0:
192,192,90890,1,0,0:0:0:0:
320,192,90955,1,0,0:0:0:0:
64,192,91020,1,0,0:0:0:0:
192,192,91085,1,0,0:0:0:0:
448,192,91150,1,0,0:0:0:0:
320,192,91150,1,0,0:0:0:0:
192,192,91216,1,0,0:0:0:0:
64,192,91281,1,0,0:0:0:0:
320,192,91346,1,0,0:0:0:0:
448,192,91411,1,0,0:0:0:0:
192,192,91411,1,0,0:0:0:0:
64,192,91476,1,0,0:0:0:0:
320,192,91542,1,0,0:0:0:0:
192,192,91607,1,0,0:0:0:0:
448,192,91672,1,0,0:0:0:0:
320,192,91672,1,0,0:0:0:0:
64,192,91737,1,0,0:0:0:0:
192,192,91803,1,0,0:0:0:0:
320,192,91868,1,0,0:0:0:0:
192,192,91933,1,0,0:0:0:0:
64,192,91933,1,0,0:0:0:0:
448,192,91998,1,0,0:0:0:0:
320,192,92063,1,0,0:0:0:0:
192,192,92129,1,0,0:0:0:0:
448,192,92194,1,0,0:0:0:0:
64,192,92259,1,0,0:0:0:0:
192,192,92324,1,0,0:0:0:0:
448,192,92324,1,0,0:0:0:0:
320,192,92390,1,0,0:0:0:0:
64,192,92455,1,0,0:0:0:0:
192,192,92520,1,0,0:0:0:0:
448,192,92585,1,0,0:0:0:0:
64,192,92650,1,0,0:0:0:0:
192,192,92716,1,0,0:0:0:0:
320,192,92781,1,0,0:0:0:0:
192,192,92846,1,0,0:0:0:0:
320,192,92911,1,0,0:0:0:0:
192,192,92976,1,0,0:0:0:0:
64,192,93042,1,0,0:0:0:0:
320,192,93107,1,0,0:0:0:0:
448,192,93107,1,0,0:0:0:0:
192,192,93172,1,0,0:0:0:0:
64,192,93237,1,0,0:0:0:0:
448,192,93303,1,0,0:0:0:0:
192,192,93368,1,0,0:0:0:0:
64,192,93368,1,0,0:0:0:0:
320,192,93498,1,0,0:0:0:0:
192,192,93498,1,0,0:0:0:0:
320,192,93629,1,0,0:0:0:0:
448,192,93629,1,0,0:0:0:0:
192,192,93759,1,0,0:0:0:0:
64,192,93759,1,0,0:0:0:0:
320,192,93824,1,0,0:0:0:0:
448,192,93890,1,0,0:0:0:0:
192,192,93955,1,0,0:0:0:0:
320,192,94020,1,0,0:0:0:0:
448,192,94020,128,0,94803:0:0:0:0:
64,192,94803,1,0,0:0:0:0:
192,192,94803,1,0,0:0:0:0:
320,192,94868,1,0,0:0:0:0:
192,192,94933,1,0,0:0:0:0:
64,192,94998,1,0,0:0:0:0:
320,192,95063,1,0,0:0:0:0:
192,192,95129,1,0,0:0:0:0:
448,192,95194,1,0,0:0:0:0:
320,192,95259,1,0,0:0:0:0:
192,192,95324,1,0,0:0:0:0:
64,192,95324,1,0,0:0:0:0:
320,192,95390,1,0,0:0:0:0:
448,192,95455,1,0,0:0:0:0:
64,192,95520,1,0,0:0:0:0:
448,192,95585,1,0,0:0:0:0:
320,192,95585,1,0,0:0:0:0:
448,192,95716,1,0,0:0:0:0:
64,192,95716,1,0,0:0:0:0:
64,192,95846,1,0,0:0:0:0:
320,192,95846,1,0,0:0:0:0:
192,192,95846,1,0,0:0:0:0:
192,192,95976,1,0,0:0:0:0:
320,192,95976,1,0,0:0:0:0:
448,192,96107,1,0,0:0:0:0:
64,192,96107,1,0,0:0:0:0:
64,192,96237,1,0,0:0:0:0:
320,192,96237,1,0,0:0:0:0:
192,192,96368,1,0,0:0:0:0:
320,192,96368,1,0,0:0:0:0:
448,192,96433,1,0,0:0:0:0:
64,192,96498,1,0,0:0:0:0:
320,192,96563,1,0,0:0:0:0:
192,192,96629,1,0,0:0:0:0:
448,192,96694,1,0,0:0:0:0:
64,192,96759,1,0,0:0:0:0:
320,192,96824,1,0,0:0:0:0:
192,192,96890,1,0,0:0:0:0:
448,192,96890,1,0,0:0:0:0:
448,192,97020,1,0,0:0:0:0:
64,192,97020,1,0,0:0:0:0:
192,192,97150,1,0,0:0:0:0:
64,192,97150,1,0,0:0:0:0:
320,192,97216,1,0,0:0:0:0:
448,192,97281,1,0,0:0:0:0:
64,192,97346,1,0,0:0:0:0:
320,192,97411,1,0,0:0:0:0:
448,192,97411,1,0,0:0:0:0:
192,192,97476,1,0,0:0:0:0:
64,192,97542,1,0,0:0:0:0:
448,192,97607,1,0,0:0:0:0:
64,192,97672,1,0,0:0:0:0:
320,192,97672,1,0,0:0:0:0:
320,192,97803,1,0,0:0:0:0:
192,192,97803,1,0,0:0:0:0:
192,192,97933,1,0,0:0:0:0:
448,192,97933,1,0,0:0:0:0:
64,192,97933,1,0,0:0:0:0:
320,192,98063,1,0,0:0:0:0:
448,192,98063,1,0,0:0:0:0:
320,192,98194,1,0,0:0:0:0:
64,192,98194,1,0,0:0:0:0:
64,192,98324,1,0,0:0:0:0:
192,192,98324,1,0,0:0:0:0:
192,192,98455,1,0,0:0:0:0:
448,192,98455,1,0,0:0:0:0:
320,192,98520,1,0,0:0:0:0:
64,192,98585,1,0,0:0:0:0:
448,192,98650,1,0,0:0:0:0:
192,192,98716,1,0,0:0:0:0:
64,192,98716,1,0,0:0:0:0:
320,192,98781,1,0,0:0:0:0:
448,192,98781,1,0,0:0:0:0:
192,192,98846,1,0,0:0:0:0:
320,192,98911,1,0,0:0:0:0:
192,192,98976,1,0,0:0:0:0:
64,192,98976,1,0,0:0:0:0:
448,192,99042,1,0,0:0:0:0:
320,192,99107,1,0,0:0:0:0:
192,192,99172,1,0,0:0:0:0:
320,192,99237,1,0,0:0:0:0:
448,192,99237,1,0,0:0:0:0:
448,192,99368,1,0,0:0:0:0:
64,192,99368,1,0,0:0:0:0:
64,192,99498,1,0,0:0:0:0:
192,192,99498,1,0,0:0:0:0:
320,192,99498,1,0,0:0:0:0:
192,192,99629,1,0,0:0:0:0:
448,192,99629,1,0,0:0:0:0:
448,192,99759,1,0,0:0:0:0:
64,192,99759,1,0,0:0:0:0:
64,192,99890,1,0,0:0:0:0:
320,192,99890,1,0,0:0:0:0:
448,192,100020,1,0,0:0:0:0:
320,192,100020,1,0,0:0:0:0:
64,192,100150,1,0,0:0:0:0:
192,192,100150,1,0,0:0:0:0:
320,192,100281,1,0,0:0:0:0:
448,192,100411,1,0,0:0:0:0:
64,192,100542,1,0,0:0:0:0:
320,192,100542,1,0,0:0:0:0:
192,192,100542,1,0,0:0:0:0:
64,192,100672,1,0,0:0:0:0:
192,192,100672,1,0,0:0:0:0:
64,192,100803,1,0,0:0:0:0:
448,192,100803,1,0,0:0:0:0:
448,192,100933,1,0,0:0:0:0:
192,192,100933,1,0,0:0:0:0:
448,192,101063,1,0,0:0:0:0:
320,192,101063,1,0,0:0:0:0:
192,192,101194,1,0,0:0:0:0:
64,192,101194,1,0,0:0:0:0:
320,192,101324,1,0,0:0:0:0:
448,192,101324,1,0,0:0:0:0:
448,192,101455,1,0,0:0:0:0:
192,192,101455,1,0,0:0:0:0:
64,192,101585,1,0,0:0:0:0:
320,192,101585,1,0,0:0:0:0:
192,192,101585,1,0,0:0:0:0:
320,192,101716,1,0,0:0:0:0:
64,192,101716,1,0,0:0:0:0:
192,192,101846,1,0,0:0:0:0:
320,192,101911,1,0,0:0:0:0:
192,192,101976,1,0,0:0:0:0:
320,192,102042,1,0,0:0:0:0:
448,192,102107,1,0,0:0:0:0:
320,192,102172,1,0,0:0:0:0:
448,192,102237,1,0,0:0:0:0:
320,192,102303,1,0,0:0:0:0:
192,192,102368,1,0,0:0:0:0:
448,192,102433,1,0,0:0:0:0:
192,192,102498,1,0,0:0:0:0:
448,192,102563,1,0,0:0:0:0:
192,192,102629,1,0,0:0:0:0:
320,192,102694,1,0,0:0:0:0:
192,192,102759,1,0,0:0:0:0:
320,192,102824,1,0,0:0:0:0:
64,192,102890,1,0,0:0:0:0:
320,192,102955,1,0,0:0:0:0:
64,192,103020,1,0,0:0:0:0:
192,192,103085,1,0,0:0:0:0:
64,192,103150,1,0,0:0:0:0:
320,192,103150,1,0,0:0:0:0:
448,192,103216,1,0,0:0:0:0:
192,192,103281,1,0,0:0:0:0:
320,192,103346,1,0,0:0:0:0:
192,192,103411,1,0,0:0:0:0:
64,192,103476,1,0,0:0:0:0:
448,192,103542,1,0,0:0:0:0:
192,192,103607,1,0,0:0:0:0:
64,192,103672,1,0,0:0:0:0:
320,192,103672,1,0,0:0:0:0:
448,192,103737,1,0,0:0:0:0:
64,192,103803,1,0,0:0:0:0:
192,192,103868,1,0,0:0:0:0:
320,192,103933,1,0,0:0:0:0:
64,192,103998,1,0,0:0:0:0:
192,192,104063,1,0,0:0:0:0:
448,192,104129,1,0,0:0:0:0:
320,192,104194,1,0,0:0:0:0:
64,192,104194,1,0,0:0:0:0:
320,192,104324,1,0,0:0:0:0:
192,192,104324,1,0,0:0:0:0:
192,192,104455,1,0,0:0:0:0:
448,192,104520,1,0,0:0:0:0:
192,192,104585,1,0,0:0:0:0:
448,192,104650,1,0,0:0:0:0:
64,192,104716,1,0,0:0:0:0:
192,192,104716,1,0,0:0:0:0:
320,192,104781,1,0,0:0:0:0:
448,192,104846,1,0,0:0:0:0:
192,192,104911,1,0,0:0:0:0:
320,192,104976,1,0,0:0:0:0:
64,192,105042,1,0,0:0:0:0:
192,192,105107,1,0,0:0:0:0:
448,192,105107,1,0,0:0:0:0:
448,192,105237,1,0,0:0:0:0:
64,192,105237,1,0,0:0:0:0:
320,192,105368,1,0,0:0:0:0:
64,192,105368,1,0,0:0:0:0:
192,192,105433,1,0,0:0:0:0:
448,192,105498,1,0,0:0:0:0:
320,192,105563,1,0,0:0:0:0:
64,192,105629,1,0,0:0:0:0:
192,192,105694,1,0,0:0:0:0:
320,192,105759,1,0,0:0:0:0:
448,192,105759,1,0,0:0:0:0:
192,192,105824,1,0,0:0:0:0:
320,192,105890,1,0,0:0:0:0:
64,192,105890,1,0,0:0:0:0:
64,192,106020,1,0,0:0:0:0:
448,192,106020,1,0,0:0:0:0:
448,192,106150,1,0,0:0:0:0:
192,192,106150,1,0,0:0:0:0:
192,192,106281,1,0,0:0:0:0:
320,192,106281,1,0,0:0:0:0:
64,192,106281,1,0,0:0:0:0:
320,192,106411,1,0,0:0:0:0:
448,192,106411,1,0,0:0:0:0:
192,192,106542,1,0,0:0:0:0:
448,192,106542,1,0,0:0:0:0:
192,192,106672,1,0,0:0:0:0:
64,192,106672,1,0,0:0:0:0:
64,192,106803,1,0,0:0:0:0:
448,192,106803,1,0,0:0:0:0:
320,192,106803,1,0,0:0:0:0:
320,192,106933,1,0,0:0:0:0:
192,192,106933,1,0,0:0:0:0:
192,192,107063,1,0,0:0:0:0:
448,192,107063,1,0,0:0:0:0:
64,192,107063,1,0,0:0:0:0:
192,192,107194,1,0,0:0:0:0:
64,192,107194,1,0,0:0:0:0:
320,192,107194,1,0,0:0:0:0:
192,192,107324,1,0,0:0:0:0:
448,192,107324,1,0,0:0:0:0:
64,192,107390,1,0,0:0:0:0:
320,192,107455,1,0,0:0:0:0:
192,192,107520,1,0,0:0:0:0:
448,192,107585,1,0,0:0:0:0:
64,192,107650,1,0,0:0:0:0:
192,192,107716,1,0,0:0:0:0:
320,192,107781,1,0,0:0:0:0:
192,192,107846,1,0,0:0:0:0:
448,192,107846,1,0,0:0:0:0:
64,192,107911,1,0,0:0:0:0:
320,192,107976,1,0,0:0:0:0:
192,192,108042,1,0,0:0:0:0:
320,192,108107,1,0,0:0:0:0:
448,192,108172,1,0,0:0:0:0:
64,192,108237,1,0,0:0:0:0:
320,192,108303,1,0,0:0:0:0:
192,192,108368,1,0,0:0:0:0:
64,192,108368,1,0,0:0:0:0:
448,192,108498,1,0,0:0:0:0:
320,192,108563,1,0,0:0:0:0:
192,192,108629,1,0,0:0:0:0:
64,192,108629,1,0,0:0:0:0:
64,192,108759,1,0,0:0:0:0:
448,192,108759,1,0,0:0:0:0:
448,192,108890,1,0,0:0:0:0:
192,192,108890,1,0,0:0:0:0:
320,192,108955,1,0,0:0:0:0:
192,192,109020,1,0,0:0:0:0:
64,192,109085,1,0,0:0:0:0:
448,192,109150,1,0,0:0:0:0:
192,192,109216,1,0,0:0:0:0:
64,192,109281,1,0,0:0:0:0:
320,192,109346,1,0,0:0:0:0:
448,192,109411,1,0,0:0:0:0:
192,192,109411,1,0,0:0:0:0:
64,192,109476,1,0,0:0:0:0:
320,192,109542,1,0,0:0:0:0:
192,192,109607,1,0,0:0:0:0:
448,192,109672,1,0,0:0:0:0:
192,192,109737,1,0,0:0:0:0:
64,192,109803,1,0,0:0:0:0:
320,192,109868,1,0,0:0:0:0:
192,192,109933,1,0,0:0:0:0:
64,192,109933,1,0,0:0:0:0:
448,192,109998,1,0,0:0:0:0:
320,192,110063,1,0,0:0:0:0:
192,192,110194,1,0,0:0:0:0:
320,192,110259,1,0,0:0:0:0:
192,192,110324,1,0,0:0:0:0:
320,192,110390,1,0,0:0:0:0:
192,192,110455,1,0,0:0:0:0:
64,192,110520,1,0,0:0:0:0:
448,192,110585,1,0,0:0:0:0:
64,192,110650,1,0,0:0:0:0:
448,192,110716,1,0,0:0:0:0:
192,192,110781,1,0,0:0:0:0:
448,192,110846,1,0,0:0:0:0:
192,192,110911,1,0,0:0:0:0:
64,192,110976,1,0,0:0:0:0:
320,192,111042,1,0,0:0:0:0:
64,192,111107,1,0,0:0:0:0:
320,192,111172,1,0,0:0:0:0:
448,192,111237,1,0,0:0:0:0:
192,192,111303,1,0,0:0:0:0:
320,192,111368,1,0,0:0:0:0:
192,192,111433,1,0,0:0:0:0:
64,192,111498,1,0,0:0:0:0:
320,192,111498,1,0,0:0:0:0:
448,192,111563,1,0,0:0:0:0:
192,192,111629,1,0,0:0:0:0:
64,192,111694,1,0,0:0:0:0:
320,192,111759,1,0,0:0:0:0:
192,192,111824,1,0,0:0:0:0:
64,192,111890,1,0,0:0:0:0:
448,192,111955,1,0,0:0:0:0:
64,192,112020,1,0,0:0:0:0:
320,192,112020,1,0,0:0:0:0:
192,192,112085,1,0,0:0:0:0:
448,192,112150,1,0,0:0:0:0:
320,192,112216,1,0,0:0:0:0:
192,192,112281,1,0,0:0:0:0:
320,192,112346,1,0,0:0:0:0:
64,192,112411,1,0,0:0:0:0:
192,192,112476,1,0,0:0:0:0:
448,192,112542,1,0,0:0:0:0:
320,192,112542,1,0,0:0:0:0:
64,192,112672,1,0,0:0:0:0:
320,192,112672,1,0,0:0:0:0:
320,192,112803,1,0,0:0:0:0:
448,192,112803,1,0,0:0:0:0:
192,192,112933,1,0,0:0:0:0:
64,192,112933,1,0,0:0:0:0:
192,192,113063,1,0,0:0:0:0:
448,192,113063,1,0,0:0:0:0:
320,192,113129,1,0,0:0:0:0:
64,192,113194,1,0,0:0:0:0:
192,192,113259,1,0,0:0:0:0:
448,192,113324,1,0,0:0:0:0:
320,192,113390,1,0,0:0:0:0:
64,192,113455,1,0,0:0:0:0:
448,192,113520,1,0,0:0:0:0:
64,192,113585,1,0,0:0:0:0:
192,192,113585,1,0,0:0:0:0:
320,192,113650,1,0,0:0:0:0:
448,192,113716,1,0,0:0:0:0:
192,192,113781,1,0,0:0:0:0:
64,192,113846,1,0,0:0:0:0:
448,192,113911,1,0,0:0:0:0:
192,192,113976,1,0,0:0:0:0:
320,192,114042,1,0,0:0:0:0:
192,192,114107,1,0,0:0:0:0:
64,192,114107,1,0,0:0:0:0:
448,192,114172,1,0,0:0:0:0:
64,192,114237,1,0,0:0:0:0:
320,192,114303,1,0,0:0:0:0:
448,192,114368,1,0,0:0:0:0:
192,192,114433,1,0,0:0:0:0:
320,192,114498,1,0,0:0:0:0:
192,192,114563,1,0,0:0:0:0:
320,192,114629,1,0,0:0:0:0:
448,192,114629,1,0,0:0:0:0:
192,192,114759,1,0,0:0:0:0:
320,192,114759,1,0,0:0:0:0:
192,192,114890,1,0,0:0:0:0:
64,192,114890,1,0,0:0:0:0:
448,192,114890,1,0,0:0:0:0:
448,192,115020,1,0,0:0:0:0:
320,192,115020,1,0,0:0:0:0:
320,192,115150,1,0,0:0:0:0:
64,192,115150,1,0,0:0:0:0:
192,192,115150,1,0,0:0:0:0:
64,192,115281,1,0,0:0:0:0:
448,192,115281,1,0,0:0:0:0:
448,192,115411,1,0,0:0:0:0:
320,192,115411,1,0,0:0:0:0:
320,192,115542,1,0,0:0:0:0:
64,192,115542,1,0,0:0:0:0:
64,192,115672,1,0,0:0:0:0:
192,192,115672,1,0,0:0:0:0:
448,192,115672,1,0,0:0:0:0:
448,192,115803,1,0,0:0:0:0:
320,192,115803,1,0,0:0:0:0:
64,192,115933,1,0,0:0:0:0:
320,192,115933,1,0,0:0:0:0:
192,192,115998,1,0,0:0:0:0:
448,192,116063,1,0,0:0:0:0:
320,192,116129,1,0,0:0:0:0:
64,192,116194,1,0,0:0:0:0:
192,192,116194,1,0,0:0:0:0:
448,192,116259,1,0,0:0:0:0:
320,192,116324,1,0,0:0:0:0:
192,192,116390,1,0,0:0:0:0:
448,192,116455,1,0,0:0:0:0:
64,192,116520,1,0,0:0:0:0:
448,192,116585,1,0,0:0:0:0:
192,192,116650,1,0,0:0:0:0:
64,192,116716,1,0,0:0:0:0:
320,192,116716,1,0,0:0:0:0:
320,192,116846,1,0,0:0:0:0:
448,192,116846,1,0,0:0:0:0:
192,192,116911,1,0,0:0:0:0:
448,192,116976,1,0,0:0:0:0:
64,192,116976,1,0,0:0:0:0:
320,192,117107,1,0,0:0:0:0:
64,192,117107,1,0,0:0:0:0:
448,192,117237,1,0,0:0:0:0:
320,192,117237,1,0,0:0:0:0:
192,192,117303,1,0,0:0:0:0:
64,192,117368,1,0,0:0:0:0:
320,192,117433,1,0,0:0:0:0:
448,192,117498,1,0,0:0:0:0:
64,192,117563,1,0,0:0:0:0:
320,192,117629,1,0,0:0:0:0:
192,192,117694,1,0,0:0:0:0:
448,192,117759,1,0,0:0:0:0:
320,192,117759,1,0,0:0:0:0:
64,192,117824,1,0,0:0:0:0:
320,192,117890,1,0,0:0:0:0:
448,192,117955,1,0,0:0:0:0:
192,192,118020,1,0,0:0:0:0:
320,192,118085,1,0,0:0:0:0:
192,192,118150,1,0,0:0:0:0:
64,192,118216,1,0,0:0:0:0:
448,192,118281,1,0,0:0:0:0:
320,192,118281,1,0,0:0:0:0:
192,192,118346,1,0,0:0:0:0:
320,192,118411,1,0,0:0:0:0:
448,192,118476,1,0,0:0:0:0:
64,192,118542,1,0,0:0:0:0:
192,192,118542,1,0,0:0:0:0:
192,192,118672,1,0,0:0:0:0:
320,192,118737,1,0,0:0:0:0:
192,192,118803,1,0,0:0:0:0:
64,192,118803,1,0,0:0:0:0:
448,192,118933,1,0,0:0:0:0:
192,192,118933,1,0,0:0:0:0:
448,192,119063,1,0,0:0:0:0:
192,192,119129,1,0,0:0:0:0:
448,192,119194,1,0,0:0:0:0:
64,192,119259,1,0,0:0:0:0:
192,192,119324,1,0,0:0:0:0:
320,192,119390,1,0,0:0:0:0:
448,192,119455,1,0,0:0:0:0:
192,192,119520,1,0,0:0:0:0:
320,192,119585,1,0,0:0:0:0:
64,192,119585,1,0,0:0:0:0:
448,192,119650,1,0,0:0:0:0:
192,192,119716,1,0,0:0:0:0:
320,192,119781,1,0,0:0:0:0:
192,192,119846,1,0,0:0:0:0:
64,192,119846,1,0,0:0:0:0:
64,192,119976,1,0,0:0:0:0:
320,192,119976,1,0,0:0:0:0:
192,192,120368,1,0,0:0:0:0:
320,192,120368,1,0,0:0:0:0:
448,192,120368,1,0,0:0:0:0:
448,192,120498,1,0,0:0:0:0:
64,192,120498,1,0,0:0:0:0:
320,192,120890,1,0,0:0:0:0:
64,192,120890,1,0,0:0:0:0:
64,192,121020,1,0,0:0:0:0:
192,192,121020,1,0,0:0:0:0:
320,192,121411,1,0,0:0:0:0:
192,192,121411,1,0,0:0:0:0:
64,192,121476,1,0,0:0:0:0:
320,192,121542,1,0,0:0:0:0:
64,192,121607,1,0,0:0:0:0:
448,192,121672,1,0,0:0:0:0:
192,192,121737,1,0,0:0:0:0:
448,192,121803,1,0,0:0:0:0:
192,192,121868,1,0,0:0:0:0:
320,192,121933,1,0,0:0:0:0:
64,192,121933,1,0,0:0:0:0:
64,192,122063,1,0,0:0:0:0:
448,192,122063,1,0,0:0:0:0:
64,192,122455,1,0,0:0:0:0:
192,192,122455,1,0,0:0:0:0:
448,192,122455,1,0,0:0:0:0:
320,192,122585,1,0,0:0:0:0:
192,192,122585,1,0,0:0:0:0:
192,192,123498,1,0,0:0:0:0:
320,192,123498,1,0,0:0:0:0:
448,192,123563,1,0,0:0:0:0:
192,192,123629,1,0,0:0:0:0:
64,192,123629,1,0,0:0:0:0:
448,192,123694,1,0,0:0:0:0:
64,192,123759,1,0,0:0:0:0:
320,192,123824,1,0,0:0:0:0:
64,192,123890,1,0,0:0:0:0:
320,192,123955,1,0,0:0:0:0:
192,192,124020,1,0,0:0:0:0:
448,192,124020,1,0,0:0:0:0:
448,192,124150,1,0,0:0:0:0:
64,192,124150,1,0,0:0:0:0:
192,192,124542,1,0,0:0:0:0:
448,192,124542,1,0,0:0:0:0:
320,192,124542,1,0,0:0:0:0:
320,192,124672,1,0,0:0:0:0:
64,192,124672,1,0,0:0:0:0:
320,192,125063,1,0,0:0:0:0:
192,192,125063,1,0,0:0:0:0:
192,192,125194,1,0,0:0:0:0:
448,192,125194,1,0,0:0:0:0:
64,192,125585,1,0,0:0:0:0:
320,192,125585,1,0,0:0:0:0:
448,192,125650,1,0,0:0:0:0:
64,192,125716,1,0,0:0:0:0:
448,192,125781,1,0,0:0:0:0:
192,192,125846,1,0,0:0:0:0:
320,192,125911,1,0,0:0:0:0:
192,192,125976,1,0,0:0:0:0:
320,192,126042,1,0,0:0:0:0:
192,192,126107,1,0,0:0:0:0:
64,192,126107,1,0,0:0:0:0:
64,192,126237,1,0,0:0:0:0:
448,192,126237,1,0,0:0:0:0:
448,192,126629,1,0,0:0:0:0:
320,192,126629,1,0,0:0:0:0:
192,192,126629,1,0,0:0:0:0:
448,192,126759,1,0,0:0:0:0:
64,192,126759,1,0,0:0:0:0:
64,192,127672,1,0,0:0:0:0:
192,192,127672,1,0,0:0:0:0:
320,192,127737,1,0,0:0:0:0:
192,192,127803,1,0,0:0:0:0:
448,192,127803,1,0,0:0:0:0:
64,192,127868,1,0,0:0:0:0:
320,192,127933,1,0,0:0:0:0:
64,192,127998,1,0,0:0:0:0:
320,192,128063,1,0,0:0:0:0:
64,192,128129,1,0,0:0:0:0:
448,192,128194,1,0,0:0:0:0:
320,192,128194,1,0,0:0:0:0:
192,192,128194,1,0,0:0:0:0:
320,192,128324,1,0,0:0:0:0:
64,192,128324,1,0,0:0:0:0:
64,192,128455,1,0,0:0:0:0:
448,192,128455,1,0,0:0:0:0:
448,192,128585,1,0,0:0:0:0:
192,192,128585,1,0,0:0:0:0:
192,192,128716,1,0,0:0:0:0:
320,192,128716,1,0,0:0:0:0:
64,192,128716,1,0,0:0:0:0:
320,192,128846,1,0,0:0:0:0:
448,192,128846,1,0,0:0:0:0:
448,192,128976,1,0,0:0:0:0:
64,192,128976,1,0,0:0:0:0:
64,192,129107,1,0,0:0:0:0:
320,192,129107,1,0,0:0:0:0:
64,192,129237,1,0,0:0:0:0:
192,192,129237,1,0,0:0:0:0:
320,192,129237,1,0,0:0:0:0:
448,192,129237,1,0,0:0:0:0:
192,192,129368,1,0,0:0:0:0:
448,192,129368,1,0,0:0:0:0:
320,192,129498,1,0,0:0:0:0:
64,192,129498,1,0,0:0:0:0:
64,192,129629,1,0,0:0:0:0:
192,192,129629,1,0,0:0:0:0:
320,192,129759,1,0,0:0:0:0:
448,192,129759,1,0,0:0:0:0:
64,192,129824,1,0,0:0:0:0:
320,192,129890,1,0,0:0:0:0:
64,192,129955,1,0,0:0:0:0:
448,192,130020,1,0,0:0:0:0:
192,192,130085,1,0,0:0:0:0:
448,192,130150,1,0,0:0:0:0:
192,192,130216,1,0,0:0:0:0:
320,192,130281,1,0,0:0:0:0:
64,192,130281,1,0,0:0:0:0:
64,192,130411,1,0,0:0:0:0:
448,192,130411,1,0,0:0:0:0:
320,192,130542,1,0,0:0:0:0:
192,192,130542,1,0,0:0:0:0:
192,192,130672,1,0,0:0:0:0:
448,192,130672,1,0,0:0:0:0:
448,192,130803,1,0,0:0:0:0:
64,192,130803,1,0,0:0:0:0:
320,192,130803,1,0,0:0:0:0:
64,192,130933,1,0,0:0:0:0:
192,192,130933,1,0,0:0:0:0:
192,192,131063,1,0,0:0:0:0:
448,192,131063,1,0,0:0:0:0:
448,192,131194,1,0,0:0:0:0:
64,192,131194,1,0,0:0:0:0:
64,192,131324,1,0,0:0:0:0:
320,192,131324,1,0,0:0:0:0:
320,192,131455,1,0,0:0:0:0:
192,192,131455,1,0,0:0:0:0:
192,192,131585,1,0,0:0:0:0:
448,192,131585,1,0,0:0:0:0:
448,192,131716,1,0,0:0:0:0:
64,192,131716,1,0,0:0:0:0:
192,192,131846,1,0,0:0:0:0:
64,192,131846,1,0,0:0:0:0:
320,192,131911,1,0,0:0:0:0:
192,192,131976,1,0,0:0:0:0:
448,192,131976,1,0,0:0:0:0:
64,192,132042,1,0,0:0:0:0:
320,192,132107,1,0,0:0:0:0:
64,192,132172,1,0,0:0:0:0:
320,192,132237,1,0,0:0:0:0:
64,192,132303,1,0,0:0:0:0:
448,192,132368,1,0,0:0:0:0:
320,192,132368,1,0,0:0:0:0:
320,192,132498,1,0,0:0:0:0:
192,192,132498,1,0,0:0:0:0:
64,192,132629,1,0,0:0:0:0:
448,192,132629,1,0,0:0:0:0:
448,192,132759,1,0,0:0:0:0:
192,192,132759,1,0,0:0:0:0:
192,192,132890,1,0,0:0:0:0:
320,192,132890,1,0,0:0:0:0:
64,192,132890,1,0,0:0:0:0:
64,192,133020,1,0,0:0:0:0:
448,192,133020,1,0,0:0:0:0:
448,192,133150,1,0,0:0:0:0:
192,192,133150,1,0,0:0:0:0:
192,192,133281,1,0,0:0:0:0:
320,192,133281,1,0,0:0:0:0:
448,192,133411,1,0,0:0:0:0:
320,192,133411,1,0,0:0:0:0:
192,192,133411,1,0,0:0:0:0:
64,192,133411,1,0,0:0:0:0:
64,192,133542,1,0,0:0:0:0:
448,192,133542,1,0,0:0:0:0:
64,192,133672,1,0,0:0:0:0:
320,192,133672,1,0,0:0:0:0:
320,192,133803,1,0,0:0:0:0:
448,192,133803,1,0,0:0:0:0:
192,192,133933,1,0,0:0:0:0:
64,192,133933,1,0,0:0:0:0:
448,192,133998,1,0,0:0:0:0:
192,192,134063,1,0,0:0:0:0:
448,192,134129,1,0,0:0:0:0:
64,192,134194,1,0,0:0:0:0:
320,192,134259,1,0,0:0:0:0:
64,192,134324,1,0,0:0:0:0:
320,192,134390,1,0,0:0:0:0:
192,192,134455,1,0,0:0:0:0:
448,192,134455,1,0,0:0:0:0:
64,192,134585,1,0,0:0:0:0:
448,192,134585,1,0,0:0:0:0:
320,192,134716,1,0,0:0:0:0:
192,192,134716,1,0,0:0:0:0:
192,192,134846,1,0,0:0:0:0:
448,192,134846,1,0,0:0:0:0:
448,192,134976,1,0,0:0:0:0:
320,192,134976,1,0,0:0:0:0:
64,192,134976,1,0,0:0:0:0:
64,192,135107,1,0,0:0:0:0:
192,192,135107,1,0,0:0:0:0:
192,192,135237,1,0,0:0:0:0:
448,192,135237,1,0,0:0:0:0:
64,192,135303,1,0,0:0:0:0:
320,192,135368,1,0,0:0:0:0:
192,192,135433,1,0,0:0:0:0:
64,192,135498,1,0,0:0:0:0:
448,192,135563,1,0,0:0:0:0:
320,192,135629,1,0,0:0:0:0:
192,192,135694,1,0,0:0:0:0:
64,192,135759,1,0,0:0:0:0:
192,192,135824,1,0,0:0:0:0:
320,192,135890,1,0,0:0:0:0:
448,192,135955,1,0,0:0:0:0:
192,192,136020,1,0,0:0:0:0:
64,192,136020,1,0,0:0:0:0:
320,192,136085,1,0,0:0:0:0:
192,192,136150,1,0,0:0:0:0:
448,192,136150,1,0,0:0:0:0:
64,192,136216,1,0,0:0:0:0:
320,192,136281,1,0,0:0:0:0:
64,192,136346,1,0,0:0:0:0:
320,192,136411,1,0,0:0:0:0:
64,192,136476,1,0,0:0:0:0:
448,192,136542,1,0,0:0:0:0:
192,192,136542,1,0,0:0:0:0:
448,192,136672,1,0,0:0:0:0:
320,192,136672,1,0,0:0:0:0:
64,192,136803,1,0,0:0:0:0:
192,192,136868,1,0,0:0:0:0:
64,192,136933,1,0,0:0:0:0:
320,192,136933,1,0,0:0:0:0:
320,192,137063,1,0,0:0:0:0:
64,192,137063,1,0,0:0:0:0:
192,192,137063,1,0,0:0:0:0:
192,192,137194,1,0,0:0:0:0:
448,192,137194,1,0,0:0:0:0:
320,192,137324,1,0,0:0:0:0:
192,192,137390,1,0,0:0:0:0:
64,192,137455,1,0,0:0:0:0:
448,192,137455,1,0,0:0:0:0:
448,192,137585,1,0,0:0:0:0:
320,192,137585,1,0,0:0:0:0:
192,192,137585,1,0,0:0:0:0:
64,192,137585,1,0,0:0:0:0:
192,192,137716,1,0,0:0:0:0:
320,192,137716,1,0,0:0:0:0:
192,192,137846,1,0,0:0:0:0:
320,192,137911,1,0,0:0:0:0:
448,192,137976,1,0,0:0:0:0:
64,192,137976,1,0,0:0:0:0:
192,192,138107,1,0,0:0:0:0:
64,192,138107,1,0,0:0:0:0:
448,192,138172,1,0,0:0:0:0:
192,192,138237,1,0,0:0:0:0:
448,192,138303,1,0,0:0:0:0:
64,192,138368,1,0,0:0:0:0:
320,192,138433,1,0,0:0:0:0:
64,192,138498,1,0,0:0:0:0:
320,192,138563,1,0,0:0:0:0:
192,192,138629,1,0,0:0:0:0:
448,192,138629,1,0,0:0:0:0:
64,192,138759,1,0,0:0:0:0:
192,192,138759,1,0,0:0:0:0:
448,192,138890,1,0,0:0:0:0:
192,192,138955,1,0,0:0:0:0:
64,192,139020,1,0,0:0:0:0:
448,192,139020,1,0,0:0:0:0:
448,192,139150,1,0,0:0:0:0:
192,192,139150,1,0,0:0:0:0:
320,192,139150,1,0,0:0:0:0:
320,192,139281,1,0,0:0:0:0:
64,192,139281,1,0,0:0:0:0:
64,192,139411,1,0,0:0:0:0:
192,192,139476,1,0,0:0:0:0:
448,192,139542,1,0,0:0:0:0:
64,192,139542,1,0,0:0:0:0:
64,192,139672,1,0,0:0:0:0:
192,192,139672,1,0,0:0:0:0:
320,192,139672,1,0,0:0:0:0:
192,192,139803,1,0,0:0:0:0:
448,192,139803,1,0,0:0:0:0:
448,192,139933,1,0,0:0:0:0:
192,192,139998,1,0,0:0:0:0:
64,192,140063,1,0,0:0:0:0:
448,192,140063,1,0,0:0:0:0:
64,192,140194,1,0,0:0:0:0:
320,192,140194,1,0,0:0:0:0:
448,192,140259,1,0,0:0:0:0:
64,192,140324,1,0,0:0:0:0:
320,192,140324,1,0,0:0:0:0:
192,192,140390,1,0,0:0:0:0:
320,192,140455,1,0,0:0:0:0:
64,192,140520,1,0,0:0:0:0:
320,192,140585,1,0,0:0:0:0:
64,192,140650,1,0,0:0:0:0:
320,192,140716,1,0,0:0:0:0:
448,192,140716,1,0,0:0:0:0:
448,192,140846,1,0,0:0:0:0:
64,192,140846,1,0,0:0:0:0:
64,192,140976,1,0,0:0:0:0:
320,192,141042,1,0,0:0:0:0:
448,192,141107,1,0,0:0:0:0:
64,192,141107,1,0,0:0:0:0:
192,192,141237,1,0,0:0:0:0:
320,192,141237,1,0,0:0:0:0:
448,192,141237,1,0,0:0:0:0:
64,192,141368,1,0,0:0:0:0:
320,192,141368,1,0,0:0:0:0:
320,192,141498,1,0,0:0:0:0:
192,192,141563,1,0,0:0:0:0:
64,192,141629,1,0,0:0:0:0:
448,192,141629,1,0,0:0:0:0:
448,192,141759,1,0,0:0:0:0:
192,192,141759,1,0,0:0:0:0:
64,192,141759,1,0,0:0:0:0:
320,192,141759,1,0,0:0:0:0:
192,192,141890,1,0,0:0:0:0:
320,192,141890,1,0,0:0:0:0:
192,192,142020,1,0,0:0:0:0:
320,192,142085,1,0,0:0:0:0:
448,192,142150,1,0,0:0:0:0:
64,192,142150,1,0,0:0:0:0:
448,192,142281,1,0,0:0:0:0:
320,192,142281,1,0,0:0:0:0:
64,192,142346,1,0,0:0:0:0:
320,192,142411,1,0,0:0:0:0:
64,192,142476,1,0,0:0:0:0:
448,192,142542,1,0,0:0:0:0:
192,192,142607,1,0,0:0:0:0:
448,192,142672,1,0,0:0:0:0:
192,192,142737,1,0,0:0:0:0:
320,192,142803,1,0,0:0:0:0:
64,192,142803,1,0,0:0:0:0:
320,192,142933,1,0,0:0:0:0:
448,192,142933,1,0,0:0:0:0:
320,192,143063,1,0,0:0:0:0:
192,192,143129,1,0,0:0:0:0:
64,192,143194,1,0,0:0:0:0:
448,192,143194,1,0,0:0:0:0:
192,192,143324,1,0,0:0:0:0:
320,192,143324,1,0,0:0:0:0:
448,192,143324,1,0,0:0:0:0:
64,192,143455,1,0,0:0:0:0:
320,192,143455,1,0,0:0:0:0:
192,192,143585,1,0,0:0:0:0:
320,192,143650,1,0,0:0:0:0:
448,192,143716,1,0,0:0:0:0:
64,192,143716,1,0,0:0:0:0:
64,192,143846,1,0,0:0:0:0:
320,192,143846,1,0,0:0:0:0:
320,192,143976,1,0,0:0:0:0:
192,192,143976,1,0,0:0:0:0:
320,192,144107,1,0,0:0:0:0:
192,192,144172,1,0,0:0:0:0:
64,192,144237,1,0,0:0:0:0:
448,192,144237,1,0,0:0:0:0:
192,192,144368,1,0,0:0:0:0:
448,192,144368,1,0,0:0:0:0:
64,192,144433,1,0,0:0:0:0:
448,192,144498,1,0,0:0:0:0:
192,192,144498,1,0,0:0:0:0:
320,192,144563,1,0,0:0:0:0:
192,192,144629,1,0,0:0:0:0:
448,192,144694,1,0,0:0:0:0:
192,192,144759,1,0,0:0:0:0:
448,192,144824,1,0,0:0:0:0:
192,192,144890,1,0,0:0:0:0:
64,192,144890,1,0,0:0:0:0:
448,192,145020,1,0,0:0:0:0:
64,192,145020,1,0,0:0:0:0:
448,192,145150,1,0,0:0:0:0:
320,192,145194,1,0,0:0:0:0:
192,192,145237,1,0,0:0:0:0:
448,192,145281,1,0,0:0:0:0:
320,192,145324,1,0,0:0:0:0:
64,192,145368,1,0,0:0:0:0:
192,192,145411,1,0,0:0:0:0:
448,192,145411,1,0,0:0:0:0:
64,192,145542,1,0,0:0:0:0:
320,192,145542,1,0,0:0:0:0:
192,192,145672,1,0,0:0:0:0:
320,192,145716,1,0,0:0:0:0:
448,192,145759,1,0,0:0:0:0:
64,192,145803,1,0,0:0:0:0:
320,192,145846,1,0,0:0:0:0:
192,192,145890,1,0,0:0:0:0:
64,192,145933,1,0,0:0:0:0:
448,192,145933,1,0,0:0:0:0:
448,192,146063,1,0,0:0:0:0:
64,192,146063,1,0,0:0:0:0:
320,192,146194,1,0,0:0:0:0:
192,192,146237,1,0,0:0:0:0:
448,192,146281,1,0,0:0:0:0:
320,192,146324,1,0,0:0:0:0:
64,192,146368,1,0,0:0:0:0:
192,192,146411,1,0,0:0:0:0:
320,192,146455,1,0,0:0:0:0:
448,192,146455,1,0,0:0:0:0:
64,192,146520,1,0,0:0:0:0:
448,192,146585,1,0,0:0:0:0:
64,192,146650,1,0,0:0:0:0:
320,192,146716,1,0,0:0:0:0:
192,192,146781,1,0,0:0:0:0:
320,192,146846,1,0,0:0:0:0:
192,192,146911,1,0,0:0:0:0:
64,192,146976,1,0,0:0:0:0:
448,192,146976,1,0,0:0:0:0:
192,192,147107,1,0,0:0:0:0:
448,192,147107,1,0,0:0:0:0:
64,192,147237,1,0,0:0:0:0:
192,192,147281,1,0,0:0:0:0:
320,192,147324,1,0,0:0:0:0:
64,192,147368,1,0,0:0:0:0:
192,192,147411,1,0,0:0:0:0:
448,192,147455,1,0,0:0:0:0:
320,192,147498,1,0,0:0:0:0:
64,192,147498,1,0,0:0:0:0:
192,192,147629,1,0,0:0:0:0:
448,192,147629,1,0,0:0:0:0:
320,192,147759,1,0,0:0:0:0:
192,192,147803,1,0,0:0:0:0:
64,192,147846,1,0,0:0:0:0:
448,192,147890,1,0,0:0:0:0:
192,192,147933,1,0,0:0:0:0:
320,192,147976,1,0,0:0:0:0:
448,192,148020,1,0,0:0:0:0:
64,192,148020,1,0,0:0:0:0:
320,192,148150,1,0,0:0:0:0:
192,192,148150,1,0,0:0:0:0:
448,192,148281,1,0,0:0:0:0:
320,192,148324,1,0,0:0:0:0:
64,192,148368,1,0,0:0:0:0:
192,192,148411,1,0,0:0:0:0:
320,192,148455,1,0,0:0:0:0:
64,192,148498,1,0,0:0:0:0:
192,192,148542,1,0,0:0:0:0:
448,192,148542,1,0,0:0:0:0:
320,192,148607,1,0,0:0:0:0:
192,192,148672,1,0,0:0:0:0:
64,192,148672,1,0,0:0:0:0:
320,192,148737,1,0,0:0:0:0:
192,192,148803,1,0,0:0:0:0:
448,192,148868,1,0,0:0:0:0:
192,192,148933,1,0,0:0:0:0:
448,192,148998,1,0,0:0:0:0:
192,192,149063,1,0,0:0:0:0:
64,192,149063,1,0,0:0:0:0:
64,192,149194,1,0,0:0:0:0:
448,192,149194,1,0,0:0:0:0:
320,192,149324,1,0,0:0:0:0:
192,192,149368,1,0,0:0:0:0:
64,192,149411,1,0,0:0:0:0:
320,192,149455,1,0,0:0:0:0:
448,192,149498,1,0,0:0:0:0:
192,192,149542,1,0,0:0:0:0:
64,192,149585,1,0,0:0:0:0:
320,192,149585,1,0,0:0:0:0:
192,192,149716,1,0,0:0:0:0:
448,192,149716,1,0,0:0:0:0:
64,192,149846,1,0,0:0:0:0:
192,192,149890,1,0,0:0:0:0:
448,192,149933,1,0,0:0:0:0:
320,192,149976,1,0,0:0:0:0:
192,192,150020,1,0,0:0:0:0:
448,192,150063,1,0,0:0:0:0:
320,192,150107,1,0,0:0:0:0:
64,192,150107,1,0,0:0:0:0:
64,192,150237,1,0,0:0:0:0:
320,192,150237,1,0,0:0:0:0:
192,192,150368,1,0,0:0:0:0:
320,192,150411,1,0,0:0:0:0:
448,192,150455,1,0,0:0:0:0:
64,192,150498,1,0,0:0:0:0:
192,192,150542,1,0,0:0:0:0:
448,192,150585,1,0,0:0:0:0:
320,192,150629,1,0,0:0:0:0:
64,192,150629,1,0,0:0:0:0:
192,192,150694,1,0,0:0:0:0:
448,192,150759,1,0,0:0:0:0:
192,192,150824,1,0,0:0:0:0:
320,192,150890,1,0,0:0:0:0:
64,192,150955,1,0,0:0:0:0:
320,192,151020,1,0,0:0:0:0:
64,192,151085,1,0,0:0:0:0:
320,192,151150,1,0,0:0:0:0:
448,192,151150,1,0,0:0:0:0:
448,192,151281,1,0,0:0:0:0:
64,192,151281,1,0,0:0:0:0:
320,192,151411,1,0,0:0:0:0:
192,192,151455,1,0,0:0:0:0:
448,192,151498,1,0,0:0:0:0:
320,192,151542,1,0,0:0:0:0:
64,192,151585,1,0,0:0:0:0:
192,192,151629,1,0,0:0:0:0:
320,192,151672,1,0,0:0:0:0:
448,192,151672,1,0,0:0:0:0:
448,192,151803,1,0,0:0:0:0:
320,192,151803,1,0,0:0:0:0:
192,192,151933,1,0,0:0:0:0:
320,192,151976,1,0,0:0:0:0:
448,192,152020,1,0,0:0:0:0:
64,192,152063,1,0,0:0:0:0:
192,192,152107,1,0,0:0:0:0:
448,192,152150,1,0,0:0:0:0:
320,192,152194,1,0,0:0:0:0:
448,192,152324,1,0,0:0:0:0:
192,192,152455,1,0,0:0:0:0:
64,192,152498,1,0,0:0:0:0:
448,192,152542,1,0,0:0:0:0:
320,192,152585,1,0,0:0:0:0:
192,192,152629,1,0,0:0:0:0:
64,192,152672,1,0,0:0:0:0:
320,192,152716,1,0,0:0:0:0:
448,192,152716,1,0,0:0:0:0:
192,192,152768,1,0,0:0:0:0:
64,192,152820,1,0,0:0:0:0:
320,192,152872,1,0,0:0:0:0:
192,192,152924,1,0,0:0:0:0:
448,192,152976,1,0,0:0:0:0:
64,192,153029,1,0,0:0:0:0:
192,192,153081,1,0,0:0:0:0:
320,192,153133,1,0,0:0:0:0:
448,192,153185,1,0,0:0:0:0:
64,192,153237,1,0,0:0:0:0:
192,192,153237,1,0,0:0:0:0:
320,192,153303,1,0,0:0:0:0:
448,192,153368,1,0,0:0:0:0:
192,192,153433,1,0,0:0:0:0:
320,192,153498,1,0,0:0:0:0:
64,192,153563,1,0,0:0:0:0:
192,192,153629,1,0,0:0:0:0:
448,192,153629,1,0,0:0:0:0:
320,192,153694,1,0,0:0:0:0:
64,192,153759,1,0,0:0:0:0:
192,192,153759,1,0,0:0:0:0:
448,192,153824,1,0,0:0:0:0:
64,192,153890,1,0,0:0:0:0:
320,192,153955,1,0,0:0:0:0:
192,192,154020,1,0,0:0:0:0:
448,192,154020,1,0,0:0:0:0:
64,192,154085,1,0,0:0:0:0:
448,192,154150,1,0,0:0:0:0:
320,192,154150,1,0,0:0:0:0:
192,192,154216,1,0,0:0:0:0:
64,192,154281,1,0,0:0:0:0:
320,192,154281,1,0,0:0:0:0:
448,192,154346,1,0,0:0:0:0:
64,192,154411,1,0,0:0:0:0:
192,192,154476,1,0,0:0:0:0:
448,192,154542,1,0,0:0:0:0:
64,192,154607,1,0,0:0:0:0:
320,192,154672,1,0,0:0:0:0:
448,192,154672,1,0,0:0:0:0:
192,192,154737,1,0,0:0:0:0:
64,192,154803,1,0,0:0:0:0:
320,192,154803,1,0,0:0:0:0:
448,192,154868,1,0,0:0:0:0:
192,192,154933,1,0,0:0:0:0:
320,192,154998,1,0,0:0:0:0:
64,192,155063,1,0,0:0:0:0:
192,192,155063,1,0,0:0:0:0:
448,192,155129,1,0,0:0:0:0:
320,192,155194,1,0,0:0:0:0:
64,192,155194,1,0,0:0:0:0:
192,192,155259,1,0,0:0:0:0:
448,192,155324,1,0,0:0:0:0:
64,192,155390,1,0,0:0:0:0:
320,192,155455,1,0,0:0:0:0:
192,192,155520,1,0,0:0:0:0:
320,192,155585,1,0,0:0:0:0:
448,192,155585,1,0,0:0:0:0:
64,192,155650,1,0,0:0:0:0:
192,192,155716,1,0,0:0:0:0:
448,192,155716,1,0,0:0:0:0:
320,192,155781,1,0,0:0:0:0:
64,192,155846,1,0,0:0:0:0:
448,192,155911,1,0,0:0:0:0:
192,192,155976,1,0,0:0:0:0:
320,192,156042,1,0,0:0:0:0:
448,192,156107,1,0,0:0:0:0:
192,192,156107,1,0,0:0:0:0:
64,192,156172,1,0,0:0:0:0:
320,192,156237,1,0,0:0:0:0:
448,192,156237,1,0,0:0:0:0:
192,192,156303,1,0,0:0:0:0:
64,192,156368,1,0,0:0:0:0:
320,192,156433,1,0,0:0:0:0:
192,192,156498,1,0,0:0:0:0:
448,192,156563,1,0,0:0:0:0:
192,192,156629,1,0,0:0:0:0:
64,192,156694,1,0,0:0:0:0:
320,192,156759,1,0,0:0:0:0:
192,192,156824,1,0,0:0:0:0:
448,192,156890,1,0,0:0:0:0:
64,192,156955,1,0,0:0:0:0:
192,192,157020,1,0,0:0:0:0:
320,192,157085,1,0,0:0:0:0:
448,192,157150,1,0,0:0:0:0:
320,192,157216,1,0,0:0:0:0:
192,192,157281,1,0,0:0:0:0:
64,192,157346,1,0,0:0:0:0:
448,192,157411,1,0,0:0:0:0:
320,192,157411,1,0,0:0:0:0:
192,192,157476,1,0,0:0:0:0:
64,192,157542,1,0,0:0:0:0:
320,192,157607,1,0,0:0:0:0:
192,192,157672,1,0,0:0:0:0:
448,192,157672,1,0,0:0:0:0:
64,192,157737,1,0,0:0:0:0:
320,192,157803,1,0,0:0:0:0:
448,192,157803,1,0,0:0:0:0:
192,192,157868,1,0,0:0:0:0:
448,192,157933,1,0,0:0:0:0:
64,192,157998,1,0,0:0:0:0:
192,192,158063,1,0,0:0:0:0:
448,192,158129,1,0,0:0:0:0:
64,192,158194,1,0,0:0:0:0:
320,192,158194,1,0,0:0:0:0:
192,192,158259,1,0,0:0:0:0:
320,192,158324,1,0,0:0:0:0:
448,192,158324,1,0,0:0:0:0:
64,192,158390,1,0,0:0:0:0:
192,192,158455,1,0,0:0:0:0:
448,192,158520,1,0,0:0:0:0:
64,192,158585,1,0,0:0:0:0:
320,192,158650,1,0,0:0:0:0:
64,192,158716,1,0,0:0:0:0:
192,192,158716,1,0,0:0:0:0:
448,192,158781,1,0,0:0:0:0:
320,192,158846,1,0,0:0:0:0:
64,192,158846,1,0,0:0:0:0:
192,192,158911,1,0,0:0:0:0:
320,192,158976,1,0,0:0:0:0:
448,192,159042,1,0,0:0:0:0:
192,192,159107,1,0,0:0:0:0:
320,192,159172,1,0,0:0:0:0:
64,192,159237,1,0,0:0:0:0:
192,192,159237,1,0,0:0:0:0:
448,192,159303,1,0,0:0:0:0:
320,192,159368,1,0,0:0:0:0:
64,192,159368,1,0,0:0:0:0:
192,192,159433,1,0,0:0:0:0:
320,192,159498,1,0,0:0:0:0:
448,192,159563,1,0,0:0:0:0:
64,192,159629,1,0,0:0:0:0:
320,192,159694,1,0,0:0:0:0:
448,192,159759,1,0,0:0:0:0:
192,192,159759,1,0,0:0:0:0:
64,192,159824,1,0,0:0:0:0:
320,192,159890,1,0,0:0:0:0:
448,192,159890,1,0,0:0:0:0:
192,192,159955,1,0,0:0:0:0:
64,192,160020,1,0,0:0:0:0:
448,192,160085,1,0,0:0:0:0:
320,192,160150,1,0,0:0:0:0:
192,192,160216,1,0,0:0:0:0:
64,192,160281,1,0,0:0:0:0:
320,192,160281,1,0,0:0:0:0:
448,192,160346,1,0,0:0:0:0:
192,192,160411,1,0,0:0:0:0:
64,192,160411,1,0,0:0:0:0:
320,192,160476,1,0,0:0:0:0:
448,192,160542,1,0,0:0:0:0:
192,192,160607,1,0,0:0:0:0:
320,192,160672,1,0,0:0:0:0:
64,192,160737,1,0,0:0:0:0:
192,192,160803,1,0,0:0:0:0:
448,192,160803,1,0,0:0:0:0:
320,192,160868,1,0,0:0:0:0:
192,192,160933,1,0,0:0:0:0:
64,192,160933,1,0,0:0:0:0:
448,192,160998,1,0,0:0:0:0:
64,192,161063,1,0,0:0:0:0:
320,192,161063,1,0,0:0:0:0:
448,192,161129,1,0,0:0:0:0:
64,192,161194,1,0,0:0:0:0:
448,192,161259,1,0,0:0:0:0:
320,192,161324,1,0,0:0:0:0:
64,192,161324,1,0,0:0:0:0:
192,192,161390,1,0,0:0:0:0:
320,192,161455,1,0,0:0:0:0:
192,192,161520,1,0,0:0:0:0:
320,192,161585,1,0,0:0:0:0:
448,192,161585,1,0,0:0:0:0:
64,192,161650,1,0,0:0:0:0:
192,192,161716,1,0,0:0:0:0:
320,192,161781,1,0,0:0:0:0:
448,192,161846,1,0,0:0:0:0:
192,192,161911,1,0,0:0:0:0:
320,192,161976,1,0,0:0:0:0:
64,192,161976,1,0,0:0:0:0:
448,192,162042,1,0,0:0:0:0:
192,192,162107,1,0,0:0:0:0:
64,192,162172,1,0,0:0:0:0:
320,192,162237,1,0,0:0:0:0:
448,192,162303,1,0,0:0:0:0:
192,192,162368,1,0,0:0:0:0:
64,192,162433,1,0,0:0:0:0:
320,192,162498,1,0,0:0:0:0:
448,192,162498,1,0,0:0:0:0:
192,192,162563,1,0,0:0:0:0:
64,192,162629,1,0,0:0:0:0:
192,192,162694,1,0,0:0:0:0:
448,192,162759,1,0,0:0:0:0:
64,192,162824,1,0,0:0:0:0:
320,192,162890,1,0,0:0:0:0:
448,192,162955,1,0,0:0:0:0:
192,192,163020,1,0,0:0:0:0:
64,192,163020,1,0,0:0:0:0:
320,192,163085,1,0,0:0:0:0:
448,192,163150,1,0,0:0:0:0:
320,192,163216,1,0,0:0:0:0:
64,192,163281,1,0,0:0:0:0:
192,192,163346,1,0,0:0:0:0:
448,192,163411,1,0,0:0:0:0:
64,192,163476,1,0,0:0:0:0:
320,192,163542,1,0,0:0:0:0:
448,192,163542,1,0,0:0:0:0:
192,192,163607,1,0,0:0:0:0:
64,192,163672,1,0,0:0:0:0:
192,192,163737,1,0,0:0:0:0:
448,192,163803,1,0,0:0:0:0:
64,192,163868,1,0,0:0:0:0:
320,192,163933,1,0,0:0:0:0:
448,192,163998,1,0,0:0:0:0:
64,192,164063,1,0,0:0:0:0:
192,192,164063,1,0,0:0:0:0:
320,192,164129,1,0,0:0:0:0:
448,192,164194,1,0,0:0:0:0:
320,192,164259,1,0,0:0:0:0:
64,192,164324,1,0,0:0:0:0:
448,192,164390,1,0,0:0:0:0:
192,192,164455,1,0,0:0:0:0:
64,192,164520,1,0,0:0:0:0:
320,192,164585,1,0,0:0:0:0:
448,192,164585,1,0,0:0:0:0:
64,192,164650,1,0,0:0:0:0:
448,192,164716,1,0,0:0:0:0:
192,192,164716,1,0,0:0:0:0:
448,192,164846,1,0,0:0:0:0:
64,192,164846,1,0,0:0:0:0:
64,192,164976,1,0,0:0:0:0:
192,192,164976,1,0,0:0:0:0:
320,192,165042,1,0,0:0:0:0:
448,192,165107,1,0,0:0:0:0:
192,192,165107,1,0,0:0:0:0:
64,192,165237,1,0,0:0:0:0:
320,192,165237,1,0,0:0:0:0:
192,192,165303,1,0,0:0:0:0:
320,192,165411,1,0,0:0:0:0:
448,192,165411,1,0,0:0:0:0:
320,192,165585,1,0,0:0:0:0:
192,192,165585,1,0,0:0:0:0:
64,192,165759,1,0,0:0:0:0:
192,192,165759,1,0,0:0:0:0:
320,192,165824,1,0,0:0:0:0:
448,192,165890,1,0,0:0:0:0:
192,192,165955,1,0,0:0:0:0:
320,192,166020,1,0,0:0:0:0:
64,192,166020,1,0,0:0:0:0:
448,192,166085,1,0,0:0:0:0:
192,192,166150,1,0,0:0:0:0:
64,192,166150,1,0,0:0:0:0:
320,192,166216,1,0,0:0:0:0:
64,192,166281,1,0,0:0:0:0:
448,192,166346,1,0,0:0:0:0:
320,192,166411,1,0,0:0:0:0:
64,192,166476,1,0,0:0:0:0:
448,192,166542,1,0,0:0:0:0:
192,192,166542,1,0,0:0:0:0:
320,192,166607,1,0,0:0:0:0:
192,192,166672,1,0,0:0:0:0:
64,192,166672,1,0,0:0:0:0:
448,192,166737,1,0,0:0:0:0:
320,192,166803,1,0,0:0:0:0:
64,192,166868,1,0,0:0:0:0:
448,192,166933,1,0,0:0:0:0:
192,192,166998,1,0,0:0:0:0:
448,192,167063,1,0,0:0:0:0:
320,192,167063,1,0,0:0:0:0:
64,192,167129,1,0,0:0:0:0:
192,192,167194,1,0,0:0:0:0:
448,192,167194,1,0,0:0:0:0:
320,192,167259,1,0,0:0:0:0:
192,192,167324,1,0,0:0:0:0:
64,192,167390,1,0,0:0:0:0:
320,192,167455,1,0,0:0:0:0:
192,192,167520,1,0,0:0:0:0:
448,192,167585,1,0,0:0:0:0:
320,192,167585,1,0,0:0:0:0:
64,192,167650,1,0,0:0:0:0:
192,192,167716,1,0,0:0:0:0:
448,192,167716,1,0,0:0:0:0:
320,192,167781,1,0,0:0:0:0:
192,192,167846,1,0,0:0:0:0:
64,192,167911,1,0,0:0:0:0:
448,192,167976,1,0,0:0:0:0:
192,192,168042,1,0,0:0:0:0:
64,192,168107,1,0,0:0:0:0:
320,192,168107,1,0,0:0:0:0:
448,192,168172,1,0,0:0:0:0:
192,192,168237,1,0,0:0:0:0:
64,192,168237,1,0,0:0:0:0:
320,192,168303,1,0,0:0:0:0:
448,192,168368,1,0,0:0:0:0:
64,192,168433,1,0,0:0:0:0:
192,192,168498,1,0,0:0:0:0:
320,192,168563,1,0,0:0:0:0:
448,192,168629,1,0,0:0:0:0:
192,192,168629,1,0,0:0:0:0:
64,192,168694,1,0,0:0:0:0:
320,192,168759,1,0,0:0:0:0:
448,192,168759,1,0,0:0:0:0:
192,192,168824,1,0,0:0:0:0:
64,192,168890,1,0,0:0:0:0:
320,192,168955,1,0,0:0:0:0:
64,192,169020,1,0,0:0:0:0:
320,192,169085,1,0,0:0:0:0:
192,192,169150,1,0,0:0:0:0:
320,192,169216,1,0,0:0:0:0:
192,192,169281,1,0,0:0:0:0:
320,192,169346,1,0,0:0:0:0:
192,192,169411,1,0,0:0:0:0:
448,192,169476,1,0,0:0:0:0:
192,192,169542,1,0,0:0:0:0:
448,192,169607,1,0,0:0:0:0:
64,192,169672,1,0,0:0:0:0:
192,192,169737,1,0,0:0:0:0:
320,192,169803,1,0,0:0:0:0:
448,192,169868,1,0,0:0:0:0:
192,192,169933,1,0,0:0:0:0:
64,192,169933,1,0,0:0:0:0:
320,192,169998,1,0,0:0:0:0:
64,192,170063,1,0,0:0:0:0:
192,192,170129,1,0,0:0:0:0:
448,192,170194,1,0,0:0:0:0:
320,192,170259,1,0,0:0:0:0:
64,192,170324,1,0,0:0:0:0:
192,192,170324,1,0,0:0:0:0:
320,192,170390,1,0,0:0:0:0:
448,192,170455,1,0,0:0:0:0:
192,192,170520,1,0,0:0:0:0:
320,192,170585,1,0,0:0:0:0:
64,192,170650,1,0,0:0:0:0:
192,192,170716,1,0,0:0:0:0:
320,192,170781,1,0,0:0:0:0:
64,192,170846,1,0,0:0:0:0:
192,192,170846,1,0,0:0:0:0:
448,192,170911,1,0,0:0:0:0:
320,192,170976,1,0,0:0:0:0:
192,192,171042,1,0,0:0:0:0:
448,192,171107,1,0,0:0:0:0:
320,192,171172,1,0,0:0:0:0:
64,192,171237,1,0,0:0:0:0:
192,192,171303,1,0,0:0:0:0:
320,192,171368,1,0,0:0:0:0:
448,192,171368,1,0,0:0:0:0:
192,192,171433,1,0,0:0:0:0:
64,192,171498,1,0,0:0:0:0:
320,192,171563,1,0,0:0:0:0:
192,192,171629,1,0,0:0:0:0:
448,192,171694,1,0,0:0:0:0:
320,192,171759,1,0,0:0:0:0:
64,192,171824,1,0,0:0:0:0:
448,192,171890,1,0,0:0:0:0:
192,192,171890,1,0,0:0:0:0:
320,192,171955,1,0,0:0:0:0:
192,192,172020,1,0,0:0:0:0:
64,192,172085,1,0,0:0:0:0:
320,192,172150,1,0,0:0:0:0:
192,192,172216,1,0,0:0:0:0:
64,192,172281,1,0,0:0:0:0:
448,192,172346,1,0,0:0:0:0:
320,192,172411,1,0,0:0:0:0:
64,192,172411,1,0,0:0:0:0:
192,192,172476,1,0,0:0:0:0:
320,192,172542,1,0,0:0:0:0:
448,192,172607,1,0,0:0:0:0:
192,192,172672,1,0,0:0:0:0:
320,192,172737,1,0,0:0:0:0:
64,192,172803,1,0,0:0:0:0:
448,192,172803,1,0,0:0:0:0:
192,192,172868,1,0,0:0:0:0:
448,192,172933,1,0,0:0:0:0:
320,192,172933,1,0,0:0:0:0:
64,192,172998,1,0,0:0:0:0:
448,192,173063,1,0,0:0:0:0:
320,192,173129,1,0,0:0:0:0:
192,192,173194,1,0,0:0:0:0:
448,192,173259,1,0,0:0:0:0:
320,192,173324,1,0,0:0:0:0:
64,192,173390,1,0,0:0:0:0:
192,192,173455,1,0,0:0:0:0:
448,192,173455,1,0,0:0:0:0:
320,192,173520,1,0,0:0:0:0:
64,192,173585,1,0,0:0:0:0:
192,192,173650,1,0,0:0:0:0:
448,192,173716,1,0,0:0:0:0:
64,192,173781,1,0,0:0:0:0:
448,192,173846,1,0,0:0:0:0:
320,192,173911,1,0,0:0:0:0:
192,192,173976,1,0,0:0:0:0:
64,192,174042,1,0,0:0:0:0:
320,192,174107,1,0,0:0:0:0:
448,192,174172,1,0,0:0:0:0:
64,192,174237,1,0,0:0:0:0:
192,192,174237,1,0,0:0:0:0:
320,192,174303,1,0,0:0:0:0:
448,192,174368,1,0,0:0:0:0:
192,192,174433,1,0,0:0:0:0:
320,192,174498,1,0,0:0:0:0:
64,192,174498,1,0,0:0:0:0:
448,192,174563,1,0,0:0:0:0:
192,192,174629,1,0,0:0:0:0:
320,192,174694,1,0,0:0:0:0:
192,192,174759,1,0,0:0:0:0:
64,192,174759,1,0,0:0:0:0:
448,192,174824,1,0,0:0:0:0:
320,192,174890,1,0,0:0:0:0:
192,192,174955,1,0,0:0:0:0:
320,192,175020,1,0,0:0:0:0:
448,192,175020,1,0,0:0:0:0:
64,192,175085,1,0,0:0:0:0:
192,192,175150,1,0,0:0:0:0:
448,192,175216,1,0,0:0:0:0:
320,192,175281,1,0,0:0:0:0:
64,192,175281,1,0,0:0:0:0:
192,192,175346,1,0,0:0:0:0:
448,192,175411,1,0,0:0:0:0:
64,192,175476,1,0,0:0:0:0:
192,192,175476,1,0,0:0:0:0:
320,192,175542,1,0,0:0:0:0:
448,192,175542,1,0,0:0:0:0:
192,192,175607,1,0,0:0:0:0:
64,192,175672,1,0,0:0:0:0:
320,192,175672,1,0,0:0:0:0:
320,192,175868,1,0,0:0:0:0:
192,192,175868,1,0,0:0:0:0:
448,192,176063,1,0,0:0:0:0:
64,192,176063,1,0,0:0:0:0:
192,192,176194,1,0,0:0:0:0:
64,192,176194,1,0,0:0:0:0:
320,192,176259,1,0,0:0:0:0:
448,192,176324,1,0,0:0:0:0:
192,192,176324,1,0,0:0:0:0:
64,192,176390,1,0,0:0:0:0:
448,192,176455,1,0,0:0:0:0:
64,192,176520,1,0,0:0:0:0:
320,192,176585,1,0,0:0:0:0:
192,192,176650,1,0,0:0:0:0:
320,192,176716,1,0,0:0:0:0:
192,192,176781,1,0,0:0:0:0:
448,192,176846,1,0,0:0:0:0:
64,192,176911,1,0,0:0:0:0:
448,192,176976,1,0,0:0:0:0:
64,192,177042,1,0,0:0:0:0:
192,192,177107,1,0,0:0:0:0:
320,192,177172,1,0,0:0:0:0:
448,192,177237,1,0,0:0:0:0:
64,192,177303,1,0,0:0:0:0:
192,192,177368,1,0,0:0:0:0:
320,192,177433,1,0,0:0:0:0:
64,192,177498,1,0,0:0:0:0:
192,192,177563,1,0,0:0:0:0:
448,192,177629,1,0,0:0:0:0:
320,192,177694,1,0,0:0:0:0:
64,192,177759,1,0,0:0:0:0:
192,192,177759,1,0,0:0:0:0:
320,192,177824,1,0,0:0:0:0:
448,192,177824,1,0,0:0:0:0:
192,192,177890,1,0,0:0:0:0:
320,192,177955,1,0,0:0:0:0:
192,192,178020,1,0,0:0:0:0:
320,192,178085,1,0,0:0:0:0:
192,192,178150,1,0,0:0:0:0:
64,192,178216,1,0,0:0:0:0:
448,192,178281,1,0,0:0:0:0:
192,192,178346,1,0,0:0:0:0:
64,192,178411,1,0,0:0:0:0:
320,192,178411,1,0,0:0:0:0:
448,192,178476,1,0,0:0:0:0:
192,192,178542,1,0,0:0:0:0:
64,192,178607,1,0,0:0:0:0:
320,192,178672,1,0,0:0:0:0:
448,192,178672,1,0,0:0:0:0:
192,192,178737,1,0,0:0:0:0:
64,192,178803,1,0,0:0:0:0:
448,192,178868,1,0,0:0:0:0:
320,192,178933,1,0,0:0:0:0:
64,192,178933,1,0,0:0:0:0:
192,192,178998,1,0,0:0:0:0:
320,192,179063,1,0,0:0:0:0:
448,192,179129,1,0,0:0:0:0:
64,192,179194,1,0,0:0:0:0:
192,192,179194,1,0,0:0:0:0:
320,192,179259,1,0,0:0:0:0:
448,192,179324,1,0,0:0:0:0:
192,192,179390,1,0,0:0:0:0:
64,192,179455,1,0,0:0:0:0:
320,192,179455,1,0,0:0:0:0:
448,192,179520,1,0,0:0:0:0:
192,192,179585,1,0,0:0:0:0:
64,192,179650,1,0,0:0:0:0:
320,192,179716,1,0,0:0:0:0:
448,192,179716,1,0,0:0:0:0:
192,192,179781,1,0,0:0:0:0:
64,192,179846,1,0,0:0:0:0:
320,192,179911,1,0,0:0:0:0:
192,192,179976,1,0,0:0:0:0:
64,192,179976,1,0,0:0:0:0:
320,192,180042,1,0,0:0:0:0:
448,192,180107,1,0,0:0:0:0:
64,192,180172,1,0,0:0:0:0:
192,192,180237,1,0,0:0:0:0:
448,192,180237,1,0,0:0:0:0:
320,192,180303,1,0,0:0:0:0:
64,192,180368,1,0,0:0:0:0:
192,192,180433,1,0,0:0:0:0:
320,192,180498,1,0,0:0:0:0:
448,192,180498,1,0,0:0:0:0:
192,192,180563,1,0,0:0:0:0:
64,192,180629,1,0,0:0:0:0:
320,192,180694,1,0,0:0:0:0:
448,192,180759,1,0,0:0:0:0:
192,192,180759,1,0,0:0:0:0:
64,192,180824,1,0,0:0:0:0:
320,192,180890,1,0,0:0:0:0:
192,192,180955,1,0,0:0:0:0:
320,192,181020,1,0,0:0:0:0:
448,192,181020,1,0,0:0:0:0:
64,192,181085,1,0,0:0:0:0:
192,192,181150,1,0,0:0:0:0:
320,192,181216,1,0,0:0:0:0:
64,192,181281,1,0,0:0:0:0:
192,192,181281,1,0,0:0:0:0:
448,192,181346,1,0,0:0:0:0:
320,192,181411,1,0,0:0:0:0:
64,192,181476,1,0,0:0:0:0:
448,192,181542,1,0,0:0:0:0:
192,192,181607,1,0,0:0:0:0:
64,192,181672,1,0,0:0:0:0:
448,192,181737,1,0,0:0:0:0:
320,192,181803,1,0,0:0:0:0:
64,192,181803,1,0,0:0:0:0:
192,192,181868,1,0,0:0:0:0:
448,192,181933,1,0,0:0:0:0:
320,192,181998,1,0,0:0:0:0:
192,192,182063,1,0,0:0:0:0:
64,192,182063,1,0,0:0:0:0:
448,192,182129,1,0,0:0:0:0:
192,192,182194,1,0,0:0:0:0:
448,192,182259,1,0,0:0:0:0:
192,192,182324,1,0,0:0:0:0:
320,192,182390,1,0,0:0:0:0:
192,192,182455,1,0,0:0:0:0:
64,192,182520,1,0,0:0:0:0:
448,192,182585,1,0,0:0:0:0:
320,192,182585,1,0,0:0:0:0:
192,192,182650,1,0,0:0:0:0:
320,192,182716,1,0,0:0:0:0:
448,192,182781,1,0,0:0:0:0:
64,192,182846,1,0,0:0:0:0:
192,192,182846,1,0,0:0:0:0:
320,192,182911,1,0,0:0:0:0:
448,192,182976,1,0,0:0:0:0:
192,192,183042,1,0,0:0:0:0:
320,192,183107,1,0,0:0:0:0:
64,192,183107,1,0,0:0:0:0:
448,192,183172,1,0,0:0:0:0:
192,192,183237,1,0,0:0:0:0:
320,192,183303,1,0,0:0:0:0:
192,192,183368,1,0,0:0:0:0:
64,192,183368,1,0,0:0:0:0:
448,192,183433,1,0,0:0:0:0:
320,192,183498,1,0,0:0:0:0:
192,192,183563,1,0,0:0:0:0:
320,192,183629,1,0,0:0:0:0:
448,192,183629,1,0,0:0:0:0:
64,192,183694,1,0,0:0:0:0:
320,192,183759,1,0,0:0:0:0:
192,192,183824,1,0,0:0:0:0:
448,192,183890,1,0,0:0:0:0:
320,192,183955,1,0,0:0:0:0:
192,192,184020,1,0,0:0:0:0:
64,192,184020,1,0,0:0:0:0:
192,192,184194,1,0,0:0:0:0:
448,192,184194,1,0,0:0:0:0:
448,192,184368,1,0,0:0:0:0:
64,192,184368,1,0,0:0:0:0:
192,192,184542,1,0,0:0:0:0:
64,192,184542,1,0,0:0:0:0:
320,192,184607,1,0,0:0:0:0:
448,192,184672,1,0,0:0:0:0:
192,192,184672,1,0,0:0:0:0:
64,192,184737,1,0,0:0:0:0:
320,192,184803,1,0,0:0:0:0:
192,192,184868,1,0,0:0:0:0:
320,192,184933,1,0,0:0:0:0:
448,192,184933,1,0,0:0:0:0:
64,192,184998,1,0,0:0:0:0:
192,192,185063,1,0,0:0:0:0:
448,192,185129,1,0,0:0:0:0:
320,192,185194,1,0,0:0:0:0:
64,192,185194,1,0,0:0:0:0:
192,192,185259,1,0,0:0:0:0:
320,192,185324,1,0,0:0:0:0:
448,192,185390,1,0,0:0:0:0:
64,192,185455,1,0,0:0:0:0:
192,192,185455,1,0,0:0:0:0:
448,192,185520,1,0,0:0:0:0:
320,192,185585,1,0,0:0:0:0:
64,192,185650,1,0,0:0:0:0:
448,192,185716,1,0,0:0:0:0:
64,192,185781,1,0,0:0:0:0:
448,192,185846,1,0,0:0:0:0:
192,192,185911,1,0,0:0:0:0:
448,192,185976,1,0,0:0:0:0:
192,192,186042,1,0,0:0:0:0:
448,192,186107,1,0,0:0:0:0:
192,192,186172,1,0,0:0:0:0:
320,192,186237,1,0,0:0:0:0:
192,192,186303,1,0,0:0:0:0:
320,192,186368,1,0,0:0:0:0:
192,192,186433,1,0,0:0:0:0:
64,192,186498,1,0,0:0:0:0:
448,192,186563,1,0,0:0:0:0:
64,192,186629,5,0,0:0:0:0:
192,192,186629,1,0,0:0:0:0:
320,192,186694,1,0,0:0:0:0:
448,192,186759,1,0,0:0:0:0:
192,192,186824,1,0,0:0:0:0:
320,192,186890,1,0,0:0:0:0:
192,192,186955,1,0,0:0:0:0:
64,192,187020,1,0,0:0:0:0:
448,192,187085,1,0,0:0:0:0:
320,192,187150,1,0,0:0:0:0:
64,192,187150,1,0,0:0:0:0:
192,192,187216,1,0,0:0:0:0:
320,192,187281,1,0,0:0:0:0:
448,192,187346,1,0,0:0:0:0:
192,192,187411,1,0,0:0:0:0:
320,192,187476,1,0,0:0:0:0:
64,192,187542,1,0,0:0:0:0:
192,192,187607,1,0,0:0:0:0:
320,192,187672,1,0,0:0:0:0:
448,192,187672,1,0,0:0:0:0:
192,192,187737,1,0,0:0:0:0:
64,192,187803,1,0,0:0:0:0:
320,192,187868,1,0,0:0:0:0:
192,192,187933,1,0,0:0:0:0:
448,192,187998,1,0,0:0:0:0:
320,192,188063,1,0,0:0:0:0:
192,192,188129,1,0,0:0:0:0:
320,192,188194,1,0,0:0:0:0:
448,192,188194,1,0,0:0:0:0:
64,192,188259,1,0,0:0:0:0:
192,192,188324,1,0,0:0:0:0:
320,192,188390,1,0,0:0:0:0:
64,192,188455,1,0,0:0:0:0:
192,192,188520,1,0,0:0:0:0:
448,192,188585,1,0,0:0:0:0:
320,192,188650,1,0,0:0:0:0:
64,192,188716,1,0,0:0:0:0:
192,192,188716,1,0,0:0:0:0:
320,192,188781,1,0,0:0:0:0:
448,192,188846,1,0,0:0:0:0:
64,192,188911,1,0,0:0:0:0:
192,192,188976,1,0,0:0:0:0:
320,192,189042,1,0,0:0:0:0:
192,192,189107,1,0,0:0:0:0:
64,192,189172,1,0,0:0:0:0:
320,192,189237,1,0,0:0:0:0:
448,192,189237,1,0,0:0:0:0:
192,192,189303,1,0,0:0:0:0:
64,192,189368,1,0,0:0:0:0:
320,192,189433,1,0,0:0:0:0:
192,192,189498,1,0,0:0:0:0:
448,192,189563,1,0,0:0:0:0:
320,192,189629,1,0,0:0:0:0:
64,192,189694,1,0,0:0:0:0:
192,192,189759,1,0,0:0:0:0:
448,192,189759,1,0,0:0:0:0:
320,192,189824,1,0,0:0:0:0:
192,192,189890,1,0,0:0:0:0:
64,192,189955,1,0,0:0:0:0:
448,192,190020,1,0,0:0:0:0:
192,192,190085,1,0,0:0:0:0:
320,192,190150,1,0,0:0:0:0:
64,192,190216,1,0,0:0:0:0:
192,192,190281,1,0,0:0:0:0:
448,192,190281,1,0,0:0:0:0:
320,192,190346,1,0,0:0:0:0:
192,192,190411,1,0,0:0:0:0:
64,192,190411,1,0,0:0:0:0:
320,192,190476,1,0,0:0:0:0:
448,192,190476,1,0,0:0:0:0:
192,192,190542,1,0,0:0:0:0:
64,192,190542,1,0,0:0:0:0:
448,192,190607,1,0,0:0:0:0:
320,192,190672,1,0,0:0:0:0:
192,192,190737,1,0,0:0:0:0:
320,192,190803,1,0,0:0:0:0:
448,192,190803,1,0,0:0:0:0:
64,192,190868,1,0,0:0:0:0:
192,192,190933,1,0,0:0:0:0:
448,192,190998,1,0,0:0:0:0:
192,192,191063,1,0,0:0:0:0:
320,192,191129,1,0,0:0:0:0:
64,192,191194,1,0,0:0:0:0:
192,192,191259,1,0,0:0:0:0:
320,192,191324,1,0,0:0:0:0:
448,192,191324,1,0,0:0:0:0:
192,192,191390,1,0,0:0:0:0:
64,192,191455,1,0,0:0:0:0:
448,192,191520,1,0,0:0:0:0:
320,192,191585,1,0,0:0:0:0:
192,192,191650,1,0,0:0:0:0:
320,192,191716,1,0,0:0:0:0:
64,192,191781,1,0,0:0:0:0:
192,192,191846,1,0,0:0:0:0:
448,192,191846,1,0,0:0:0:0:
320,192,191911,1,0,0:0:0:0:
192,192,191976,1,0,0:0:0:0:
64,192,192042,1,0,0:0:0:0:
320,192,192107,1,0,0:0:0:0:
192,192,192172,1,0,0:0:0:0:
448,192,192237,1,0,0:0:0:0:
64,192,192303,1,0,0:0:0:0:
192,192,192368,1,0,0:0:0:0:
448,192,192368,1,0,0:0:0:0:
64,192,192563,1,0,0:0:0:0:
448,192,192563,1,0,0:0:0:0:
64,192,192694,1,0,0:0:0:0:
320,192,192694,1,0,0:0:0:0:
320,192,192890,1,0,0:0:0:0:
192,192,192890,1,0,0:0:0:0:
448,192,192955,1,0,0:0:0:0:
64,192,193020,1,0,0:0:0:0:
320,192,193085,1,0,0:0:0:0:
192,192,193150,1,0,0:0:0:0:
448,192,193216,1,0,0:0:0:0:
192,192,193281,1,0,0:0:0:0:
320,192,193346,1,0,0:0:0:0:
64,192,193411,1,0,0:0:0:0:
192,192,193411,1,0,0:0:0:0:
320,192,193476,1,0,0:0:0:0:
64,192,193542,1,0,0:0:0:0:
320,192,193607,1,0,0:0:0:0:
192,192,193672,1,0,0:0:0:0:
448,192,193672,1,0,0:0:0:0:
64,192,193737,1,0,0:0:0:0:
320,192,193803,1,0,0:0:0:0:
192,192,193868,1,0,0:0:0:0:
448,192,193933,1,0,0:0:0:0:
320,192,193933,1,0,0:0:0:0:
64,192,193998,1,0,0:0:0:0:
448,192,194063,1,0,0:0:0:0:
192,192,194129,1,0,0:0:0:0:
320,192,194194,1,0,0:0:0:0:
64,192,194194,1,0,0:0:0:0:
448,192,194259,1,0,0:0:0:0:
192,192,194324,1,0,0:0:0:0:
320,192,194390,1,0,0:0:0:0:
192,192,194455,1,0,0:0:0:0:
64,192,194455,1,0,0:0:0:0:
320,192,194520,1,0,0:0:0:0:
448,192,194585,1,0,0:0:0:0:
64,192,194650,1,0,0:0:0:0:
192,192,194716,1,0,0:0:0:0:
320,192,194781,1,0,0:0:0:0:
448,192,194846,1,0,0:0:0:0:
320,192,194911,1,0,0:0:0:0:
64,192,194976,5,0,0:0:0:0:
192,192,194976,1,0,0:0:0:0:
320,192,195042,1,0,0:0:0:0:
448,192,195107,1,0,0:0:0:0:
192,192,195172,1,0,0:0:0:0:
320,192,195237,1,0,0:0:0:0:
192,192,195303,1,0,0:0:0:0:
64,192,195368,1,0,0:0:0:0:
448,192,195433,1,0,0:0:0:0:
64,192,195498,1,0,0:0:0:0:
320,192,195498,1,0,0:0:0:0:
192,192,195563,1,0,0:0:0:0:
320,192,195629,1,0,0:0:0:0:
448,192,195694,1,0,0:0:0:0:
192,192,195759,1,0,0:0:0:0:
320,192,195824,1,0,0:0:0:0:
64,192,195890,1,0,0:0:0:0:
192,192,195955,1,0,0:0:0:0:
448,192,196020,1,0,0:0:0:0:
320,192,196020,1,0,0:0:0:0:
192,192,196085,1,0,0:0:0:0:
64,192,196150,1,0,0:0:0:0:
320,192,196216,1,0,0:0:0:0:
192,192,196281,1,0,0:0:0:0:
448,192,196346,1,0,0:0:0:0:
320,192,196411,1,0,0:0:0:0:
192,192,196476,1,0,0:0:0:0:
448,192,196542,1,0,0:0:0:0:
320,192,196542,1,0,0:0:0:0:
64,192,196607,1,0,0:0:0:0:
192,192,196672,1,0,0:0:0:0:
320,192,196737,1,0,0:0:0:0:
64,192,196803,1,0,0:0:0:0:
192,192,196868,1,0,0:0:0:0:
448,192,196933,1,0,0:0:0:0:
320,192,196998,1,0,0:0:0:0:
64,192,197063,1,0,0:0:0:0:
192,192,197063,1,0,0:0:0:0:
320,192,197129,1,0,0:0:0:0:
448,192,197194,1,0,0:0:0:0:
64,192,197259,1,0,0:0:0:0:
192,192,197324,1,0,0:0:0:0:
448,192,197390,1,0,0:0:0:0:
320,192,197455,1,0,0:0:0:0:
64,192,197520,1,0,0:0:0:0:
448,192,197585,1,0,0:0:0:0:
320,192,197585,1,0,0:0:0:0:
192,192,197650,1,0,0:0:0:0:
64,192,197716,1,0,0:0:0:0:
320,192,197781,1,0,0:0:0:0:
192,192,197846,1,0,0:0:0:0:
448,192,197911,1,0,0:0:0:0:
320,192,197976,1,0,0:0:0:0:
64,192,198042,1,0,0:0:0:0:
448,192,198107,1,0,0:0:0:0:
192,192,198107,1,0,0:0:0:0:
320,192,198172,1,0,0:0:0:0:
192,192,198237,1,0,0:0:0:0:
64,192,198303,1,0,0:0:0:0:
448,192,198368,1,0,0:0:0:0:
192,192,198433,1,0,0:0:0:0:
320,192,198498,1,0,0:0:0:0:
64,192,198563,1,0,0:0:0:0:
448,192,198629,1,0,0:0:0:0:
192,192,198629,1,0,0:0:0:0:
320,192,198694,1,0,0:0:0:0:
192,192,198759,1,0,0:0:0:0:
64,192,198759,1,0,0:0:0:0:
448,192,198824,1,0,0:0:0:0:
320,192,198824,1,0,0:0:0:0:
64,192,198890,1,0,0:0:0:0:
192,192,198890,1,0,0:0:0:0:
448,192,198955,1,0,0:0:0:0:
64,192,199020,1,0,0:0:0:0:
448,192,199085,1,0,0:0:0:0:
320,192,199150,1,0,0:0:0:0:
64,192,199150,1,0,0:0:0:0:
192,192,199216,1,0,0:0:0:0:
320,192,199281,1,0,0:0:0:0:
448,192,199346,1,0,0:0:0:0:
192,192,199411,1,0,0:0:0:0:
320,192,199476,1,0,0:0:0:0:
64,192,199542,1,0,0:0:0:0:
192,192,199607,1,0,0:0:0:0:
320,192,199672,1,0,0:0:0:0:
448,192,199672,1,0,0:0:0:0:
192,192,199737,1,0,0:0:0:0:
64,192,199803,1,0,0:0:0:0:
320,192,199868,1,0,0:0:0:0:
192,192,199933,1,0,0:0:0:0:
320,192,199998,1,0,0:0:0:0:
448,192,200063,1,0,0:0:0:0:
192,192,200129,1,0,0:0:0:0:
64,192,200194,1,0,0:0:0:0:
320,192,200194,1,0,0:0:0:0:
448,192,200259,1,0,0:0:0:0:
192,192,200324,1,0,0:0:0:0:
320,192,200390,1,0,0:0:0:0:
64,192,200455,1,0,0:0:0:0:
448,192,200520,1,0,0:0:0:0:
320,192,200585,1,0,0:0:0:0:
192,192,200650,1,0,0:0:0:0:
320,192,200716,1,0,0:0:0:0:
448,192,200716,1,0,0:0:0:0:
64,192,200781,1,0,0:0:0:0:
320,192,200846,1,0,0:0:0:0:
192,192,200911,1,0,0:0:0:0:
448,192,200976,1,0,0:0:0:0:
320,192,201042,1,0,0:0:0:0:
64,192,201107,1,0,0:0:0:0:
192,192,201172,1,0,0:0:0:0:
320,192,201237,1,0,0:0:0:0:
448,192,201237,1,0,0:0:0:0:
192,192,201303,1,0,0:0:0:0:
64,192,201368,1,0,0:0:0:0:
320,192,201433,1,0,0:0:0:0:
192,192,201498,1,0,0:0:0:0:
448,192,201563,1,0,0:0:0:0:
64,192,201629,1,0,0:0:0:0:
320,192,201694,1,0,0:0:0:0:
192,192,201759,1,0,0:0:0:0:
64,192,201759,1,0,0:0:0:0:
320,192,201824,1,0,0:0:0:0:
448,192,201890,1,0,0:0:0:0:
192,192,201955,1,0,0:0:0:0:
320,192,202020,1,0,0:0:0:0:
64,192,202085,1,0,0:0:0:0:
192,192,202150,1,0,0:0:0:0:
448,192,202216,1,0,0:0:0:0:
320,192,202281,1,0,0:0:0:0:
64,192,202281,1,0,0:0:0:0:
192,192,202346,1,0,0:0:0:0:
448,192,202411,1,0,0:0:0:0:
320,192,202476,1,0,0:0:0:0:
64,192,202542,1,0,0:0:0:0:
448,192,202607,1,0,0:0:0:0:
192,192,202672,1,0,0:0:0:0:
320,192,202737,1,0,0:0:0:0:
448,192,202803,1,0,0:0:0:0:
192,192,202803,1,0,0:0:0:0:
64,192,202868,1,0,0:0:0:0:
448,192,202933,1,0,0:0:0:0:
320,192,202933,1,0,0:0:0:0:
192,192,202998,1,0,0:0:0:0:
320,192,203063,1,0,0:0:0:0:
448,192,203063,1,0,0:0:0:0:
192,192,203194,1,0,0:0:0:0:
64,192,203194,1,0,0:0:0:0:
320,192,203259,1,0,0:0:0:0:
192,192,203324,1,0,0:0:0:0:
64,192,203324,1,0,0:0:0:0:
448,192,203390,1,0,0:0:0:0:
320,192,203455,1,0,0:0:0:0:
192,192,203520,1,0,0:0:0:0:
64,192,203585,1,0,0:0:0:0:
192,192,203650,1,0,0:0:0:0:
320,192,203716,1,0,0:0:0:0:
64,192,203781,1,0,0:0:0:0:
192,192,203846,1,0,0:0:0:0:
448,192,203846,1,0,0:0:0:0:
320,192,203911,1,0,0:0:0:0:
192,192,203976,1,0,0:0:0:0:
64,192,204042,1,0,0:0:0:0:
320,192,204107,1,0,0:0:0:0:
192,192,204172,1,0,0:0:0:0:
448,192,204237,1,0,0:0:0:0:
320,192,204303,1,0,0:0:0:0:
192,192,204368,1,0,0:0:0:0:
64,192,204368,1,0,0:0:0:0:
320,192,204433,1,0,0:0:0:0:
448,192,204498,1,0,0:0:0:0:
192,192,204563,1,0,0:0:0:0:
320,192,204629,1,0,0:0:0:0:
448,192,204694,1,0,0:0:0:0:
64,192,204759,1,0,0:0:0:0:
192,192,204824,1,0,0:0:0:0:
320,192,204890,1,0,0:0:0:0:
448,192,204890,1,0,0:0:0:0:
192,192,204955,1,0,0:0:0:0:
64,192,205020,1,0,0:0:0:0:
320,192,205085,1,0,0:0:0:0:
192,192,205150,1,0,0:0:0:0:
448,192,205216,1,0,0:0:0:0:
320,192,205281,1,0,0:0:0:0:
192,192,205346,1,0,0:0:0:0:
64,192,205411,1,0,0:0:0:0:
320,192,205411,1,0,0:0:0:0:
448,192,205476,1,0,0:0:0:0:
192,192,205542,1,0,0:0:0:0:
320,192,205607,1,0,0:0:0:0:
448,192,205672,1,0,0:0:0:0:
192,192,205737,1,0,0:0:0:0:
320,192,205803,1,0,0:0:0:0:
64,192,205868,1,0,0:0:0:0:
192,192,205933,1,0,0:0:0:0:
448,192,205933,1,0,0:0:0:0:
320,192,205998,1,0,0:0:0:0:
448,192,206063,1,0,0:0:0:0:
320,192,206129,1,0,0:0:0:0:
192,192,206194,1,0,0:0:0:0:
64,192,206259,1,0,0:0:0:0:
320,192,206324,1,0,0:0:0:0:
192,192,206390,1,0,0:0:0:0:
64,192,206455,1,0,0:0:0:0:
320,192,206455,1,0,0:0:0:0:
448,192,206520,1,0,0:0:0:0:
192,192,206585,1,0,0:0:0:0:
320,192,206650,1,0,0:0:0:0:
448,192,206716,1,0,0:0:0:0:
192,192,206781,1,0,0:0:0:0:
64,192,206846,1,0,0:0:0:0:
192,192,206911,1,0,0:0:0:0:
320,192,206976,1,0,0:0:0:0:
64,192,206976,1,0,0:0:0:0:
448,192,207042,1,0,0:0:0:0:
192,192,207107,1,0,0:0:0:0:
448,192,207172,1,0,0:0:0:0:
192,192,207237,1,0,0:0:0:0:
448,192,207303,1,0,0:0:0:0:
320,192,207368,1,0,0:0:0:0:
64,192,207433,1,0,0:0:0:0:
320,192,207498,1,0,0:0:0:0:
448,192,207498,1,0,0:0:0:0:
192,192,207563,1,0,0:0:0:0:
64,192,207629,1,0,0:0:0:0:
320,192,207694,1,0,0:0:0:0:
192,192,207759,1,0,0:0:0:0:
320,192,207824,1,0,0:0:0:0:
448,192,207890,1,0,0:0:0:0:
320,192,207955,1,0,0:0:0:0:
64,192,208020,1,0,0:0:0:0:
192,192,208020,1,0,0:0:0:0:
448,192,208085,1,0,0:0:0:0:
192,192,208150,1,0,0:0:0:0:
64,192,208216,1,0,0:0:0:0:
448,192,208281,1,0,0:0:0:0:
320,192,208346,1,0,0:0:0:0:
64,192,208411,1,0,0:0:0:0:
192,192,208476,1,0,0:0:0:0:
320,192,208542,1,0,0:0:0:0:
448,192,208542,1,0,0:0:0:0:
192,192,208607,1,0,0:0:0:0:
64,192,208672,1,0,0:0:0:0:
320,192,208737,1,0,0:0:0:0:
192,192,208803,1,0,0:0:0:0:
448,192,208868,1,0,0:0:0:0:
320,192,208933,1,0,0:0:0:0:
64,192,208998,1,0,0:0:0:0:
192,192,209063,1,0,0:0:0:0:
448,192,209063,1,0,0:0:0:0:
320,192,209129,1,0,0:0:0:0:
64,192,209194,1,0,0:0:0:0:
448,192,209259,1,0,0:0:0:0:
192,192,209324,1,0,0:0:0:0:
320,192,209390,1,0,0:0:0:0:
64,192,209455,1,0,0:0:0:0:
192,192,209520,1,0,0:0:0:0:
64,192,209585,1,0,0:0:0:0:
320,192,209585,1,0,0:0:0:0:
448,192,209650,1,0,0:0:0:0:
192,192,209716,1,0,0:0:0:0:
320,192,209781,1,0,0:0:0:0:
192,192,209846,1,0,0:0:0:0:
64,192,209911,1,0,0:0:0:0:
448,192,209976,1,0,0:0:0:0:
192,192,210042,1,0,0:0:0:0:
320,192,210107,1,0,0:0:0:0:
448,192,210107,1,0,0:0:0:0:
64,192,210172,1,0,0:0:0:0:
448,192,210237,1,0,0:0:0:0:
192,192,210303,1,0,0:0:0:0:
320,192,210368,1,0,0:0:0:0:
64,192,210433,1,0,0:0:0:0:
320,192,210498,1,0,0:0:0:0:
192,192,210563,1,0,0:0:0:0:
448,192,210629,1,0,0:0:0:0:
320,192,210629,1,0,0:0:0:0:
64,192,210694,1,0,0:0:0:0:
448,192,210759,1,0,0:0:0:0:
64,192,210824,1,0,0:0:0:0:
448,192,210890,1,0,0:0:0:0:
64,192,210955,1,0,0:0:0:0:
320,192,211020,1,0,0:0:0:0:
448,192,211085,1,0,0:0:0:0:
192,192,211150,1,0,0:0:0:0:
64,192,211150,1,0,0:0:0:0:
320,192,211216,1,0,0:0:0:0:
448,192,211281,1,0,0:0:0:0:
192,192,211346,1,0,0:0:0:0:
320,192,211411,1,0,0:0:0:0:
64,192,211476,1,0,0:0:0:0:
192,192,211542,1,0,0:0:0:0:
448,192,211607,1,0,0:0:0:0:
192,192,211672,1,0,0:0:0:0:
64,192,211672,1,0,0:0:0:0:
448,192,211737,1,0,0:0:0:0:
320,192,211803,1,0,0:0:0:0:
192,192,211868,1,0,0:0:0:0:
320,192,211933,1,0,0:0:0:0:
64,192,211998,1,0,0:0:0:0:
448,192,212063,1,0,0:0:0:0:
192,192,212129,1,0,0:0:0:0:
320,192,212194,1,0,0:0:0:0:
448,192,212194,1,0,0:0:0:0:
192,192,212259,1,0,0:0:0:0:
64,192,212324,1,0,0:0:0:0:
448,192,212390,1,0,0:0:0:0:
320,192,212455,1,0,0:0:0:0:
192,192,212520,1,0,0:0:0:0:
64,192,212585,1,0,0:0:0:0:
448,192,212650,1,0,0:0:0:0:
320,192,212716,1,0,0:0:0:0:
64,192,212716,1,0,0:0:0:0:
192,192,212781,1,0,0:0:0:0:
320,192,212846,1,0,0:0:0:0:
448,192,212911,1,0,0:0:0:0:
192,192,212976,1,0,0:0:0:0:
64,192,213042,1,0,0:0:0:0:
448,192,213107,1,0,0:0:0:0:
320,192,213172,1,0,0:0:0:0:
192,192,213237,1,0,0:0:0:0:
64,192,213237,1,0,0:0:0:0:
320,192,213303,1,0,0:0:0:0:
448,192,213368,1,0,0:0:0:0:
64,192,213433,1,0,0:0:0:0:
192,192,213498,1,0,0:0:0:0:
320,192,213563,1,0,0:0:0:0:
448,192,213629,1,0,0:0:0:0:
64,192,213694,1,0,0:0:0:0:
448,192,213759,1,0,0:0:0:0:
192,192,213759,1,0,0:0:0:0:
320,192,213824,1,0,0:0:0:0:
192,192,213890,1,0,0:0:0:0:
64,192,213955,1,0,0:0:0:0:
320,192,214020,1,0,0:0:0:0:
448,192,214085,1,0,0:0:0:0:
64,192,214150,1,0,0:0:0:0:
192,192,214216,1,0,0:0:0:0:
448,192,214281,1,0,0:0:0:0:
320,192,214281,1,0,0:0:0:0:
192,192,214346,1,0,0:0:0:0:
64,192,214411,1,0,0:0:0:0:
448,192,214476,1,0,0:0:0:0:
320,192,214542,1,0,0:0:0:0:
64,192,214607,1,0,0:0:0:0:
448,192,214672,1,0,0:0:0:0:
192,192,214737,1,0,0:0:0:0:
448,192,214803,1,0,0:0:0:0:
320,192,214803,1,0,0:0:0:0:
64,192,214868,1,0,0:0:0:0:
448,192,214933,1,0,0:0:0:0:
192,192,214933,1,0,0:0:0:0:
320,192,214998,1,0,0:0:0:0:
192,192,215063,1,0,0:0:0:0:
64,192,215063,1,0,0:0:0:0:
448,192,215129,1,0,0:0:0:0:
64,192,215194,1,0,0:0:0:0:
320,192,215194,1,0,0:0:0:0:
192,192,215259,1,0,0:0:0:0:
448,192,215324,1,0,0:0:0:0:
320,192,215324,1,0,0:0:0:0:
64,192,215390,1,0,0:0:0:0:
192,192,215390,1,0,0:0:0:0:
320,192,215455,1,0,0:0:0:0:
448,192,215455,1,0,0:0:0:0:
64,192,215520,1,0,0:0:0:0:
192,192,215585,1,0,0:0:0:0:
320,192,215650,1,0,0:0:0:0:
192,192,215716,1,0,0:0:0:0:
320,192,215781,1,0,0:0:0:0:
192,192,215846,1,0,0:0:0:0:
64,192,215846,1,0,0:0:0:0:
64,192,215976,1,0,0:0:0:0:
192,192,215976,1,0,0:0:0:0:
448,192,216042,1,0,0:0:0:0:
192,192,216107,1,0,0:0:0:0:
320,192,216172,1,0,0:0:0:0:
64,192,216237,1,0,0:0:0:0:
192,192,216303,1,0,0:0:0:0:
320,192,216368,1,0,0:0:0:0:
448,192,216368,1,0,0:0:0:0:
192,192,216433,1,0,0:0:0:0:
64,192,216498,1,0,0:0:0:0:
448,192,216563,1,0,0:0:0:0:
320,192,216629,1,0,0:0:0:0:
192,192,216694,1,0,0:0:0:0:
64,192,216759,1,0,0:0:0:0:
448,192,216824,1,0,0:0:0:0:
320,192,216890,1,0,0:0:0:0:
64,192,216890,1,0,0:0:0:0:
320,192,217020,1,0,0:0:0:0:
64,192,217020,1,0,0:0:0:0:
448,192,217085,1,0,0:0:0:0:
192,192,217150,1,0,0:0:0:0:
64,192,217216,1,0,0:0:0:0:
448,192,217281,1,0,0:0:0:0:
320,192,217346,1,0,0:0:0:0:
64,192,217411,1,0,0:0:0:0:
192,192,217411,1,0,0:0:0:0:
320,192,217476,1,0,0:0:0:0:
448,192,217542,1,0,0:0:0:0:
64,192,217607,1,0,0:0:0:0:
192,192,217672,1,0,0:0:0:0:
320,192,217737,1,0,0:0:0:0:
64,192,217803,1,0,0:0:0:0:
320,192,217868,1,0,0:0:0:0:
192,192,217933,1,0,0:0:0:0:
448,192,217933,1,0,0:0:0:0:
64,192,217998,1,0,0:0:0:0:
320,192,218063,1,0,0:0:0:0:
448,192,218063,1,0,0:0:0:0:
192,192,218129,1,0,0:0:0:0:
64,192,218194,1,0,0:0:0:0:
320,192,218259,1,0,0:0:0:0:
192,192,218324,1,0,0:0:0:0:
448,192,218324,1,0,0:0:0:0:
64,192,218390,1,0,0:0:0:0:
320,192,218455,1,0,0:0:0:0:
192,192,218520,1,0,0:0:0:0:
320,192,218585,1,0,0:0:0:0:
448,192,218585,1,0,0:0:0:0:
64,192,218650,1,0,0:0:0:0:
192,192,218716,1,0,0:0:0:0:
320,192,218781,1,0,0:0:0:0:
192,192,218846,1,0,0:0:0:0:
64,192,218846,1,0,0:0:0:0:
448,192,218911,1,0,0:0:0:0:
320,192,218976,1,0,0:0:0:0:
64,192,219042,1,0,0:0:0:0:
192,192,219107,1,0,0:0:0:0:
448,192,219107,1,0,0:0:0:0:
320,192,219172,1,0,0:0:0:0:
64,192,219237,1,0,0:0:0:0:
192,192,219303,1,0,0:0:0:0:
320,192,219368,1,0,0:0:0:0:
448,192,219368,1,0,0:0:0:0:
64,192,219433,1,0,0:0:0:0:
192,192,219498,1,0,0:0:0:0:
320,192,219563,1,0,0:0:0:0:
192,192,219629,1,0,0:0:0:0:
64,192,219629,1,0,0:0:0:0:
320,192,219694,1,0,0:0:0:0:
448,192,219694,1,0,0:0:0:0:
192,192,219759,1,0,0:0:0:0:
320,192,219824,1,0,0:0:0:0:
192,192,219890,1,0,0:0:0:0:
64,192,219955,1,0,0:0:0:0:
320,192,220020,1,0,0:0:0:0:
448,192,220020,1,0,0:0:0:0:
320,192,220150,1,0,0:0:0:0:
448,192,220150,1,0,0:0:0:0:
64,192,220216,1,0,0:0:0:0:
192,192,220281,1,0,0:0:0:0:
448,192,220346,1,0,0:0:0:0:
192,192,220411,1,0,0:0:0:0:
64,192,220476,1,0,0:0:0:0:
448,192,220542,1,0,0:0:0:0:
320,192,220542,1,0,0:0:0:0:
192,192,220607,1,0,0:0:0:0:
64,192,220672,1,0,0:0:0:0:
448,192,220737,1,0,0:0:0:0:
320,192,220803,1,0,0:0:0:0:
192,192,220868,1,0,0:0:0:0:
64,192,220933,1,0,0:0:0:0:
320,192,220998,1,0,0:0:0:0:
448,192,221063,1,0,0:0:0:0:
192,192,221063,1,0,0:0:0:0:
192,192,221194,1,0,0:0:0:0:
448,192,221194,1,0,0:0:0:0:
64,192,221259,1,0,0:0:0:0:
448,192,221324,1,0,0:0:0:0:
64,192,221390,1,0,0:0:0:0:
192,192,221455,1,0,0:0:0:0:
320,192,221520,1,0,0:0:0:0:
64,192,221585,1,0,0:0:0:0:
192,192,221585,1,0,0:0:0:0:
320,192,221650,1,0,0:0:0:0:
448,192,221716,1,0,0:0:0:0:
64,192,221781,1,0,0:0:0:0:
192,192,221846,1,0,0:0:0:0:
320,192,221911,1,0,0:0:0:0:
448,192,221976,1,0,0:0:0:0:
64,192,222042,1,0,0:0:0:0:
192,192,222107,1,0,0:0:0:0:
320,192,222107,1,0,0:0:0:0:
192,192,222237,1,0,0:0:0:0:
320,192,222237,1,0,0:0:0:0:
64,192,222303,1,0,0:0:0:0:
448,192,222368,1,0,0:0:0:0:
192,192,222433,1,0,0:0:0:0:
320,192,222498,1,0,0:0:0:0:
64,192,222563,1,0,0:0:0:0:
448,192,222629,1,0,0:0:0:0:
320,192,222629,1,0,0:0:0:0:
192,192,222694,1,0,0:0:0:0:
64,192,222759,1,0,0:0:0:0:
448,192,222824,1,0,0:0:0:0:
320,192,222890,1,0,0:0:0:0:
192,192,222955,1,0,0:0:0:0:
64,192,223020,1,0,0:0:0:0:
320,192,223085,1,0,0:0:0:0:
448,192,223150,1,0,0:0:0:0:
192,192,223150,1,0,0:0:0:0:
64,192,223216,1,0,0:0:0:0:
320,192,223281,1,0,0:0:0:0:
448,192,223281,1,0,0:0:0:0:
64,192,223346,1,0,0:0:0:0:
192,192,223411,1,0,0:0:0:0:
320,192,223476,1,0,0:0:0:0:
192,192,223542,1,0,0:0:0:0:
448,192,223542,1,0,0:0:0:0:
64,192,223607,1,0,0:0:0:0:
320,192,223672,1,0,0:0:0:0:
64,192,223737,1,0,0:0:0:0:
320,192,223803,1,0,0:0:0:0:
448,192,223803,1,0,0:0:0:0:
192,192,223868,1,0,0:0:0:0:
64,192,223868,1,0,0:0:0:0:
320,192,223933,1,0,0:0:0:0:
192,192,223998,1,0,0:0:0:0:
320,192,224063,1,0,0:0:0:0:
192,192,224129,1,0,0:0:0:0:
320,192,224194,1,0,0:0:0:0:
448,192,224194,1,0,0:0:0:0:
320,192,224324,1,0,0:0:0:0:
448,192,224324,1,0,0:0:0:0:
64,192,224390,1,0,0:0:0:0:
320,192,224455,1,0,0:0:0:0:
192,192,224520,1,0,0:0:0:0:
64,192,224585,1,0,0:0:0:0:
448,192,224650,1,0,0:0:0:0:
192,192,224716,1,0,0:0:0:0:
64,192,224716,1,0,0:0:0:0:
320,192,224781,1,0,0:0:0:0:
448,192,224846,1,0,0:0:0:0:
64,192,224911,1,0,0:0:0:0:
192,192,224976,1,0,0:0:0:0:
320,192,225042,1,0,0:0:0:0:
448,192,225107,1,0,0:0:0:0:
64,192,225172,1,0,0:0:0:0:
192,192,225237,1,0,0:0:0:0:
320,192,225237,1,0,0:0:0:0:
192,192,225368,1,0,0:0:0:0:
320,192,225368,1,0,0:0:0:0:
448,192,225433,1,0,0:0:0:0:
320,192,225498,1,0,0:0:0:0:
192,192,225563,1,0,0:0:0:0:
448,192,225629,1,0,0:0:0:0:
64,192,225694,1,0,0:0:0:0:
448,192,225759,1,0,0:0:0:0:
320,192,225759,1,0,0:0:0:0:
192,192,225824,1,0,0:0:0:0:
64,192,225890,1,0,0:0:0:0:
448,192,225955,1,0,0:0:0:0:
320,192,226020,1,0,0:0:0:0:
192,192,226085,1,0,0:0:0:0:
64,192,226150,1,0,0:0:0:0:
448,192,226216,1,0,0:0:0:0:
320,192,226281,1,0,0:0:0:0:
64,192,226281,1,0,0:0:0:0:
320,192,226411,1,0,0:0:0:0:
64,192,226411,1,0,0:0:0:0:
192,192,226476,1,0,0:0:0:0:
64,192,226542,1,0,0:0:0:0:
320,192,226607,1,0,0:0:0:0:
448,192,226672,1,0,0:0:0:0:
192,192,226672,1,0,0:0:0:0:
448,192,226803,1,0,0:0:0:0:
64,192,226803,1,0,0:0:0:0:
64,192,226933,1,0,0:0:0:0:
320,192,226933,1,0,0:0:0:0:
192,192,227063,1,0,0:0:0:0:
320,192,227063,1,0,0:0:0:0:
448,192,227063,1,0,0:0:0:0:
192,192,227194,1,0,0:0:0:0:
64,192,227194,1,0,0:0:0:0:
448,192,227194,1,0,0:0:0:0:
64,192,227324,1,0,0:0:0:0:
320,192,227324,1,0,0:0:0:0:
448,192,227324,1,0,0:0:0:0:
64,192,228368,1,0,0:0:0:0:
192,192,228368,1,0,0:0:0:0:
320,192,228411,1,0,0:0:0:0:
448,192,228455,1,0,0:0:0:0:
192,192,228498,1,0,0:0:0:0:
320,192,228542,1,0,0:0:0:0:
64,192,228585,1,0,0:0:0:0:
192,192,228629,1,0,0:0:0:0:
448,192,228629,1,0,0:0:0:0:
320,192,228694,1,0,0:0:0:0:
192,192,228759,1,0,0:0:0:0:
64,192,228824,1,0,0:0:0:0:
320,192,228890,1,0,0:0:0:0:
192,192,228955,1,0,0:0:0:0:
448,192,229020,1,0,0:0:0:0:
320,192,229085,1,0,0:0:0:0:
64,192,229150,1,0,0:0:0:0:
192,192,229150,1,0,0:0:0:0:
320,192,229216,1,0,0:0:0:0:
448,192,229281,1,0,0:0:0:0:
192,192,229346,1,0,0:0:0:0:
320,192,229411,1,0,0:0:0:0:
192,192,229476,1,0,0:0:0:0:
64,192,229542,1,0,0:0:0:0:
320,192,229607,1,0,0:0:0:0:
192,192,229672,1,0,0:0:0:0:
448,192,229672,1,0,0:0:0:0:
64,192,229737,1,0,0:0:0:0:
320,192,229803,1,0,0:0:0:0:
192,192,229868,1,0,0:0:0:0:
448,192,229933,1,0,0:0:0:0:
192,192,229998,1,0,0:0:0:0:
64,192,230063,1,0,0:0:0:0:
320,192,230129,1,0,0:0:0:0:
192,192,230194,1,0,0:0:0:0:
448,192,230194,1,0,0:0:0:0:
64,192,230259,1,0,0:0:0:0:
320,192,230324,1,0,0:0:0:0:
448,192,230390,1,0,0:0:0:0:
192,192,230455,1,0,0:0:0:0:
320,192,230520,1,0,0:0:0:0:
64,192,230585,1,0,0:0:0:0:
192,192,230650,1,0,0:0:0:0:
320,192,230716,1,0,0:0:0:0:
448,192,230716,1,0,0:0:0:0:
192,192,230781,1,0,0:0:0:0:
64,192,230846,1,0,0:0:0:0:
320,192,230911,1,0,0:0:0:0:
192,192,230976,1,0,0:0:0:0:
448,192,231042,1,0,0:0:0:0:
192,192,231107,1,0,0:0:0:0:
320,192,231172,1,0,0:0:0:0:
448,192,231237,1,0,0:0:0:0:
192,192,231237,1,0,0:0:0:0:
64,192,231303,1,0,0:0:0:0:
320,192,231368,1,0,0:0:0:0:
192,192,231433,1,0,0:0:0:0:
320,192,231498,1,0,0:0:0:0:
448,192,231563,1,0,0:0:0:0:
192,192,231629,1,0,0:0:0:0:
320,192,231694,1,0,0:0:0:0:
192,192,231759,1,0,0:0:0:0:
64,192,231759,1,0,0:0:0:0:
448,192,231824,1,0,0:0:0:0:
320,192,231890,1,0,0:0:0:0:
192,192,231955,1,0,0:0:0:0:
448,192,232020,1,0,0:0:0:0:
192,192,232085,1,0,0:0:0:0:
64,192,232150,1,0,0:0:0:0:
320,192,232216,1,0,0:0:0:0:
192,192,232281,1,0,0:0:0:0:
448,192,232281,1,0,0:0:0:0:
64,192,232346,1,0,0:0:0:0:
320,192,232411,1,0,0:0:0:0:
192,192,232476,1,0,0:0:0:0:
448,192,232542,1,0,0:0:0:0:
320,192,232607,1,0,0:0:0:0:
192,192,232672,1,0,0:0:0:0:
320,192,232737,1,0,0:0:0:0:
64,192,232803,1,0,0:0:0:0:
192,192,232803,1,0,0:0:0:0:
448,192,232868,1,0,0:0:0:0:
64,192,232933,1,0,0:0:0:0:
192,192,232998,1,0,0:0:0:0:
320,192,233063,1,0,0:0:0:0:
64,192,233129,1,0,0:0:0:0:
448,192,233194,1,0,0:0:0:0:
320,192,233259,1,0,0:0:0:0:
192,192,233324,1,0,0:0:0:0:
64,192,233324,1,0,0:0:0:0:
448,192,233390,1,0,0:0:0:0:
320,192,233455,1,0,0:0:0:0:
64,192,233520,1,0,0:0:0:0:
448,192,233585,1,0,0:0:0:0:
192,192,233650,1,0,0:0:0:0:
64,192,233716,1,0,0:0:0:0:
320,192,233781,1,0,0:0:0:0:
192,192,233846,1,0,0:0:0:0:
64,192,233846,1,0,0:0:0:0:
320,192,233911,1,0,0:0:0:0:
448,192,233976,1,0,0:0:0:0:
192,192,234042,1,0,0:0:0:0:
320,192,234107,1,0,0:0:0:0:
64,192,234172,1,0,0:0:0:0:
192,192,234237,1,0,0:0:0:0:
320,192,234303,1,0,0:0:0:0:
448,192,234368,1,0,0:0:0:0:
192,192,234368,1,0,0:0:0:0:
64,192,234433,1,0,0:0:0:0:
320,192,234498,1,0,0:0:0:0:
192,192,234563,1,0,0:0:0:0:
320,192,234629,1,0,0:0:0:0:
448,192,234694,1,0,0:0:0:0:
64,192,234759,1,0,0:0:0:0:
320,192,234824,1,0,0:0:0:0:
192,192,234890,1,0,0:0:0:0:
448,192,234890,1,0,0:0:0:0:
64,192,234955,1,0,0:0:0:0:
320,192,235020,1,0,0:0:0:0:
192,192,235085,1,0,0:0:0:0:
448,192,235150,1,0,0:0:0:0:
64,192,235216,1,0,0:0:0:0:
448,192,235281,1,0,0:0:0:0:
192,192,235346,1,0,0:0:0:0:
320,192,235411,1,0,0:0:0:0:
64,192,235411,1,0,0:0:0:0:
448,192,235476,1,0,0:0:0:0:
192,192,235542,1,0,0:0:0:0:
320,192,235607,1,0,0:0:0:0:
64,192,235672,1,0,0:0:0:0:
448,192,235737,1,0,0:0:0:0:
192,192,235803,1,0,0:0:0:0:
320,192,235868,1,0,0:0:0:0:
192,192,235933,1,0,0:0:0:0:
64,192,235933,1,0,0:0:0:0:
448,192,235998,1,0,0:0:0:0:
64,192,236063,1,0,0:0:0:0:
320,192,236129,1,0,0:0:0:0:
64,192,236194,1,0,0:0:0:0:
448,192,236259,1,0,0:0:0:0:
192,192,236324,1,0,0:0:0:0:
320,192,236390,1,0,0:0:0:0:
448,192,236455,1,0,0:0:0:0:
192,192,236455,1,0,0:0:0:0:
64,192,236520,1,0,0:0:0:0:
448,192,236585,1,0,0:0:0:0:
64,192,236650,1,0,0:0:0:0:
448,192,236716,1,0,0:0:0:0:
320,192,236716,1,0,0:0:0:0:
192,192,236781,1,0,0:0:0:0:
64,192,236846,1,0,0:0:0:0:
320,192,236911,1,0,0:0:0:0:
192,192,236976,1,0,0:0:0:0:
448,192,236976,1,0,0:0:0:0:
64,192,237042,1,0,0:0:0:0:
320,192,237107,1,0,0:0:0:0:
192,192,237172,1,0,0:0:0:0:
448,192,237237,1,0,0:0:0:0:
64,192,237303,1,0,0:0:0:0:
192,192,237368,1,0,0:0:0:0:
448,192,237433,1,0,0:0:0:0:
320,192,237498,1,0,0:0:0:0:
64,192,237498,1,0,0:0:0:0:
192,192,237563,1,0,0:0:0:0:
320,192,237629,1,0,0:0:0:0:
448,192,237694,1,0,0:0:0:0:
192,192,237759,1,0,0:0:0:0:
320,192,237824,1,0,0:0:0:0:
64,192,237890,1,0,0:0:0:0:
192,192,237955,1,0,0:0:0:0:
448,192,238020,1,0,0:0:0:0:
320,192,238020,1,0,0:0:0:0:
192,192,238085,1,0,0:0:0:0:
64,192,238150,1,0,0:0:0:0:
320,192,238216,1,0,0:0:0:0:
192,192,238281,1,0,0:0:0:0:
320,192,238346,1,0,0:0:0:0:
448,192,238411,1,0,0:0:0:0:
192,192,238476,1,0,0:0:0:0:
320,192,238542,1,0,0:0:0:0:
64,192,238542,1,0,0:0:0:0:
448,192,238607,1,0,0:0:0:0:
192,192,238672,1,0,0:0:0:0:
320,192,238737,1,0,0:0:0:0:
192,192,238803,1,0,0:0:0:0:
448,192,238868,1,0,0:0:0:0:
320,192,238933,1,0,0:0:0:0:
64,192,238998,1,0,0:0:0:0:
192,192,239063,1,0,0:0:0:0:
448,192,239063,1,0,0:0:0:0:
320,192,239129,1,0,0:0:0:0:
64,192,239194,1,0,0:0:0:0:
192,192,239259,1,0,0:0:0:0:
320,192,239324,1,0,0:0:0:0:
64,192,239390,1,0,0:0:0:0:
448,192,239455,1,0,0:0:0:0:
192,192,239520,1,0,0:0:0:0:
320,192,239585,1,0,0:0:0:0:
448,192,239585,1,0,0:0:0:0:
192,192,239650,1,0,0:0:0:0:
64,192,239716,1,0,0:0:0:0:
320,192,239781,1,0,0:0:0:0:
192,192,239846,1,0,0:0:0:0:
448,192,239911,1,0,0:0:0:0:
320,192,239976,1,0,0:0:0:0:
192,192,240042,1,0,0:0:0:0:
320,192,240107,1,0,0:0:0:0:
64,192,240107,1,0,0:0:0:0:
448,192,240172,1,0,0:0:0:0:
192,192,240237,1,0,0:0:0:0:
320,192,240303,1,0,0:0:0:0:
192,192,240368,1,0,0:0:0:0:
64,192,240433,1,0,0:0:0:0:
320,192,240498,1,0,0:0:0:0:
192,192,240563,1,0,0:0:0:0:
448,192,240629,1,0,0:0:0:0:
320,192,240629,1,0,0:0:0:0:
64,192,240694,1,0,0:0:0:0:
192,192,240759,1,0,0:0:0:0:
448,192,240824,1,0,0:0:0:0:
320,192,240890,1,0,0:0:0:0:
64,192,240890,1,0,0:0:0:0:
192,192,240955,1,0,0:0:0:0:
448,192,241020,1,0,0:0:0:0:
320,192,241085,1,0,0:0:0:0:
192,192,241150,1,0,0:0:0:0:
448,192,241150,1,0,0:0:0:0:
64,192,241216,1,0,0:0:0:0:
320,192,241281,1,0,0:0:0:0:
192,192,241346,1,0,0:0:0:0:
320,192,241411,1,0,0:0:0:0:
448,192,241411,1,0,0:0:0:0:
64,192,241476,1,0,0:0:0:0:
448,192,241542,1,0,0:0:0:0:
320,192,241607,1,0,0:0:0:0:
192,192,241672,1,0,0:0:0:0:
64,192,241672,1,0,0:0:0:0:
320,192,241737,1,0,0:0:0:0:
448,192,241803,1,0,0:0:0:0:
192,192,241868,1,0,0:0:0:0:
320,192,241933,1,0,0:0:0:0:
64,192,241933,1,0,0:0:0:0:
448,192,241998,1,0,0:0:0:0:
192,192,242063,1,0,0:0:0:0:
320,192,242129,1,0,0:0:0:0:
192,192,242194,1,0,0:0:0:0:
64,192,242194,1,0,0:0:0:0:
448,192,242259,1,0,0:0:0:0:
192,192,242324,1,0,0:0:0:0:
320,192,242390,1,0,0:0:0:0:
448,192,242455,1,0,0:0:0:0:
192,192,242455,1,0,0:0:0:0:
64,192,242520,1,0,0:0:0:0:
448,192,242585,1,0,0:0:0:0:
64,192,242650,1,0,0:0:0:0:
448,192,242716,1,0,0:0:0:0:
320,192,242716,1,0,0:0:0:0:
192,192,242781,1,0,0:0:0:0:
64,192,242846,1,0,0:0:0:0:
320,192,242911,1,0,0:0:0:0:
192,192,242976,1,0,0:0:0:0:
448,192,242976,1,0,0:0:0:0:
64,192,243042,1,0,0:0:0:0:
320,192,243107,1,0,0:0:0:0:
192,192,243172,1,0,0:0:0:0:
320,192,243237,1,0,0:0:0:0:
448,192,243237,1,0,0:0:0:0:
64,192,243303,1,0,0:0:0:0:
448,192,243368,1,0,0:0:0:0:
192,192,243433,1,0,0:0:0:0:
320,192,243498,1,0,0:0:0:0:
64,192,243498,1,0,0:0:0:0:
192,192,243563,1,0,0:0:0:0:
448,192,243629,1,0,0:0:0:0:
320,192,243694,1,0,0:0:0:0:
192,192,243759,1,0,0:0:0:0:
64,192,243759,1,0,0:0:0:0:
448,192,243824,1,0,0:0:0:0:
64,192,243890,1,0,0:0:0:0:
320,192,243955,1,0,0:0:0:0:
192,192,244020,1,0,0:0:0:0:
448,192,244020,1,0,0:0:0:0:
320,192,244085,1,0,0:0:0:0:
64,192,244150,1,0,0:0:0:0:
320,192,244216,1,0,0:0:0:0:
192,192,244281,1,0,0:0:0:0:
448,192,244346,1,0,0:0:0:0:
192,192,244411,1,0,0:0:0:0:
320,192,244476,1,0,0:0:0:0:
64,192,244542,1,0,0:0:0:0:
448,192,244607,1,0,0:0:0:0:
192,192,244672,1,0,0:0:0:0:
320,192,244737,1,0,0:0:0:0:
192,192,244803,1,0,0:0:0:0:
320,192,244868,1,0,0:0:0:0:
448,192,244933,1,0,0:0:0:0:
64,192,244998,1,0,0:0:0:0:
320,192,245063,1,0,0:0:0:0:
448,192,245063,128,0,245585:0:0:0:0:
64,192,245585,1,0,0:0:0:0:
192,192,245585,1,0,0:0:0:0:
320,192,245650,1,0,0:0:0:0:
448,192,245716,1,0,0:0:0:0:
192,192,245781,1,0,0:0:0:0:
320,192,245846,1,0,0:0:0:0:
64,192,245911,1,0,0:0:0:0:
448,192,245976,1,0,0:0:0:0:
192,192,246042,1,0,0:0:0:0:
320,192,246107,1,0,0:0:0:0:
448,192,246107,1,0,0:0:0:0:
64,192,246172,1,0,0:0:0:0:
320,192,246237,1,0,0:0:0:0:
192,192,246303,1,0,0:0:0:0:
448,192,246368,1,0,0:0:0:0:
192,192,246433,1,0,0:0:0:0:
64,192,246498,1,0,0:0:0:0:
320,192,246563,1,0,0:0:0:0:
192,192,246629,1,0,0:0:0:0:
448,192,246629,1,0,0:0:0:0:
64,192,246694,1,0,0:0:0:0:
320,192,246759,1,0,0:0:0:0:
192,192,246824,1,0,0:0:0:0:
448,192,246890,1,0,0:0:0:0:
64,192,246955,1,0,0:0:0:0:
320,192,247020,1,0,0:0:0:0:
448,192,247085,1,0,0:0:0:0:
64,192,247150,1,0,0:0:0:0:
192,192,247150,1,0,0:0:0:0:
320,192,247216,1,0,0:0:0:0:
192,192,247281,1,0,0:0:0:0:
448,192,247346,1,0,0:0:0:0:
64,192,247411,1,0,0:0:0:0:
320,192,247476,1,0,0:0:0:0:
448,192,247542,1,0,0:0:0:0:
64,192,247607,1,0,0:0:0:0:
320,192,247672,1,0,0:0:0:0:
448,192,247672,1,0,0:0:0:0:
192,192,247737,1,0,0:0:0:0:
448,192,247803,1,0,0:0:0:0:
64,192,247868,1,0,0:0:0:0:
320,192,247933,1,0,0:0:0:0:
64,192,247998,1,0,0:0:0:0:
448,192,248063,1,0,0:0:0:0:
192,192,248129,1,0,0:0:0:0:
320,192,248194,1,0,0:0:0:0:
64,192,248194,1,0,0:0:0:0:
448,192,248259,1,0,0:0:0:0:
192,192,248324,1,0,0:0:0:0:
320,192,248390,1,0,0:0:0:0:
192,192,248455,1,0,0:0:0:0:
448,192,248520,1,0,0:0:0:0:
64,192,248585,1,0,0:0:0:0:
320,192,248650,1,0,0:0:0:0:
192,192,248716,1,0,0:0:0:0:
448,192,248716,1,0,0:0:0:0:
64,192,248781,1,0,0:0:0:0:
320,192,248846,1,0,0:0:0:0:
448,192,248846,1,0,0:0:0:0:
192,192,248911,1,0,0:0:0:0:
64,192,248911,1,0,0:0:0:0:
320,192,248976,1,0,0:0:0:0:
192,192,249042,1,0,0:0:0:0:
320,192,249107,1,0,0:0:0:0:
448,192,249172,1,0,0:0:0:0:
64,192,249237,1,0,0:0:0:0:
192,192,249237,1,0,0:0:0:0:
320,192,249303,1,0,0:0:0:0:
448,192,249368,1,0,0:0:0:0:
192,192,249433,1,0,0:0:0:0:
320,192,249498,1,0,0:0:0:0:
64,192,249498,1,0,0:0:0:0:
448,192,249563,1,0,0:0:0:0:
192,192,249629,1,0,0:0:0:0:
320,192,249694,1,0,0:0:0:0:
192,192,249759,1,0,0:0:0:0:
64,192,249759,1,0,0:0:0:0:
448,192,249824,1,0,0:0:0:0:
320,192,249890,1,0,0:0:0:0:
192,192,249955,1,0,0:0:0:0:
320,192,250020,1,0,0:0:0:0:
448,192,250020,1,0,0:0:0:0:
64,192,250085,1,0,0:0:0:0:
448,192,250150,1,0,0:0:0:0:
192,192,250216,1,0,0:0:0:0:
320,192,250281,1,0,0:0:0:0:
64,192,250281,1,0,0:0:0:0:
448,192,250346,1,0,0:0:0:0:
192,192,250411,1,0,0:0:0:0:
320,192,250476,1,0,0:0:0:0:
192,192,250542,1,0,0:0:0:0:
64,192,250542,1,0,0:0:0:0:
448,192,250607,1,0,0:0:0:0:
320,192,250672,1,0,0:0:0:0:
64,192,250737,1,0,0:0:0:0:
192,192,250803,1,0,0:0:0:0:
448,192,250803,1,0,0:0:0:0:
320,192,250868,1,0,0:0:0:0:
192,192,250933,1,0,0:0:0:0:
64,192,250998,1,0,0:0:0:0:
320,192,251063,1,0,0:0:0:0:
448,192,251063,1,0,0:0:0:0:
192,192,251129,1,0,0:0:0:0:
64,192,251194,1,0,0:0:0:0:
320,192,251259,1,0,0:0:0:0:
192,192,251324,1,0,0:0:0:0:
448,192,251324,1,0,0:0:0:0:
64,192,251390,1,0,0:0:0:0:
320,192,251455,1,0,0:0:0:0:
192,192,251520,1,0,0:0:0:0:
448,192,251585,1,0,0:0:0:0:
320,192,251650,1,0,0:0:0:0:
64,192,251716,1,0,0:0:0:0:
320,192,251781,1,0,0:0:0:0:
192,192,251846,1,0,0:0:0:0:
64,192,251846,1,0,0:0:0:0:
448,192,251911,1,0,0:0:0:0:
192,192,251976,1,0,0:0:0:0:
64,192,252042,1,0,0:0:0:0:
192,192,252107,1,0,0:0:0:0:
448,192,252107,1,0,0:0:0:0:
320,192,252172,1,0,0:0:0:0:
64,192,252237,1,0,0:0:0:0:
448,192,252303,1,0,0:0:0:0:
192,192,252368,1,0,0:0:0:0:
64,192,252368,1,0,0:0:0:0:
448,192,252433,1,0,0:0:0:0:
320,192,252498,1,0,0:0:0:0:
192,192,252563,1,0,0:0:0:0:
448,192,252629,1,0,0:0:0:0:
64,192,252694,1,0,0:0:0:0:
448,192,252759,1,0,0:0:0:0:
192,192,252824,1,0,0:0:0:0:
64,192,252890,1,0,0:0:0:0:
448,192,252955,1,0,0:0:0:0:
64,192,253020,1,0,0:0:0:0:
320,192,253085,1,0,0:0:0:0:
192,192,253150,1,0,0:0:0:0:
320,192,253216,1,0,0:0:0:0:
192,192,253281,1,0,0:0:0:0:
64,192,253346,1,0,0:0:0:0:
320,192,253411,1,0,0:0:0:0:
448,192,253411,128,0,253933:0:0:0:0:
64,192,253933,1,0,0:0:0:0:
320,192,253933,1,0,0:0:0:0:
192,192,253998,1,0,0:0:0:0:
448,192,254063,1,0,0:0:0:0:
64,192,254129,1,0,0:0:0:0:
320,192,254194,1,0,0:0:0:0:
192,192,254259,1,0,0:0:0:0:
448,192,254324,1,0,0:0:0:0:
64,192,254390,1,0,0:0:0:0:
320,192,254455,1,0,0:0:0:0:
448,192,254455,1,0,0:0:0:0:
192,192,254520,1,0,0:0:0:0:
320,192,254585,1,0,0:0:0:0:
64,192,254650,1,0,0:0:0:0:
192,192,254716,1,0,0:0:0:0:
448,192,254781,1,0,0:0:0:0:
192,192,254846,1,0,0:0:0:0:
320,192,254911,1,0,0:0:0:0:
64,192,254976,1,0,0:0:0:0:
192,192,254976,1,0,0:0:0:0:
448,192,255042,1,0,0:0:0:0:
64,192,255107,1,0,0:0:0:0:
320,192,255172,1,0,0:0:0:0:
192,192,255237,1,0,0:0:0:0:
448,192,255303,1,0,0:0:0:0:
64,192,255368,1,0,0:0:0:0:
320,192,255433,1,0,0:0:0:0:
64,192,255498,1,0,0:0:0:0:
192,192,255498,1,0,0:0:0:0:
448,192,255563,1,0,0:0:0:0:
192,192,255629,1,0,0:0:0:0:
64,192,255694,1,0,0:0:0:0:
192,192,255759,1,0,0:0:0:0:
320,192,255824,1,0,0:0:0:0:
64,192,255890,1,0,0:0:0:0:
192,192,255955,1,0,0:0:0:0:
320,192,256020,1,0,0:0:0:0:
448,192,256020,1,0,0:0:0:0:
192,192,256085,1,0,0:0:0:0:
64,192,256150,1,0,0:0:0:0:
448,192,256216,1,0,0:0:0:0:
192,192,256281,1,0,0:0:0:0:
448,192,256346,1,0,0:0:0:0:
64,192,256411,1,0,0:0:0:0:
320,192,256476,1,0,0:0:0:0:
64,192,256542,1,0,0:0:0:0:
192,192,256542,1,0,0:0:0:0:
448,192,256607,1,0,0:0:0:0:
320,192,256672,1,0,0:0:0:0:
192,192,256737,1,0,0:0:0:0:
320,192,256803,1,0,0:0:0:0:
64,192,256868,1,0,0:0:0:0:
192,192,256933,1,0,0:0:0:0:
64,192,256998,1,0,0:0:0:0:
320,192,257063,1,0,0:0:0:0:
448,192,257063,1,0,0:0:0:0:
192,192,257129,1,0,0:0:0:0:
320,192,257194,1,0,0:0:0:0:
448,192,257194,1,0,0:0:0:0:
64,192,257259,1,0,0:0:0:0:
320,192,257324,1,0,0:0:0:0:
192,192,257390,1,0,0:0:0:0:
320,192,257455,1,0,0:0:0:0:
192,192,257520,1,0,0:0:0:0:
64,192,257585,1,0,0:0:0:0:
320,192,257585,1,0,0:0:0:0:
448,192,257650,1,0,0:0:0:0:
192,192,257716,1,0,0:0:0:0:
320,192,257781,1,0,0:0:0:0:
64,192,257846,1,0,0:0:0:0:
320,192,257911,1,0,0:0:0:0:
192,192,257976,1,0,0:0:0:0:
448,192,258042,1,0,0:0:0:0:
320,192,258107,1,0,0:0:0:0:
64,192,258107,1,0,0:0:0:0:
192,192,258172,1,0,0:0:0:0:
64,192,258237,1,0,0:0:0:0:
320,192,258303,1,0,0:0:0:0:
192,192,258368,1,0,0:0:0:0:
448,192,258433,1,0,0:0:0:0:
320,192,258498,1,0,0:0:0:0:
64,192,258563,1,0,0:0:0:0:
192,192,258629,1,0,0:0:0:0:
448,192,258629,1,0,0:0:0:0:
320,192,258694,1,0,0:0:0:0:
192,192,258759,1,0,0:0:0:0:
64,192,258824,1,0,0:0:0:0:
320,192,258890,1,0,0:0:0:0:
192,192,258955,1,0,0:0:0:0:
448,192,259020,1,0,0:0:0:0:
192,192,259085,1,0,0:0:0:0:
320,192,259150,1,0,0:0:0:0:
64,192,259150,1,0,0:0:0:0:
448,192,259216,1,0,0:0:0:0:
320,192,259281,1,0,0:0:0:0:
64,192,259346,1,0,0:0:0:0:
448,192,259411,1,0,0:0:0:0:
192,192,259476,1,0,0:0:0:0:
320,192,259542,1,0,0:0:0:0:
64,192,259607,1,0,0:0:0:0:
320,192,259672,1,0,0:0:0:0:
448,192,259672,1,0,0:0:0:0:
192,192,259737,1,0,0:0:0:0:
448,192,259803,1,0,0:0:0:0:
320,192,259868,1,0,0:0:0:0:
192,192,259933,1,0,0:0:0:0:
448,192,259998,1,0,0:0:0:0:
320,192,260063,1,0,0:0:0:0:
64,192,260129,1,0,0:0:0:0:
192,192,260194,1,0,0:0:0:0:
448,192,260194,1,0,0:0:0:0:
320,192,260259,1,0,0:0:0:0:
448,192,260324,1,0,0:0:0:0:
192,192,260390,1,0,0:0:0:0:
320,192,260455,1,0,0:0:0:0:
64,192,260520,1,0,0:0:0:0:
192,192,260585,1,0,0:0:0:0:
448,192,260650,1,0,0:0:0:0:
320,192,260716,1,0,0:0:0:0:
64,192,260716,1,0,0:0:0:0:
192,192,260781,1,0,0:0:0:0:
320,192,260846,1,0,0:0:0:0:
64,192,260911,1,0,0:0:0:0:
320,192,260976,1,0,0:0:0:0:
64,192,261042,1,0,0:0:0:0:
192,192,261107,1,0,0:0:0:0:
448,192,261172,1,0,0:0:0:0:
320,192,261237,1,0,0:0:0:0:
64,192,261237,1,0,0:0:0:0:
320,192,261368,1,0,0:0:0:0:
192,192,261368,1,0,0:0:0:0:
192,192,261498,1,0,0:0:0:0:
64,192,261498,1,0,0:0:0:0:
64,192,261629,1,0,0:0:0:0:
448,192,261629,1,0,0:0:0:0:
448,192,261759,1,0,0:0:0:0:
192,192,261759,1,0,0:0:0:0:
320,192,261759,1,0,0:0:0:0:
320,192,261890,1,0,0:0:0:0:
192,192,261890,1,0,0:0:0:0:
64,192,262020,1,0,0:0:0:0:
448,192,262020,1,0,0:0:0:0:
448,192,262150,1,0,0:0:0:0:
192,192,262150,1,0,0:0:0:0:
192,192,262281,1,0,0:0:0:0:
64,192,262281,1,0,0:0:0:0:
320,192,262281,1,0,0:0:0:0:
448,192,262346,1,0,0:0:0:0:
320,192,262411,1,0,0:0:0:0:
64,192,262411,1,0,0:0:0:0:
192,192,262542,1,0,0:0:0:0:
448,192,262542,1,0,0:0:0:0:
192,192,262672,1,0,0:0:0:0:
320,192,262672,1,0,0:0:0:0:
64,192,262803,1,0,0:0:0:0:
320,192,262803,1,0,0:0:0:0:
448,192,262803,1,0,0:0:0:0:
448,192,262933,1,0,0:0:0:0:
64,192,262933,1,0,0:0:0:0:
192,192,263063,1,0,0:0:0:0:
320,192,263063,1,0,0:0:0:0:
448,192,263129,1,0,0:0:0:0:
320,192,263194,1,0,0:0:0:0:
64,192,263194,1,0,0:0:0:0:
64,192,263324,1,0,0:0:0:0:
192,192,263324,1,0,0:0:0:0:
448,192,263324,1,0,0:0:0:0:
192,192,263455,1,0,0:0:0:0:
448,192,263455,1,0,0:0:0:0:
320,192,263585,1,0,0:0:0:0:
64,192,263585,1,0,0:0:0:0:
448,192,263650,1,0,0:0:0:0:
64,192,263716,1,0,0:0:0:0:
192,192,263716,1,0,0:0:0:0:
192,192,263846,1,0,0:0:0:0:
320,192,263846,1,0,0:0:0:0:
448,192,263846,1,0,0:0:0:0:
448,192,263976,1,0,0:0:0:0:
320,192,263976,1,0,0:0:0:0:
192,192,264107,1,0,0:0:0:0:
64,192,264107,1,0,0:0:0:0:
192,192,264237,1,0,0:0:0:0:
448,192,264237,1,0,0:0:0:0:
64,192,264368,1,0,0:0:0:0:
320,192,264368,1,0,0:0:0:0:
448,192,264368,1,0,0:0:0:0:
192,192,264433,1,0,0:0:0:0:
320,192,264498,1,0,0:0:0:0:
64,192,264498,1,0,0:0:0:0:
192,192,264629,1,0,0:0:0:0:
448,192,264629,1,0,0:0:0:0:
64,192,264694,1,0,0:0:0:0:
448,192,264759,1,0,0:0:0:0:
320,192,264759,1,0,0:0:0:0:
64,192,264890,1,0,0:0:0:0:
192,192,264890,1,0,0:0:0:0:
320,192,264890,1,0,0:0:0:0:
192,192,265020,1,0,0:0:0:0:
64,192,265020,1,0,0:0:0:0:
320,192,265150,1,0,0:0:0:0:
448,192,265150,1,0,0:0:0:0:
192,192,265281,1,0,0:0:0:0:
320,192,265281,1,0,0:0:0:0:
64,192,265411,1,0,0:0:0:0:
192,192,265411,1,0,0:0:0:0:
448,192,265411,1,0,0:0:0:0:
448,192,265542,1,0,0:0:0:0:
320,192,265542,1,0,0:0:0:0:
192,192,265607,1,0,0:0:0:0:
64,192,265607,1,0,0:0:0:0:
320,192,265672,1,0,0:0:0:0:
192,192,265737,1,0,0:0:0:0:
320,192,265803,1,0,0:0:0:0:
192,192,265868,1,0,0:0:0:0:
320,192,265933,1,0,0:0:0:0:
448,192,265933,1,0,0:0:0:0:
320,192,266063,1,0,0:0:0:0:
64,192,266063,1,0,0:0:0:0:
64,192,266194,1,0,0:0:0:0:
448,192,266194,1,0,0:0:0:0:
448,192,266324,1,0,0:0:0:0:
192,192,266324,1,0,0:0:0:0:
320,192,266390,1,0,0:0:0:0:
192,192,266455,1,0,0:0:0:0:
64,192,266455,1,0,0:0:0:0:
448,192,266455,1,0,0:0:0:0:
320,192,266585,1,0,0:0:0:0:
64,192,266585,1,0,0:0:0:0:
192,192,266716,1,0,0:0:0:0:
448,192,266716,1,0,0:0:0:0:
192,192,266846,1,0,0:0:0:0:
320,192,266846,1,0,0:0:0:0:
64,192,266976,1,0,0:0:0:0:
320,192,266976,1,0,0:0:0:0:
448,192,266976,1,0,0:0:0:0:
448,192,267107,1,0,0:0:0:0:
64,192,267107,1,0,0:0:0:0:
320,192,267172,1,0,0:0:0:0:
192,192,267237,1,0,0:0:0:0:
64,192,267303,1,0,0:0:0:0:
320,192,267368,1,0,0:0:0:0:
192,192,267368,1,0,0:0:0:0:
64,192,267498,1,0,0:0:0:0:
192,192,267498,1,0,0:0:0:0:
448,192,267498,1,0,0:0:0:0:
192,192,267629,1,0,0:0:0:0:
448,192,267629,1,0,0:0:0:0:
320,192,267629,1,0,0:0:0:0:
64,192,267694,1,0,0:0:0:0:
320,192,267759,1,0,0:0:0:0:
192,192,267759,1,0,0:0:0:0:
64,192,267890,1,0,0:0:0:0:
192,192,267890,1,0,0:0:0:0:
320,192,268020,1,0,0:0:0:0:
448,192,268020,1,0,0:0:0:0:
192,192,268085,1,0,0:0:0:0:
320,192,268150,1,0,0:0:0:0:
192,192,268216,1,0,0:0:0:0:
320,192,268281,1,0,0:0:0:0:
192,192,268346,1,0,0:0:0:0:
320,192,268411,1,0,0:0:0:0:
64,192,268411,1,0,0:0:0:0:
448,192,268542,1,0,0:0:0:0:
192,192,268672,1,0,0:0:0:0:
64,192,268672,1,0,0:0:0:0:
320,192,268737,1,0,0:0:0:0:
192,192,268803,1,0,0:0:0:0:
320,192,268868,1,0,0:0:0:0:
192,192,268933,1,0,0:0:0:0:
320,192,268998,1,0,0:0:0:0:
192,192,269063,1,0,0:0:0:0:
448,192,269063,1,0,0:0:0:0:
64,192,269194,1,0,0:0:0:0:
320,192,269324,1,0,0:0:0:0:
448,192,269324,1,0,0:0:0:0:
192,192,269324,1,0,0:0:0:0:
448,192,269455,1,0,0:0:0:0:
64,192,269455,1,0,0:0:0:0:
64,192,269585,1,0,0:0:0:0:
320,192,269585,1,0,0:0:0:0:
192,192,269716,1,0,0:0:0:0:
320,192,269716,1,0,0:0:0:0:
192,192,269846,1,0,0:0:0:0:
448,192,269846,1,0,0:0:0:0:
64,192,269846,1,0,0:0:0:0:
320,192,269976,1,0,0:0:0:0:
448,192,269976,1,0,0:0:0:0:
448,192,270107,1,0,0:0:0:0:
64,192,270107,1,0,0:0:0:0:
192,192,270107,1,0,0:0:0:0:
320,192,270172,1,0,0:0:0:0:
192,192,270237,1,0,0:0:0:0:
448,192,270303,1,0,0:0:0:0:
64,192,270368,1,0,0:0:0:0:
192,192,270368,1,0,0:0:0:0:
320,192,270433,1,0,0:0:0:0:
192,192,270498,1,0,0:0:0:0:
448,192,270563,1,0,0:0:0:0:
64,192,270629,1,0,0:0:0:0:
320,192,270694,1,0,0:0:0:0:
64,192,270759,1,0,0:0:0:0:
448,192,270824,1,0,0:0:0:0:
64,192,270890,1,0,0:0:0:0:
320,192,270890,1,0,0:0:0:0:
192,192,270955,1,0,0:0:0:0:
448,192,271020,1,0,0:0:0:0:
64,192,271085,1,0,0:0:0:0:
320,192,271150,1,0,0:0:0:0:
192,192,271216,1,0,0:0:0:0:
448,192,271281,1,0,0:0:0:0:
64,192,271346,1,0,0:0:0:0:
320,192,271411,1,0,0:0:0:0:
448,192,271411,1,0,0:0:0:0:
192,192,271476,1,0,0:0:0:0:
320,192,271542,1,0,0:0:0:0:
64,192,271607,1,0,0:0:0:0:
448,192,271672,1,0,0:0:0:0:
192,192,271737,1,0,0:0:0:0:
320,192,271803,1,0,0:0:0:0:
64,192,271868,1,0,0:0:0:0:
192,192,271933,1,0,0:0:0:0:
448,192,271933,1,0,0:0:0:0:
320,192,271998,1,0,0:0:0:0:
64,192,272063,1,0,0:0:0:0:
448,192,272129,1,0,0:0:0:0:
192,192,272194,1,0,0:0:0:0:
320,192,272259,1,0,0:0:0:0:
64,192,272324,1,0,0:0:0:0:
320,192,272390,1,0,0:0:0:0:
192,192,272455,1,0,0:0:0:0:
448,192,272455,1,0,0:0:0:0:
64,192,272520,1,0,0:0:0:0:
320,192,272585,1,0,0:0:0:0:
192,192,272650,1,0,0:0:0:0:
448,192,272716,1,0,0:0:0:0:
64,192,272781,1,0,0:0:0:0:
320,192,272846,1,0,0:0:0:0:
192,192,272911,1,0,0:0:0:0:
320,192,272976,1,0,0:0:0:0:
448,192,272976,1,0,0:0:0:0:
64,192,273042,1,0,0:0:0:0:
448,192,273107,1,0,0:0:0:0:
192,192,273172,1,0,0:0:0:0:
320,192,273237,1,0,0:0:0:0:
64,192,273303,1,0,0:0:0:0:
448,192,273368,1,0,0:0:0:0:
192,192,273433,1,0,0:0:0:0:
320,192,273498,1,0,0:0:0:0:
64,192,273498,1,0,0:0:0:0:
448,192,273563,1,0,0:0:0:0:
192,192,273629,1,0,0:0:0:0:
320,192,273694,1,0,0:0:0:0:
64,192,273759,1,0,0:0:0:0:
448,192,273824,1,0,0:0:0:0:
320,192,273824,1,0,0:0:0:0:
192,192,273890,1,0,0:0:0:0:
64,192,273890,1,0,0:0:0:0:
448,192,273955,1,0,0:0:0:0:
192,192,274020,1,0,0:0:0:0:
64,192,274020,1,0,0:0:0:0:
320,192,274085,1,0,0:0:0:0:
448,192,274085,1,0,0:0:0:0:
192,192,274150,1,0,0:0:0:0:
64,192,274216,1,0,0:0:0:0:
448,192,274281,1,0,0:0:0:0:
192,192,274346,1,0,0:0:0:0:
320,192,274411,1,0,0:0:0:0:
64,192,274476,1,0,0:0:0:0:
320,192,274542,1,0,0:0:0:0:
448,192,274542,1,0,0:0:0:0:
192,192,274607,1,0,0:0:0:0:
64,192,274672,1,0,0:0:0:0:
320,192,274737,1,0,0:0:0:0:
192,192,274803,1,0,0:0:0:0:
448,192,274803,1,0,0:0:0:0:
64,192,274868,1,0,0:0:0:0:
320,192,274933,1,0,0:0:0:0:
192,192,274998,1,0,0:0:0:0:
320,192,275063,1,0,0:0:0:0:
448,192,275063,1,0,0:0:0:0:
64,192,275129,1,0,0:0:0:0:
192,192,275194,1,0,0:0:0:0:
320,192,275259,1,0,0:0:0:0:
192,192,275324,1,0,0:0:0:0:
448,192,275324,1,0,0:0:0:0:
64,192,275390,1,0,0:0:0:0:
320,192,275455,1,0,0:0:0:0:
192,192,275520,1,0,0:0:0:0:
320,192,275585,1,0,0:0:0:0:
448,192,275585,1,0,0:0:0:0:
64,192,275650,1,0,0:0:0:0:
192,192,275716,1,0,0:0:0:0:
448,192,275781,1,0,0:0:0:0:
320,192,275846,1,0,0:0:0:0:
64,192,275846,1,0,0:0:0:0:
192,192,275911,1,0,0:0:0:0:
320,192,275976,1,0,0:0:0:0:
448,192,275976,1,0,0:0:0:0:
192,192,276042,1,0,0:0:0:0:
64,192,276107,1,0,0:0:0:0:
320,192,276172,1,0,0:0:0:0:
192,192,276237,1,0,0:0:0:0:
448,192,276237,1,0,0:0:0:0:
64,192,276303,1,0,0:0:0:0:
320,192,276368,1,0,0:0:0:0:
448,192,276368,1,0,0:0:0:0:
192,192,276433,1,0,0:0:0:0:
320,192,276498,1,0,0:0:0:0:
64,192,276563,1,0,0:0:0:0:
448,192,276629,1,0,0:0:0:0:
192,192,276694,1,0,0:0:0:0:
320,192,276759,1,0,0:0:0:0:
64,192,276759,1,0,0:0:0:0:
192,192,276824,1,0,0:0:0:0:
448,192,276890,1,0,0:0:0:0:
64,192,276955,1,0,0:0:0:0:
320,192,277020,1,0,0:0:0:0:
192,192,277085,1,0,0:0:0:0:
448,192,277150,1,0,0:0:0:0:
192,192,277216,1,0,0:0:0:0:
64,192,277281,1,0,0:0:0:0:
320,192,277346,1,0,0:0:0:0:
192,192,277411,1,0,0:0:0:0:
448,192,277411,1,0,0:0:0:0:
320,192,277476,1,0,0:0:0:0:
64,192,277542,1,0,0:0:0:0:
192,192,277607,1,0,0:0:0:0:
64,192,277672,1,0,0:0:0:0:
320,192,277672,1,0,0:0:0:0:
