osu file format v14

[General]
AudioFilename: And The Vulture Beholds.mp3
AudioLeadIn: 0
PreviewTime: 56782
Countdown: 0
SampleSet: Normal
StackLeniency: 0.2
Mode: 1
LetterboxInBreaks: 0
WidescreenStoryboard: 1

[Editor]
Bookmarks: 24622,46229,103822,106709,128302,139829,159982,162869,208949,231982,253582,288142,311429
DistanceSpacing: 1.3
BeatDivisor: 4
GridSize: 32
TimelineZoom: 2.999999

[Metadata]
Title:And The Vulture Beholds
TitleUnicode:And The Vulture Beholds
Artist:Fleshgod Apocalypse
ArtistUnicode:Fleshgod Apocalypse
Creator:GoldenWolf
Version:Regal Kismet
Source:
Tags:King Symphonic Death Heavy Metal Screams Growls Opera Singing English Drums Deathstreams Stamina woof
BeatmapID:2065817
BeatmapSetID:987536

[Difficulty]
HPDrainRate:4.5
CircleSize:2
OverallDifficulty:7
ApproachRate:10
SliderMultiplier:1.4
SliderTickRate:1

[Events]
//Background and Video events
0,0,"orz249.jpg",0,100
//Break Periods
//Storyboard Layer 0 (Background)
//Storyboard Layer 1 (Fail)
//Storyboard Layer 2 (Pass)
//Storyboard Layer 3 (Foreground)
//Storyboard Layer 4 (Overlay)
//Storyboard Sound Samples

[TimingPoints]
142,240,3,1,0,80,1,0
23122,-80,3,1,0,80,0,0
24502,-100,3,1,0,80,0,0
53362,-90.9090909090909,3,1,0,80,0,0
53602,-83.3333333333333,3,1,0,80,0,0
53842,-76.9230769230769,3,1,0,80,0,0
54082,-71.4285714285714,3,1,0,80,0,0
54862,-80,3,1,0,80,0,1
54982,-81.3008130081301,3,1,0,80,0,1
55042,-81.6326530612245,3,1,0,80,0,1
55102,-81.9672131147541,3,1,0,80,0,1
55162,-82.3045267489712,3,1,0,80,0,1
55222,-82.6446280991736,3,1,0,80,0,1
55282,-82.9875518672199,3,1,0,80,0,1
55342,-83.3333333333333,3,1,0,80,0,1
55402,-83.6820083682008,3,1,0,80,0,1
55462,-84.0336134453781,3,1,0,80,0,1
55522,-84.3881856540084,3,1,0,80,0,1
55582,-84.7457627118644,3,1,0,80,0,1
55642,-85.1063829787234,3,1,0,80,0,1
55702,-85.4700854700855,3,1,0,80,0,1
55762,-85.8369098712446,3,1,0,80,0,1
55822,-86.2068965517241,3,1,0,80,0,1
55882,-86.5800865800866,3,1,0,80,0,1
55942,-86.9565217391304,3,1,0,80,0,1
56002,-87.3362445414847,3,1,0,80,0,1
56062,-87.719298245614,3,1,0,80,0,1
56122,-88.1057268722467,3,1,0,80,0,1
56182,-88.4955752212389,3,1,0,80,0,1
56242,-88.8888888888889,3,1,0,80,0,1
56302,-89.2857142857143,3,1,0,80,0,1
56362,-89.6860986547085,3,1,0,80,0,1
56422,-90.0900900900901,3,1,0,80,0,1
56482,-90.4977375565611,3,1,0,80,0,1
56542,-90.9090909090909,3,1,0,80,0,1
56602,-91.324200913242,3,1,0,80,0,1
56662,-91.743119266055,3,1,0,80,0,1
56722,-92.1658986175115,3,1,0,80,0,1
56782,-92.5925925925926,3,1,0,80,0,1
56842,-93.0232558139535,3,1,0,80,0,1
56902,-93.4579439252336,3,1,0,80,0,1
56962,-93.8967136150235,3,1,0,80,0,1
57022,-94.3396226415094,3,1,0,80,0,1
57082,-94.7867298578199,3,1,0,80,0,1
57142,-95.2380952380952,3,1,0,80,0,1
57202,-95.6937799043062,3,1,0,80,0,1
57262,-96.1538461538461,3,1,0,80,0,1
57322,-96.6183574879227,3,1,0,80,0,1
57382,-97.0873786407767,3,1,0,80,0,1
57442,-97.5609756097561,3,1,0,80,0,1
57502,-98.0392156862745,3,1,0,80,0,1
57562,-98.5221674876847,3,1,0,80,0,1
57622,-99.009900990099,3,1,0,80,0,1
57742,-100,3,1,0,80,0,1
80782,-100,3,1,0,80,0,0
105862,-76.9230769230769,3,1,0,80,0,0
106582,-100,3,1,0,80,0,0
138382,480,3,1,0,80,1,0
138382,-50,3,1,0,80,0,0
139702,-100,3,1,0,60,0,0
160222,-92.3076923076923,3,1,0,61,0,0
160462,-85.7142857142857,3,1,0,63,0,0
160702,-80,3,1,0,65,0,0
160942,-75,3,1,0,66,0,0
161182,-70.5882352941177,3,1,0,68,0,0
161422,-66.6666666666667,3,1,0,70,0,0
161662,-63.1578947368421,3,1,0,71,0,0
161902,-60,3,1,0,73,0,0
162142,-57.1428571428571,3,1,0,75,0,0
162382,-54.5454545454545,3,1,0,76,0,0
162622,-52.1739130434783,3,1,0,78,0,0
162862,240,3,1,0,80,1,1
208942,-100,3,1,0,80,0,0
260722,-90.9090909090909,3,1,0,80,0,0
260962,-83.3333333333333,3,1,0,80,0,0
261202,-76.9230769230769,3,1,0,80,0,0
261442,-71.4285714285714,3,1,0,80,0,0
262222,-80,3,1,0,80,0,1
262342,-81.3008130081301,3,1,0,80,0,1
262402,-81.6326530612245,3,1,0,80,0,1
262462,-81.9672131147541,3,1,0,80,0,1
262522,-82.3045267489712,3,1,0,80,0,1
262582,-82.6446280991736,3,1,0,80,0,1
262642,-82.9875518672199,3,1,0,80,0,1
262702,-83.3333333333333,3,1,0,80,0,1
262762,-83.6820083682008,3,1,0,80,0,1
262822,-84.0336134453781,3,1,0,80,0,1
262882,-84.3881856540084,3,1,0,80,0,1
262942,-84.7457627118644,3,1,0,80,0,1
263002,-85.1063829787234,3,1,0,80,0,1
263062,-85.4700854700855,3,1,0,80,0,1
263122,-85.8369098712446,3,1,0,80,0,1
263182,-86.2068965517241,3,1,0,80,0,1
263242,-86.5800865800866,3,1,0,80,0,1
263302,-86.9565217391304,3,1,0,80,0,1
263362,-87.3362445414847,3,1,0,80,0,1
263422,-87.719298245614,3,1,0,80,0,1
263482,-88.1057268722467,3,1,0,80,0,1
263542,-88.4955752212389,3,1,0,80,0,1
263602,-88.8888888888889,3,1,0,80,0,1
263662,-89.2857142857143,3,1,0,80,0,1
263722,-89.6860986547085,3,1,0,80,0,1
263782,-90.0900900900901,3,1,0,80,0,1
263842,-90.4977375565611,3,1,0,80,0,1
263902,-90.9090909090909,3,1,0,80,0,1
263962,-91.324200913242,3,1,0,80,0,1
264022,-91.743119266055,3,1,0,80,0,1
264082,-92.1658986175115,3,1,0,80,0,1
264142,-92.5925925925926,3,1,0,80,0,1
264202,-93.0232558139535,3,1,0,80,0,1
264262,-93.4579439252336,3,1,0,80,0,1
264322,-93.8967136150235,3,1,0,80,0,1
264382,-94.3396226415094,3,1,0,80,0,1
264442,-94.7867298578199,3,1,0,80,0,1
264502,-95.2380952380952,3,1,0,80,0,1
264562,-95.6937799043062,3,1,0,80,0,1
264622,-96.1538461538461,3,1,0,80,0,1
264682,-96.6183574879227,3,1,0,80,0,1
264742,-97.0873786407767,3,1,0,80,0,1
264802,-97.5609756097561,3,1,0,80,0,1
264862,-98.0392156862745,3,1,0,80,0,1
264922,-98.5221674876847,3,1,0,80,0,1
264982,-99.009900990099,3,1,0,80,0,1
265102,-100,3,1,0,80,0,1
286702,-100,3,1,0,80,0,0
311122,-83.3333333333333,3,1,0,80,0,0

[HitObjects]
256,192,142,5,12,0:0:0:0:
256,192,262,1,0,0:0:0:0:
256,192,322,1,0,0:0:0:0:
256,192,382,1,8,0:0:0:0:
256,192,442,1,0,0:0:0:0:
256,192,502,1,8,0:0:0:0:
256,192,562,1,0,0:0:0:0:
256,192,622,1,8,0:0:0:0:
256,192,682,1,0,0:0:0:0:
256,192,742,1,0,0:0:0:0:
256,192,802,1,0,0:0:0:0:
256,192,862,1,8,0:0:0:0:
256,192,922,1,8,0:0:0:0:
256,192,982,1,0,0:0:0:0:
256,192,1042,1,0,0:0:0:0:
256,192,1102,1,8,0:0:0:0:
256,192,1162,1,0,0:0:0:0:
256,192,1222,1,8,0:0:0:0:
256,192,1282,1,0,0:0:0:0:
256,192,1342,1,8,0:0:0:0:
256,192,1402,1,0,0:0:0:0:
256,192,1462,1,0,0:0:0:0:
256,192,1522,1,0,0:0:0:0:
256,192,1582,1,8,0:0:0:0:
256,192,1642,1,8,0:0:0:0:
256,192,1702,1,8,0:0:0:0:
256,192,1762,1,8,0:0:0:0:
256,192,1822,1,0,0:0:0:0:
256,192,1882,1,0,0:0:0:0:
256,192,1942,1,8,0:0:0:0:
256,192,2002,1,0,0:0:0:0:
256,192,2062,1,8,0:0:0:0:
256,192,2122,1,0,0:0:0:0:
256,192,2182,1,8,0:0:0:0:
256,192,2302,1,4,0:0:0:0:
256,192,2422,1,0,0:0:0:0:
256,192,2542,1,4,0:0:0:0:
256,192,2662,1,0,0:0:0:0:
256,192,2782,1,4,0:0:0:0:
256,192,2902,1,0,0:0:0:0:
256,192,3022,1,12,0:0:0:0:
256,192,3142,1,8,0:0:0:0:
256,192,3202,1,8,0:0:0:0:
256,192,3262,1,0,0:0:0:0:
256,192,3322,1,0,0:0:0:0:
256,192,3382,1,8,0:0:0:0:
256,192,3442,1,0,0:0:0:0:
256,192,3502,1,8,0:0:0:0:
256,192,3562,1,8,0:0:0:0:
256,192,3622,1,0,0:0:0:0:
256,192,3682,1,0,0:0:0:0:
256,192,3742,1,8,0:0:0:0:
256,192,3802,1,8,0:0:0:0:
256,192,3862,1,0,0:0:0:0:
256,192,3922,1,0,0:0:0:0:
256,192,3982,1,8,0:0:0:0:
256,192,4042,1,0,0:0:0:0:
256,192,4102,1,8,0:0:0:0:
256,192,4162,1,0,0:0:0:0:
256,192,4222,1,8,0:0:0:0:
256,192,4282,1,0,0:0:0:0:
256,192,4342,1,8,0:0:0:0:
256,192,4402,1,8,0:0:0:0:
256,192,4462,1,0,0:0:0:0:
256,192,4582,1,0,0:0:0:0:
256,192,4702,1,8,0:0:0:0:
256,192,4762,1,8,0:0:0:0:
256,192,4822,1,0,0:0:0:0:
256,192,4882,1,0,0:0:0:0:
256,192,4942,1,8,0:0:0:0:
256,192,5002,1,8,0:0:0:0:
256,192,5062,1,0,0:0:0:0:
256,192,5122,1,0,0:0:0:0:
256,192,5182,1,0,0:0:0:0:
256,192,5302,1,0,0:0:0:0:
256,192,5422,1,8,0:0:0:0:
256,192,5482,1,8,0:0:0:0:
256,192,5542,1,8,0:0:0:0:
256,192,5602,1,8,0:0:0:0:
256,192,5662,1,0,0:0:0:0:
256,192,5722,1,0,0:0:0:0:
256,192,5782,1,0,0:0:0:0:
256,192,5842,1,0,0:0:0:0:
256,192,5902,1,12,0:0:0:0:
256,192,6022,1,8,0:0:0:0:
256,192,6082,1,8,0:0:0:0:
256,192,6142,1,8,0:0:0:0:
256,192,6202,1,0,0:0:0:0:
256,192,6262,1,0,0:0:0:0:
256,192,6322,1,0,0:0:0:0:
256,192,6382,1,8,0:0:0:0:
256,192,6442,1,8,0:0:0:0:
256,192,6502,1,0,0:0:0:0:
256,192,6562,1,0,0:0:0:0:
256,192,6622,1,8,0:0:0:0:
256,192,6682,1,8,0:0:0:0:
256,192,6742,1,0,0:0:0:0:
256,192,6802,1,0,0:0:0:0:
256,192,6862,1,8,0:0:0:0:
256,192,6922,1,0,0:0:0:0:
256,192,6982,1,0,0:0:0:0:
256,192,7042,1,0,0:0:0:0:
256,192,7102,1,8,0:0:0:0:
256,192,7162,1,0,0:0:0:0:
256,192,7222,1,8,0:0:0:0:
256,192,7282,1,0,0:0:0:0:
256,192,7342,1,8,0:0:0:0:
256,192,7402,1,8,0:0:0:0:
256,192,7462,1,8,0:0:0:0:
256,192,7522,1,0,0:0:0:0:
256,192,7582,1,0,0:0:0:0:
256,192,7642,1,0,0:0:0:0:
256,192,7702,1,8,0:0:0:0:
256,192,7762,1,0,0:0:0:0:
256,192,7822,1,8,0:0:0:0:
256,192,7882,1,0,0:0:0:0:
256,192,7942,1,8,0:0:0:0:
256,192,8062,1,4,0:0:0:0:
256,192,8182,1,0,0:0:0:0:
256,192,8302,1,4,0:0:0:0:
256,192,8422,1,0,0:0:0:0:
256,192,8542,1,4,0:0:0:0:
256,192,8662,1,0,0:0:0:0:
256,192,8782,1,12,0:0:0:0:
256,192,8902,1,0,0:0:0:0:
256,192,8962,1,0,0:0:0:0:
256,192,9022,1,8,0:0:0:0:
256,192,9082,1,0,0:0:0:0:
256,192,9142,1,0,0:0:0:0:
256,192,9202,1,0,0:0:0:0:
256,192,9262,1,8,0:0:0:0:
256,192,9322,1,0,0:0:0:0:
256,192,9382,1,8,0:0:0:0:
256,192,9442,1,0,0:0:0:0:
256,192,9502,1,8,0:0:0:0:
256,192,9562,1,8,0:0:0:0:
256,192,9622,1,0,0:0:0:0:
256,192,9682,1,0,0:0:0:0:
256,192,9742,1,8,0:0:0:0:
256,192,9802,1,0,0:0:0:0:
256,192,9862,1,8,0:0:0:0:
256,192,9922,1,0,0:0:0:0:
256,192,9982,1,8,0:0:0:0:
256,192,10042,1,0,0:0:0:0:
256,192,10102,1,0,0:0:0:0:
256,192,10162,1,0,0:0:0:0:
256,192,10222,1,8,0:0:0:0:
256,192,10282,1,8,0:0:0:0:
256,192,10342,1,0,0:0:0:0:
256,192,10402,1,0,0:0:0:0:
256,192,10462,1,8,0:0:0:0:
256,192,10522,1,0,0:0:0:0:
256,192,10582,1,8,0:0:0:0:
256,192,10642,1,8,0:0:0:0:
256,192,10702,1,0,0:0:0:0:
256,192,10762,1,0,0:0:0:0:
256,192,10822,1,8,0:0:0:0:
256,192,10882,1,0,0:0:0:0:
256,192,10942,1,8,0:0:0:0:
256,192,11002,1,8,0:0:0:0:
256,192,11062,1,8,0:0:0:0:
256,192,11122,1,0,0:0:0:0:
256,192,11182,1,8,0:0:0:0:
256,192,11242,1,8,0:0:0:0:
256,192,11302,1,8,0:0:0:0:
256,192,11362,1,8,0:0:0:0:
256,192,11422,1,0,0:0:0:0:
256,192,11482,1,0,0:0:0:0:
256,192,11542,1,0,0:0:0:0:
256,192,11602,1,0,0:0:0:0:
256,192,11662,1,12,0:0:0:0:
256,192,11782,1,0,0:0:0:0:
256,192,11842,1,0,0:0:0:0:
256,192,11902,1,8,0:0:0:0:
256,192,11962,1,0,0:0:0:0:
256,192,12022,1,8,0:0:0:0:
256,192,12082,1,0,0:0:0:0:
256,192,12142,1,8,0:0:0:0:
256,192,12202,1,8,0:0:0:0:
256,192,12262,1,0,0:0:0:0:
256,192,12322,1,0,0:0:0:0:
256,192,12382,1,8,0:0:0:0:
256,192,12442,1,8,0:0:0:0:
256,192,12502,1,0,0:0:0:0:
256,192,12562,1,0,0:0:0:0:
256,192,12622,1,8,0:0:0:0:
256,192,12682,1,0,0:0:0:0:
256,192,12742,1,8,0:0:0:0:
256,192,12802,1,0,0:0:0:0:
256,192,12862,1,8,0:0:0:0:
256,192,12922,1,8,0:0:0:0:
256,192,12982,1,0,0:0:0:0:
256,192,13042,1,0,0:0:0:0:
256,192,13102,1,8,0:0:0:0:
256,192,13162,1,8,0:0:0:0:
256,192,13222,1,8,0:0:0:0:
256,192,13282,1,8,0:0:0:0:
256,192,13342,1,0,0:0:0:0:
256,192,13402,1,0,0:0:0:0:
256,192,13462,1,8,0:0:0:0:
256,192,13522,1,0,0:0:0:0:
256,192,13582,1,8,0:0:0:0:
256,192,13642,1,8,0:0:0:0:
256,192,13702,1,0,0:0:0:0:
256,192,13822,1,12,0:0:0:0:
256,192,13942,1,0,0:0:0:0:
256,192,14062,1,12,0:0:0:0:
256,192,14182,1,0,0:0:0:0:
256,192,14302,1,12,0:0:0:0:
256,192,14422,1,0,0:0:0:0:
256,192,14542,1,12,0:0:0:0:
256,192,14662,1,8,0:0:0:0:
256,192,14722,1,8,0:0:0:0:
256,192,14782,1,8,0:0:0:0:
256,192,14842,1,0,0:0:0:0:
256,192,14902,1,8,0:0:0:0:
256,192,14962,1,0,0:0:0:0:
256,192,15022,1,8,0:0:0:0:
256,192,15082,1,8,0:0:0:0:
256,192,15142,1,0,0:0:0:0:
256,192,15202,1,0,0:0:0:0:
256,192,15262,1,8,0:0:0:0:
256,192,15322,1,8,0:0:0:0:
256,192,15382,1,8,0:0:0:0:
256,192,15442,1,0,0:0:0:0:
256,192,15502,1,8,0:0:0:0:
256,192,15562,1,0,0:0:0:0:
256,192,15622,1,8,0:0:0:0:
256,192,15682,1,0,0:0:0:0:
256,192,15742,1,8,0:0:0:0:
256,192,15802,1,0,0:0:0:0:
256,192,15862,1,8,0:0:0:0:
256,192,15922,1,8,0:0:0:0:
256,192,15982,1,0,0:0:0:0:
256,192,16042,1,0,0:0:0:0:
256,192,16102,1,8,0:0:0:0:
256,192,16162,1,0,0:0:0:0:
256,192,16222,1,8,0:0:0:0:
256,192,16282,1,0,0:0:0:0:
256,192,16342,1,0,0:0:0:0:
256,192,16402,1,0,0:0:0:0:
256,192,16462,1,8,0:0:0:0:
256,192,16522,1,8,0:0:0:0:
256,192,16582,1,8,0:0:0:0:
256,192,16642,1,8,0:0:0:0:
256,192,16702,1,0,0:0:0:0:
256,192,16762,1,0,0:0:0:0:
256,192,16822,1,8,0:0:0:0:
256,192,16882,1,0,0:0:0:0:
256,192,16942,1,8,0:0:0:0:
256,192,17002,1,0,0:0:0:0:
256,192,17062,1,0,0:0:0:0:
256,192,17122,1,0,0:0:0:0:
256,192,17182,1,8,0:0:0:0:
256,192,17242,1,8,0:0:0:0:
256,192,17302,1,8,0:0:0:0:
256,192,17362,1,8,0:0:0:0:
256,192,17422,1,4,0:0:0:0:
256,192,17542,1,8,0:0:0:0:
256,192,17602,1,8,0:0:0:0:
256,192,17662,1,8,0:0:0:0:
256,192,17722,1,8,0:0:0:0:
256,192,17782,1,0,0:0:0:0:
256,192,17842,1,0,0:0:0:0:
256,192,17902,1,8,0:0:0:0:
256,192,17962,1,8,0:0:0:0:
256,192,18022,1,0,0:0:0:0:
256,192,18082,1,0,0:0:0:0:
256,192,18142,1,8,0:0:0:0:
256,192,18202,1,8,0:0:0:0:
256,192,18262,1,8,0:0:0:0:
256,192,18322,1,0,0:0:0:0:
256,192,18382,1,8,0:0:0:0:
256,192,18442,1,8,0:0:0:0:
256,192,18502,1,0,0:0:0:0:
256,192,18562,1,0,0:0:0:0:
256,192,18622,1,8,0:0:0:0:
256,192,18682,1,0,0:0:0:0:
256,192,18742,1,8,0:0:0:0:
256,192,18802,1,0,0:0:0:0:
256,192,18862,1,8,0:0:0:0:
256,192,18922,1,8,0:0:0:0:
256,192,18982,1,8,0:0:0:0:
256,192,19042,1,8,0:0:0:0:
256,192,19102,1,0,0:0:0:0:
256,192,19162,1,0,0:0:0:0:
256,192,19222,1,8,0:0:0:0:
256,192,19282,1,0,0:0:0:0:
256,192,19342,1,8,0:0:0:0:
256,192,19402,1,8,0:0:0:0:
256,192,19462,1,0,0:0:0:0:
256,192,19582,1,12,0:0:0:0:
256,192,19702,1,0,0:0:0:0:
256,192,19822,1,12,0:0:0:0:
256,192,19942,1,0,0:0:0:0:
256,192,20062,1,12,0:0:0:0:
256,192,20182,1,0,0:0:0:0:
256,192,20302,1,12,0:0:0:0:
256,192,20422,1,0,0:0:0:0:
256,192,20482,1,0,0:0:0:0:
256,192,20542,1,8,0:0:0:0:
256,192,20602,1,8,0:0:0:0:
256,192,20662,1,0,0:0:0:0:
256,192,20722,1,0,0:0:0:0:
256,192,20782,1,8,0:0:0:0:
256,192,20842,1,0,0:0:0:0:
256,192,20902,1,8,0:0:0:0:
256,192,20962,1,0,0:0:0:0:
256,192,21022,1,8,0:0:0:0:
256,192,21082,1,8,0:0:0:0:
256,192,21142,1,0,0:0:0:0:
256,192,21202,1,0,0:0:0:0:
256,192,21262,1,8,0:0:0:0:
256,192,21322,1,0,0:0:0:0:
256,192,21382,1,8,0:0:0:0:
256,192,21442,1,0,0:0:0:0:
256,192,21502,1,8,0:0:0:0:
256,192,21562,1,8,0:0:0:0:
256,192,21622,1,0,0:0:0:0:
256,192,21682,1,0,0:0:0:0:
256,192,21742,1,8,0:0:0:0:
256,192,21802,1,8,0:0:0:0:
256,192,21862,1,0,0:0:0:0:
256,192,21922,1,0,0:0:0:0:
256,192,21982,1,8,0:0:0:0:
256,192,22042,1,0,0:0:0:0:
256,192,22102,1,8,0:0:0:0:
256,192,22162,1,8,0:0:0:0:
256,192,22222,1,0,0:0:0:0:
256,192,22282,1,0,0:0:0:0:
256,192,22342,1,8,0:0:0:0:
256,192,22402,1,0,0:0:0:0:
256,192,22462,1,8,0:0:0:0:
256,192,22522,1,8,0:0:0:0:
256,192,22582,1,0,0:0:0:0:
256,192,22642,1,0,0:0:0:0:
256,192,22702,1,8,0:0:0:0:
256,192,22762,1,8,0:0:0:0:
256,192,22822,1,0,0:0:0:0:
256,192,22882,1,0,0:0:0:0:
256,192,22942,1,8,0:0:0:0:
256,192,23002,1,8,0:0:0:0:
256,192,23062,1,8,0:0:0:0:
256,192,23182,1,12,0:0:0:0:
256,192,23422,1,12,0:0:0:0:
256,192,24622,1,4,0:0:0:0:
256,192,24742,1,8,0:0:0:0:
256,192,24862,1,0,0:0:0:0:
256,192,24922,1,0,0:0:0:0:
256,192,24982,1,8,0:0:0:0:
256,192,25102,1,0,0:0:0:0:
256,192,25222,1,8,0:0:0:0:
256,192,25342,1,8,0:0:0:0:
256,192,25402,1,8,0:0:0:0:
256,192,25462,1,0,0:0:0:0:
256,192,25582,1,8,0:0:0:0:
256,192,25702,1,8,0:0:0:0:
256,192,25822,1,0,0:0:0:0:
256,192,25882,1,0,0:0:0:0:
256,192,25942,1,8,0:0:0:0:
256,192,26062,1,0,0:0:0:0:
256,192,26182,1,8,0:0:0:0:
256,192,26302,1,0,0:0:0:0:
256,192,26422,1,8,0:0:0:0:
256,192,26542,1,8,0:0:0:0:
256,192,26662,1,0,0:0:0:0:
256,192,26782,1,8,0:0:0:0:
256,192,26842,1,8,0:0:0:0:
256,192,26902,1,0,0:0:0:0:
256,192,27022,1,0,0:0:0:0:
256,192,27082,1,0,0:0:0:0:
256,192,27142,1,8,0:0:0:0:
256,192,27202,1,0,0:0:0:0:
256,192,27262,1,0,0:0:0:0:
256,192,27322,1,0,0:0:0:0:
256,192,27382,1,0,0:0:0:0:
256,192,27442,1,0,0:0:0:0:
256,192,27502,1,8,0:0:0:0:
256,192,27622,1,0,0:0:0:0:
256,192,27742,1,8,0:0:0:0:
256,192,27802,1,0,0:0:0:0:
256,192,27862,1,8,0:0:0:0:
256,192,27982,1,0,0:0:0:0:
256,192,28102,1,8,0:0:0:0:
256,192,28222,1,8,0:0:0:0:
256,192,28282,1,8,0:0:0:0:
256,192,28342,1,0,0:0:0:0:
256,192,28462,1,8,0:0:0:0:
256,192,28582,1,0,0:0:0:0:
256,192,28702,1,0,0:0:0:0:
256,192,28762,1,0,0:0:0:0:
256,192,28822,1,8,0:0:0:0:
256,192,28942,1,8,0:0:0:0:
256,192,29002,1,8,0:0:0:0:
256,192,29062,1,8,0:0:0:0:
256,192,29122,1,8,0:0:0:0:
256,192,29182,1,0,0:0:0:0:
256,192,29302,1,0,0:0:0:0:
256,192,29422,1,8,0:0:0:0:
256,192,29542,1,0,0:0:0:0:
256,192,29662,1,8,0:0:0:0:
256,192,29722,1,8,0:0:0:0:
256,192,29782,1,8,0:0:0:0:
256,192,29902,1,8,0:0:0:0:
256,192,29962,1,0,0:0:0:0:
256,192,30022,1,0,0:0:0:0:
256,192,30082,1,0,0:0:0:0:
256,192,30142,1,8,0:0:0:0:
256,192,30202,1,8,0:0:0:0:
256,192,30262,1,8,0:0:0:0:
256,192,30382,1,4,0:0:0:0:
256,192,30502,1,0,0:0:0:0:
256,192,30562,1,0,0:0:0:0:
256,192,30622,1,8,0:0:0:0:
256,192,30682,1,0,0:0:0:0:
256,192,30742,1,8,0:0:0:0:
256,192,30802,1,0,0:0:0:0:
256,192,30862,1,8,0:0:0:0:
256,192,30922,1,0,0:0:0:0:
256,192,30982,1,0,0:0:0:0:
256,192,31042,1,0,0:0:0:0:
256,192,31102,1,8,0:0:0:0:
256,192,31162,1,0,0:0:0:0:
256,192,31222,1,0,0:0:0:0:
256,192,31282,1,0,0:0:0:0:
256,192,31342,1,8,0:0:0:0:
256,192,31402,1,0,0:0:0:0:
256,192,31462,1,8,0:0:0:0:
256,192,31522,1,0,0:0:0:0:
256,192,31582,1,8,0:0:0:0:
256,192,31642,1,0,0:0:0:0:
256,192,31702,1,0,0:0:0:0:
256,192,31762,1,0,0:0:0:0:
256,192,31822,1,8,0:0:0:0:
256,192,31882,1,8,0:0:0:0:
256,192,31942,1,0,0:0:0:0:
256,192,32002,1,0,0:0:0:0:
256,192,32062,1,8,0:0:0:0:
256,192,32122,1,0,0:0:0:0:
256,192,32182,1,8,0:0:0:0:
256,192,32242,1,0,0:0:0:0:
256,192,32302,1,8,0:0:0:0:
256,192,32362,1,8,0:0:0:0:
256,192,32422,1,0,0:0:0:0:
256,192,32482,1,0,0:0:0:0:
256,192,32542,1,8,0:0:0:0:
256,192,32602,1,0,0:0:0:0:
256,192,32662,1,8,0:0:0:0:
256,192,32722,1,0,0:0:0:0:
256,192,32782,1,8,0:0:0:0:
256,192,32842,1,8,0:0:0:0:
256,192,32902,1,8,0:0:0:0:
256,192,32962,1,8,0:0:0:0:
256,192,33022,1,0,0:0:0:0:
256,192,33082,1,0,0:0:0:0:
256,192,33142,1,0,0:0:0:0:
256,192,33262,1,12,0:0:0:0:
256,192,33502,1,0,0:0:0:0:
256,192,33562,1,0,0:0:0:0:
256,192,33622,1,8,0:0:0:0:
256,192,33742,1,8,0:0:0:0:
256,192,33862,1,8,0:0:0:0:
256,192,33982,1,0,0:0:0:0:
256,192,34042,1,0,0:0:0:0:
256,192,34102,1,8,0:0:0:0:
256,192,34222,1,0,0:0:0:0:
256,192,34342,1,8,0:0:0:0:
256,192,34462,1,0,0:0:0:0:
256,192,34522,1,0,0:0:0:0:
256,192,34582,1,8,0:0:0:0:
256,192,34702,1,8,0:0:0:0:
256,192,34762,1,8,0:0:0:0:
256,192,34822,1,0,0:0:0:0:
256,192,34882,1,8,0:0:0:0:
256,192,34942,1,8,0:0:0:0:
256,192,35002,1,0,0:0:0:0:
256,192,35062,1,0,0:0:0:0:
256,192,35122,1,0,0:0:0:0:
256,192,35182,1,8,0:0:0:0:
256,192,35242,1,8,0:0:0:0:
256,192,35302,1,8,0:0:0:0:
256,192,35362,1,8,0:0:0:0:
256,192,35422,1,0,0:0:0:0:
256,192,35482,1,0,0:0:0:0:
256,192,35542,1,8,0:0:0:0:
256,192,35602,1,8,0:0:0:0:
256,192,35662,1,0,0:0:0:0:
256,192,35722,1,0,0:0:0:0:
256,192,35782,1,0,0:0:0:0:
256,192,35842,1,0,0:0:0:0:
256,192,35902,1,8,0:0:0:0:
256,192,36022,1,0,0:0:0:0:
256,192,36142,1,12,0:0:0:0:
256,192,36262,1,0,0:0:0:0:
256,192,36322,1,0,0:0:0:0:
256,192,36382,1,8,0:0:0:0:
256,192,36502,1,8,0:0:0:0:
256,192,36562,1,0,0:0:0:0:
256,192,36622,1,8,0:0:0:0:
256,192,36682,1,8,0:0:0:0:
256,192,36742,1,0,0:0:0:0:
256,192,36862,1,8,0:0:0:0:
256,192,36922,1,0,0:0:0:0:
256,192,36982,1,0,0:0:0:0:
256,192,37042,1,0,0:0:0:0:
256,192,37102,1,8,0:0:0:0:
256,192,37162,1,8,0:0:0:0:
256,192,37222,1,0,0:0:0:0:
256,192,37342,1,8,0:0:0:0:
256,192,37402,1,0,0:0:0:0:
256,192,37462,1,8,0:0:0:0:
256,192,37522,1,0,0:0:0:0:
256,192,37582,1,8,0:0:0:0:
256,192,37702,1,0,0:0:0:0:
256,192,37762,1,0,0:0:0:0:
256,192,37822,1,8,0:0:0:0:
256,192,37882,1,0,0:0:0:0:
256,192,37942,1,8,0:0:0:0:
256,192,38002,1,0,0:0:0:0:
256,192,38062,1,8,0:0:0:0:
256,192,38122,1,8,0:0:0:0:
256,192,38182,1,0,0:0:0:0:
256,192,38302,1,0,0:0:0:0:
256,192,38362,1,8,0:0:0:0:
256,192,38422,1,8,0:0:0:0:
256,192,38482,1,8,0:0:0:0:
256,192,38542,1,0,0:0:0:0:
256,192,38662,1,0,0:0:0:0:
256,192,38722,1,8,0:0:0:0:
256,192,38782,1,0,0:0:0:0:
256,192,38842,1,8,0:0:0:0:
256,192,38902,1,0,0:0:0:0:
256,192,38962,1,8,0:0:0:0:
256,192,39022,1,0,0:0:0:0:
256,192,39142,1,0,0:0:0:0:
256,192,39262,1,8,0:0:0:0:
256,192,39322,1,0,0:0:0:0:
256,192,39382,1,0,0:0:0:0:
256,192,39442,1,0,0:0:0:0:
256,192,39502,1,8,0:0:0:0:
256,192,39562,1,8,0:0:0:0:
256,192,39622,1,0,0:0:0:0:
256,192,39742,1,8,0:0:0:0:
256,192,39802,1,0,0:0:0:0:
256,192,39862,1,8,0:0:0:0:
256,192,39922,1,0,0:0:0:0:
256,192,39982,1,8,0:0:0:0:
256,192,40042,1,8,0:0:0:0:
256,192,40102,1,0,0:0:0:0:
256,192,40222,1,8,0:0:0:0:
256,192,40282,1,8,0:0:0:0:
256,192,40342,1,0,0:0:0:0:
256,192,40462,1,8,0:0:0:0:
256,192,40522,1,8,0:0:0:0:
256,192,40582,1,8,0:0:0:0:
256,192,40642,1,0,0:0:0:0:
256,192,40702,1,8,0:0:0:0:
256,192,40822,1,0,0:0:0:0:
256,192,40882,1,0,0:0:0:0:
256,192,40942,1,8,0:0:0:0:
256,192,41002,1,0,0:0:0:0:
256,192,41062,1,8,0:0:0:0:
256,192,41122,1,0,0:0:0:0:
256,192,41182,1,8,0:0:0:0:
256,192,41242,1,8,0:0:0:0:
256,192,41302,1,0,0:0:0:0:
256,192,41362,1,0,0:0:0:0:
256,192,41422,1,8,0:0:0:0:
256,192,41542,1,0,0:0:0:0:
256,192,41602,1,0,0:0:0:0:
256,192,41662,1,8,0:0:0:0:
256,192,41722,1,8,0:0:0:0:
256,192,41782,1,0,0:0:0:0:
256,192,41842,1,0,0:0:0:0:
256,192,41902,1,0,0:0:0:0:
256,192,41962,1,8,0:0:0:0:
256,192,42022,1,0,0:0:0:0:
256,192,42142,1,8,0:0:0:0:
256,192,42202,1,8,0:0:0:0:
256,192,42262,1,0,0:0:0:0:
256,192,42322,1,0,0:0:0:0:
256,192,42382,1,0,0:0:0:0:
256,192,42502,1,8,0:0:0:0:
256,192,42622,1,8,0:0:0:0:
256,192,42682,1,8,0:0:0:0:
256,192,42742,1,0,0:0:0:0:
256,192,42802,1,0,0:0:0:0:
256,192,42862,1,8,0:0:0:0:
256,192,42922,1,0,0:0:0:0:
256,192,42982,1,0,0:0:0:0:
256,192,43102,1,8,0:0:0:0:
256,192,43222,1,8,0:0:0:0:
256,192,43282,1,0,0:0:0:0:
256,192,43342,1,8,0:0:0:0:
256,192,43402,1,8,0:0:0:0:
256,192,43462,1,0,0:0:0:0:
256,192,43522,1,0,0:0:0:0:
256,192,43582,1,8,0:0:0:0:
256,192,43702,1,0,0:0:0:0:
256,192,43762,1,8,0:0:0:0:
256,192,43822,1,8,0:0:0:0:
256,192,43882,1,0,0:0:0:0:
256,192,43942,1,0,0:0:0:0:
256,192,44002,1,0,0:0:0:0:
256,192,44062,1,8,0:0:0:0:
256,192,44122,1,8,0:0:0:0:
256,192,44182,1,0,0:0:0:0:
256,192,44302,1,0,0:0:0:0:
256,192,44362,1,0,0:0:0:0:
256,192,44422,1,0,0:0:0:0:
256,192,44482,1,0,0:0:0:0:
256,192,44542,1,8,0:0:0:0:
256,192,44602,1,0,0:0:0:0:
256,192,44662,1,8,0:0:0:0:
256,192,44722,1,0,0:0:0:0:
256,192,44782,1,8,0:0:0:0:
256,192,44842,1,8,0:0:0:0:
256,192,44902,1,0,0:0:0:0:
256,192,45022,1,8,0:0:0:0:
256,192,45082,1,0,0:0:0:0:
256,192,45142,1,8,0:0:0:0:
256,192,45202,1,0,0:0:0:0:
256,192,45262,1,8,0:0:0:0:
256,192,45322,1,8,0:0:0:0:
256,192,45382,1,8,0:0:0:0:
256,192,45502,1,8,0:0:0:0:
256,192,45562,1,8,0:0:0:0:
256,192,45622,1,0,0:0:0:0:
256,192,45682,1,0,0:0:0:0:
256,192,45742,1,8,0:0:0:0:
256,192,45802,1,8,0:0:0:0:
256,192,45862,1,8,0:0:0:0:
256,192,45922,1,8,0:0:0:0:
256,192,45982,1,0,0:0:0:0:
256,192,46102,1,0,0:0:0:0:
256,192,46222,1,4,0:0:0:0:
256,192,46462,1,0,0:0:0:0:
256,192,46522,1,0,0:0:0:0:
256,192,46582,1,0,0:0:0:0:
256,192,46642,1,0,0:0:0:0:
256,192,46702,1,8,0:0:0:0:
256,192,46762,1,0,0:0:0:0:
256,192,46822,1,0,0:0:0:0:
256,192,46882,1,0,0:0:0:0:
256,192,46942,1,0,0:0:0:0:
256,192,47182,1,8,0:0:0:0:
256,192,47242,1,0,0:0:0:0:
256,192,47302,1,0,0:0:0:0:
256,192,47362,1,0,0:0:0:0:
256,192,47422,1,0,0:0:0:0:
256,192,47482,1,0,0:0:0:0:
256,192,47542,1,0,0:0:0:0:
256,192,47602,1,0,0:0:0:0:
256,192,47662,1,8,0:0:0:0:
256,192,47902,1,0,0:0:0:0:
256,192,47962,1,0,0:0:0:0:
256,192,48022,1,0,0:0:0:0:
256,192,48082,1,0,0:0:0:0:
256,192,48142,1,8,0:0:0:0:
256,192,48202,1,0,0:0:0:0:
256,192,48262,1,0,0:0:0:0:
256,192,48322,1,0,0:0:0:0:
256,192,48382,1,8,0:0:0:0:
256,192,48502,1,0,0:0:0:0:
256,192,48562,1,0,0:0:0:0:
256,192,48622,1,8,0:0:0:0:
256,192,48682,1,0,0:0:0:0:
256,192,48742,1,0,0:0:0:0:
256,192,48802,1,0,0:0:0:0:
256,192,48862,1,8,0:0:0:0:
256,192,48922,1,0,0:0:0:0:
256,192,48982,1,0,0:0:0:0:
256,192,49102,1,4,0:0:0:0:
256,192,49342,1,0,0:0:0:0:
256,192,49402,1,0,0:0:0:0:
256,192,49462,1,0,0:0:0:0:
256,192,49522,1,0,0:0:0:0:
256,192,49582,1,8,0:0:0:0:
256,192,49642,1,0,0:0:0:0:
256,192,49702,1,0,0:0:0:0:
256,192,49762,1,0,0:0:0:0:
256,192,49822,1,0,0:0:0:0:
256,192,50062,1,8,0:0:0:0:
256,192,50122,1,0,0:0:0:0:
256,192,50182,1,0,0:0:0:0:
256,192,50242,1,0,0:0:0:0:
256,192,50302,1,0,0:0:0:0:
256,192,50362,1,0,0:0:0:0:
256,192,50422,1,0,0:0:0:0:
256,192,50482,1,0,0:0:0:0:
256,192,50542,1,8,0:0:0:0:
256,192,50782,1,0,0:0:0:0:
256,192,50842,1,0,0:0:0:0:
256,192,50902,1,0,0:0:0:0:
256,192,50962,1,0,0:0:0:0:
256,192,51022,1,8,0:0:0:0:
256,192,51082,1,0,0:0:0:0:
256,192,51142,1,0,0:0:0:0:
256,192,51202,1,0,0:0:0:0:
256,192,51262,1,8,0:0:0:0:
256,192,51382,1,0,0:0:0:0:
256,192,51502,1,8,0:0:0:0:
256,192,51742,1,8,0:0:0:0:
256,192,51862,1,0,0:0:0:0:
256,192,51982,1,12,0:0:0:0:
256,192,52222,1,0,0:0:0:0:
256,192,52282,1,0,0:0:0:0:
256,192,52342,1,0,0:0:0:0:
256,192,52402,1,0,0:0:0:0:
256,192,52462,1,8,0:0:0:0:
256,192,52522,1,0,0:0:0:0:
256,192,52582,1,0,0:0:0:0:
256,192,52642,1,0,0:0:0:0:
256,192,52702,1,0,0:0:0:0:
256,192,52942,1,8,0:0:0:0:
256,192,53002,1,0,0:0:0:0:
256,192,53062,1,0,0:0:0:0:
256,192,53122,1,0,0:0:0:0:
256,192,53182,1,8,0:0:0:0:
256,192,53222,1,8,0:0:0:0:
256,192,53262,1,8,0:0:0:0:
256,192,53302,1,0,0:0:0:0:
256,192,53422,1,4,0:0:0:0:
256,192,53662,1,4,0:0:0:0:
256,192,53902,1,4,0:0:0:0:
256,192,54142,1,4,0:0:0:0:
256,192,54862,1,12,0:0:0:0:
256,192,54982,1,8,0:0:0:0:
256,192,55042,1,8,0:0:0:0:
256,192,55102,1,8,0:0:0:0:
256,192,55162,1,8,0:0:0:0:
256,192,55222,1,0,0:0:0:0:
256,192,55282,1,0,0:0:0:0:
256,192,55342,1,8,0:0:0:0:
256,192,55402,1,8,0:0:0:0:
256,192,55462,1,0,0:0:0:0:
256,192,55522,1,0,0:0:0:0:
256,192,55582,1,8,0:0:0:0:
256,192,55642,1,8,0:0:0:0:
256,192,55702,1,8,0:0:0:0:
256,192,55762,1,8,0:0:0:0:
256,192,55822,1,0,0:0:0:0:
256,192,55882,1,0,0:0:0:0:
256,192,55942,1,8,0:0:0:0:
256,192,56002,1,8,0:0:0:0:
256,192,56062,1,0,0:0:0:0:
256,192,56122,1,0,0:0:0:0:
256,192,56182,1,8,0:0:0:0:
256,192,56242,1,0,0:0:0:0:
256,192,56302,1,8,0:0:0:0:
256,192,56362,1,8,0:0:0:0:
256,192,56422,1,0,0:0:0:0:
256,192,56482,1,0,0:0:0:0:
256,192,56542,1,8,0:0:0:0:
256,192,56602,1,8,0:0:0:0:
256,192,56662,1,0,0:0:0:0:
256,192,56722,1,0,0:0:0:0:
256,192,56782,1,8,0:0:0:0:
256,192,56842,1,8,0:0:0:0:
256,192,56902,1,0,0:0:0:0:
256,192,56962,1,0,0:0:0:0:
256,192,57022,1,8,0:0:0:0:
256,192,57082,1,0,0:0:0:0:
256,192,57142,1,8,0:0:0:0:
256,192,57202,1,0,0:0:0:0:
256,192,57262,1,8,0:0:0:0:
256,192,57322,1,8,0:0:0:0:
256,192,57382,1,0,0:0:0:0:
256,192,57442,1,0,0:0:0:0:
256,192,57502,1,8,0:0:0:0:
256,192,57562,1,8,0:0:0:0:
256,192,57622,1,0,0:0:0:0:
256,192,57742,1,8,0:0:0:0:
256,192,57802,1,8,0:0:0:0:
256,192,57862,1,8,0:0:0:0:
256,192,57922,1,8,0:0:0:0:
256,192,57982,1,8,0:0:0:0:
256,192,58042,1,8,0:0:0:0:
256,192,58102,1,0,0:0:0:0:
256,192,58162,1,0,0:0:0:0:
256,192,58222,1,8,0:0:0:0:
256,192,58282,1,8,0:0:0:0:
256,192,58342,1,0,0:0:0:0:
256,192,58402,1,0,0:0:0:0:
256,192,58462,1,8,0:0:0:0:
256,192,58522,1,0,0:0:0:0:
256,192,58582,1,0,0:0:0:0:
256,192,58642,1,0,0:0:0:0:
256,192,58702,1,8,0:0:0:0:
256,192,58762,1,8,0:0:0:0:
256,192,58822,1,0,0:0:0:0:
256,192,58882,1,0,0:0:0:0:
256,192,58942,1,8,0:0:0:0:
256,192,59002,1,8,0:0:0:0:
256,192,59062,1,0,0:0:0:0:
256,192,59182,1,8,0:0:0:0:
256,192,59242,1,8,0:0:0:0:
256,192,59302,1,8,0:0:0:0:
256,192,59362,1,8,0:0:0:0:
256,192,59422,1,0,0:0:0:0:
256,192,59482,1,0,0:0:0:0:
256,192,59542,1,0,0:0:0:0:
256,192,59602,1,0,0:0:0:0:
256,192,59662,1,8,0:0:0:0:
256,192,59722,1,0,0:0:0:0:
256,192,59782,1,8,0:0:0:0:
256,192,59842,1,8,0:0:0:0:
256,192,59902,1,0,0:0:0:0:
256,192,59962,1,0,0:0:0:0:
256,192,60022,1,0,0:0:0:0:
256,192,60082,1,0,0:0:0:0:
256,192,60142,1,8,0:0:0:0:
256,192,60202,1,8,0:0:0:0:
256,192,60262,1,8,0:0:0:0:
256,192,60322,1,8,0:0:0:0:
256,192,60382,1,0,0:0:0:0:
256,192,60442,1,0,0:0:0:0:
256,192,60502,1,8,0:0:0:0:
256,192,60622,1,8,0:0:0:0:
256,192,60682,1,8,0:0:0:0:
256,192,60742,1,8,0:0:0:0:
256,192,60802,1,8,0:0:0:0:
256,192,60862,1,8,0:0:0:0:
256,192,60922,1,8,0:0:0:0:
256,192,60982,1,0,0:0:0:0:
256,192,61042,1,0,0:0:0:0:
256,192,61102,1,0,0:0:0:0:
256,192,61162,1,0,0:0:0:0:
256,192,61222,1,8,0:0:0:0:
256,192,61282,1,8,0:0:0:0:
256,192,61342,1,0,0:0:0:0:
256,192,61402,1,0,0:0:0:0:
256,192,61462,1,8,0:0:0:0:
256,192,61522,1,0,0:0:0:0:
256,192,61582,1,8,0:0:0:0:
256,192,61642,1,8,0:0:0:0:
256,192,61702,1,0,0:0:0:0:
256,192,61762,1,0,0:0:0:0:
256,192,61822,1,8,0:0:0:0:
256,192,61882,1,8,0:0:0:0:
256,192,61942,1,0,0:0:0:0:
256,192,62062,1,8,0:0:0:0:
256,192,62122,1,8,0:0:0:0:
256,192,62182,1,8,0:0:0:0:
256,192,62242,1,8,0:0:0:0:
256,192,62302,1,0,0:0:0:0:
256,192,62362,1,0,0:0:0:0:
256,192,62422,1,0,0:0:0:0:
256,192,62482,1,0,0:0:0:0:
256,192,62542,1,8,0:0:0:0:
256,192,62602,1,8,0:0:0:0:
256,192,62662,1,0,0:0:0:0:
256,192,62722,1,0,0:0:0:0:
256,192,62782,1,8,0:0:0:0:
256,192,62842,1,0,0:0:0:0:
256,192,62902,1,8,0:0:0:0:
256,192,62962,1,0,0:0:0:0:
256,192,63022,1,8,0:0:0:0:
256,192,63082,1,8,0:0:0:0:
256,192,63142,1,0,0:0:0:0:
256,192,63202,1,0,0:0:0:0:
256,192,63262,1,8,0:0:0:0:
256,192,63322,1,0,0:0:0:0:
256,192,63382,1,0,0:0:0:0:
256,192,63502,1,8,0:0:0:0:
256,192,63562,1,8,0:0:0:0:
256,192,63622,1,8,0:0:0:0:
256,192,63682,1,8,0:0:0:0:
256,192,63742,1,8,0:0:0:0:
256,192,63802,1,8,0:0:0:0:
256,192,63862,1,0,0:0:0:0:
256,192,63922,1,0,0:0:0:0:
256,192,63982,1,8,0:0:0:0:
256,192,64042,1,0,0:0:0:0:
256,192,64102,1,0,0:0:0:0:
256,192,64162,1,0,0:0:0:0:
256,192,64222,1,8,0:0:0:0:
256,192,64282,1,0,0:0:0:0:
256,192,64342,1,0,0:0:0:0:
256,192,64402,1,0,0:0:0:0:
256,192,64462,1,8,0:0:0:0:
256,192,64522,1,8,0:0:0:0:
256,192,64582,1,0,0:0:0:0:
256,192,64642,1,0,0:0:0:0:
256,192,64702,1,8,0:0:0:0:
256,192,64762,1,0,0:0:0:0:
256,192,64822,1,0,0:0:0:0:
256,192,64942,1,8,0:0:0:0:
256,192,65002,1,8,0:0:0:0:
256,192,65062,1,8,0:0:0:0:
256,192,65122,1,8,0:0:0:0:
256,192,65182,1,0,0:0:0:0:
256,192,65242,1,0,0:0:0:0:
256,192,65302,1,8,0:0:0:0:
256,192,65362,1,8,0:0:0:0:
256,192,65422,1,8,0:0:0:0:
256,192,65482,1,8,0:0:0:0:
256,192,65542,1,0,0:0:0:0:
256,192,65602,1,0,0:0:0:0:
256,192,65662,1,8,0:0:0:0:
256,192,65722,1,0,0:0:0:0:
256,192,65782,1,8,0:0:0:0:
256,192,65842,1,0,0:0:0:0:
256,192,65902,1,8,0:0:0:0:
256,192,65962,1,8,0:0:0:0:
256,192,66022,1,0,0:0:0:0:
256,192,66082,1,0,0:0:0:0:
256,192,66142,1,8,0:0:0:0:
256,192,66202,1,0,0:0:0:0:
256,192,66262,1,0,0:0:0:0:
256,192,66382,1,8,0:0:0:0:
256,192,66442,1,8,0:0:0:0:
256,192,66502,1,8,0:0:0:0:
256,192,66562,1,8,0:0:0:0:
256,192,66622,1,0,0:0:0:0:
256,192,66682,1,0,0:0:0:0:
256,192,66742,1,8,0:0:0:0:
256,192,66802,1,0,0:0:0:0:
256,192,66862,1,8,0:0:0:0:
256,192,66922,1,8,0:0:0:0:
256,192,66982,1,8,0:0:0:0:
256,192,67042,1,8,0:0:0:0:
256,192,67102,1,0,0:0:0:0:
256,192,67162,1,0,0:0:0:0:
256,192,67222,1,8,0:0:0:0:
256,192,67282,1,0,0:0:0:0:
256,192,67342,1,8,0:0:0:0:
256,192,67402,1,8,0:0:0:0:
256,192,67462,1,0,0:0:0:0:
256,192,67522,1,0,0:0:0:0:
256,192,67582,1,8,0:0:0:0:
256,192,67642,1,8,0:0:0:0:
256,192,67702,1,0,0:0:0:0:
256,192,67822,1,8,0:0:0:0:
256,192,67882,1,0,0:0:0:0:
256,192,67942,1,0,0:0:0:0:
256,192,68002,1,0,0:0:0:0:
256,192,68062,1,8,0:0:0:0:
256,192,68122,1,0,0:0:0:0:
256,192,68182,1,0,0:0:0:0:
256,192,68242,1,0,0:0:0:0:
256,192,68302,1,8,0:0:0:0:
256,192,68362,1,0,0:0:0:0:
256,192,68422,1,8,0:0:0:0:
256,192,68482,1,8,0:0:0:0:
256,192,68542,1,8,0:0:0:0:
256,192,68602,1,8,0:0:0:0:
256,192,68662,1,0,0:0:0:0:
256,192,68722,1,0,0:0:0:0:
256,192,68782,1,8,0:0:0:0:
256,192,68842,1,0,0:0:0:0:
256,192,68902,1,8,0:0:0:0:
256,192,68962,1,8,0:0:0:0:
256,192,69022,1,8,0:0:0:0:
256,192,69082,1,8,0:0:0:0:
256,192,69142,1,8,0:0:0:0:
256,192,69262,1,8,0:0:0:0:
256,192,69322,1,0,0:0:0:0:
256,192,69382,1,0,0:0:0:0:
256,192,69442,1,0,0:0:0:0:
256,192,69502,1,8,0:0:0:0:
256,192,69622,1,8,0:0:0:0:
256,192,69682,1,8,0:0:0:0:
256,192,69742,1,8,0:0:0:0:
256,192,69802,1,8,0:0:0:0:
256,192,69862,1,8,0:0:0:0:
256,192,69922,1,8,0:0:0:0:
256,192,69982,1,0,0:0:0:0:
256,192,70042,1,0,0:0:0:0:
256,192,70102,1,0,0:0:0:0:
256,192,70162,1,0,0:0:0:0:
256,192,70222,1,8,0:0:0:0:
256,192,70282,1,8,0:0:0:0:
256,192,70342,1,8,0:0:0:0:
256,192,70402,1,8,0:0:0:0:
256,192,70462,1,0,0:0:0:0:
256,192,70522,1,0,0:0:0:0:
256,192,70582,1,0,0:0:0:0:
256,192,70642,1,0,0:0:0:0:
256,192,70702,1,8,0:0:0:0:
256,192,70762,1,0,0:0:0:0:
256,192,70822,1,8,0:0:0:0:
256,192,70882,1,0,0:0:0:0:
256,192,70942,1,8,0:0:0:0:
256,192,71002,1,8,0:0:0:0:
256,192,71062,1,8,0:0:0:0:
256,192,71122,1,8,0:0:0:0:
256,192,71182,1,0,0:0:0:0:
256,192,71242,1,0,0:0:0:0:
256,192,71302,1,8,0:0:0:0:
256,192,71422,1,8,0:0:0:0:
256,192,71482,1,8,0:0:0:0:
256,192,71542,1,0,0:0:0:0:
256,192,71602,1,0,0:0:0:0:
256,192,71662,1,8,0:0:0:0:
256,192,71722,1,8,0:0:0:0:
256,192,71782,1,8,0:0:0:0:
256,192,71842,1,8,0:0:0:0:
256,192,71902,1,0,0:0:0:0:
256,192,71962,1,0,0:0:0:0:
256,192,72022,1,0,0:0:0:0:
256,192,72142,1,8,0:0:0:0:
256,192,72202,1,8,0:0:0:0:
256,192,72262,1,8,0:0:0:0:
256,192,72322,1,8,0:0:0:0:
256,192,72382,1,8,0:0:0:0:
256,192,72442,1,8,0:0:0:0:
256,192,72502,1,8,0:0:0:0:
256,192,72562,1,8,0:0:0:0:
256,192,72622,1,0,0:0:0:0:
256,192,72682,1,0,0:0:0:0:
256,192,72742,1,8,0:0:0:0:
256,192,72802,1,8,0:0:0:0:
256,192,72862,1,0,0:0:0:0:
256,192,72922,1,0,0:0:0:0:
256,192,72982,1,8,0:0:0:0:
256,192,73042,1,8,0:0:0:0:
256,192,73102,1,8,0:0:0:0:
256,192,73162,1,8,0:0:0:0:
256,192,73222,1,8,0:0:0:0:
256,192,73282,1,8,0:0:0:0:
256,192,73342,1,0,0:0:0:0:
256,192,73402,1,0,0:0:0:0:
256,192,73462,1,0,0:0:0:0:
256,192,73582,1,8,0:0:0:0:
256,192,73642,1,8,0:0:0:0:
256,192,73702,1,8,0:0:0:0:
256,192,73762,1,8,0:0:0:0:
256,192,73822,1,8,0:0:0:0:
256,192,73882,1,8,0:0:0:0:
256,192,73942,1,8,0:0:0:0:
256,192,74002,1,8,0:0:0:0:
256,192,74062,1,0,0:0:0:0:
256,192,74122,1,0,0:0:0:0:
256,192,74182,1,8,0:0:0:0:
256,192,74242,1,0,0:0:0:0:
256,192,74302,1,8,0:0:0:0:
256,192,74362,1,8,0:0:0:0:
256,192,74422,1,8,0:0:0:0:
256,192,74482,1,8,0:0:0:0:
256,192,74542,1,0,0:0:0:0:
256,192,74602,1,0,0:0:0:0:
256,192,74662,1,8,0:0:0:0:
256,192,74722,1,0,0:0:0:0:
256,192,74782,1,8,0:0:0:0:
256,192,74842,1,8,0:0:0:0:
256,192,74902,1,0,0:0:0:0:
256,192,75022,1,8,0:0:0:0:
256,192,75082,1,8,0:0:0:0:
256,192,75142,1,8,0:0:0:0:
256,192,75202,1,8,0:0:0:0:
256,192,75262,1,0,0:0:0:0:
256,192,75322,1,0,0:0:0:0:
256,192,75382,1,8,0:0:0:0:
256,192,75442,1,0,0:0:0:0:
256,192,75502,1,8,0:0:0:0:
256,192,75562,1,0,0:0:0:0:
256,192,75622,1,8,0:0:0:0:
256,192,75682,1,0,0:0:0:0:
256,192,75742,1,8,0:0:0:0:
256,192,75802,1,8,0:0:0:0:
256,192,75862,1,0,0:0:0:0:
256,192,75922,1,0,0:0:0:0:
256,192,75982,1,8,0:0:0:0:
256,192,76042,1,0,0:0:0:0:
256,192,76102,1,8,0:0:0:0:
256,192,76162,1,0,0:0:0:0:
256,192,76222,1,8,0:0:0:0:
256,192,76282,1,8,0:0:0:0:
256,192,76342,1,0,0:0:0:0:
256,192,76462,1,8,0:0:0:0:
256,192,76522,1,8,0:0:0:0:
256,192,76582,1,8,0:0:0:0:
256,192,76642,1,8,0:0:0:0:
256,192,76702,1,0,0:0:0:0:
256,192,76762,1,0,0:0:0:0:
256,192,76822,1,8,0:0:0:0:
256,192,76882,1,0,0:0:0:0:
256,192,76942,1,8,0:0:0:0:
256,192,77002,1,0,0:0:0:0:
256,192,77062,1,8,0:0:0:0:
256,192,77122,1,0,0:0:0:0:
256,192,77182,1,8,0:0:0:0:
256,192,77242,1,8,0:0:0:0:
256,192,77302,1,8,0:0:0:0:
256,192,77362,1,8,0:0:0:0:
256,192,77422,1,0,0:0:0:0:
256,192,77542,1,8,0:0:0:0:
256,192,77602,1,8,0:0:0:0:
256,192,77662,1,8,0:0:0:0:
256,192,77722,1,8,0:0:0:0:
256,192,77782,1,0,0:0:0:0:
256,192,77842,1,0,0:0:0:0:
256,192,77902,1,8,0:0:0:0:
256,192,77962,1,8,0:0:0:0:
256,192,78022,1,0,0:0:0:0:
256,192,78082,1,0,0:0:0:0:
256,192,78142,1,0,0:0:0:0:
256,192,78262,1,8,0:0:0:0:
256,192,78322,1,8,0:0:0:0:
256,192,78382,1,8,0:0:0:0:
256,192,78442,1,8,0:0:0:0:
256,192,78502,1,8,0:0:0:0:
256,192,78562,1,8,0:0:0:0:
256,192,78622,1,0,0:0:0:0:
256,192,78682,1,0,0:0:0:0:
256,192,78742,1,8,0:0:0:0:
256,192,78802,1,8,0:0:0:0:
256,192,78862,1,8,0:0:0:0:
256,192,78922,1,8,0:0:0:0:
256,192,78982,1,8,0:0:0:0:
256,192,79042,1,8,0:0:0:0:
256,192,79102,1,0,0:0:0:0:
256,192,79162,1,0,0:0:0:0:
256,192,79222,1,8,0:0:0:0:
256,192,79342,1,12,0:0:0:0:
256,192,79582,1,0,0:0:0:0:
256,192,79642,1,0,0:0:0:0:
256,192,79702,1,8,0:0:0:0:
256,192,79762,1,8,0:0:0:0:
256,192,79822,1,8,0:0:0:0:
256,192,79882,1,8,0:0:0:0:
256,192,79942,1,0,0:0:0:0:
256,192,80002,1,0,0:0:0:0:
256,192,80062,1,8,0:0:0:0:
256,192,80122,1,8,0:0:0:0:
256,192,80182,1,8,0:0:0:0:
256,192,80242,1,8,0:0:0:0:
256,192,80302,1,0,0:0:0:0:
256,192,80362,1,0,0:0:0:0:
256,192,80422,1,0,0:0:0:0:
256,192,80482,1,0,0:0:0:0:
256,192,80542,1,8,0:0:0:0:
256,192,80602,1,8,0:0:0:0:
256,192,80662,1,8,0:0:0:0:
256,192,80722,1,8,0:0:0:0:
256,192,80782,1,4,0:0:0:0:
256,192,81262,1,12,0:0:0:0:
256,192,81502,1,4,0:0:0:0:
256,192,81982,1,12,0:0:0:0:
256,192,82222,1,4,0:0:0:0:
256,192,82342,1,0,0:0:0:0:
256,192,82402,1,0,0:0:0:0:
256,192,82462,1,8,0:0:0:0:
256,192,82522,1,8,0:0:0:0:
256,192,82582,1,8,0:0:0:0:
256,192,82642,1,8,0:0:0:0:
256,192,82702,1,8,0:0:0:0:
256,192,82762,1,8,0:0:0:0:
256,192,82822,1,0,0:0:0:0:
256,192,82882,1,0,0:0:0:0:
256,192,82942,1,8,0:0:0:0:
256,192,83002,1,8,0:0:0:0:
256,192,83062,1,0,0:0:0:0:
256,192,83122,1,0,0:0:0:0:
256,192,83182,1,8,0:0:0:0:
256,192,83242,1,8,0:0:0:0:
256,192,83302,1,0,0:0:0:0:
256,192,83362,1,0,0:0:0:0:
256,192,83422,1,8,0:0:0:0:
256,192,83662,1,12,0:0:0:0:
256,192,83782,1,8,0:0:0:0:
256,192,83842,1,8,0:0:0:0:
256,192,83902,1,0,0:0:0:0:
256,192,83962,1,0,0:0:0:0:
256,192,84022,1,8,0:0:0:0:
256,192,84082,1,0,0:0:0:0:
256,192,84142,1,8,0:0:0:0:
256,192,84202,1,8,0:0:0:0:
256,192,84262,1,0,0:0:0:0:
256,192,84322,1,0,0:0:0:0:
256,192,84382,1,8,0:0:0:0:
256,192,84442,1,8,0:0:0:0:
256,192,84502,1,0,0:0:0:0:
256,192,84562,1,0,0:0:0:0:
256,192,84622,1,8,0:0:0:0:
256,192,84682,1,0,0:0:0:0:
256,192,84742,1,8,0:0:0:0:
256,192,84802,1,0,0:0:0:0:
256,192,84862,1,8,0:0:0:0:
256,192,84922,1,0,0:0:0:0:
256,192,84982,1,8,0:0:0:0:
256,192,85042,1,8,0:0:0:0:
256,192,85102,1,0,0:0:0:0:
256,192,85222,1,0,0:0:0:0:
256,192,85342,1,8,0:0:0:0:
256,192,85402,1,8,0:0:0:0:
256,192,85462,1,0,0:0:0:0:
256,192,85522,1,0,0:0:0:0:
256,192,85582,1,8,0:0:0:0:
256,192,85642,1,8,0:0:0:0:
256,192,85702,1,0,0:0:0:0:
256,192,85762,1,0,0:0:0:0:
256,192,85822,1,0,0:0:0:0:
256,192,85942,1,0,0:0:0:0:
256,192,86062,1,8,0:0:0:0:
256,192,86122,1,8,0:0:0:0:
256,192,86182,1,8,0:0:0:0:
256,192,86242,1,8,0:0:0:0:
256,192,86302,1,0,0:0:0:0:
256,192,86362,1,0,0:0:0:0:
256,192,86422,1,0,0:0:0:0:
256,192,86482,1,0,0:0:0:0:
256,192,86542,1,12,0:0:0:0:
256,192,86662,1,8,0:0:0:0:
256,192,86722,1,8,0:0:0:0:
256,192,86782,1,8,0:0:0:0:
256,192,86842,1,0,0:0:0:0:
256,192,86902,1,0,0:0:0:0:
256,192,86962,1,0,0:0:0:0:
256,192,87022,1,8,0:0:0:0:
256,192,87082,1,8,0:0:0:0:
256,192,87142,1,0,0:0:0:0:
256,192,87202,1,0,0:0:0:0:
256,192,87262,1,8,0:0:0:0:
256,192,87322,1,8,0:0:0:0:
256,192,87382,1,0,0:0:0:0:
256,192,87442,1,0,0:0:0:0:
256,192,87502,1,8,0:0:0:0:
256,192,87562,1,0,0:0:0:0:
256,192,87622,1,0,0:0:0:0:
256,192,87682,1,0,0:0:0:0:
256,192,87742,1,8,0:0:0:0:
256,192,87802,1,0,0:0:0:0:
256,192,87862,1,8,0:0:0:0:
256,192,87922,1,0,0:0:0:0:
256,192,87982,1,8,0:0:0:0:
256,192,88042,1,8,0:0:0:0:
256,192,88102,1,8,0:0:0:0:
256,192,88162,1,0,0:0:0:0:
256,192,88222,1,0,0:0:0:0:
256,192,88282,1,0,0:0:0:0:
256,192,88342,1,8,0:0:0:0:
256,192,88402,1,0,0:0:0:0:
256,192,88462,1,8,0:0:0:0:
256,192,88522,1,0,0:0:0:0:
256,192,88582,1,8,0:0:0:0:
256,192,88702,1,4,0:0:0:0:
256,192,88822,1,0,0:0:0:0:
256,192,88942,1,4,0:0:0:0:
256,192,89062,1,0,0:0:0:0:
256,192,89182,1,4,0:0:0:0:
256,192,89302,1,0,0:0:0:0:
256,192,89422,1,12,0:0:0:0:
256,192,89542,1,0,0:0:0:0:
256,192,89602,1,0,0:0:0:0:
256,192,89662,1,8,0:0:0:0:
256,192,89722,1,0,0:0:0:0:
256,192,89782,1,0,0:0:0:0:
256,192,89842,1,0,0:0:0:0:
256,192,89902,1,8,0:0:0:0:
256,192,89962,1,0,0:0:0:0:
256,192,90022,1,8,0:0:0:0:
256,192,90082,1,0,0:0:0:0:
256,192,90142,1,8,0:0:0:0:
256,192,90202,1,8,0:0:0:0:
256,192,90262,1,0,0:0:0:0:
256,192,90322,1,0,0:0:0:0:
256,192,90382,1,8,0:0:0:0:
256,192,90442,1,0,0:0:0:0:
256,192,90502,1,8,0:0:0:0:
256,192,90562,1,0,0:0:0:0:
256,192,90622,1,8,0:0:0:0:
256,192,90682,1,0,0:0:0:0:
256,192,90742,1,0,0:0:0:0:
256,192,90802,1,0,0:0:0:0:
256,192,90862,1,8,0:0:0:0:
256,192,90922,1,8,0:0:0:0:
256,192,90982,1,0,0:0:0:0:
256,192,91042,1,0,0:0:0:0:
256,192,91102,1,8,0:0:0:0:
256,192,91162,1,0,0:0:0:0:
256,192,91222,1,8,0:0:0:0:
256,192,91282,1,8,0:0:0:0:
256,192,91342,1,0,0:0:0:0:
256,192,91402,1,0,0:0:0:0:
256,192,91462,1,8,0:0:0:0:
256,192,91522,1,0,0:0:0:0:
256,192,91582,1,8,0:0:0:0:
256,192,91642,1,8,0:0:0:0:
256,192,91702,1,8,0:0:0:0:
256,192,91762,1,0,0:0:0:0:
256,192,91822,1,8,0:0:0:0:
256,192,91882,1,8,0:0:0:0:
256,192,91942,1,8,0:0:0:0:
256,192,92002,1,8,0:0:0:0:
256,192,92062,1,0,0:0:0:0:
256,192,92122,1,0,0:0:0:0:
256,192,92182,1,0,0:0:0:0:
256,192,92242,1,0,0:0:0:0:
256,192,92302,1,12,0:0:0:0:
256,192,92422,1,0,0:0:0:0:
256,192,92482,1,0,0:0:0:0:
256,192,92542,1,8,0:0:0:0:
256,192,92602,1,0,0:0:0:0:
256,192,92662,1,8,0:0:0:0:
256,192,92722,1,0,0:0:0:0:
256,192,92782,1,8,0:0:0:0:
256,192,92842,1,8,0:0:0:0:
256,192,92902,1,0,0:0:0:0:
256,192,92962,1,0,0:0:0:0:
256,192,93022,1,8,0:0:0:0:
256,192,93082,1,8,0:0:0:0:
256,192,93142,1,0,0:0:0:0:
256,192,93202,1,0,0:0:0:0:
256,192,93262,1,8,0:0:0:0:
256,192,93322,1,0,0:0:0:0:
256,192,93382,1,8,0:0:0:0:
256,192,93442,1,0,0:0:0:0:
256,192,93502,1,8,0:0:0:0:
256,192,93562,1,8,0:0:0:0:
256,192,93622,1,0,0:0:0:0:
256,192,93682,1,0,0:0:0:0:
256,192,93742,1,8,0:0:0:0:
256,192,93802,1,8,0:0:0:0:
256,192,93862,1,8,0:0:0:0:
256,192,93922,1,8,0:0:0:0:
256,192,93982,1,0,0:0:0:0:
256,192,94042,1,0,0:0:0:0:
256,192,94102,1,8,0:0:0:0:
256,192,94162,1,0,0:0:0:0:
256,192,94222,1,8,0:0:0:0:
256,192,94282,1,8,0:0:0:0:
256,192,94342,1,0,0:0:0:0:
256,192,94462,1,12,0:0:0:0:
256,192,94582,1,0,0:0:0:0:
256,192,94702,1,12,0:0:0:0:
256,192,94822,1,0,0:0:0:0:
256,192,94942,1,12,0:0:0:0:
256,192,95062,1,0,0:0:0:0:
256,192,95182,1,12,0:0:0:0:
256,192,95302,1,8,0:0:0:0:
256,192,95362,1,8,0:0:0:0:
256,192,95422,1,8,0:0:0:0:
256,192,95482,1,0,0:0:0:0:
256,192,95542,1,8,0:0:0:0:
256,192,95602,1,0,0:0:0:0:
256,192,95662,1,8,0:0:0:0:
256,192,95722,1,8,0:0:0:0:
256,192,95782,1,0,0:0:0:0:
256,192,95842,1,0,0:0:0:0:
256,192,95902,1,8,0:0:0:0:
256,192,95962,1,8,0:0:0:0:
256,192,96022,1,8,0:0:0:0:
256,192,96082,1,0,0:0:0:0:
256,192,96142,1,8,0:0:0:0:
256,192,96202,1,0,0:0:0:0:
256,192,96262,1,8,0:0:0:0:
256,192,96322,1,0,0:0:0:0:
256,192,96382,1,8,0:0:0:0:
256,192,96442,1,0,0:0:0:0:
256,192,96502,1,8,0:0:0:0:
256,192,96562,1,8,0:0:0:0:
256,192,96622,1,0,0:0:0:0:
256,192,96682,1,0,0:0:0:0:
256,192,96742,1,8,0:0:0:0:
256,192,96802,1,0,0:0:0:0:
256,192,96862,1,8,0:0:0:0:
256,192,96922,1,0,0:0:0:0:
256,192,96982,1,0,0:0:0:0:
256,192,97042,1,0,0:0:0:0:
256,192,97102,1,8,0:0:0:0:
256,192,97162,1,8,0:0:0:0:
256,192,97222,1,8,0:0:0:0:
256,192,97282,1,8,0:0:0:0:
256,192,97342,1,0,0:0:0:0:
256,192,97402,1,0,0:0:0:0:
256,192,97462,1,8,0:0:0:0:
256,192,97522,1,0,0:0:0:0:
256,192,97582,1,8,0:0:0:0:
256,192,97642,1,0,0:0:0:0:
256,192,97702,1,0,0:0:0:0:
256,192,97762,1,0,0:0:0:0:
256,192,97822,1,8,0:0:0:0:
256,192,97882,1,8,0:0:0:0:
256,192,97942,1,8,0:0:0:0:
256,192,98002,1,8,0:0:0:0:
256,192,98062,1,4,0:0:0:0:
256,192,98182,1,8,0:0:0:0:
256,192,98242,1,8,0:0:0:0:
256,192,98302,1,8,0:0:0:0:
256,192,98362,1,8,0:0:0:0:
256,192,98422,1,0,0:0:0:0:
256,192,98482,1,0,0:0:0:0:
256,192,98542,1,8,0:0:0:0:
256,192,98602,1,8,0:0:0:0:
256,192,98662,1,0,0:0:0:0:
256,192,98722,1,0,0:0:0:0:
256,192,98782,1,8,0:0:0:0:
256,192,98842,1,8,0:0:0:0:
256,192,98902,1,8,0:0:0:0:
256,192,98962,1,0,0:0:0:0:
256,192,99022,1,8,0:0:0:0:
256,192,99082,1,8,0:0:0:0:
256,192,99142,1,0,0:0:0:0:
256,192,99202,1,0,0:0:0:0:
256,192,99262,1,8,0:0:0:0:
256,192,99322,1,0,0:0:0:0:
256,192,99382,1,8,0:0:0:0:
256,192,99442,1,0,0:0:0:0:
256,192,99502,1,8,0:0:0:0:
256,192,99562,1,8,0:0:0:0:
256,192,99622,1,8,0:0:0:0:
256,192,99682,1,8,0:0:0:0:
256,192,99742,1,0,0:0:0:0:
256,192,99802,1,0,0:0:0:0:
256,192,99862,1,8,0:0:0:0:
256,192,99922,1,0,0:0:0:0:
256,192,99982,1,8,0:0:0:0:
256,192,100042,1,8,0:0:0:0:
256,192,100102,1,0,0:0:0:0:
256,192,100222,1,12,0:0:0:0:
256,192,100342,1,0,0:0:0:0:
256,192,100462,1,12,0:0:0:0:
256,192,100582,1,0,0:0:0:0:
256,192,100702,1,12,0:0:0:0:
256,192,100822,1,0,0:0:0:0:
256,192,100942,1,12,0:0:0:0:
256,192,101062,1,0,0:0:0:0:
256,192,101122,1,0,0:0:0:0:
256,192,101182,1,8,0:0:0:0:
256,192,101242,1,8,0:0:0:0:
256,192,101302,1,0,0:0:0:0:
256,192,101362,1,0,0:0:0:0:
256,192,101422,1,8,0:0:0:0:
256,192,101482,1,0,0:0:0:0:
256,192,101542,1,8,0:0:0:0:
256,192,101602,1,0,0:0:0:0:
256,192,101662,1,8,0:0:0:0:
256,192,101722,1,8,0:0:0:0:
256,192,101782,1,0,0:0:0:0:
256,192,101842,1,0,0:0:0:0:
256,192,101902,1,8,0:0:0:0:
256,192,101962,1,0,0:0:0:0:
256,192,102022,1,8,0:0:0:0:
256,192,102082,1,0,0:0:0:0:
256,192,102142,1,8,0:0:0:0:
256,192,102202,1,8,0:0:0:0:
256,192,102262,1,0,0:0:0:0:
256,192,102322,1,0,0:0:0:0:
256,192,102382,1,8,0:0:0:0:
256,192,102442,1,8,0:0:0:0:
256,192,102502,1,0,0:0:0:0:
256,192,102562,1,0,0:0:0:0:
256,192,102622,1,8,0:0:0:0:
256,192,102682,1,0,0:0:0:0:
256,192,102742,1,8,0:0:0:0:
256,192,102802,1,8,0:0:0:0:
256,192,102862,1,0,0:0:0:0:
256,192,102922,1,0,0:0:0:0:
256,192,102982,1,8,0:0:0:0:
256,192,103042,1,0,0:0:0:0:
256,192,103102,1,8,0:0:0:0:
256,192,103162,1,8,0:0:0:0:
256,192,103222,1,0,0:0:0:0:
256,192,103282,1,0,0:0:0:0:
256,192,103342,1,8,0:0:0:0:
256,192,103402,1,8,0:0:0:0:
256,192,103462,1,0,0:0:0:0:
256,192,103522,1,0,0:0:0:0:
256,192,103582,1,8,0:0:0:0:
256,192,103642,1,8,0:0:0:0:
256,192,103702,1,8,0:0:0:0:
256,192,103822,1,12,0:0:0:0:
256,192,104062,1,12,0:0:0:0:
256,192,105982,1,4,0:0:0:0:
256,192,106702,1,12,0:0:0:0:
256,192,106822,1,0,0:0:0:0:
256,192,106942,1,8,0:0:0:0:
256,192,107002,1,0,0:0:0:0:
256,192,107062,1,0,0:0:0:0:
256,192,107182,1,0,0:0:0:0:
256,192,107302,1,0,0:0:0:0:
256,192,107422,1,8,0:0:0:0:
256,192,107482,1,8,0:0:0:0:
256,192,107542,1,0,0:0:0:0:
256,192,107662,1,8,0:0:0:0:
256,192,107782,1,0,0:0:0:0:
256,192,107902,1,0,0:0:0:0:
256,192,108022,1,0,0:0:0:0:
256,192,108142,1,8,0:0:0:0:
256,192,108262,1,8,0:0:0:0:
256,192,108382,1,0,0:0:0:0:
256,192,108502,1,0,0:0:0:0:
256,192,108622,1,8,0:0:0:0:
256,192,108742,1,0,0:0:0:0:
256,192,108862,1,8,0:0:0:0:
256,192,108982,1,8,0:0:0:0:
256,192,109102,1,0,0:0:0:0:
256,192,109162,1,0,0:0:0:0:
256,192,109222,1,0,0:0:0:0:
256,192,109282,1,0,0:0:0:0:
256,192,109342,1,0,0:0:0:0:
256,192,109402,1,0,0:0:0:0:
256,192,109462,1,0,0:0:0:0:
256,192,109522,1,0,0:0:0:0:
256,192,109582,1,8,0:0:0:0:
256,192,109702,1,0,0:0:0:0:
256,192,109822,1,8,0:0:0:0:
256,192,109942,1,8,0:0:0:0:
256,192,110062,1,0,0:0:0:0:
256,192,110182,1,0,0:0:0:0:
256,192,110302,1,8,0:0:0:0:
256,192,110362,1,8,0:0:0:0:
256,192,110422,1,0,0:0:0:0:
256,192,110542,1,0,0:0:0:0:
256,192,110662,1,0,0:0:0:0:
256,192,110782,1,8,0:0:0:0:
256,192,110902,1,0,0:0:0:0:
256,192,111022,1,8,0:0:0:0:
256,192,111142,1,8,0:0:0:0:
256,192,111262,1,0,0:0:0:0:
256,192,111382,1,8,0:0:0:0:
256,192,111502,1,0,0:0:0:0:
256,192,111622,1,0,0:0:0:0:
256,192,111742,1,8,0:0:0:0:
256,192,111862,1,8,0:0:0:0:
256,192,111982,1,0,0:0:0:0:
256,192,112042,1,0,0:0:0:0:
256,192,112102,1,0,0:0:0:0:
256,192,112162,1,0,0:0:0:0:
256,192,112222,1,8,0:0:0:0:
256,192,112282,1,0,0:0:0:0:
256,192,112342,1,0,0:0:0:0:
256,192,112402,1,0,0:0:0:0:
256,192,112462,1,8,0:0:0:0:
256,192,112582,1,0,0:0:0:0:
256,192,112702,1,8,0:0:0:0:
256,192,112822,1,0,0:0:0:0:
256,192,112942,1,8,0:0:0:0:
256,192,113002,1,8,0:0:0:0:
256,192,113062,1,0,0:0:0:0:
256,192,113182,1,8,0:0:0:0:
256,192,113242,1,8,0:0:0:0:
256,192,113302,1,0,0:0:0:0:
256,192,113362,1,0,0:0:0:0:
256,192,113422,1,8,0:0:0:0:
256,192,113542,1,0,0:0:0:0:
256,192,113662,1,8,0:0:0:0:
256,192,113782,1,0,0:0:0:0:
256,192,113902,1,8,0:0:0:0:
256,192,113962,1,8,0:0:0:0:
256,192,114022,1,0,0:0:0:0:
256,192,114142,1,8,0:0:0:0:
256,192,114262,1,8,0:0:0:0:
256,192,114382,1,0,0:0:0:0:
256,192,114502,1,0,0:0:0:0:
256,192,114622,1,8,0:0:0:0:
256,192,114682,1,0,0:0:0:0:
256,192,114742,1,0,0:0:0:0:
256,192,114802,1,0,0:0:0:0:
256,192,114862,1,8,0:0:0:0:
256,192,114922,1,0,0:0:0:0:
256,192,114982,1,0,0:0:0:0:
256,192,115042,1,0,0:0:0:0:
256,192,115102,1,8,0:0:0:0:
256,192,115162,1,0,0:0:0:0:
256,192,115222,1,0,0:0:0:0:
256,192,115282,1,0,0:0:0:0:
256,192,115342,1,8,0:0:0:0:
256,192,115462,1,0,0:0:0:0:
256,192,115582,1,8,0:0:0:0:
256,192,115702,1,0,0:0:0:0:
256,192,115762,1,0,0:0:0:0:
256,192,115822,1,8,0:0:0:0:
256,192,115942,1,0,0:0:0:0:
256,192,116062,1,8,0:0:0:0:
256,192,116182,1,0,0:0:0:0:
256,192,116242,1,0,0:0:0:0:
256,192,116302,1,0,0:0:0:0:
256,192,116422,1,8,0:0:0:0:
256,192,116542,1,0,0:0:0:0:
256,192,116602,1,0,0:0:0:0:
256,192,116662,1,0,0:0:0:0:
256,192,116782,1,8,0:0:0:0:
256,192,116842,1,8,0:0:0:0:
256,192,116902,1,0,0:0:0:0:
256,192,117022,1,0,0:0:0:0:
256,192,117082,1,8,0:0:0:0:
256,192,117142,1,0,0:0:0:0:
256,192,117202,1,0,0:0:0:0:
256,192,117262,1,8,0:0:0:0:
256,192,117382,1,8,0:0:0:0:
256,192,117442,1,8,0:0:0:0:
256,192,117502,1,8,0:0:0:0:
256,192,117562,1,8,0:0:0:0:
256,192,117622,1,0,0:0:0:0:
256,192,117682,1,0,0:0:0:0:
256,192,117742,1,8,0:0:0:0:
256,192,117802,1,0,0:0:0:0:
256,192,117862,1,8,0:0:0:0:
256,192,117922,1,0,0:0:0:0:
256,192,117982,1,8,0:0:0:0:
256,192,118042,1,8,0:0:0:0:
256,192,118102,1,0,0:0:0:0:
256,192,118222,1,12,0:0:0:0:
256,192,118342,1,8,0:0:0:0:
256,192,118462,1,0,0:0:0:0:
256,192,118582,1,8,0:0:0:0:
256,192,118702,1,8,0:0:0:0:
256,192,118762,1,8,0:0:0:0:
256,192,118822,1,0,0:0:0:0:
256,192,118942,1,8,0:0:0:0:
256,192,119062,1,0,0:0:0:0:
256,192,119182,1,8,0:0:0:0:
256,192,119302,1,8,0:0:0:0:
256,192,119422,1,0,0:0:0:0:
256,192,119542,1,0,0:0:0:0:
256,192,119662,1,8,0:0:0:0:
256,192,119722,1,8,0:0:0:0:
256,192,119782,1,0,0:0:0:0:
256,192,119902,1,0,0:0:0:0:
256,192,119962,1,0,0:0:0:0:
256,192,120022,1,8,0:0:0:0:
256,192,120142,1,8,0:0:0:0:
256,192,120202,1,8,0:0:0:0:
256,192,120262,1,0,0:0:0:0:
256,192,120382,1,8,0:0:0:0:
256,192,120502,1,0,0:0:0:0:
256,192,120562,1,0,0:0:0:0:
256,192,120622,1,0,0:0:0:0:
256,192,120682,1,0,0:0:0:0:
256,192,120742,1,8,0:0:0:0:
256,192,120802,1,0,0:0:0:0:
256,192,120862,1,0,0:0:0:0:
256,192,120922,1,0,0:0:0:0:
256,192,120982,1,0,0:0:0:0:
256,192,121042,1,0,0:0:0:0:
256,192,121102,1,8,0:0:0:0:
256,192,121222,1,0,0:0:0:0:
256,192,121342,1,8,0:0:0:0:
256,192,121402,1,0,0:0:0:0:
256,192,121462,1,8,0:0:0:0:
256,192,121582,1,0,0:0:0:0:
256,192,121702,1,8,0:0:0:0:
256,192,121822,1,8,0:0:0:0:
256,192,121882,1,8,0:0:0:0:
256,192,121942,1,0,0:0:0:0:
256,192,122062,1,8,0:0:0:0:
256,192,122182,1,0,0:0:0:0:
256,192,122302,1,8,0:0:0:0:
256,192,122422,1,8,0:0:0:0:
256,192,122542,1,8,0:0:0:0:
256,192,122602,1,8,0:0:0:0:
256,192,122662,1,0,0:0:0:0:
256,192,122782,1,8,0:0:0:0:
256,192,122902,1,8,0:0:0:0:
256,192,123022,1,0,0:0:0:0:
256,192,123142,1,0,0:0:0:0:
256,192,123262,1,8,0:0:0:0:
256,192,123382,1,0,0:0:0:0:
256,192,123502,1,8,0:0:0:0:
256,192,123562,1,8,0:0:0:0:
256,192,123622,1,8,0:0:0:0:
256,192,123682,1,8,0:0:0:0:
256,192,123742,1,0,0:0:0:0:
256,192,123802,1,0,0:0:0:0:
256,192,123862,1,0,0:0:0:0:
256,192,123922,1,0,0:0:0:0:
256,192,123982,1,8,0:0:0:0:
256,192,124102,1,0,0:0:0:0:
256,192,124222,1,8,0:0:0:0:
256,192,124342,1,8,0:0:0:0:
256,192,124462,1,0,0:0:0:0:
256,192,124522,1,0,0:0:0:0:
256,192,124582,1,8,0:0:0:0:
256,192,124702,1,8,0:0:0:0:
256,192,124822,1,0,0:0:0:0:
256,192,124942,1,8,0:0:0:0:
256,192,125062,1,0,0:0:0:0:
256,192,125182,1,8,0:0:0:0:
256,192,125242,1,8,0:0:0:0:
256,192,125302,1,0,0:0:0:0:
256,192,125362,1,0,0:0:0:0:
256,192,125422,1,8,0:0:0:0:
256,192,125542,1,0,0:0:0:0:
256,192,125662,1,8,0:0:0:0:
256,192,125782,1,0,0:0:0:0:
256,192,125902,1,8,0:0:0:0:
256,192,126022,1,0,0:0:0:0:
256,192,126082,1,0,0:0:0:0:
256,192,126142,1,8,0:0:0:0:
256,192,126202,1,8,0:0:0:0:
256,192,126262,1,0,0:0:0:0:
256,192,126322,1,0,0:0:0:0:
256,192,126382,1,8,0:0:0:0:
256,192,126442,1,0,0:0:0:0:
256,192,126502,1,8,0:0:0:0:
256,192,126562,1,0,0:0:0:0:
256,192,126622,1,8,0:0:0:0:
256,192,126682,1,8,0:0:0:0:
256,192,126742,1,0,0:0:0:0:
256,192,126802,1,0,0:0:0:0:
256,192,126862,1,8,0:0:0:0:
256,192,126982,1,0,0:0:0:0:
256,192,127102,1,8,0:0:0:0:
256,192,127222,1,8,0:0:0:0:
256,192,127342,1,8,0:0:0:0:
256,192,127402,1,8,0:0:0:0:
256,192,127462,1,0,0:0:0:0:
256,192,127582,1,8,0:0:0:0:
256,192,127702,1,0,0:0:0:0:
256,192,127762,1,0,0:0:0:0:
256,192,127822,1,0,0:0:0:0:
256,192,127882,1,0,0:0:0:0:
256,192,127942,1,8,0:0:0:0:
256,192,128002,1,8,0:0:0:0:
256,192,128062,1,8,0:0:0:0:
256,192,128122,1,8,0:0:0:0:
256,192,128182,1,0,0:0:0:0:
256,192,128242,1,0,0:0:0:0:
256,192,128302,1,12,0:0:0:0:
256,192,128422,1,8,0:0:0:0:
256,192,128542,1,8,0:0:0:0:
256,192,128662,1,0,0:0:0:0:
256,192,128782,1,8,0:0:0:0:
256,192,128902,1,0,0:0:0:0:
256,192,129022,1,8,0:0:0:0:
256,192,129142,1,8,0:0:0:0:
256,192,129262,1,0,0:0:0:0:
256,192,129382,1,0,0:0:0:0:
256,192,129502,1,8,0:0:0:0:
256,192,129622,1,0,0:0:0:0:
256,192,129742,1,8,0:0:0:0:
256,192,129862,1,8,0:0:0:0:
256,192,129982,1,0,0:0:0:0:
256,192,130102,1,0,0:0:0:0:
256,192,130222,1,8,0:0:0:0:
256,192,130342,1,0,0:0:0:0:
256,192,130462,1,8,0:0:0:0:
256,192,130582,1,0,0:0:0:0:
256,192,130642,1,0,0:0:0:0:
256,192,130702,1,0,0:0:0:0:
256,192,130822,1,8,0:0:0:0:
256,192,130942,1,0,0:0:0:0:
256,192,131002,1,0,0:0:0:0:
256,192,131062,1,0,0:0:0:0:
256,192,131182,1,8,0:0:0:0:
256,192,131302,1,8,0:0:0:0:
256,192,131422,1,8,0:0:0:0:
256,192,131542,1,0,0:0:0:0:
256,192,131662,1,8,0:0:0:0:
256,192,131782,1,0,0:0:0:0:
256,192,131902,1,8,0:0:0:0:
256,192,132022,1,0,0:0:0:0:
256,192,132142,1,8,0:0:0:0:
256,192,132262,1,8,0:0:0:0:
256,192,132382,1,8,0:0:0:0:
256,192,132502,1,0,0:0:0:0:
256,192,132622,1,8,0:0:0:0:
256,192,132682,1,0,0:0:0:0:
256,192,132742,1,0,0:0:0:0:
256,192,132802,1,0,0:0:0:0:
256,192,132862,1,8,0:0:0:0:
256,192,132982,1,8,0:0:0:0:
256,192,133102,1,8,0:0:0:0:
256,192,133222,1,0,0:0:0:0:
256,192,133342,1,8,0:0:0:0:
256,192,133402,1,8,0:0:0:0:
256,192,133462,1,0,0:0:0:0:
256,192,133522,1,0,0:0:0:0:
256,192,133582,1,0,0:0:0:0:
256,192,133702,1,8,0:0:0:0:
256,192,133762,1,8,0:0:0:0:
256,192,133822,1,0,0:0:0:0:
256,192,133882,1,0,0:0:0:0:
256,192,133942,1,0,0:0:0:0:
256,192,134002,1,0,0:0:0:0:
256,192,134062,1,8,0:0:0:0:
256,192,134182,1,0,0:0:0:0:
256,192,134242,1,8,0:0:0:0:
256,192,134302,1,8,0:0:0:0:
256,192,134362,1,0,0:0:0:0:
256,192,134422,1,0,0:0:0:0:
256,192,134542,1,8,0:0:0:0:
256,192,134602,1,0,0:0:0:0:
256,192,134662,1,0,0:0:0:0:
256,192,134722,1,0,0:0:0:0:
256,192,134782,1,8,0:0:0:0:
256,192,134842,1,0,0:0:0:0:
256,192,134902,1,0,0:0:0:0:
256,192,134962,1,0,0:0:0:0:
256,192,135022,1,8,0:0:0:0:
256,192,135082,1,8,0:0:0:0:
256,192,135142,1,0,0:0:0:0:
256,192,135202,1,8,0:0:0:0:
256,192,135262,1,8,0:0:0:0:
256,192,135382,1,0,0:0:0:0:
256,192,135442,1,0,0:0:0:0:
256,192,135502,1,8,0:0:0:0:
256,192,135562,1,8,0:0:0:0:
256,192,135622,1,0,0:0:0:0:
256,192,135682,1,8,0:0:0:0:
256,192,135742,1,0,0:0:0:0:
256,192,135802,1,0,0:0:0:0:
256,192,135862,1,0,0:0:0:0:
256,192,135922,1,0,0:0:0:0:
256,192,135982,1,8,0:0:0:0:
256,192,136042,1,0,0:0:0:0:
256,192,136102,1,8,0:0:0:0:
256,192,136222,1,8,0:0:0:0:
256,192,136282,1,8,0:0:0:0:
256,192,136342,1,0,0:0:0:0:
256,192,136402,1,0,0:0:0:0:
256,192,136462,1,0,0:0:0:0:
256,192,136522,1,0,0:0:0:0:
256,192,136582,1,8,0:0:0:0:
256,192,136642,1,8,0:0:0:0:
256,192,136702,1,0,0:0:0:0:
256,192,136762,1,0,0:0:0:0:
256,192,136822,1,0,0:0:0:0:
256,192,136882,1,0,0:0:0:0:
256,192,136942,1,8,0:0:0:0:
256,192,137062,1,0,0:0:0:0:
256,192,137122,1,8,0:0:0:0:
256,192,137182,1,8,0:0:0:0:
256,192,137242,1,8,0:0:0:0:
256,192,137302,1,0,0:0:0:0:
256,192,137422,1,8,0:0:0:0:
256,192,137482,1,0,0:0:0:0:
256,192,137542,1,8,0:0:0:0:
256,192,137602,1,0,0:0:0:0:
256,192,137662,1,8,0:0:0:0:
256,192,137782,1,0,0:0:0:0:
256,192,137842,1,0,0:0:0:0:
256,192,137902,1,8,0:0:0:0:
256,192,137962,1,8,0:0:0:0:
256,192,138022,1,8,0:0:0:0:
256,192,138082,1,8,0:0:0:0:
256,192,138142,1,0,0:0:0:0:
256,192,138202,1,0,0:0:0:0:
256,192,138262,1,0,0:0:0:0:
256,192,138322,1,0,0:0:0:0:
256,192,138382,1,12,0:0:0:0:
256,192,139822,1,4,0:0:0:0:
256,192,140302,1,8,0:0:0:0:
256,192,140782,1,0,0:0:0:0:
256,192,141262,1,8,0:0:0:0:
256,192,141742,1,8,0:0:0:0:
256,192,142222,1,0,0:0:0:0:
256,192,142342,1,0,0:0:0:0:
256,192,142462,1,0,0:0:0:0:
256,192,142582,1,0,0:0:0:0:
256,192,142702,1,8,0:0:0:0:
256,192,142942,1,0,0:0:0:0:
256,192,143182,1,8,0:0:0:0:
256,192,143662,1,8,0:0:0:0:
256,192,143902,1,0,0:0:0:0:
256,192,144142,1,8,0:0:0:0:
256,192,144622,1,8,0:0:0:0:
256,192,145102,1,8,0:0:0:0:
256,192,145342,1,0,0:0:0:0:
256,192,145582,1,12,0:0:0:0:
256,192,146302,1,8,0:0:0:0:
256,192,146542,1,0,0:0:0:0:
256,192,147022,1,8,0:0:0:0:
256,192,147502,1,0,0:0:0:0:
256,192,147982,1,0,0:0:0:0:
256,192,148102,1,0,0:0:0:0:
256,192,148222,1,0,0:0:0:0:
256,192,148342,1,0,0:0:0:0:
256,192,148462,1,8,0:0:0:0:
256,192,148702,1,12,0:0:0:0:
256,192,148942,1,0,0:0:0:0:
256,192,149422,1,8,0:0:0:0:
256,192,149662,1,0,0:0:0:0:
256,192,149902,1,12,0:0:0:0:
256,192,150142,1,8,0:0:0:0:
256,192,150262,1,4,0:0:0:0:
256,192,150622,1,0,0:0:0:0:
256,192,150862,1,8,0:0:0:0:
256,192,150982,1,8,0:0:0:0:
256,192,151102,1,8,0:0:0:0:
256,192,151222,1,0,0:0:0:0:
256,192,151342,1,12,0:0:0:0:
256,192,151582,1,0,0:0:0:0:
256,192,151702,1,0,0:0:0:0:
256,192,151822,1,0,0:0:0:0:
256,192,152062,1,8,0:0:0:0:
256,192,152302,1,0,0:0:0:0:
256,192,152422,1,0,0:0:0:0:
256,192,152542,1,0,0:0:0:0:
256,192,153022,1,0,0:0:0:0:
256,192,153142,1,0,0:0:0:0:
256,192,153262,1,0,0:0:0:0:
256,192,153502,1,8,0:0:0:0:
256,192,153742,1,0,0:0:0:0:
256,192,153862,1,0,0:0:0:0:
256,192,153982,1,0,0:0:0:0:
256,192,154102,1,0,0:0:0:0:
256,192,154222,1,8,0:0:0:0:
256,192,154462,1,0,0:0:0:0:
256,192,154582,1,0,0:0:0:0:
256,192,154702,1,0,0:0:0:0:
256,192,154942,1,8,0:0:0:0:
256,192,155182,1,0,0:0:0:0:
256,192,155302,1,0,0:0:0:0:
256,192,155422,1,0,0:0:0:0:
256,192,155902,1,0,0:0:0:0:
256,192,156022,1,0,0:0:0:0:
256,192,156142,1,0,0:0:0:0:
256,192,156382,1,8,0:0:0:0:
256,192,156622,1,0,0:0:0:0:
256,192,156742,1,0,0:0:0:0:
256,192,156862,1,0,0:0:0:0:
256,192,156982,1,0,0:0:0:0:
256,192,157102,1,8,0:0:0:0:
256,192,157222,1,8,0:0:0:0:
256,192,157342,1,8,0:0:0:0:
256,192,157462,1,0,0:0:0:0:
256,192,157582,1,0,0:0:0:0:
256,192,157702,1,0,0:0:0:0:
256,192,157822,1,8,0:0:0:0:
256,192,157942,1,0,0:0:0:0:
256,192,158062,1,0,0:0:0:0:
256,192,158182,1,0,0:0:0:0:
256,192,158302,1,8,0:0:0:0:
256,192,158422,1,8,0:0:0:0:
256,192,158542,1,8,0:0:0:0:
256,192,158662,1,0,0:0:0:0:
256,192,158782,1,0,0:0:0:0:
256,192,158902,1,0,0:0:0:0:
256,192,159022,1,8,0:0:0:0:
256,192,159142,1,0,0:0:0:0:
256,192,159262,1,8,0:0:0:0:
256,192,159382,1,0,0:0:0:0:
256,192,159502,1,0,0:0:0:0:
256,192,159622,1,0,0:0:0:0:
256,192,159742,1,8,0:0:0:0:
256,192,159862,1,0,0:0:0:0:
256,192,159982,1,8,0:0:0:0:
256,192,160222,1,12,0:0:0:0:
256,192,160462,1,4,0:0:0:0:
256,192,160702,1,12,0:0:0:0:
256,192,160942,1,4,0:0:0:0:
256,192,161182,1,12,0:0:0:0:
256,192,161422,1,12,0:0:0:0:
256,192,161662,1,0,0:0:0:0:
256,192,161902,1,0,0:0:0:0:
256,192,162142,1,8,0:0:0:0:
256,192,162382,1,8,0:0:0:0:
256,192,162622,1,8,0:0:0:0:
256,192,162862,1,8,0:0:0:0:
256,192,162922,1,8,0:0:0:0:
256,192,162982,1,8,0:0:0:0:
256,192,163042,1,8,0:0:0:0:
256,192,163102,1,8,0:0:0:0:
256,192,163162,1,8,0:0:0:0:
256,192,163222,1,8,0:0:0:0:
256,192,163282,1,8,0:0:0:0:
256,192,163342,1,8,0:0:0:0:
256,192,163402,1,8,0:0:0:0:
256,192,163462,1,8,0:0:0:0:
256,192,163522,1,8,0:0:0:0:
256,192,163582,1,8,0:0:0:0:
256,192,163642,1,8,0:0:0:0:
256,192,163702,1,8,0:0:0:0:
256,192,163762,1,8,0:0:0:0:
256,192,163822,1,8,0:0:0:0:
256,192,163882,1,8,0:0:0:0:
256,192,163942,1,8,0:0:0:0:
256,192,164002,1,8,0:0:0:0:
256,192,164062,1,8,0:0:0:0:
256,192,164122,1,8,0:0:0:0:
256,192,164182,1,0,0:0:0:0:
256,192,164242,1,0,0:0:0:0:
256,192,164302,1,8,0:0:0:0:
256,192,164362,1,8,0:0:0:0:
256,192,164422,1,8,0:0:0:0:
256,192,164482,1,8,0:0:0:0:
256,192,164542,1,0,0:0:0:0:
256,192,164602,1,0,0:0:0:0:
256,192,164662,1,0,0:0:0:0:
256,192,164722,1,0,0:0:0:0:
256,192,164782,1,8,0:0:0:0:
256,192,164842,1,8,0:0:0:0:
256,192,164902,1,8,0:0:0:0:
256,192,164962,1,8,0:0:0:0:
256,192,165022,1,0,0:0:0:0:
256,192,165082,1,0,0:0:0:0:
256,192,165142,1,0,0:0:0:0:
256,192,165202,1,0,0:0:0:0:
256,192,165262,1,8,0:0:0:0:
256,192,165322,1,8,0:0:0:0:
256,192,165382,1,8,0:0:0:0:
256,192,165442,1,8,0:0:0:0:
256,192,165502,1,8,0:0:0:0:
256,192,165562,1,8,0:0:0:0:
256,192,165622,1,0,0:0:0:0:
256,192,165682,1,0,0:0:0:0:
256,192,165742,1,8,0:0:0:0:
256,192,165802,1,8,0:0:0:0:
256,192,165862,1,8,0:0:0:0:
256,192,165922,1,8,0:0:0:0:
256,192,165982,1,8,0:0:0:0:
256,192,166042,1,8,0:0:0:0:
256,192,166102,1,8,0:0:0:0:
256,192,166162,1,8,0:0:0:0:
256,192,166222,1,8,0:0:0:0:
256,192,166282,1,8,0:0:0:0:
256,192,166342,1,8,0:0:0:0:
256,192,166402,1,8,0:0:0:0:
256,192,166462,1,0,0:0:0:0:
256,192,166522,1,0,0:0:0:0:
256,192,166582,1,0,0:0:0:0:
256,192,166642,1,0,0:0:0:0:
256,192,166702,1,8,0:0:0:0:
256,192,166762,1,8,0:0:0:0:
256,192,166822,1,0,0:0:0:0:
256,192,166882,1,0,0:0:0:0:
256,192,166942,1,8,0:0:0:0:
256,192,167002,1,8,0:0:0:0:
256,192,167062,1,0,0:0:0:0:
256,192,167122,1,0,0:0:0:0:
256,192,167182,1,8,0:0:0:0:
256,192,167242,1,8,0:0:0:0:
256,192,167302,1,8,0:0:0:0:
256,192,167362,1,8,0:0:0:0:
256,192,167422,1,0,0:0:0:0:
256,192,167482,1,0,0:0:0:0:
256,192,167542,1,0,0:0:0:0:
256,192,167602,1,0,0:0:0:0:
256,192,167662,1,8,0:0:0:0:
256,192,167722,1,8,0:0:0:0:
256,192,167782,1,0,0:0:0:0:
256,192,167842,1,0,0:0:0:0:
256,192,167902,1,8,0:0:0:0:
256,192,167962,1,8,0:0:0:0:
256,192,168022,1,8,0:0:0:0:
256,192,168082,1,8,0:0:0:0:
256,192,168142,1,8,0:0:0:0:
256,192,168202,1,8,0:0:0:0:
256,192,168262,1,0,0:0:0:0:
256,192,168322,1,0,0:0:0:0:
256,192,168382,1,0,0:0:0:0:
256,192,168442,1,0,0:0:0:0:
256,192,168502,1,0,0:0:0:0:
256,192,168562,1,0,0:0:0:0:
256,192,168622,1,8,0:0:0:0:
256,192,168682,1,8,0:0:0:0:
256,192,168742,1,8,0:0:0:0:
256,192,168802,1,8,0:0:0:0:
256,192,168862,1,8,0:0:0:0:
256,192,168922,1,8,0:0:0:0:
256,192,168982,1,8,0:0:0:0:
256,192,169042,1,8,0:0:0:0:
256,192,169102,1,8,0:0:0:0:
256,192,169162,1,8,0:0:0:0:
256,192,169222,1,8,0:0:0:0:
256,192,169282,1,8,0:0:0:0:
256,192,169342,1,0,0:0:0:0:
256,192,169402,1,0,0:0:0:0:
256,192,169462,1,0,0:0:0:0:
256,192,169522,1,0,0:0:0:0:
256,192,169582,1,0,0:0:0:0:
256,192,169642,1,0,0:0:0:0:
256,192,169702,1,0,0:0:0:0:
256,192,169762,1,0,0:0:0:0:
256,192,169822,1,8,0:0:0:0:
256,192,169882,1,8,0:0:0:0:
256,192,169942,1,0,0:0:0:0:
256,192,170002,1,0,0:0:0:0:
256,192,170062,1,8,0:0:0:0:
256,192,170122,1,8,0:0:0:0:
256,192,170182,1,8,0:0:0:0:
256,192,170242,1,8,0:0:0:0:
256,192,170302,1,0,0:0:0:0:
256,192,170362,1,0,0:0:0:0:
256,192,170422,1,0,0:0:0:0:
256,192,170482,1,0,0:0:0:0:
256,192,170542,1,8,0:0:0:0:
256,192,170602,1,8,0:0:0:0:
256,192,170662,1,8,0:0:0:0:
256,192,170722,1,8,0:0:0:0:
256,192,170782,1,0,0:0:0:0:
256,192,170842,1,0,0:0:0:0:
256,192,170902,1,0,0:0:0:0:
256,192,170962,1,0,0:0:0:0:
256,192,171022,1,8,0:0:0:0:
256,192,171082,1,8,0:0:0:0:
256,192,171142,1,8,0:0:0:0:
256,192,171202,1,8,0:0:0:0:
256,192,171262,1,8,0:0:0:0:
256,192,171322,1,8,0:0:0:0:
256,192,171382,1,8,0:0:0:0:
256,192,171442,1,8,0:0:0:0:
256,192,171502,1,0,0:0:0:0:
256,192,171562,1,0,0:0:0:0:
256,192,171622,1,0,0:0:0:0:
256,192,171682,1,0,0:0:0:0:
256,192,171742,1,8,0:0:0:0:
256,192,171802,1,8,0:0:0:0:
256,192,171862,1,0,0:0:0:0:
256,192,171922,1,0,0:0:0:0:
256,192,171982,1,8,0:0:0:0:
256,192,172042,1,8,0:0:0:0:
256,192,172102,1,0,0:0:0:0:
256,192,172162,1,0,0:0:0:0:
256,192,172222,1,8,0:0:0:0:
256,192,172282,1,8,0:0:0:0:
256,192,172342,1,8,0:0:0:0:
256,192,172402,1,8,0:0:0:0:
256,192,172462,1,0,0:0:0:0:
256,192,172522,1,0,0:0:0:0:
256,192,172582,1,0,0:0:0:0:
256,192,172642,1,0,0:0:0:0:
256,192,172702,1,8,0:0:0:0:
256,192,172762,1,8,0:0:0:0:
256,192,172822,1,0,0:0:0:0:
256,192,172882,1,0,0:0:0:0:
256,192,172942,1,8,0:0:0:0:
256,192,173002,1,8,0:0:0:0:
256,192,173062,1,0,0:0:0:0:
256,192,173122,1,0,0:0:0:0:
256,192,173182,1,8,0:0:0:0:
256,192,173242,1,8,0:0:0:0:
256,192,173302,1,0,0:0:0:0:
256,192,173362,1,0,0:0:0:0:
256,192,173422,1,8,0:0:0:0:
256,192,173482,1,8,0:0:0:0:
256,192,173542,1,8,0:0:0:0:
256,192,173602,1,8,0:0:0:0:
256,192,173662,1,0,0:0:0:0:
256,192,173722,1,0,0:0:0:0:
256,192,173782,1,8,0:0:0:0:
256,192,173842,1,8,0:0:0:0:
256,192,173902,1,0,0:0:0:0:
256,192,173962,1,0,0:0:0:0:
256,192,174022,1,0,0:0:0:0:
256,192,174082,1,0,0:0:0:0:
256,192,174142,1,0,0:0:0:0:
256,192,174202,1,0,0:0:0:0:
256,192,174262,1,0,0:0:0:0:
256,192,174322,1,0,0:0:0:0:
256,192,174382,1,8,0:0:0:0:
256,192,174442,1,8,0:0:0:0:
256,192,174502,1,8,0:0:0:0:
256,192,174562,1,8,0:0:0:0:
256,192,174622,1,8,0:0:0:0:
256,192,174682,1,8,0:0:0:0:
256,192,174742,1,8,0:0:0:0:
256,192,174802,1,8,0:0:0:0:
256,192,174862,1,8,0:0:0:0:
256,192,174922,1,8,0:0:0:0:
256,192,174982,1,8,0:0:0:0:
256,192,175042,1,8,0:0:0:0:
256,192,175102,1,8,0:0:0:0:
256,192,175162,1,8,0:0:0:0:
256,192,175222,1,8,0:0:0:0:
256,192,175282,1,8,0:0:0:0:
256,192,175342,1,8,0:0:0:0:
256,192,175402,1,8,0:0:0:0:
256,192,175462,1,8,0:0:0:0:
256,192,175522,1,8,0:0:0:0:
256,192,175582,1,8,0:0:0:0:
256,192,175642,1,8,0:0:0:0:
256,192,175702,1,0,0:0:0:0:
256,192,175762,1,0,0:0:0:0:
256,192,175822,1,8,0:0:0:0:
256,192,175882,1,8,0:0:0:0:
256,192,175942,1,8,0:0:0:0:
256,192,176002,1,8,0:0:0:0:
256,192,176062,1,0,0:0:0:0:
256,192,176122,1,0,0:0:0:0:
256,192,176182,1,0,0:0:0:0:
256,192,176242,1,0,0:0:0:0:
256,192,176302,1,8,0:0:0:0:
256,192,176362,1,8,0:0:0:0:
256,192,176422,1,8,0:0:0:0:
256,192,176482,1,8,0:0:0:0:
256,192,176542,1,0,0:0:0:0:
256,192,176602,1,0,0:0:0:0:
256,192,176662,1,0,0:0:0:0:
256,192,176722,1,0,0:0:0:0:
256,192,176782,1,8,0:0:0:0:
256,192,176842,1,8,0:0:0:0:
256,192,176902,1,8,0:0:0:0:
256,192,176962,1,8,0:0:0:0:
256,192,177022,1,8,0:0:0:0:
256,192,177082,1,8,0:0:0:0:
256,192,177142,1,0,0:0:0:0:
256,192,177202,1,0,0:0:0:0:
256,192,177262,1,8,0:0:0:0:
256,192,177322,1,8,0:0:0:0:
256,192,177382,1,8,0:0:0:0:
256,192,177442,1,8,0:0:0:0:
256,192,177502,1,8,0:0:0:0:
256,192,177562,1,8,0:0:0:0:
256,192,177622,1,8,0:0:0:0:
256,192,177682,1,8,0:0:0:0:
256,192,177742,1,8,0:0:0:0:
256,192,177802,1,8,0:0:0:0:
256,192,177862,1,8,0:0:0:0:
256,192,177922,1,8,0:0:0:0:
256,192,177982,1,0,0:0:0:0:
256,192,178042,1,0,0:0:0:0:
256,192,178102,1,0,0:0:0:0:
256,192,178162,1,0,0:0:0:0:
256,192,178222,1,8,0:0:0:0:
256,192,178282,1,8,0:0:0:0:
256,192,178342,1,0,0:0:0:0:
256,192,178402,1,0,0:0:0:0:
256,192,178462,1,8,0:0:0:0:
256,192,178522,1,8,0:0:0:0:
256,192,178582,1,0,0:0:0:0:
256,192,178642,1,0,0:0:0:0:
256,192,178702,1,8,0:0:0:0:
256,192,178762,1,8,0:0:0:0:
256,192,178822,1,8,0:0:0:0:
256,192,178882,1,8,0:0:0:0:
256,192,178942,1,0,0:0:0:0:
256,192,179002,1,0,0:0:0:0:
256,192,179062,1,0,0:0:0:0:
256,192,179122,1,0,0:0:0:0:
256,192,179182,1,8,0:0:0:0:
256,192,179242,1,8,0:0:0:0:
256,192,179302,1,0,0:0:0:0:
256,192,179362,1,0,0:0:0:0:
256,192,179422,1,8,0:0:0:0:
256,192,179482,1,8,0:0:0:0:
256,192,179542,1,8,0:0:0:0:
256,192,179602,1,8,0:0:0:0:
256,192,179662,1,8,0:0:0:0:
256,192,179722,1,8,0:0:0:0:
256,192,179782,1,0,0:0:0:0:
256,192,179842,1,0,0:0:0:0:
256,192,179902,1,0,0:0:0:0:
256,192,179962,1,0,0:0:0:0:
256,192,180022,1,0,0:0:0:0:
256,192,180082,1,0,0:0:0:0:
256,192,180142,1,8,0:0:0:0:
256,192,180202,1,8,0:0:0:0:
256,192,180262,1,8,0:0:0:0:
256,192,180322,1,8,0:0:0:0:
256,192,180382,1,8,0:0:0:0:
256,192,180442,1,8,0:0:0:0:
256,192,180502,1,0,0:0:0:0:
256,192,180562,1,0,0:0:0:0:
256,192,180622,1,8,0:0:0:0:
256,192,180682,1,8,0:0:0:0:
256,192,180742,1,8,0:0:0:0:
256,192,180802,1,8,0:0:0:0:
256,192,180862,1,0,0:0:0:0:
256,192,180922,1,0,0:0:0:0:
256,192,180982,1,8,0:0:0:0:
256,192,181042,1,8,0:0:0:0:
256,192,181102,1,8,0:0:0:0:
256,192,181162,1,8,0:0:0:0:
256,192,181222,1,8,0:0:0:0:
256,192,181282,1,8,0:0:0:0:
256,192,181342,1,0,0:0:0:0:
256,192,181402,1,0,0:0:0:0:
256,192,181462,1,0,0:0:0:0:
256,192,181522,1,0,0:0:0:0:
256,192,181582,1,8,0:0:0:0:
256,192,181642,1,8,0:0:0:0:
256,192,181702,1,0,0:0:0:0:
256,192,181762,1,0,0:0:0:0:
256,192,181822,1,8,0:0:0:0:
256,192,181882,1,8,0:0:0:0:
256,192,181942,1,0,0:0:0:0:
256,192,182002,1,0,0:0:0:0:
256,192,182062,1,8,0:0:0:0:
256,192,182122,1,8,0:0:0:0:
256,192,182182,1,8,0:0:0:0:
256,192,182242,1,8,0:0:0:0:
256,192,182302,1,0,0:0:0:0:
256,192,182362,1,0,0:0:0:0:
256,192,182422,1,0,0:0:0:0:
256,192,182482,1,0,0:0:0:0:
256,192,182542,1,8,0:0:0:0:
256,192,182602,1,8,0:0:0:0:
256,192,182662,1,8,0:0:0:0:
256,192,182722,1,8,0:0:0:0:
256,192,182782,1,0,0:0:0:0:
256,192,182842,1,0,0:0:0:0:
256,192,182902,1,0,0:0:0:0:
256,192,182962,1,0,0:0:0:0:
256,192,183022,1,0,0:0:0:0:
256,192,183082,1,0,0:0:0:0:
256,192,183142,1,0,0:0:0:0:
256,192,183202,1,0,0:0:0:0:
256,192,183262,1,8,0:0:0:0:
256,192,183322,1,8,0:0:0:0:
256,192,183382,1,0,0:0:0:0:
256,192,183442,1,0,0:0:0:0:
256,192,183502,1,8,0:0:0:0:
256,192,183562,1,8,0:0:0:0:
256,192,183622,1,0,0:0:0:0:
256,192,183682,1,0,0:0:0:0:
256,192,183742,1,8,0:0:0:0:
256,192,183802,1,8,0:0:0:0:
256,192,183862,1,8,0:0:0:0:
256,192,183922,1,8,0:0:0:0:
256,192,183982,1,8,0:0:0:0:
256,192,184042,1,8,0:0:0:0:
256,192,184102,1,0,0:0:0:0:
256,192,184162,1,0,0:0:0:0:
256,192,184222,1,8,0:0:0:0:
256,192,184282,1,8,0:0:0:0:
256,192,184342,1,0,0:0:0:0:
256,192,184402,1,0,0:0:0:0:
256,192,184462,1,8,0:0:0:0:
256,192,184522,1,8,0:0:0:0:
256,192,184582,1,0,0:0:0:0:
256,192,184642,1,0,0:0:0:0:
256,192,184702,1,8,0:0:0:0:
256,192,184762,1,8,0:0:0:0:
256,192,184822,1,0,0:0:0:0:
256,192,184882,1,0,0:0:0:0:
256,192,184942,1,8,0:0:0:0:
256,192,185002,1,8,0:0:0:0:
256,192,185062,1,8,0:0:0:0:
256,192,185122,1,8,0:0:0:0:
256,192,185182,1,0,0:0:0:0:
256,192,185242,1,0,0:0:0:0:
256,192,185302,1,0,0:0:0:0:
256,192,185362,1,0,0:0:0:0:
256,192,185422,1,8,0:0:0:0:
256,192,185482,1,8,0:0:0:0:
256,192,185542,1,8,0:0:0:0:
256,192,185602,1,8,0:0:0:0:
256,192,185662,1,0,0:0:0:0:
256,192,185722,1,0,0:0:0:0:
256,192,185782,1,0,0:0:0:0:
256,192,185842,1,0,0:0:0:0:
256,192,185902,1,8,0:0:0:0:
256,192,185962,1,8,0:0:0:0:
256,192,186022,1,8,0:0:0:0:
256,192,186082,1,8,0:0:0:0:
256,192,186142,1,8,0:0:0:0:
256,192,186202,1,8,0:0:0:0:
256,192,186262,1,8,0:0:0:0:
256,192,186322,1,8,0:0:0:0:
256,192,186382,1,8,0:0:0:0:
256,192,186442,1,8,0:0:0:0:
256,192,186502,1,0,0:0:0:0:
256,192,186562,1,0,0:0:0:0:
256,192,186622,1,8,0:0:0:0:
256,192,186682,1,8,0:0:0:0:
256,192,186742,1,8,0:0:0:0:
256,192,186802,1,8,0:0:0:0:
256,192,186862,1,8,0:0:0:0:
256,192,186922,1,8,0:0:0:0:
256,192,186982,1,8,0:0:0:0:
256,192,187042,1,8,0:0:0:0:
256,192,187102,1,8,0:0:0:0:
256,192,187162,1,8,0:0:0:0:
256,192,187222,1,0,0:0:0:0:
256,192,187282,1,0,0:0:0:0:
256,192,187342,1,8,0:0:0:0:
256,192,187402,1,8,0:0:0:0:
256,192,187462,1,8,0:0:0:0:
256,192,187522,1,8,0:0:0:0:
256,192,187582,1,8,0:0:0:0:
256,192,187642,1,8,0:0:0:0:
256,192,187702,1,0,0:0:0:0:
256,192,187762,1,0,0:0:0:0:
256,192,187822,1,8,0:0:0:0:
256,192,187882,1,8,0:0:0:0:
256,192,187942,1,8,0:0:0:0:
256,192,188002,1,8,0:0:0:0:
256,192,188062,1,8,0:0:0:0:
256,192,188122,1,8,0:0:0:0:
256,192,188182,1,0,0:0:0:0:
256,192,188242,1,0,0:0:0:0:
256,192,188302,1,8,0:0:0:0:
256,192,188362,1,8,0:0:0:0:
256,192,188422,1,8,0:0:0:0:
256,192,188482,1,8,0:0:0:0:
256,192,188542,1,8,0:0:0:0:
256,192,188602,1,8,0:0:0:0:
256,192,188662,1,0,0:0:0:0:
256,192,188722,1,0,0:0:0:0:
256,192,188782,1,8,0:0:0:0:
256,192,188842,1,8,0:0:0:0:
256,192,188902,1,8,0:0:0:0:
256,192,188962,1,8,0:0:0:0:
256,192,189022,1,8,0:0:0:0:
256,192,189082,1,8,0:0:0:0:
256,192,189142,1,8,0:0:0:0:
256,192,189202,1,8,0:0:0:0:
256,192,189262,1,8,0:0:0:0:
256,192,189322,1,8,0:0:0:0:
256,192,189382,1,0,0:0:0:0:
256,192,189442,1,0,0:0:0:0:
256,192,189502,1,8,0:0:0:0:
256,192,189562,1,8,0:0:0:0:
256,192,189622,1,8,0:0:0:0:
256,192,189682,1,8,0:0:0:0:
256,192,189742,1,8,0:0:0:0:
256,192,189802,1,8,0:0:0:0:
256,192,189862,1,0,0:0:0:0:
256,192,189922,1,0,0:0:0:0:
256,192,189982,1,8,0:0:0:0:
256,192,190042,1,8,0:0:0:0:
256,192,190102,1,0,0:0:0:0:
256,192,190162,1,0,0:0:0:0:
256,192,190222,1,8,0:0:0:0:
256,192,190282,1,8,0:0:0:0:
256,192,190342,1,8,0:0:0:0:
256,192,190402,1,8,0:0:0:0:
256,192,190462,1,8,0:0:0:0:
256,192,190522,1,8,0:0:0:0:
256,192,190582,1,0,0:0:0:0:
256,192,190642,1,0,0:0:0:0:
256,192,190702,1,8,0:0:0:0:
256,192,190762,1,8,0:0:0:0:
256,192,190822,1,0,0:0:0:0:
256,192,190882,1,0,0:0:0:0:
256,192,190942,1,8,0:0:0:0:
256,192,191002,1,8,0:0:0:0:
256,192,191062,1,8,0:0:0:0:
256,192,191122,1,8,0:0:0:0:
256,192,191182,1,8,0:0:0:0:
256,192,191242,1,8,0:0:0:0:
256,192,191302,1,0,0:0:0:0:
256,192,191362,1,0,0:0:0:0:
256,192,191422,1,0,0:0:0:0:
256,192,191482,1,0,0:0:0:0:
256,192,191542,1,0,0:0:0:0:
256,192,191602,1,0,0:0:0:0:
256,192,191662,1,8,0:0:0:0:
256,192,191722,1,8,0:0:0:0:
256,192,191782,1,8,0:0:0:0:
256,192,191842,1,8,0:0:0:0:
256,192,191902,1,8,0:0:0:0:
256,192,191962,1,8,0:0:0:0:
256,192,192022,1,8,0:0:0:0:
256,192,192082,1,8,0:0:0:0:
256,192,192142,1,8,0:0:0:0:
256,192,192202,1,8,0:0:0:0:
256,192,192262,1,0,0:0:0:0:
256,192,192322,1,0,0:0:0:0:
256,192,192382,1,8,0:0:0:0:
256,192,192442,1,8,0:0:0:0:
256,192,192502,1,8,0:0:0:0:
256,192,192562,1,8,0:0:0:0:
256,192,192622,1,8,0:0:0:0:
256,192,192682,1,8,0:0:0:0:
256,192,192742,1,8,0:0:0:0:
256,192,192802,1,8,0:0:0:0:
256,192,192862,1,8,0:0:0:0:
256,192,192922,1,8,0:0:0:0:
256,192,192982,1,0,0:0:0:0:
256,192,193042,1,0,0:0:0:0:
256,192,193102,1,8,0:0:0:0:
256,192,193162,1,8,0:0:0:0:
256,192,193222,1,8,0:0:0:0:
256,192,193282,1,8,0:0:0:0:
256,192,193342,1,0,0:0:0:0:
256,192,193402,1,0,0:0:0:0:
256,192,193462,1,0,0:0:0:0:
256,192,193522,1,0,0:0:0:0:
256,192,193582,1,8,0:0:0:0:
256,192,193642,1,8,0:0:0:0:
256,192,193702,1,8,0:0:0:0:
256,192,193762,1,8,0:0:0:0:
256,192,193822,1,0,0:0:0:0:
256,192,193882,1,0,0:0:0:0:
256,192,193942,1,0,0:0:0:0:
256,192,194002,1,0,0:0:0:0:
256,192,194062,1,8,0:0:0:0:
256,192,194122,1,8,0:0:0:0:
256,192,194182,1,8,0:0:0:0:
256,192,194242,1,8,0:0:0:0:
256,192,194302,1,8,0:0:0:0:
256,192,194362,1,8,0:0:0:0:
256,192,194422,1,8,0:0:0:0:
256,192,194482,1,8,0:0:0:0:
256,192,194542,1,0,0:0:0:0:
256,192,194602,1,0,0:0:0:0:
256,192,194662,1,8,0:0:0:0:
256,192,194722,1,8,0:0:0:0:
256,192,194782,1,8,0:0:0:0:
256,192,194842,1,8,0:0:0:0:
256,192,194902,1,0,0:0:0:0:
256,192,194962,1,0,0:0:0:0:
256,192,195022,1,8,0:0:0:0:
256,192,195082,1,8,0:0:0:0:
256,192,195142,1,0,0:0:0:0:
256,192,195202,1,0,0:0:0:0:
256,192,195262,1,8,0:0:0:0:
256,192,195322,1,8,0:0:0:0:
256,192,195382,1,8,0:0:0:0:
256,192,195442,1,8,0:0:0:0:
256,192,195502,1,8,0:0:0:0:
256,192,195562,1,8,0:0:0:0:
256,192,195622,1,8,0:0:0:0:
256,192,195682,1,8,0:0:0:0:
256,192,195742,1,8,0:0:0:0:
256,192,195802,1,8,0:0:0:0:
256,192,195862,1,0,0:0:0:0:
256,192,195922,1,0,0:0:0:0:
256,192,195982,1,8,0:0:0:0:
256,192,196042,1,8,0:0:0:0:
256,192,196102,1,8,0:0:0:0:
256,192,196162,1,8,0:0:0:0:
256,192,196222,1,8,0:0:0:0:
256,192,196282,1,8,0:0:0:0:
256,192,196342,1,0,0:0:0:0:
256,192,196402,1,0,0:0:0:0:
256,192,196462,1,8,0:0:0:0:
256,192,196522,1,8,0:0:0:0:
256,192,196582,1,8,0:0:0:0:
256,192,196642,1,8,0:0:0:0:
256,192,196702,1,0,0:0:0:0:
256,192,196762,1,0,0:0:0:0:
256,192,196822,1,0,0:0:0:0:
256,192,196882,1,0,0:0:0:0:
256,192,196942,1,8,0:0:0:0:
256,192,197002,1,8,0:0:0:0:
256,192,197062,1,8,0:0:0:0:
256,192,197122,1,8,0:0:0:0:
256,192,197182,1,8,0:0:0:0:
256,192,197242,1,8,0:0:0:0:
256,192,197302,1,0,0:0:0:0:
256,192,197362,1,0,0:0:0:0:
256,192,197422,1,8,0:0:0:0:
256,192,197482,1,8,0:0:0:0:
256,192,197542,1,8,0:0:0:0:
256,192,197602,1,8,0:0:0:0:
256,192,197662,1,8,0:0:0:0:
256,192,197722,1,8,0:0:0:0:
256,192,197782,1,8,0:0:0:0:
256,192,197842,1,8,0:0:0:0:
256,192,197902,1,8,0:0:0:0:
256,192,197962,1,8,0:0:0:0:
256,192,198022,1,8,0:0:0:0:
256,192,198082,1,8,0:0:0:0:
256,192,198142,1,8,0:0:0:0:
256,192,198202,1,8,0:0:0:0:
256,192,198262,1,8,0:0:0:0:
256,192,198322,1,8,0:0:0:0:
256,192,198382,1,8,0:0:0:0:
256,192,198442,1,8,0:0:0:0:
256,192,198502,1,8,0:0:0:0:
256,192,198562,1,8,0:0:0:0:
256,192,198622,1,8,0:0:0:0:
256,192,198682,1,8,0:0:0:0:
256,192,198742,1,0,0:0:0:0:
256,192,198802,1,0,0:0:0:0:
256,192,198862,1,8,0:0:0:0:
256,192,198922,1,8,0:0:0:0:
256,192,198982,1,8,0:0:0:0:
256,192,199042,1,8,0:0:0:0:
256,192,199102,1,0,0:0:0:0:
256,192,199162,1,0,0:0:0:0:
256,192,199222,1,0,0:0:0:0:
256,192,199282,1,0,0:0:0:0:
256,192,199342,1,8,0:0:0:0:
256,192,199402,1,8,0:0:0:0:
256,192,199462,1,8,0:0:0:0:
256,192,199522,1,8,0:0:0:0:
256,192,199582,1,0,0:0:0:0:
256,192,199642,1,0,0:0:0:0:
256,192,199702,1,0,0:0:0:0:
256,192,199762,1,0,0:0:0:0:
256,192,199822,1,8,0:0:0:0:
256,192,199882,1,8,0:0:0:0:
256,192,199942,1,8,0:0:0:0:
256,192,200002,1,8,0:0:0:0:
256,192,200062,1,8,0:0:0:0:
256,192,200122,1,8,0:0:0:0:
256,192,200182,1,0,0:0:0:0:
256,192,200242,1,0,0:0:0:0:
256,192,200302,1,8,0:0:0:0:
256,192,200362,1,8,0:0:0:0:
256,192,200422,1,8,0:0:0:0:
256,192,200482,1,8,0:0:0:0:
256,192,200542,1,8,0:0:0:0:
256,192,200602,1,8,0:0:0:0:
256,192,200662,1,8,0:0:0:0:
256,192,200722,1,8,0:0:0:0:
256,192,200782,1,0,0:0:0:0:
256,192,200842,1,0,0:0:0:0:
256,192,200902,1,0,0:0:0:0:
256,192,200962,1,0,0:0:0:0:
256,192,201022,1,8,0:0:0:0:
256,192,201082,1,8,0:0:0:0:
256,192,201142,1,8,0:0:0:0:
256,192,201202,1,8,0:0:0:0:
256,192,201262,1,8,0:0:0:0:
256,192,201322,1,8,0:0:0:0:
256,192,201382,1,8,0:0:0:0:
256,192,201442,1,8,0:0:0:0:
256,192,201502,1,0,0:0:0:0:
256,192,201562,1,0,0:0:0:0:
256,192,201622,1,0,0:0:0:0:
256,192,201682,1,0,0:0:0:0:
256,192,201742,1,8,0:0:0:0:
256,192,201802,1,8,0:0:0:0:
256,192,201862,1,8,0:0:0:0:
256,192,201922,1,8,0:0:0:0:
256,192,201982,1,8,0:0:0:0:
256,192,202042,1,8,0:0:0:0:
256,192,202102,1,8,0:0:0:0:
256,192,202162,1,8,0:0:0:0:
256,192,202222,1,8,0:0:0:0:
256,192,202282,1,8,0:0:0:0:
256,192,202342,1,0,0:0:0:0:
256,192,202402,1,0,0:0:0:0:
256,192,202462,1,8,0:0:0:0:
256,192,202522,1,8,0:0:0:0:
256,192,202582,1,8,0:0:0:0:
256,192,202642,1,8,0:0:0:0:
256,192,202702,1,8,0:0:0:0:
256,192,202762,1,8,0:0:0:0:
256,192,202822,1,8,0:0:0:0:
256,192,202882,1,8,0:0:0:0:
256,192,202942,1,8,0:0:0:0:
256,192,203002,1,8,0:0:0:0:
256,192,203062,1,8,0:0:0:0:
256,192,203122,1,8,0:0:0:0:
256,192,203182,1,0,0:0:0:0:
256,192,203242,1,0,0:0:0:0:
256,192,203302,1,0,0:0:0:0:
256,192,203362,1,0,0:0:0:0:
256,192,203422,1,8,0:0:0:0:
256,192,203482,1,8,0:0:0:0:
256,192,203542,1,8,0:0:0:0:
256,192,203602,1,8,0:0:0:0:
256,192,203662,1,8,0:0:0:0:
256,192,203722,1,8,0:0:0:0:
256,192,203782,1,8,0:0:0:0:
256,192,203842,1,8,0:0:0:0:
256,192,203902,1,0,0:0:0:0:
256,192,203962,1,0,0:0:0:0:
256,192,204022,1,8,0:0:0:0:
256,192,204082,1,8,0:0:0:0:
256,192,204142,1,8,0:0:0:0:
256,192,204202,1,8,0:0:0:0:
256,192,204262,1,8,0:0:0:0:
256,192,204322,1,8,0:0:0:0:
256,192,204382,1,8,0:0:0:0:
256,192,204442,1,8,0:0:0:0:
256,192,204502,1,8,0:0:0:0:
256,192,204562,1,8,0:0:0:0:
256,192,204622,1,0,0:0:0:0:
256,192,204682,1,0,0:0:0:0:
256,192,204742,1,0,0:0:0:0:
256,192,204802,1,0,0:0:0:0:
256,192,204862,1,8,0:0:0:0:
256,192,204922,1,8,0:0:0:0:
256,192,204982,1,8,0:0:0:0:
256,192,205042,1,8,0:0:0:0:
256,192,205102,1,8,0:0:0:0:
256,192,205162,1,8,0:0:0:0:
256,192,205222,1,8,0:0:0:0:
256,192,205282,1,8,0:0:0:0:
256,192,205342,1,0,0:0:0:0:
256,192,205402,1,0,0:0:0:0:
256,192,205462,1,0,0:0:0:0:
256,192,205522,1,0,0:0:0:0:
256,192,205582,1,8,0:0:0:0:
256,192,205642,1,8,0:0:0:0:
256,192,205702,1,8,0:0:0:0:
256,192,205762,1,8,0:0:0:0:
256,192,205822,1,8,0:0:0:0:
256,192,205882,1,8,0:0:0:0:
256,192,205942,1,8,0:0:0:0:
256,192,206002,1,8,0:0:0:0:
256,192,206062,1,0,0:0:0:0:
256,192,206122,1,0,0:0:0:0:
256,192,206182,1,0,0:0:0:0:
256,192,206242,1,0,0:0:0:0:
256,192,206302,1,8,0:0:0:0:
256,192,206362,1,8,0:0:0:0:
256,192,206422,1,0,0:0:0:0:
256,192,206482,1,0,0:0:0:0:
256,192,206542,1,8,0:0:0:0:
256,192,206602,1,8,0:0:0:0:
256,192,206662,1,8,0:0:0:0:
256,192,206722,1,8,0:0:0:0:
256,192,206782,1,0,0:0:0:0:
256,192,206842,1,0,0:0:0:0:
256,192,206902,1,0,0:0:0:0:
256,192,206962,1,0,0:0:0:0:
256,192,207022,1,8,0:0:0:0:
256,192,207082,1,8,0:0:0:0:
256,192,207142,1,0,0:0:0:0:
256,192,207202,1,0,0:0:0:0:
256,192,207262,1,8,0:0:0:0:
256,192,207322,1,8,0:0:0:0:
256,192,207382,1,0,0:0:0:0:
256,192,207442,1,0,0:0:0:0:
256,192,207502,1,8,0:0:0:0:
256,192,207562,1,8,0:0:0:0:
256,192,207622,1,8,0:0:0:0:
256,192,207682,1,8,0:0:0:0:
256,192,207742,1,0,0:0:0:0:
256,192,207802,1,0,0:0:0:0:
256,192,207862,1,0,0:0:0:0:
256,192,207922,1,0,0:0:0:0:
256,192,207982,1,8,0:0:0:0:
256,192,208042,1,8,0:0:0:0:
256,192,208102,1,0,0:0:0:0:
256,192,208162,1,0,0:0:0:0:
256,192,208222,1,8,0:0:0:0:
256,192,208282,1,8,0:0:0:0:
256,192,208342,1,0,0:0:0:0:
256,192,208402,1,0,0:0:0:0:
256,192,208462,1,8,0:0:0:0:
256,192,208522,1,8,0:0:0:0:
256,192,208582,1,8,0:0:0:0:
256,192,208642,1,8,0:0:0:0:
256,192,208702,1,0,0:0:0:0:
256,192,208762,1,0,0:0:0:0:
256,192,208822,1,0,0:0:0:0:
256,192,208882,1,0,0:0:0:0:
256,192,208942,1,12,0:0:0:0:
256,192,209182,1,0,0:0:0:0:
256,192,209302,1,0,0:0:0:0:
256,192,209422,1,0,0:0:0:0:
256,192,209542,1,0,0:0:0:0:
256,192,209662,1,8,0:0:0:0:
256,192,209782,1,8,0:0:0:0:
256,192,209902,1,8,0:0:0:0:
256,192,210022,1,0,0:0:0:0:
256,192,210142,1,8,0:0:0:0:
256,192,210262,1,0,0:0:0:0:
256,192,210382,1,8,0:0:0:0:
256,192,210502,1,0,0:0:0:0:
256,192,210622,1,8,0:0:0:0:
256,192,210742,1,8,0:0:0:0:
256,192,210862,1,0,0:0:0:0:
256,192,210982,1,8,0:0:0:0:
256,192,211102,1,0,0:0:0:0:
256,192,211222,1,8,0:0:0:0:
256,192,211342,1,8,0:0:0:0:
256,192,211462,1,8,0:0:0:0:
256,192,211582,1,8,0:0:0:0:
256,192,211702,1,0,0:0:0:0:
256,192,211822,1,8,0:0:0:0:
256,192,211942,1,0,0:0:0:0:
256,192,212062,1,8,0:0:0:0:
256,192,212182,1,8,0:0:0:0:
256,192,212302,1,8,0:0:0:0:
256,192,212422,1,0,0:0:0:0:
256,192,212542,1,8,0:0:0:0:
256,192,212662,1,8,0:0:0:0:
256,192,212782,1,8,0:0:0:0:
256,192,212902,1,0,0:0:0:0:
256,192,213022,1,8,0:0:0:0:
256,192,213142,1,0,0:0:0:0:
256,192,213262,1,8,0:0:0:0:
256,192,213382,1,0,0:0:0:0:
256,192,213502,1,0,0:0:0:0:
256,192,213622,1,0,0:0:0:0:
256,192,213742,1,0,0:0:0:0:
256,192,213862,1,0,0:0:0:0:
256,192,213982,1,8,0:0:0:0:
256,192,214062,1,0,0:0:0:0:
256,192,214142,1,0,0:0:0:0:
256,192,214222,1,8,0:0:0:0:
256,192,214302,1,0,0:0:0:0:
256,192,214382,1,0,0:0:0:0:
256,192,214462,1,8,0:0:0:0:
256,192,214542,1,8,0:0:0:0:
256,192,214622,1,0,0:0:0:0:
256,192,214702,1,8,0:0:0:0:
256,192,214822,1,8,0:0:0:0:
256,192,214942,1,8,0:0:0:0:
256,192,215062,1,0,0:0:0:0:
256,192,215182,1,8,0:0:0:0:
256,192,215302,1,0,0:0:0:0:
256,192,215422,1,8,0:0:0:0:
256,192,215542,1,0,0:0:0:0:
256,192,215662,1,0,0:0:0:0:
256,192,215782,1,0,0:0:0:0:
256,192,215902,1,8,0:0:0:0:
256,192,216022,1,0,0:0:0:0:
256,192,216142,1,8,0:0:0:0:
256,192,216262,1,8,0:0:0:0:
256,192,216382,1,8,0:0:0:0:
256,192,216502,1,8,0:0:0:0:
256,192,216622,1,0,0:0:0:0:
256,192,216742,1,0,0:0:0:0:
256,192,216862,1,8,0:0:0:0:
256,192,216982,1,0,0:0:0:0:
256,192,217102,1,0,0:0:0:0:
256,192,217222,1,8,0:0:0:0:
256,192,217342,1,0,0:0:0:0:
256,192,217462,1,0,0:0:0:0:
256,192,217582,1,8,0:0:0:0:
256,192,217702,1,0,0:0:0:0:
256,192,217822,1,8,0:0:0:0:
256,192,217942,1,8,0:0:0:0:
256,192,218062,1,8,0:0:0:0:
256,192,218182,1,0,0:0:0:0:
256,192,218302,1,8,0:0:0:0:
256,192,218422,1,8,0:0:0:0:
256,192,218542,1,8,0:0:0:0:
256,192,218662,1,0,0:0:0:0:
256,192,218782,1,8,0:0:0:0:
256,192,218902,1,0,0:0:0:0:
256,192,219022,1,8,0:0:0:0:
256,192,219142,1,0,0:0:0:0:
256,192,219262,1,0,0:0:0:0:
256,192,219382,1,0,0:0:0:0:
256,192,219502,1,8,0:0:0:0:
256,192,219622,1,0,0:0:0:0:
256,192,219742,1,0,0:0:0:0:
256,192,219862,1,0,0:0:0:0:
256,192,219982,1,8,0:0:0:0:
256,192,220102,1,8,0:0:0:0:
256,192,220222,1,8,0:0:0:0:
256,192,220342,1,0,0:0:0:0:
256,192,220462,1,8,0:0:0:0:
256,192,220582,1,8,0:0:0:0:
256,192,220702,1,0,0:0:0:0:
256,192,220822,1,0,0:0:0:0:
256,192,220942,1,8,0:0:0:0:
256,192,221062,1,0,0:0:0:0:
256,192,221182,1,8,0:0:0:0:
256,192,221302,1,0,0:0:0:0:
256,192,221422,1,8,0:0:0:0:
256,192,221542,1,0,0:0:0:0:
256,192,221662,1,8,0:0:0:0:
256,192,221782,1,0,0:0:0:0:
256,192,221902,1,8,0:0:0:0:
256,192,222022,1,8,0:0:0:0:
256,192,222142,1,8,0:0:0:0:
256,192,222262,1,0,0:0:0:0:
256,192,222382,1,8,0:0:0:0:
256,192,222502,1,0,0:0:0:0:
256,192,222622,1,8,0:0:0:0:
256,192,222742,1,8,0:0:0:0:
256,192,222862,1,0,0:0:0:0:
256,192,222982,1,0,0:0:0:0:
256,192,223102,1,8,0:0:0:0:
256,192,223222,1,0,0:0:0:0:
256,192,223342,1,8,0:0:0:0:
256,192,223462,1,0,0:0:0:0:
256,192,223582,1,8,0:0:0:0:
256,192,223702,1,0,0:0:0:0:
256,192,223822,1,8,0:0:0:0:
256,192,223942,1,8,0:0:0:0:
256,192,224062,1,8,0:0:0:0:
256,192,224182,1,0,0:0:0:0:
256,192,224302,1,8,0:0:0:0:
256,192,224422,1,8,0:0:0:0:
256,192,224542,1,0,0:0:0:0:
256,192,224662,1,0,0:0:0:0:
256,192,224782,1,8,0:0:0:0:
256,192,224902,1,8,0:0:0:0:
256,192,225022,1,0,0:0:0:0:
256,192,225142,1,8,0:0:0:0:
256,192,225262,1,8,0:0:0:0:
256,192,225382,1,0,0:0:0:0:
256,192,225502,1,8,0:0:0:0:
256,192,225622,1,8,0:0:0:0:
256,192,225742,1,8,0:0:0:0:
256,192,225862,1,0,0:0:0:0:
256,192,225982,1,8,0:0:0:0:
256,192,226102,1,0,0:0:0:0:
256,192,226222,1,8,0:0:0:0:
256,192,226342,1,0,0:0:0:0:
256,192,226462,1,8,0:0:0:0:
256,192,226582,1,8,0:0:0:0:
256,192,226702,1,0,0:0:0:0:
256,192,226822,1,0,0:0:0:0:
256,192,226942,1,8,0:0:0:0:
256,192,227062,1,0,0:0:0:0:
256,192,227182,1,8,0:0:0:0:
256,192,227302,1,0,0:0:0:0:
256,192,227422,1,8,0:0:0:0:
256,192,227542,1,0,0:0:0:0:
256,192,227662,1,0,0:0:0:0:
256,192,227782,1,0,0:0:0:0:
256,192,227902,1,8,0:0:0:0:
256,192,228022,1,0,0:0:0:0:
256,192,228142,1,8,0:0:0:0:
256,192,228262,1,8,0:0:0:0:
256,192,228382,1,8,0:0:0:0:
256,192,228502,1,0,0:0:0:0:
256,192,228622,1,8,0:0:0:0:
256,192,228742,1,0,0:0:0:0:
256,192,228862,1,8,0:0:0:0:
256,192,228922,1,0,0:0:0:0:
256,192,228982,1,8,0:0:0:0:
256,192,229042,1,8,0:0:0:0:
256,192,229102,1,0,0:0:0:0:
256,192,229162,1,0,0:0:0:0:
256,192,229222,1,0,0:0:0:0:
256,192,229282,1,0,0:0:0:0:
256,192,229342,1,8,0:0:0:0:
256,192,229402,1,0,0:0:0:0:
256,192,229462,1,0,0:0:0:0:
256,192,229522,1,0,0:0:0:0:
256,192,229582,1,8,0:0:0:0:
256,192,229642,1,0,0:0:0:0:
256,192,229702,1,0,0:0:0:0:
256,192,229762,1,0,0:0:0:0:
256,192,229822,1,8,0:0:0:0:
256,192,229882,1,8,0:0:0:0:
256,192,229942,1,0,0:0:0:0:
256,192,230002,1,0,0:0:0:0:
256,192,230062,1,8,0:0:0:0:
256,192,230122,1,8,0:0:0:0:
256,192,230182,1,0,0:0:0:0:
256,192,230302,1,8,0:0:0:0:
256,192,230362,1,8,0:0:0:0:
256,192,230422,1,8,0:0:0:0:
256,192,230482,1,0,0:0:0:0:
256,192,230542,1,8,0:0:0:0:
256,192,230602,1,8,0:0:0:0:
256,192,230662,1,8,0:0:0:0:
256,192,230722,1,0,0:0:0:0:
256,192,230782,1,8,0:0:0:0:
256,192,230842,1,8,0:0:0:0:
256,192,230902,1,8,0:0:0:0:
256,192,231022,1,8,0:0:0:0:
256,192,231082,1,8,0:0:0:0:
256,192,231142,1,0,0:0:0:0:
256,192,231202,1,0,0:0:0:0:
256,192,231262,1,8,0:0:0:0:
256,192,231322,1,8,0:0:0:0:
256,192,231382,1,8,0:0:0:0:
256,192,231442,1,0,0:0:0:0:
256,192,231502,1,8,0:0:0:0:
256,192,231562,1,0,0:0:0:0:
256,192,231622,1,8,0:0:0:0:
256,192,231682,1,0,0:0:0:0:
256,192,231742,1,8,0:0:0:0:
256,192,231802,1,8,0:0:0:0:
256,192,231862,1,8,0:0:0:0:
256,192,231922,1,8,0:0:0:0:
256,192,231982,1,4,0:0:0:0:
256,192,232102,1,8,0:0:0:0:
256,192,232222,1,0,0:0:0:0:
256,192,232282,1,0,0:0:0:0:
256,192,232342,1,8,0:0:0:0:
256,192,232462,1,0,0:0:0:0:
256,192,232582,1,8,0:0:0:0:
256,192,232702,1,8,0:0:0:0:
256,192,232762,1,8,0:0:0:0:
256,192,232822,1,0,0:0:0:0:
256,192,232942,1,8,0:0:0:0:
256,192,233062,1,8,0:0:0:0:
256,192,233182,1,0,0:0:0:0:
256,192,233242,1,0,0:0:0:0:
256,192,233302,1,8,0:0:0:0:
256,192,233422,1,0,0:0:0:0:
256,192,233542,1,8,0:0:0:0:
256,192,233662,1,0,0:0:0:0:
256,192,233782,1,8,0:0:0:0:
256,192,233902,1,8,0:0:0:0:
256,192,234022,1,0,0:0:0:0:
256,192,234142,1,8,0:0:0:0:
256,192,234202,1,8,0:0:0:0:
256,192,234262,1,0,0:0:0:0:
256,192,234382,1,0,0:0:0:0:
256,192,234442,1,0,0:0:0:0:
256,192,234502,1,8,0:0:0:0:
256,192,234562,1,0,0:0:0:0:
256,192,234622,1,0,0:0:0:0:
256,192,234682,1,0,0:0:0:0:
256,192,234742,1,0,0:0:0:0:
256,192,234802,1,0,0:0:0:0:
256,192,234862,1,8,0:0:0:0:
256,192,234982,1,0,0:0:0:0:
256,192,235102,1,8,0:0:0:0:
256,192,235162,1,0,0:0:0:0:
256,192,235222,1,8,0:0:0:0:
256,192,235342,1,0,0:0:0:0:
256,192,235462,1,8,0:0:0:0:
256,192,235582,1,8,0:0:0:0:
256,192,235642,1,8,0:0:0:0:
256,192,235702,1,0,0:0:0:0:
256,192,235822,1,8,0:0:0:0:
256,192,235942,1,0,0:0:0:0:
256,192,236062,1,0,0:0:0:0:
256,192,236122,1,0,0:0:0:0:
256,192,236182,1,8,0:0:0:0:
256,192,236302,1,8,0:0:0:0:
256,192,236362,1,8,0:0:0:0:
256,192,236422,1,8,0:0:0:0:
256,192,236482,1,8,0:0:0:0:
256,192,236542,1,0,0:0:0:0:
256,192,236662,1,0,0:0:0:0:
256,192,236782,1,8,0:0:0:0:
256,192,236902,1,0,0:0:0:0:
256,192,237022,1,8,0:0:0:0:
256,192,237082,1,8,0:0:0:0:
256,192,237142,1,8,0:0:0:0:
256,192,237262,1,8,0:0:0:0:
256,192,237322,1,0,0:0:0:0:
256,192,237382,1,0,0:0:0:0:
256,192,237442,1,0,0:0:0:0:
256,192,237502,1,8,0:0:0:0:
256,192,237562,1,8,0:0:0:0:
256,192,237622,1,8,0:0:0:0:
256,192,237742,1,4,0:0:0:0:
256,192,237862,1,0,0:0:0:0:
256,192,237922,1,0,0:0:0:0:
256,192,237982,1,8,0:0:0:0:
256,192,238042,1,0,0:0:0:0:
256,192,238102,1,8,0:0:0:0:
256,192,238162,1,0,0:0:0:0:
256,192,238222,1,8,0:0:0:0:
256,192,238282,1,0,0:0:0:0:
256,192,238342,1,0,0:0:0:0:
256,192,238402,1,0,0:0:0:0:
256,192,238462,1,8,0:0:0:0:
256,192,238522,1,0,0:0:0:0:
256,192,238582,1,0,0:0:0:0:
256,192,238642,1,0,0:0:0:0:
256,192,238702,1,8,0:0:0:0:
256,192,238762,1,0,0:0:0:0:
256,192,238822,1,8,0:0:0:0:
256,192,238882,1,0,0:0:0:0:
256,192,238942,1,8,0:0:0:0:
256,192,239002,1,0,0:0:0:0:
256,192,239062,1,0,0:0:0:0:
256,192,239122,1,0,0:0:0:0:
256,192,239182,1,8,0:0:0:0:
256,192,239242,1,8,0:0:0:0:
256,192,239302,1,0,0:0:0:0:
256,192,239362,1,0,0:0:0:0:
256,192,239422,1,8,0:0:0:0:
256,192,239482,1,0,0:0:0:0:
256,192,239542,1,8,0:0:0:0:
256,192,239602,1,0,0:0:0:0:
256,192,239662,1,8,0:0:0:0:
256,192,239722,1,8,0:0:0:0:
256,192,239782,1,0,0:0:0:0:
256,192,239842,1,0,0:0:0:0:
256,192,239902,1,8,0:0:0:0:
256,192,239962,1,0,0:0:0:0:
256,192,240022,1,8,0:0:0:0:
256,192,240082,1,0,0:0:0:0:
256,192,240142,1,8,0:0:0:0:
256,192,240202,1,8,0:0:0:0:
256,192,240262,1,8,0:0:0:0:
256,192,240322,1,8,0:0:0:0:
256,192,240382,1,0,0:0:0:0:
256,192,240442,1,0,0:0:0:0:
256,192,240502,1,0,0:0:0:0:
256,192,240622,1,12,0:0:0:0:
256,192,240862,1,0,0:0:0:0:
256,192,240922,1,0,0:0:0:0:
256,192,240982,1,8,0:0:0:0:
256,192,241102,1,8,0:0:0:0:
256,192,241222,1,8,0:0:0:0:
256,192,241342,1,0,0:0:0:0:
256,192,241402,1,0,0:0:0:0:
256,192,241462,1,8,0:0:0:0:
256,192,241582,1,0,0:0:0:0:
256,192,241702,1,8,0:0:0:0:
256,192,241822,1,0,0:0:0:0:
256,192,241882,1,0,0:0:0:0:
256,192,241942,1,8,0:0:0:0:
256,192,242062,1,8,0:0:0:0:
256,192,242122,1,8,0:0:0:0:
256,192,242182,1,0,0:0:0:0:
256,192,242242,1,8,0:0:0:0:
256,192,242302,1,8,0:0:0:0:
256,192,242362,1,0,0:0:0:0:
256,192,242422,1,0,0:0:0:0:
256,192,242482,1,0,0:0:0:0:
256,192,242542,1,8,0:0:0:0:
256,192,242602,1,8,0:0:0:0:
256,192,242662,1,8,0:0:0:0:
256,192,242722,1,8,0:0:0:0:
256,192,242782,1,0,0:0:0:0:
256,192,242842,1,0,0:0:0:0:
256,192,242902,1,8,0:0:0:0:
256,192,242962,1,8,0:0:0:0:
256,192,243022,1,0,0:0:0:0:
256,192,243082,1,0,0:0:0:0:
256,192,243142,1,0,0:0:0:0:
256,192,243202,1,0,0:0:0:0:
256,192,243262,1,8,0:0:0:0:
256,192,243382,1,0,0:0:0:0:
256,192,243502,1,12,0:0:0:0:
256,192,243622,1,0,0:0:0:0:
256,192,243682,1,0,0:0:0:0:
256,192,243742,1,8,0:0:0:0:
256,192,243862,1,8,0:0:0:0:
256,192,243922,1,0,0:0:0:0:
256,192,243982,1,8,0:0:0:0:
256,192,244042,1,8,0:0:0:0:
256,192,244102,1,0,0:0:0:0:
256,192,244222,1,8,0:0:0:0:
256,192,244282,1,0,0:0:0:0:
256,192,244342,1,0,0:0:0:0:
256,192,244402,1,0,0:0:0:0:
256,192,244462,1,8,0:0:0:0:
256,192,244522,1,8,0:0:0:0:
256,192,244582,1,0,0:0:0:0:
256,192,244702,1,8,0:0:0:0:
256,192,244762,1,0,0:0:0:0:
256,192,244822,1,8,0:0:0:0:
256,192,244882,1,0,0:0:0:0:
256,192,244942,1,8,0:0:0:0:
256,192,245062,1,0,0:0:0:0:
256,192,245122,1,0,0:0:0:0:
256,192,245182,1,8,0:0:0:0:
256,192,245242,1,0,0:0:0:0:
256,192,245302,1,8,0:0:0:0:
256,192,245362,1,0,0:0:0:0:
256,192,245422,1,8,0:0:0:0:
256,192,245482,1,8,0:0:0:0:
256,192,245542,1,0,0:0:0:0:
256,192,245662,1,0,0:0:0:0:
256,192,245722,1,8,0:0:0:0:
256,192,245782,1,8,0:0:0:0:
256,192,245842,1,8,0:0:0:0:
256,192,245902,1,0,0:0:0:0:
256,192,246022,1,0,0:0:0:0:
256,192,246082,1,8,0:0:0:0:
256,192,246142,1,0,0:0:0:0:
256,192,246202,1,8,0:0:0:0:
256,192,246262,1,0,0:0:0:0:
256,192,246322,1,8,0:0:0:0:
256,192,246382,1,0,0:0:0:0:
256,192,246502,1,0,0:0:0:0:
256,192,246622,1,8,0:0:0:0:
256,192,246682,1,0,0:0:0:0:
256,192,246742,1,0,0:0:0:0:
256,192,246802,1,0,0:0:0:0:
256,192,246862,1,8,0:0:0:0:
256,192,246922,1,8,0:0:0:0:
256,192,246982,1,0,0:0:0:0:
256,192,247102,1,8,0:0:0:0:
256,192,247162,1,0,0:0:0:0:
256,192,247222,1,8,0:0:0:0:
256,192,247282,1,0,0:0:0:0:
256,192,247342,1,8,0:0:0:0:
256,192,247402,1,8,0:0:0:0:
256,192,247462,1,0,0:0:0:0:
256,192,247582,1,8,0:0:0:0:
256,192,247642,1,8,0:0:0:0:
256,192,247702,1,0,0:0:0:0:
256,192,247822,1,8,0:0:0:0:
256,192,247882,1,8,0:0:0:0:
256,192,247942,1,8,0:0:0:0:
256,192,248002,1,0,0:0:0:0:
256,192,248062,1,8,0:0:0:0:
256,192,248182,1,0,0:0:0:0:
256,192,248242,1,0,0:0:0:0:
256,192,248302,1,8,0:0:0:0:
256,192,248362,1,0,0:0:0:0:
256,192,248422,1,8,0:0:0:0:
256,192,248482,1,0,0:0:0:0:
256,192,248542,1,8,0:0:0:0:
256,192,248602,1,8,0:0:0:0:
256,192,248662,1,0,0:0:0:0:
256,192,248722,1,0,0:0:0:0:
256,192,248782,1,8,0:0:0:0:
256,192,248902,1,0,0:0:0:0:
256,192,248962,1,0,0:0:0:0:
256,192,249022,1,8,0:0:0:0:
256,192,249082,1,8,0:0:0:0:
256,192,249142,1,0,0:0:0:0:
256,192,249202,1,0,0:0:0:0:
256,192,249262,1,0,0:0:0:0:
256,192,249322,1,8,0:0:0:0:
256,192,249382,1,0,0:0:0:0:
256,192,249502,1,8,0:0:0:0:
256,192,249562,1,8,0:0:0:0:
256,192,249622,1,0,0:0:0:0:
256,192,249682,1,0,0:0:0:0:
256,192,249742,1,0,0:0:0:0:
256,192,249862,1,8,0:0:0:0:
256,192,249982,1,8,0:0:0:0:
256,192,250042,1,8,0:0:0:0:
256,192,250102,1,0,0:0:0:0:
256,192,250162,1,0,0:0:0:0:
256,192,250222,1,8,0:0:0:0:
256,192,250282,1,0,0:0:0:0:
256,192,250342,1,0,0:0:0:0:
256,192,250462,1,8,0:0:0:0:
256,192,250582,1,8,0:0:0:0:
256,192,250642,1,0,0:0:0:0:
256,192,250702,1,8,0:0:0:0:
256,192,250762,1,8,0:0:0:0:
256,192,250822,1,0,0:0:0:0:
256,192,250882,1,0,0:0:0:0:
256,192,250942,1,8,0:0:0:0:
256,192,251062,1,0,0:0:0:0:
256,192,251122,1,8,0:0:0:0:
256,192,251182,1,8,0:0:0:0:
256,192,251242,1,0,0:0:0:0:
256,192,251302,1,0,0:0:0:0:
256,192,251362,1,0,0:0:0:0:
256,192,251422,1,8,0:0:0:0:
256,192,251482,1,8,0:0:0:0:
256,192,251542,1,0,0:0:0:0:
256,192,251662,1,0,0:0:0:0:
256,192,251722,1,0,0:0:0:0:
256,192,251782,1,0,0:0:0:0:
256,192,251842,1,0,0:0:0:0:
256,192,251902,1,8,0:0:0:0:
256,192,251962,1,0,0:0:0:0:
256,192,252022,1,8,0:0:0:0:
256,192,252082,1,0,0:0:0:0:
256,192,252142,1,8,0:0:0:0:
256,192,252202,1,8,0:0:0:0:
256,192,252262,1,0,0:0:0:0:
256,192,252382,1,8,0:0:0:0:
256,192,252442,1,0,0:0:0:0:
256,192,252502,1,8,0:0:0:0:
256,192,252562,1,0,0:0:0:0:
256,192,252622,1,8,0:0:0:0:
256,192,252682,1,8,0:0:0:0:
256,192,252742,1,8,0:0:0:0:
256,192,252862,1,8,0:0:0:0:
256,192,252922,1,8,0:0:0:0:
256,192,252982,1,0,0:0:0:0:
256,192,253042,1,0,0:0:0:0:
256,192,253102,1,8,0:0:0:0:
256,192,253162,1,8,0:0:0:0:
256,192,253222,1,8,0:0:0:0:
256,192,253282,1,8,0:0:0:0:
256,192,253342,1,0,0:0:0:0:
256,192,253462,1,0,0:0:0:0:
256,192,253582,1,4,0:0:0:0:
256,192,253822,1,0,0:0:0:0:
256,192,253882,1,0,0:0:0:0:
256,192,253942,1,0,0:0:0:0:
256,192,254002,1,0,0:0:0:0:
256,192,254062,1,8,0:0:0:0:
256,192,254122,1,0,0:0:0:0:
256,192,254182,1,0,0:0:0:0:
256,192,254242,1,0,0:0:0:0:
256,192,254302,1,0,0:0:0:0:
256,192,254542,1,8,0:0:0:0:
256,192,254602,1,0,0:0:0:0:
256,192,254662,1,0,0:0:0:0:
256,192,254722,1,0,0:0:0:0:
256,192,254782,1,0,0:0:0:0:
256,192,254842,1,0,0:0:0:0:
256,192,254902,1,0,0:0:0:0:
256,192,254962,1,0,0:0:0:0:
256,192,255022,1,8,0:0:0:0:
256,192,255262,1,0,0:0:0:0:
256,192,255322,1,0,0:0:0:0:
256,192,255382,1,0,0:0:0:0:
256,192,255442,1,0,0:0:0:0:
256,192,255502,1,8,0:0:0:0:
256,192,255562,1,0,0:0:0:0:
256,192,255622,1,0,0:0:0:0:
256,192,255682,1,0,0:0:0:0:
256,192,255742,1,8,0:0:0:0:
256,192,255862,1,0,0:0:0:0:
256,192,255922,1,0,0:0:0:0:
256,192,255982,1,8,0:0:0:0:
256,192,256042,1,0,0:0:0:0:
256,192,256102,1,0,0:0:0:0:
256,192,256162,1,0,0:0:0:0:
256,192,256222,1,8,0:0:0:0:
256,192,256282,1,0,0:0:0:0:
256,192,256342,1,0,0:0:0:0:
256,192,256462,1,4,0:0:0:0:
256,192,256702,1,0,0:0:0:0:
256,192,256762,1,0,0:0:0:0:
256,192,256822,1,0,0:0:0:0:
256,192,256882,1,0,0:0:0:0:
256,192,256942,1,8,0:0:0:0:
256,192,257002,1,0,0:0:0:0:
256,192,257062,1,0,0:0:0:0:
256,192,257122,1,0,0:0:0:0:
256,192,257182,1,0,0:0:0:0:
256,192,257422,1,8,0:0:0:0:
256,192,257482,1,0,0:0:0:0:
256,192,257542,1,0,0:0:0:0:
256,192,257602,1,0,0:0:0:0:
256,192,257662,1,0,0:0:0:0:
256,192,257722,1,0,0:0:0:0:
256,192,257782,1,0,0:0:0:0:
256,192,257842,1,0,0:0:0:0:
256,192,257902,1,8,0:0:0:0:
256,192,258142,1,0,0:0:0:0:
256,192,258202,1,0,0:0:0:0:
256,192,258262,1,0,0:0:0:0:
256,192,258322,1,0,0:0:0:0:
256,192,258382,1,8,0:0:0:0:
256,192,258442,1,0,0:0:0:0:
256,192,258502,1,0,0:0:0:0:
256,192,258562,1,0,0:0:0:0:
256,192,258622,1,8,0:0:0:0:
256,192,258742,1,0,0:0:0:0:
256,192,258862,1,8,0:0:0:0:
256,192,259102,1,8,0:0:0:0:
256,192,259222,1,0,0:0:0:0:
256,192,259342,1,12,0:0:0:0:
256,192,259582,1,0,0:0:0:0:
256,192,259642,1,0,0:0:0:0:
256,192,259702,1,0,0:0:0:0:
256,192,259762,1,0,0:0:0:0:
256,192,259822,1,8,0:0:0:0:
256,192,259882,1,0,0:0:0:0:
256,192,259942,1,0,0:0:0:0:
256,192,260002,1,0,0:0:0:0:
256,192,260062,1,0,0:0:0:0:
256,192,260302,1,8,0:0:0:0:
256,192,260362,1,0,0:0:0:0:
256,192,260422,1,0,0:0:0:0:
256,192,260482,1,0,0:0:0:0:
256,192,260542,1,8,0:0:0:0:
256,192,260582,1,8,0:0:0:0:
256,192,260622,1,8,0:0:0:0:
256,192,260662,1,0,0:0:0:0:
256,192,260782,1,4,0:0:0:0:
256,192,261022,1,4,0:0:0:0:
256,192,261262,1,4,0:0:0:0:
256,192,261502,1,4,0:0:0:0:
256,192,262222,1,12,0:0:0:0:
256,192,262342,1,8,0:0:0:0:
256,192,262402,1,8,0:0:0:0:
256,192,262462,1,8,0:0:0:0:
256,192,262522,1,8,0:0:0:0:
256,192,262582,1,0,0:0:0:0:
256,192,262642,1,0,0:0:0:0:
256,192,262702,1,8,0:0:0:0:
256,192,262762,1,8,0:0:0:0:
256,192,262822,1,0,0:0:0:0:
256,192,262882,1,0,0:0:0:0:
256,192,262942,1,8,0:0:0:0:
256,192,263002,1,8,0:0:0:0:
256,192,263062,1,8,0:0:0:0:
256,192,263122,1,8,0:0:0:0:
256,192,263182,1,0,0:0:0:0:
256,192,263242,1,0,0:0:0:0:
256,192,263302,1,8,0:0:0:0:
256,192,263362,1,8,0:0:0:0:
256,192,263422,1,0,0:0:0:0:
256,192,263482,1,0,0:0:0:0:
256,192,263542,1,8,0:0:0:0:
256,192,263602,1,0,0:0:0:0:
256,192,263662,1,8,0:0:0:0:
256,192,263722,1,8,0:0:0:0:
256,192,263782,1,0,0:0:0:0:
256,192,263842,1,0,0:0:0:0:
256,192,263902,1,8,0:0:0:0:
256,192,263962,1,8,0:0:0:0:
256,192,264022,1,0,0:0:0:0:
256,192,264082,1,0,0:0:0:0:
256,192,264142,1,8,0:0:0:0:
256,192,264202,1,8,0:0:0:0:
256,192,264262,1,0,0:0:0:0:
256,192,264322,1,0,0:0:0:0:
256,192,264382,1,8,0:0:0:0:
256,192,264442,1,0,0:0:0:0:
256,192,264502,1,8,0:0:0:0:
256,192,264562,1,0,0:0:0:0:
256,192,264622,1,8,0:0:0:0:
256,192,264682,1,8,0:0:0:0:
256,192,264742,1,0,0:0:0:0:
256,192,264802,1,0,0:0:0:0:
256,192,264862,1,8,0:0:0:0:
256,192,264922,1,8,0:0:0:0:
256,192,264982,1,0,0:0:0:0:
256,192,265102,1,8,0:0:0:0:
256,192,265162,1,8,0:0:0:0:
256,192,265222,1,8,0:0:0:0:
256,192,265282,1,8,0:0:0:0:
256,192,265342,1,8,0:0:0:0:
256,192,265402,1,8,0:0:0:0:
256,192,265462,1,0,0:0:0:0:
256,192,265522,1,0,0:0:0:0:
256,192,265582,1,8,0:0:0:0:
256,192,265642,1,8,0:0:0:0:
256,192,265702,1,0,0:0:0:0:
256,192,265762,1,0,0:0:0:0:
256,192,265822,1,8,0:0:0:0:
256,192,265882,1,0,0:0:0:0:
256,192,265942,1,0,0:0:0:0:
256,192,266002,1,0,0:0:0:0:
256,192,266062,1,8,0:0:0:0:
256,192,266122,1,8,0:0:0:0:
256,192,266182,1,0,0:0:0:0:
256,192,266242,1,0,0:0:0:0:
256,192,266302,1,8,0:0:0:0:
256,192,266362,1,8,0:0:0:0:
256,192,266422,1,0,0:0:0:0:
256,192,266542,1,8,0:0:0:0:
256,192,266602,1,8,0:0:0:0:
256,192,266662,1,8,0:0:0:0:
256,192,266722,1,8,0:0:0:0:
256,192,266782,1,0,0:0:0:0:
256,192,266842,1,0,0:0:0:0:
256,192,266902,1,0,0:0:0:0:
256,192,266962,1,0,0:0:0:0:
256,192,267022,1,8,0:0:0:0:
256,192,267082,1,0,0:0:0:0:
256,192,267142,1,8,0:0:0:0:
256,192,267202,1,8,0:0:0:0:
256,192,267262,1,0,0:0:0:0:
256,192,267322,1,0,0:0:0:0:
256,192,267382,1,0,0:0:0:0:
256,192,267442,1,0,0:0:0:0:
256,192,267502,1,8,0:0:0:0:
256,192,267562,1,8,0:0:0:0:
256,192,267622,1,8,0:0:0:0:
256,192,267682,1,8,0:0:0:0:
256,192,267742,1,0,0:0:0:0:
256,192,267802,1,0,0:0:0:0:
256,192,267862,1,8,0:0:0:0:
256,192,267982,1,8,0:0:0:0:
256,192,268042,1,8,0:0:0:0:
256,192,268102,1,8,0:0:0:0:
256,192,268162,1,8,0:0:0:0:
256,192,268222,1,8,0:0:0:0:
256,192,268282,1,8,0:0:0:0:
256,192,268342,1,0,0:0:0:0:
256,192,268402,1,0,0:0:0:0:
256,192,268462,1,0,0:0:0:0:
256,192,268522,1,0,0:0:0:0:
256,192,268582,1,8,0:0:0:0:
256,192,268642,1,8,0:0:0:0:
256,192,268702,1,0,0:0:0:0:
256,192,268762,1,0,0:0:0:0:
256,192,268822,1,8,0:0:0:0:
256,192,268882,1,0,0:0:0:0:
256,192,268942,1,8,0:0:0:0:
256,192,269002,1,8,0:0:0:0:
256,192,269062,1,0,0:0:0:0:
256,192,269122,1,0,0:0:0:0:
256,192,269182,1,8,0:0:0:0:
256,192,269242,1,8,0:0:0:0:
256,192,269302,1,0,0:0:0:0:
256,192,269422,1,8,0:0:0:0:
256,192,269482,1,8,0:0:0:0:
256,192,269542,1,8,0:0:0:0:
256,192,269602,1,8,0:0:0:0:
256,192,269662,1,0,0:0:0:0:
256,192,269722,1,0,0:0:0:0:
256,192,269782,1,0,0:0:0:0:
256,192,269842,1,0,0:0:0:0:
256,192,269902,1,8,0:0:0:0:
256,192,269962,1,8,0:0:0:0:
256,192,270022,1,0,0:0:0:0:
256,192,270082,1,0,0:0:0:0:
256,192,270142,1,8,0:0:0:0:
256,192,270202,1,0,0:0:0:0:
256,192,270262,1,8,0:0:0:0:
256,192,270322,1,0,0:0:0:0:
256,192,270382,1,8,0:0:0:0:
256,192,270442,1,8,0:0:0:0:
256,192,270502,1,0,0:0:0:0:
256,192,270562,1,0,0:0:0:0:
256,192,270622,1,8,0:0:0:0:
256,192,270682,1,0,0:0:0:0:
256,192,270742,1,0,0:0:0:0:
256,192,270862,1,8,0:0:0:0:
256,192,270922,1,8,0:0:0:0:
256,192,270982,1,8,0:0:0:0:
256,192,271042,1,8,0:0:0:0:
256,192,271102,1,8,0:0:0:0:
256,192,271162,1,8,0:0:0:0:
256,192,271222,1,0,0:0:0:0:
256,192,271282,1,0,0:0:0:0:
256,192,271342,1,8,0:0:0:0:
256,192,271402,1,0,0:0:0:0:
256,192,271462,1,0,0:0:0:0:
256,192,271522,1,0,0:0:0:0:
256,192,271582,1,8,0:0:0:0:
256,192,271642,1,0,0:0:0:0:
256,192,271702,1,0,0:0:0:0:
256,192,271762,1,0,0:0:0:0:
256,192,271822,1,8,0:0:0:0:
256,192,271882,1,8,0:0:0:0:
256,192,271942,1,0,0:0:0:0:
256,192,272002,1,0,0:0:0:0:
256,192,272062,1,8,0:0:0:0:
256,192,272122,1,0,0:0:0:0:
256,192,272182,1,0,0:0:0:0:
256,192,272302,1,8,0:0:0:0:
256,192,272362,1,8,0:0:0:0:
256,192,272422,1,8,0:0:0:0:
256,192,272482,1,8,0:0:0:0:
256,192,272542,1,0,0:0:0:0:
256,192,272602,1,0,0:0:0:0:
256,192,272662,1,8,0:0:0:0:
256,192,272722,1,8,0:0:0:0:
256,192,272782,1,8,0:0:0:0:
256,192,272842,1,8,0:0:0:0:
256,192,272902,1,0,0:0:0:0:
256,192,272962,1,0,0:0:0:0:
256,192,273022,1,8,0:0:0:0:
256,192,273082,1,0,0:0:0:0:
256,192,273142,1,8,0:0:0:0:
256,192,273202,1,0,0:0:0:0:
256,192,273262,1,8,0:0:0:0:
256,192,273322,1,8,0:0:0:0:
256,192,273382,1,0,0:0:0:0:
256,192,273442,1,0,0:0:0:0:
256,192,273502,1,8,0:0:0:0:
256,192,273562,1,0,0:0:0:0:
256,192,273622,1,0,0:0:0:0:
256,192,273742,1,8,0:0:0:0:
256,192,273802,1,8,0:0:0:0:
256,192,273862,1,8,0:0:0:0:
256,192,273922,1,8,0:0:0:0:
256,192,273982,1,0,0:0:0:0:
256,192,274042,1,0,0:0:0:0:
256,192,274102,1,8,0:0:0:0:
256,192,274162,1,0,0:0:0:0:
256,192,274222,1,8,0:0:0:0:
256,192,274282,1,8,0:0:0:0:
256,192,274342,1,8,0:0:0:0:
256,192,274402,1,8,0:0:0:0:
256,192,274462,1,0,0:0:0:0:
256,192,274522,1,0,0:0:0:0:
256,192,274582,1,8,0:0:0:0:
256,192,274642,1,0,0:0:0:0:
256,192,274702,1,8,0:0:0:0:
256,192,274762,1,8,0:0:0:0:
256,192,274822,1,0,0:0:0:0:
256,192,274882,1,0,0:0:0:0:
256,192,274942,1,8,0:0:0:0:
256,192,275002,1,8,0:0:0:0:
256,192,275062,1,0,0:0:0:0:
256,192,275182,1,8,0:0:0:0:
256,192,275242,1,0,0:0:0:0:
256,192,275302,1,0,0:0:0:0:
256,192,275362,1,0,0:0:0:0:
256,192,275422,1,8,0:0:0:0:
256,192,275482,1,0,0:0:0:0:
256,192,275542,1,0,0:0:0:0:
256,192,275602,1,0,0:0:0:0:
256,192,275662,1,8,0:0:0:0:
256,192,275722,1,0,0:0:0:0:
256,192,275782,1,8,0:0:0:0:
256,192,275842,1,8,0:0:0:0:
256,192,275902,1,8,0:0:0:0:
256,192,275962,1,8,0:0:0:0:
256,192,276022,1,0,0:0:0:0:
256,192,276082,1,0,0:0:0:0:
256,192,276142,1,8,0:0:0:0:
256,192,276202,1,0,0:0:0:0:
256,192,276262,1,8,0:0:0:0:
256,192,276322,1,8,0:0:0:0:
256,192,276382,1,8,0:0:0:0:
256,192,276442,1,8,0:0:0:0:
256,192,276502,1,8,0:0:0:0:
256,192,276622,1,8,0:0:0:0:
256,192,276682,1,0,0:0:0:0:
256,192,276742,1,0,0:0:0:0:
256,192,276802,1,0,0:0:0:0:
256,192,276862,1,8,0:0:0:0:
256,192,276982,1,8,0:0:0:0:
256,192,277042,1,8,0:0:0:0:
256,192,277102,1,8,0:0:0:0:
256,192,277162,1,8,0:0:0:0:
256,192,277222,1,8,0:0:0:0:
256,192,277282,1,8,0:0:0:0:
256,192,277342,1,0,0:0:0:0:
256,192,277402,1,0,0:0:0:0:
256,192,277462,1,0,0:0:0:0:
256,192,277522,1,0,0:0:0:0:
256,192,277582,1,8,0:0:0:0:
256,192,277642,1,8,0:0:0:0:
256,192,277702,1,8,0:0:0:0:
256,192,277762,1,8,0:0:0:0:
256,192,277822,1,0,0:0:0:0:
256,192,277882,1,0,0:0:0:0:
256,192,277942,1,0,0:0:0:0:
256,192,278002,1,0,0:0:0:0:
256,192,278062,1,8,0:0:0:0:
256,192,278122,1,0,0:0:0:0:
256,192,278182,1,8,0:0:0:0:
256,192,278242,1,0,0:0:0:0:
256,192,278302,1,8,0:0:0:0:
256,192,278362,1,8,0:0:0:0:
256,192,278422,1,8,0:0:0:0:
256,192,278482,1,8,0:0:0:0:
256,192,278542,1,0,0:0:0:0:
256,192,278602,1,0,0:0:0:0:
256,192,278662,1,8,0:0:0:0:
256,192,278782,1,8,0:0:0:0:
256,192,278842,1,8,0:0:0:0:
256,192,278902,1,0,0:0:0:0:
256,192,278962,1,0,0:0:0:0:
256,192,279022,1,8,0:0:0:0:
256,192,279082,1,8,0:0:0:0:
256,192,279142,1,8,0:0:0:0:
256,192,279202,1,8,0:0:0:0:
256,192,279262,1,0,0:0:0:0:
256,192,279322,1,0,0:0:0:0:
256,192,279382,1,0,0:0:0:0:
256,192,279502,1,8,0:0:0:0:
256,192,279562,1,8,0:0:0:0:
256,192,279622,1,8,0:0:0:0:
256,192,279682,1,8,0:0:0:0:
256,192,279742,1,8,0:0:0:0:
256,192,279802,1,8,0:0:0:0:
256,192,279862,1,8,0:0:0:0:
256,192,279922,1,8,0:0:0:0:
256,192,279982,1,0,0:0:0:0:
256,192,280042,1,0,0:0:0:0:
256,192,280102,1,8,0:0:0:0:
256,192,280162,1,8,0:0:0:0:
256,192,280222,1,0,0:0:0:0:
256,192,280282,1,0,0:0:0:0:
256,192,280342,1,8,0:0:0:0:
256,192,280402,1,8,0:0:0:0:
256,192,280462,1,8,0:0:0:0:
256,192,280522,1,8,0:0:0:0:
256,192,280582,1,8,0:0:0:0:
256,192,280642,1,8,0:0:0:0:
256,192,280702,1,0,0:0:0:0:
256,192,280762,1,0,0:0:0:0:
256,192,280822,1,0,0:0:0:0:
256,192,280942,1,8,0:0:0:0:
256,192,281002,1,8,0:0:0:0:
256,192,281062,1,8,0:0:0:0:
256,192,281122,1,8,0:0:0:0:
256,192,281182,1,8,0:0:0:0:
256,192,281242,1,8,0:0:0:0:
256,192,281302,1,8,0:0:0:0:
256,192,281362,1,8,0:0:0:0:
256,192,281422,1,0,0:0:0:0:
256,192,281482,1,0,0:0:0:0:
256,192,281542,1,8,0:0:0:0:
256,192,281602,1,0,0:0:0:0:
256,192,281662,1,8,0:0:0:0:
256,192,281722,1,8,0:0:0:0:
256,192,281782,1,8,0:0:0:0:
256,192,281842,1,8,0:0:0:0:
256,192,281902,1,0,0:0:0:0:
256,192,281962,1,0,0:0:0:0:
256,192,282022,1,8,0:0:0:0:
256,192,282082,1,0,0:0:0:0:
256,192,282142,1,8,0:0:0:0:
256,192,282202,1,8,0:0:0:0:
256,192,282262,1,0,0:0:0:0:
256,192,282382,1,8,0:0:0:0:
256,192,282442,1,8,0:0:0:0:
256,192,282502,1,8,0:0:0:0:
256,192,282562,1,8,0:0:0:0:
256,192,282622,1,0,0:0:0:0:
256,192,282682,1,0,0:0:0:0:
256,192,282742,1,8,0:0:0:0:
256,192,282802,1,0,0:0:0:0:
256,192,282862,1,8,0:0:0:0:
256,192,282922,1,0,0:0:0:0:
256,192,282982,1,8,0:0:0:0:
256,192,283042,1,0,0:0:0:0:
256,192,283102,1,8,0:0:0:0:
256,192,283162,1,8,0:0:0:0:
256,192,283222,1,0,0:0:0:0:
256,192,283282,1,0,0:0:0:0:
256,192,283342,1,8,0:0:0:0:
256,192,283402,1,0,0:0:0:0:
256,192,283462,1,8,0:0:0:0:
256,192,283522,1,0,0:0:0:0:
256,192,283582,1,8,0:0:0:0:
256,192,283642,1,8,0:0:0:0:
256,192,283702,1,0,0:0:0:0:
256,192,283822,1,8,0:0:0:0:
256,192,283882,1,8,0:0:0:0:
256,192,283942,1,8,0:0:0:0:
256,192,284002,1,8,0:0:0:0:
256,192,284062,1,0,0:0:0:0:
256,192,284122,1,0,0:0:0:0:
256,192,284182,1,8,0:0:0:0:
256,192,284242,1,0,0:0:0:0:
256,192,284302,1,8,0:0:0:0:
256,192,284362,1,0,0:0:0:0:
256,192,284422,1,8,0:0:0:0:
256,192,284482,1,0,0:0:0:0:
256,192,284542,1,8,0:0:0:0:
256,192,284602,1,8,0:0:0:0:
256,192,284662,1,8,0:0:0:0:
256,192,284722,1,8,0:0:0:0:
256,192,284782,1,0,0:0:0:0:
256,192,284902,1,8,0:0:0:0:
256,192,284962,1,8,0:0:0:0:
256,192,285022,1,8,0:0:0:0:
256,192,285082,1,8,0:0:0:0:
256,192,285142,1,0,0:0:0:0:
256,192,285202,1,0,0:0:0:0:
256,192,285262,1,8,0:0:0:0:
256,192,285322,1,8,0:0:0:0:
256,192,285382,1,0,0:0:0:0:
256,192,285442,1,0,0:0:0:0:
256,192,285502,1,0,0:0:0:0:
256,192,285622,1,8,0:0:0:0:
256,192,285682,1,8,0:0:0:0:
256,192,285742,1,8,0:0:0:0:
256,192,285802,1,8,0:0:0:0:
256,192,285862,1,8,0:0:0:0:
256,192,285922,1,8,0:0:0:0:
256,192,285982,1,0,0:0:0:0:
256,192,286042,1,0,0:0:0:0:
256,192,286102,1,8,0:0:0:0:
256,192,286162,1,8,0:0:0:0:
256,192,286222,1,8,0:0:0:0:
256,192,286282,1,8,0:0:0:0:
256,192,286342,1,8,0:0:0:0:
256,192,286402,1,8,0:0:0:0:
256,192,286462,1,0,0:0:0:0:
256,192,286522,1,0,0:0:0:0:
256,192,286582,1,0,0:0:0:0:
256,192,286642,1,0,0:0:0:0:
256,192,286702,1,12,0:0:0:0:
256,192,286942,1,0,0:0:0:0:
256,192,287182,1,0,0:0:0:0:
256,192,287422,1,8,0:0:0:0:
256,192,287662,1,0,0:0:0:0:
256,192,287902,1,0,0:0:0:0:
256,192,288142,1,12,0:0:0:0:
256,192,288262,1,0,0:0:0:0:
256,192,288322,1,0,0:0:0:0:
256,192,288382,1,8,0:0:0:0:
256,192,288442,1,0,0:0:0:0:
256,192,288502,1,8,0:0:0:0:
256,192,288562,1,0,0:0:0:0:
256,192,288622,1,8,0:0:0:0:
256,192,288682,1,0,0:0:0:0:
256,192,288742,1,0,0:0:0:0:
256,192,288802,1,0,0:0:0:0:
256,192,288862,1,8,0:0:0:0:
256,192,288922,1,8,0:0:0:0:
256,192,288982,1,0,0:0:0:0:
256,192,289042,1,0,0:0:0:0:
256,192,289102,1,8,0:0:0:0:
256,192,289162,1,0,0:0:0:0:
256,192,289222,1,8,0:0:0:0:
256,192,289282,1,0,0:0:0:0:
256,192,289342,1,8,0:0:0:0:
256,192,289402,1,0,0:0:0:0:
256,192,289462,1,0,0:0:0:0:
256,192,289522,1,0,0:0:0:0:
256,192,289582,1,8,0:0:0:0:
256,192,289642,1,8,0:0:0:0:
256,192,289702,1,8,0:0:0:0:
256,192,289762,1,8,0:0:0:0:
256,192,289822,1,0,0:0:0:0:
256,192,289882,1,0,0:0:0:0:
256,192,289942,1,8,0:0:0:0:
256,192,290002,1,0,0:0:0:0:
256,192,290062,1,8,0:0:0:0:
256,192,290122,1,0,0:0:0:0:
256,192,290182,1,8,0:0:0:0:
256,192,290302,1,4,0:0:0:0:
256,192,290422,1,0,0:0:0:0:
256,192,290542,1,4,0:0:0:0:
256,192,290662,1,0,0:0:0:0:
256,192,290782,1,4,0:0:0:0:
256,192,290902,1,0,0:0:0:0:
256,192,291022,1,12,0:0:0:0:
256,192,291142,1,8,0:0:0:0:
256,192,291202,1,8,0:0:0:0:
256,192,291262,1,0,0:0:0:0:
256,192,291322,1,0,0:0:0:0:
256,192,291382,1,8,0:0:0:0:
256,192,291442,1,0,0:0:0:0:
256,192,291502,1,8,0:0:0:0:
256,192,291562,1,8,0:0:0:0:
256,192,291622,1,0,0:0:0:0:
256,192,291682,1,0,0:0:0:0:
256,192,291742,1,8,0:0:0:0:
256,192,291802,1,8,0:0:0:0:
256,192,291862,1,0,0:0:0:0:
256,192,291922,1,0,0:0:0:0:
256,192,291982,1,8,0:0:0:0:
256,192,292042,1,0,0:0:0:0:
256,192,292102,1,8,0:0:0:0:
256,192,292162,1,0,0:0:0:0:
256,192,292222,1,8,0:0:0:0:
256,192,292282,1,0,0:0:0:0:
256,192,292342,1,8,0:0:0:0:
256,192,292402,1,8,0:0:0:0:
256,192,292462,1,0,0:0:0:0:
256,192,292582,1,0,0:0:0:0:
256,192,292702,1,8,0:0:0:0:
256,192,292762,1,8,0:0:0:0:
256,192,292822,1,0,0:0:0:0:
256,192,292882,1,0,0:0:0:0:
256,192,292942,1,8,0:0:0:0:
256,192,293002,1,8,0:0:0:0:
256,192,293062,1,0,0:0:0:0:
256,192,293122,1,0,0:0:0:0:
256,192,293182,1,0,0:0:0:0:
256,192,293302,1,0,0:0:0:0:
256,192,293422,1,8,0:0:0:0:
256,192,293482,1,8,0:0:0:0:
256,192,293542,1,8,0:0:0:0:
256,192,293602,1,8,0:0:0:0:
256,192,293662,1,0,0:0:0:0:
256,192,293722,1,0,0:0:0:0:
256,192,293782,1,0,0:0:0:0:
256,192,293842,1,0,0:0:0:0:
256,192,293902,1,12,0:0:0:0:
256,192,294022,1,8,0:0:0:0:
256,192,294082,1,8,0:0:0:0:
256,192,294142,1,8,0:0:0:0:
256,192,294202,1,0,0:0:0:0:
256,192,294262,1,0,0:0:0:0:
256,192,294322,1,0,0:0:0:0:
256,192,294382,1,8,0:0:0:0:
256,192,294442,1,8,0:0:0:0:
256,192,294502,1,0,0:0:0:0:
256,192,294562,1,0,0:0:0:0:
256,192,294622,1,8,0:0:0:0:
256,192,294682,1,8,0:0:0:0:
256,192,294742,1,0,0:0:0:0:
256,192,294802,1,0,0:0:0:0:
256,192,294862,1,8,0:0:0:0:
256,192,294922,1,0,0:0:0:0:
256,192,294982,1,0,0:0:0:0:
256,192,295042,1,0,0:0:0:0:
256,192,295102,1,8,0:0:0:0:
256,192,295162,1,0,0:0:0:0:
256,192,295222,1,8,0:0:0:0:
256,192,295282,1,0,0:0:0:0:
256,192,295342,1,8,0:0:0:0:
256,192,295402,1,8,0:0:0:0:
256,192,295462,1,8,0:0:0:0:
256,192,295522,1,0,0:0:0:0:
256,192,295582,1,0,0:0:0:0:
256,192,295642,1,0,0:0:0:0:
256,192,295702,1,8,0:0:0:0:
256,192,295762,1,0,0:0:0:0:
256,192,295822,1,8,0:0:0:0:
256,192,295882,1,0,0:0:0:0:
256,192,295942,1,8,0:0:0:0:
256,192,296062,1,4,0:0:0:0:
256,192,296182,1,0,0:0:0:0:
256,192,296302,1,4,0:0:0:0:
256,192,296422,1,0,0:0:0:0:
256,192,296542,1,4,0:0:0:0:
256,192,296662,1,0,0:0:0:0:
256,192,296782,1,12,0:0:0:0:
256,192,296902,1,0,0:0:0:0:
256,192,296962,1,0,0:0:0:0:
256,192,297022,1,8,0:0:0:0:
256,192,297082,1,0,0:0:0:0:
256,192,297142,1,0,0:0:0:0:
256,192,297202,1,0,0:0:0:0:
256,192,297262,1,8,0:0:0:0:
256,192,297322,1,0,0:0:0:0:
256,192,297382,1,8,0:0:0:0:
256,192,297442,1,0,0:0:0:0:
256,192,297502,1,8,0:0:0:0:
256,192,297562,1,8,0:0:0:0:
256,192,297622,1,0,0:0:0:0:
256,192,297682,1,0,0:0:0:0:
256,192,297742,1,8,0:0:0:0:
256,192,297802,1,0,0:0:0:0:
256,192,297862,1,8,0:0:0:0:
256,192,297922,1,0,0:0:0:0:
256,192,297982,1,8,0:0:0:0:
256,192,298042,1,0,0:0:0:0:
256,192,298102,1,0,0:0:0:0:
256,192,298162,1,0,0:0:0:0:
256,192,298222,1,8,0:0:0:0:
256,192,298282,1,8,0:0:0:0:
256,192,298342,1,0,0:0:0:0:
256,192,298402,1,0,0:0:0:0:
256,192,298462,1,8,0:0:0:0:
256,192,298522,1,0,0:0:0:0:
256,192,298582,1,8,0:0:0:0:
256,192,298642,1,8,0:0:0:0:
256,192,298702,1,0,0:0:0:0:
256,192,298762,1,0,0:0:0:0:
256,192,298822,1,8,0:0:0:0:
256,192,298882,1,0,0:0:0:0:
256,192,298942,1,8,0:0:0:0:
256,192,299002,1,8,0:0:0:0:
256,192,299062,1,8,0:0:0:0:
256,192,299122,1,0,0:0:0:0:
256,192,299182,1,8,0:0:0:0:
256,192,299242,1,8,0:0:0:0:
256,192,299302,1,8,0:0:0:0:
256,192,299362,1,8,0:0:0:0:
256,192,299422,1,0,0:0:0:0:
256,192,299482,1,0,0:0:0:0:
256,192,299542,1,0,0:0:0:0:
256,192,299602,1,0,0:0:0:0:
256,192,299662,1,12,0:0:0:0:
256,192,299782,1,0,0:0:0:0:
256,192,299842,1,0,0:0:0:0:
256,192,299902,1,8,0:0:0:0:
256,192,299962,1,0,0:0:0:0:
256,192,300022,1,8,0:0:0:0:
256,192,300082,1,0,0:0:0:0:
256,192,300142,1,8,0:0:0:0:
256,192,300202,1,8,0:0:0:0:
256,192,300262,1,0,0:0:0:0:
256,192,300322,1,0,0:0:0:0:
256,192,300382,1,8,0:0:0:0:
256,192,300442,1,8,0:0:0:0:
256,192,300502,1,0,0:0:0:0:
256,192,300562,1,0,0:0:0:0:
256,192,300622,1,8,0:0:0:0:
256,192,300682,1,0,0:0:0:0:
256,192,300742,1,8,0:0:0:0:
256,192,300802,1,0,0:0:0:0:
256,192,300862,1,8,0:0:0:0:
256,192,300922,1,8,0:0:0:0:
256,192,300982,1,0,0:0:0:0:
256,192,301042,1,0,0:0:0:0:
256,192,301102,1,8,0:0:0:0:
256,192,301162,1,8,0:0:0:0:
256,192,301222,1,8,0:0:0:0:
256,192,301282,1,8,0:0:0:0:
256,192,301342,1,0,0:0:0:0:
256,192,301402,1,0,0:0:0:0:
256,192,301462,1,8,0:0:0:0:
256,192,301522,1,0,0:0:0:0:
256,192,301582,1,8,0:0:0:0:
256,192,301642,1,8,0:0:0:0:
256,192,301702,1,0,0:0:0:0:
256,192,301822,1,12,0:0:0:0:
256,192,301942,1,0,0:0:0:0:
256,192,302062,1,12,0:0:0:0:
256,192,302182,1,0,0:0:0:0:
256,192,302302,1,12,0:0:0:0:
256,192,302422,1,0,0:0:0:0:
256,192,302542,1,12,0:0:0:0:
256,192,302662,1,8,0:0:0:0:
256,192,302722,1,8,0:0:0:0:
256,192,302782,1,8,0:0:0:0:
256,192,302842,1,0,0:0:0:0:
256,192,302902,1,8,0:0:0:0:
256,192,302962,1,0,0:0:0:0:
256,192,303022,1,8,0:0:0:0:
256,192,303082,1,8,0:0:0:0:
256,192,303142,1,0,0:0:0:0:
256,192,303202,1,0,0:0:0:0:
256,192,303262,1,8,0:0:0:0:
256,192,303322,1,8,0:0:0:0:
256,192,303382,1,8,0:0:0:0:
256,192,303442,1,0,0:0:0:0:
256,192,303502,1,8,0:0:0:0:
256,192,303562,1,0,0:0:0:0:
256,192,303622,1,8,0:0:0:0:
256,192,303682,1,0,0:0:0:0:
256,192,303742,1,8,0:0:0:0:
256,192,303802,1,0,0:0:0:0:
256,192,303862,1,8,0:0:0:0:
256,192,303922,1,8,0:0:0:0:
256,192,303982,1,0,0:0:0:0:
256,192,304042,1,0,0:0:0:0:
256,192,304102,1,8,0:0:0:0:
256,192,304162,1,0,0:0:0:0:
256,192,304222,1,8,0:0:0:0:
256,192,304282,1,0,0:0:0:0:
256,192,304342,1,0,0:0:0:0:
256,192,304402,1,0,0:0:0:0:
256,192,304462,1,8,0:0:0:0:
256,192,304522,1,8,0:0:0:0:
256,192,304582,1,8,0:0:0:0:
256,192,304642,1,8,0:0:0:0:
256,192,304702,1,0,0:0:0:0:
256,192,304762,1,0,0:0:0:0:
256,192,304822,1,8,0:0:0:0:
256,192,304882,1,0,0:0:0:0:
256,192,304942,1,8,0:0:0:0:
256,192,305002,1,0,0:0:0:0:
256,192,305062,1,0,0:0:0:0:
256,192,305122,1,0,0:0:0:0:
256,192,305182,1,8,0:0:0:0:
256,192,305242,1,8,0:0:0:0:
256,192,305302,1,8,0:0:0:0:
256,192,305362,1,8,0:0:0:0:
256,192,305422,1,4,0:0:0:0:
256,192,305542,1,8,0:0:0:0:
256,192,305602,1,8,0:0:0:0:
256,192,305662,1,8,0:0:0:0:
256,192,305722,1,8,0:0:0:0:
256,192,305782,1,0,0:0:0:0:
256,192,305842,1,0,0:0:0:0:
256,192,305902,1,8,0:0:0:0:
256,192,305962,1,8,0:0:0:0:
256,192,306022,1,0,0:0:0:0:
256,192,306082,1,0,0:0:0:0:
256,192,306142,1,8,0:0:0:0:
256,192,306202,1,8,0:0:0:0:
256,192,306262,1,8,0:0:0:0:
256,192,306322,1,0,0:0:0:0:
256,192,306382,1,8,0:0:0:0:
256,192,306442,1,8,0:0:0:0:
256,192,306502,1,0,0:0:0:0:
256,192,306562,1,0,0:0:0:0:
256,192,306622,1,8,0:0:0:0:
256,192,306682,1,0,0:0:0:0:
256,192,306742,1,8,0:0:0:0:
256,192,306802,1,0,0:0:0:0:
256,192,306862,1,8,0:0:0:0:
256,192,306922,1,8,0:0:0:0:
256,192,306982,1,8,0:0:0:0:
256,192,307042,1,8,0:0:0:0:
256,192,307102,1,0,0:0:0:0:
256,192,307162,1,0,0:0:0:0:
256,192,307222,1,8,0:0:0:0:
256,192,307282,1,0,0:0:0:0:
256,192,307342,1,8,0:0:0:0:
256,192,307402,1,8,0:0:0:0:
256,192,307462,1,0,0:0:0:0:
256,192,307582,1,12,0:0:0:0:
256,192,307702,1,0,0:0:0:0:
256,192,307822,1,12,0:0:0:0:
256,192,307942,1,0,0:0:0:0:
256,192,308062,1,12,0:0:0:0:
256,192,308182,1,0,0:0:0:0:
256,192,308302,1,12,0:0:0:0:
256,192,308422,1,0,0:0:0:0:
256,192,308482,1,0,0:0:0:0:
256,192,308542,1,8,0:0:0:0:
256,192,308602,1,8,0:0:0:0:
256,192,308662,1,0,0:0:0:0:
256,192,308722,1,0,0:0:0:0:
256,192,308782,1,8,0:0:0:0:
256,192,308842,1,0,0:0:0:0:
256,192,308902,1,8,0:0:0:0:
256,192,308962,1,0,0:0:0:0:
256,192,309022,1,8,0:0:0:0:
256,192,309082,1,8,0:0:0:0:
256,192,309142,1,0,0:0:0:0:
256,192,309202,1,0,0:0:0:0:
256,192,309262,1,8,0:0:0:0:
256,192,309322,1,0,0:0:0:0:
256,192,309382,1,8,0:0:0:0:
256,192,309442,1,0,0:0:0:0:
256,192,309502,1,8,0:0:0:0:
256,192,309562,1,8,0:0:0:0:
256,192,309622,1,0,0:0:0:0:
256,192,309682,1,0,0:0:0:0:
256,192,309742,1,8,0:0:0:0:
256,192,309802,1,8,0:0:0:0:
256,192,309862,1,0,0:0:0:0:
256,192,309922,1,0,0:0:0:0:
256,192,309982,1,8,0:0:0:0:
256,192,310042,1,0,0:0:0:0:
256,192,310102,1,8,0:0:0:0:
256,192,310162,1,8,0:0:0:0:
256,192,310222,1,0,0:0:0:0:
256,192,310282,1,0,0:0:0:0:
256,192,310342,1,8,0:0:0:0:
256,192,310402,1,0,0:0:0:0:
256,192,310462,1,8,0:0:0:0:
256,192,310522,1,8,0:0:0:0:
256,192,310582,1,0,0:0:0:0:
256,192,310642,1,0,0:0:0:0:
256,192,310702,1,8,0:0:0:0:
256,192,310762,1,8,0:0:0:0:
256,192,310822,1,0,0:0:0:0:
256,192,310882,1,0,0:0:0:0:
256,192,310942,1,8,0:0:0:0:
256,192,311002,1,8,0:0:0:0:
256,192,311062,1,8,0:0:0:0:
256,192,311182,1,12,0:0:0:0:
256,192,311422,1,12,0:0:0:0:
