osu file format v14

[General]
AudioFilename: audio.mp3
AudioLeadIn: 0
PreviewTime: 43970
Countdown: 1
SampleSet: Soft
StackLeniency: 0.3
Mode: 0
LetterboxInBreaks: 0
WidescreenStoryboard: 0

[Editor]
DistanceSpacing: 0.4
BeatDivisor: 4
GridSize: 16
TimelineZoom: 1

[Metadata]
Title:Fight or Flight
TitleUnicode:Fight or Flight
Artist:Flashygoodness
ArtistUnicode:Flashygoodness
Creator:Sassbjorn
Version:Insane
Source:Rivals Of Aether
Tags:Air Armada Wrastor Solitaire
BeatmapID:1717227
BeatmapSetID:819002

[Difficulty]
HPDrainRate:6
CircleSize:4
OverallDifficulty:8
ApproachRate:9
SliderMultiplier:1.5
SliderTickRate:1

[Events]
//Background and Video events
0,0,"fight or flight.png",0,0
//Break Periods
2,35792,40639
2,69674,74521
//Storyboard Layer 0 (Background)
//Storyboard Layer 1 (Fail)
//Storyboard Layer 2 (Pass)
//Storyboard Layer 3 (Foreground)
//Storyboard Sound Samples

[TimingPoints]
298,352.941176470588,4,2,0,60,1,0
13003,-76.9230769230769,4,2,0,60,0,1
21474,-90.9090909090909,4,2,0,60,0,0
24297,-76.9230769230769,4,2,0,60,0,1
32768,-90.9090909090909,4,2,0,60,0,0
35592,-200,4,2,0,60,0,0
42474,-153.846153846154,4,2,0,60,0,0
43180,-125,4,2,0,60,0,0
43709,-105.263157894737,4,2,0,60,0,0
44062,-90.9090909090909,4,2,0,60,0,0
46886,-76.9230769230769,4,2,0,60,0,1
55356,-90.9090909090909,4,2,0,60,0,0
58180,-76.9230769230769,4,2,0,60,0,1
66650,-90.9090909090909,4,2,0,60,0,0
69474,-200,4,2,0,60,0,0
76356,-153.846153846154,4,2,0,60,0,0
77062,-125,4,2,0,60,0,0
77592,-105.263157894737,4,2,0,60,0,0
77945,-90.9090909090909,4,2,0,60,0,0
80768,-76.9230769230769,4,2,0,60,0,0
83239,-76.9230769230769,4,2,0,5,0,0

[Colours]
Combo1 : 64,86,148
Combo2 : 192,16,0
Combo3 : 123,92,125
Combo4 : 55,98,68

[HitObjects]
512,67,298,5,2,1:2:0:0:
316,129,474,1,2,1:2:0:0:
432,155,650,1,2,1:2:0:0:
280,16,827,5,2,1:2:0:0:
236,217,1003,1,2,1:2:0:0:
316,129,1180,1,2,1:2:0:0:
184,107,1356,1,8,3:0:0:0:
151,125,1445,1,0,0:0:0:0:
127,154,1533,1,0,0:0:0:0:
114,189,1621,1,0,0:0:0:0:
114,226,1709,6,0,P|150:287|222:300,1,150,2|0,0:0|0:0,0:0:0:0:
309,279,2239,1,0,0:0:0:0:
328,122,2415,2,0,P|260:147|235:216,1,150,2|0,0:0|0:0,0:0:0:0:
496,239,2945,6,0,P|424:251|368:206,1,150,2|0,0:0|0:0,0:0:0:0:
328,122,3474,1,0,0:0:0:0:
467,21,3650,2,0,P|449:54|419:76,1,75,2|0,0:0|0:0,0:0:0:0:
280,176,4003,2,0,P|298:143|328:121,1,75,2|0,0:0|0:0,0:0:0:0:
489,277,4356,6,0,P|472:242|443:219,1,75,2|0,0:0|0:0,0:0:0:0:
280,176,4709,1,2,0:0:0:0:
329,339,4886,6,0,P|343:304|342:267,1,75,2|0,0:0|0:0,0:0:0:0:
178,171,5239,1,2,0:0:0:0:
132,256,5415,2,0,P|169:267|205:263,1,75,2|0,0:0|0:0,0:0:0:0:
152,78,5768,6,0,P|190:74|225:85,1,75,2|0,0:0|0:0,0:0:0:0:
352,182,6121,2,0,P|314:186|279:175,1,75,2|0,0:0|0:0,0:0:0:0:
183,0,6474,1,2,0:0:0:0:
322,79,6650,1,2,1:2:0:0:
178,171,6827,1,2,0:0:0:0:
321,91,7003,1,2,1:2:0:0:
419,384,7356,6,0,P|473:337|473:264,1,150,2|0,0:0|0:0,0:0:0:0:
433,182,7886,1,0,0:0:0:0:
253,247,8062,2,0,P|315:282|384:257,1,150,2|0,0:0|0:0,0:0:0:0:
309,43,8592,6,0,P|344:106|318:174,1,150,2|0,0:0|0:0,0:0:0:0:
253,247,9121,1,0,0:0:0:0:
105,75,9297,2,0,P|141:87|168:112,1,75,2|0,0:0|0:0,0:0:0:0:
253,247,9650,2,0,P|216:234|189:209,1,75,2|0,0:0|0:0,0:0:0:0:
297,2,10003,6,0,P|292:39|304:75,1,75,2|0,0:0|0:0,0:0:0:0:
428,119,10356,1,2,0:0:0:0:
208,34,10533,2,0,P|185:64|177:100,1,75,2|0,0:0|0:0,0:0:0:0:
249,201,10886,1,2,0:0:0:0:
309,57,11062,1,4,3:0:0:0:
127,189,11239,1,4,3:0:0:0:
336,153,11415,6,0,P|349:187|349:224,1,75,2|0,0:0|0:0,0:0:0:0:
179,267,11768,1,0,1:0:0:0:
179,267,12121,1,0,1:0:0:0:
421,283,12297,1,0,1:0:0:0:
268,384,12474,1,0,0:0:0:0:
246,129,12650,1,0,3:0:0:0:
282,157,12739,1,0,3:0:0:0:
300,200,12827,1,0,3:0:0:0:
295,246,12915,1,0,3:0:0:0:
269,285,13003,6,0,L|171:293,1,97.4999955368044,6|0,0:0|0:0,0:0:0:0:
0,228,13356,2,0,L|97:219,1,97.4999955368044,2|0,0:0|0:0,0:0:0:0:
300,200,13709,1,2,0:0:0:0:
273,39,13886,2,0,P|244:77|242:125,1,97.4999955368044,2|0,0:0|0:0,0:0:0:0:
270,287,14239,6,0,P|298:248|300:200,1,97.4999955368044,2|0,0:0|0:0,0:0:0:0:
25,169,14592,2,0,B|73:206|73:206|207:219,1,194.999991073609,2|0,0:0|0:0,0:0:0:0:
300,200,15121,2,0,B|314:153|314:153|308:104,1,97.4999955368044
222,142,15474,1,0,0:0:0:0:
222,142,15650,1,0,0:0:0:0:
495,127,15827,6,0,L|397:135,1,97.4999955368044,2|0,0:0|0:0,0:0:0:0:
240,227,16180,2,0,L|338:219,1,97.4999955368044,2|0,0:0|0:0,0:0:0:0:
451,42,16533,1,2,0:0:0:0:
427,257,16709,1,2,0:0:0:0:
321,97,16886,1,2,0:0:0:0:
502,204,17062,6,0,P|521:249|511:296,1,97.4999955368044,2|0,0:0|0:0,0:0:0:0:
342,217,17415,2,0,P|372:178|417:162,1,97.4999955368044,2|0,0:0|0:0,0:0:0:0:
434,349,17768,2,0,P|386:343|349:311,1,97.4999955368044,2|0,0:0|0:0,0:0:0:0:
427,257,18121,1,2,0:0:0:0:
512,376,18297,1,2,0:0:0:0:
257,304,18474,6,0,B|302:322|302:322|349:311,1,97.4999955368044,2|0,0:0|0:0,0:0:0:0:
200,232,18827,1,2,0:0:0:0:
188,359,19003,1,2,0:0:0:0:
337,183,19180,1,2,0:0:0:0:
349,310,19356,1,2,0:0:0:0:
130,292,19533,1,2,0:0:0:0:
257,304,19709,1,2,0:0:0:0:
74,212,19886,6,0,P|119:193|166:203,1,97.4999955368044,2|0,0:0|0:0,0:0:0:0:
26,296,20239,1,2,0:0:0:0:
38,115,20415,1,2,0:0:0:0:
241,144,20592,2,0,P|260:189|250:236,1,97.4999955368044,2|0,0:0|0:0,0:0:0:0:
185,63,20945,2,0,P|229:44|276:53,1,97.4999955368044,2|0,0:0|0:0,0:0:0:0:
48,58,21297,6,0,B|24:100|24:100|30:158,1,97.4999955368044
49,172,21562,1,0,0:0:0:0:
75,187,21650,1,0,0:0:0:0:
105,190,21739,1,0,0:0:0:0:
134,180,21827,1,0,0:0:0:0:
158,162,21915,1,0,0:0:0:0:
181,143,22003,1,0,0:0:0:0:
211,138,22092,1,0,0:0:0:0:
241,144,22180,2,0,L|289:148,3,41.2500012588501
365,78,22533,2,0,L|413:73,3,41.2500012588501
230,11,22886,6,0,L|234:59,1,41.2500012588501
247,230,23062,1,0,3:0:0:0:
249,254,23150,1,0,3:0:0:0:
251,278,23239,2,0,L|255:326,3,41.2500012588501,0|0|0|0,3:0|0:0|3:0|0:0,0:0:0:0:
77,130,23592,2,0,L|73:82,1,41.2500012588501,4|0,3:0|0:0,0:0:0:0:
159,269,23768,2,0,L|163:317,1,41.2500012588501,8|0,3:0|0:0,0:0:0:0:
163,136,23945,2,0,L|166:94,1,41.2500012588501,0|0,3:0|0:0,0:0:0:0:
71,261,24121,2,0,L|67:302,1,41.2500012588501,8|0,3:0|0:0,0:0:0:0:
241,144,24297,6,0,L|339:152,1,97.4999955368044,2|0,0:0|0:0,0:0:0:0:
485,247,24650,2,0,L|387:239,1,97.4999955368044,2|0,0:0|0:0,0:0:0:0:
249,221,25003,1,2,0:0:0:0:
347,60,25180,2,0,P|356:107|337:151,1,97.4999955368044,2|0,0:0|0:0,0:0:0:0:
240,312,25533,2,0,P|230:264|249:220,1,97.4999955368044,2|0,0:0|0:0,0:0:0:0:
512,328,25886,2,0,B|464:291|464:291|330:278,1,194.999991073609,2|0,0:0|0:0,0:0:0:0:
239,312,26415,2,0,B|272:353|272:353|311:373,1,97.4999955368044
330,278,26768,1,0,0:0:0:0:
143,251,26945,6,0,L|135:349,1,97.4999955368044,2|0,0:0|0:0,0:0:0:0:
103,154,27297,2,0,L|22:98,1,97.4999955368044,2|0,0:0|0:0,0:0:0:0:
207,167,27650,2,0,L|295:124,1,97.4999955368044,2|0,0:0|0:0,0:0:0:0:
38,237,28003,1,2,0:0:0:0:
167,69,28180,1,2,0:0:0:0:
247,265,28356,6,0,L|237:362,1,97.4999955368044,2|0,0:0|0:0,0:0:0:0:
360,171,28709,5,2,0:0:0:0:
362,138,28797,1,2,0:0:0:0:
365,106,28886,1,2,0:0:0:0:
351,279,29062,6,0,L|343:377,1,97.4999955368044,2|0,0:0|0:0,0:0:0:0:
274,182,29415,1,2,0:0:0:0:
443,264,29592,1,2,0:0:0:0:
250,369,29768,6,0,B|295:387|295:387|342:376,1,97.4999955368044,2|0,0:0|0:0,0:0:0:0:
223,274,30121,1,2,0:0:0:0:
160,384,30297,1,2,0:0:0:0:
78,191,30474,1,2,0:0:0:0:
141,301,30650,1,2,0:0:0:0:
228,103,30827,1,2,0:0:0:0:
165,213,31003,1,2,0:0:0:0:
23,72,31180,6,0,B|68:54|68:54|115:65,1,97.4999955368044,2|0,0:0|0:0,0:0:0:0:
165,213,31533,1,2,0:0:0:0:
0,164,31709,1,2,0:0:0:0:
115,65,31886,1,2,0:0:0:0:
56,257,32062,1,2,0:0:0:0:
201,24,32239,2,0,B|219:69|219:69|208:116,1,97.4999955368044,2|0,0:0|0:0,0:0:0:0:
286,304,32592,6,0,B|268:259|268:259|279:212,1,97.4999955368044,2|0,0:0|0:0,0:0:0:0:
289,182,32856,1,0,0:0:0:0:
287,151,32945,1,0,0:0:0:0:
273,124,33033,1,0,0:0:0:0:
249,105,33121,1,0,0:0:0:0:
219,98,33209,1,0,0:0:0:0:
189,103,33297,1,0,0:0:0:0:
163,120,33386,1,0,0:0:0:0:
147,146,33474,2,0,L|143:187,3,41.2500012588501
171,307,33827,2,0,L|167:348,3,41.2500012588501
238,179,34180,6,0,L|241:220,1,41.2500012588501,4|0,3:0|0:0,0:0:0:0:
285,363,34356,2,0,L|288:321,1,41.2500012588501,8|0,3:0|0:0,0:0:0:0:
331,138,34533,2,0,L|334:179,1,41.2500012588501,0|0,3:0|0:0,0:0:0:0:
387,329,34709,2,0,L|390:287,1,41.2500012588501,8|0,3:0|0:0,0:0:0:0:
421,96,34886,2,0,L|424:137,1,41.2500012588501,4|0,3:0|0:0,0:0:0:0:
492,297,35062,2,0,L|495:255,1,41.2500012588501,8|0,3:0|0:0,0:0:0:0:
512,99,35239,1,4,3:0:0:0:
506,68,35327,1,0,0:0:0:0:
491,42,35415,1,0,0:0:0:0:
467,21,35503,1,0,0:0:0:0:
439,10,35592,5,2,0:0:0:0:
0,81,41239,6,0,P|55:70|111:74,1,112.5,2|0,0:0|0:0,0:0:0:0:
192,156,41945,1,2,0:0:0:0:
76,165,42121,1,2,0:0:0:0:
207,76,42297,1,2,0:0:0:0:
178,240,42474,6,0,L|172:288,1,48.7499977684022,2|0,0:0|0:0,0:0:0:0:
65,171,42827,1,2,0:0:0:0:
207,76,43003,1,2,0:0:0:0:
177,253,43180,2,0,L|170:312,1,60,2|0,0:0|0:0,0:0:0:0:
207,76,43533,1,2,0:0:0:0:
175,271,43709,2,0,L|168:341,1,71.2499980974198,2|0,0:0|0:0,0:0:0:0:
28,159,44062,5,0,0:0:0:0:
122,197,44239,1,0,0:0:0:0:
122,197,44327,1,0,0:0:0:0:
122,197,44415,1,0,0:0:0:0:
210,124,44592,1,0,0:0:0:0:
210,124,44680,1,0,0:0:0:0:
210,124,44768,1,0,0:0:0:0:
282,253,44945,2,0,L|285:211,1,41.2500012588501
302,55,45121,1,2,0:0:0:0:
409,202,45297,1,2,0:0:0:0:
409,202,45386,1,0,0:0:0:0:
409,202,45474,6,0,L|417:297,1,82.5000025177003,4|2,0:0|0:0,0:0:0:0:
496,234,45827,1,0,0:0:0:0:
283,155,46003,1,6,0:0:0:0:
424,366,46180,2,0,L|415:277,1,82.5000025177003,6|2,0:0|0:0,0:0:0:0:
351,133,46533,1,4,3:1:0:0:
325,98,46621,1,0,3:0:0:0:
293,74,46709,1,0,3:0:0:0:
252,62,46797,1,0,3:0:0:0:
213,64,46886,6,0,L|115:73,1,97.4999955368044,6|0,0:0|0:0,0:0:0:0:
0,181,47239,2,0,L|96:170,1,97.4999955368044,2|0,0:0|0:0,0:0:0:0:
248,160,47592,1,2,0:0:0:0:
187,321,47768,2,0,P|168:276|178:229,1,97.4999955368044,2|0,0:0|0:0,0:0:0:0:
330,102,48121,6,0,P|349:147|339:194,1,97.4999955368044,2|0,0:0|0:0,0:0:0:0:
66,110,48474,2,0,B|114:147|114:147|248:160,1,194.999991073609,2|0,0:0|0:0,0:0:0:0:
330,102,49003,2,0,B|335:53|335:53|321:6,1,97.4999955368044
240,70,49356,1,0,0:0:0:0:
240,70,49533,1,0,0:0:0:0:
262,257,49709,6,0,L|250:153,1,97.4999955368044,2|0,0:0|0:0,0:0:0:0:
143,13,50062,2,0,L|152:110,1,97.4999955368044,2|0,0:0|0:0,0:0:0:0:
164,242,50415,1,2,0:0:0:0:
240,70,50592,1,2,0:0:0:0:
61,129,50768,1,2,0:0:0:0:
250,278,50945,6,0,P|259:230|240:186,1,97.4999955368044,2|0,0:0|0:0,0:0:0:0:
89,298,51297,2,0,P|125:329|172:335,1,97.4999955368044,2|0,0:0|0:0,0:0:0:0:
152,149,51650,2,0,P|106:164|77:202,1,97.4999955368044,2|0,0:0|0:0,0:0:0:0:
164,242,52003,1,2,0:0:0:0:
226,95,52180,1,2,0:0:0:0:
342,271,52356,6,0,B|297:289|297:289|250:278,1,97.4999955368044,2|0,0:0|0:0,0:0:0:0:
394,192,52709,1,2,0:0:0:0:
418,333,52886,1,2,0:0:0:0:
508,121,53062,1,2,0:0:0:0:
458,255,53239,1,2,0:0:0:0:
328,127,53415,1,2,0:0:0:0:
462,177,53592,1,2,0:0:0:0:
332,362,53768,6,0,P|322:314|341:270,1,97.4999955368044,2|0,0:0|0:0,0:0:0:0:
450,93,54121,1,2,0:0:0:0:
473,264,54297,1,2,0:0:0:0:
267,214,54474,2,0,P|303:182|351:176,1,97.4999955368044,2|0,0:0|0:0,0:0:0:0:
491,382,54827,2,0,P|445:366|416:327,1,97.4999955368044,2|0,0:0|0:0,0:0:0:0:
438,137,55180,6,0,B|408:98|408:98|361:84,1,97.4999955368044,2|0,0:0|0:0,0:0:0:0:
334,87,55445,1,0,0:0:0:0:
314,104,55533,1,0,0:0:0:0:
292,118,55621,1,0,0:0:0:0:
268,126,55709,1,0,0:0:0:0:
243,131,55797,1,0,0:0:0:0:
218,132,55886,1,0,0:0:0:0:
192,128,55974,1,0,0:0:0:0:
168,118,56062,2,0,L|126:114,3,41.2500012588501
41,9,56415,2,0,L|0:5,3,41.2500012588501
222,0,56768,6,0,L|225:41,1,41.2500012588501
240,206,56945,1,0,0:0:0:0:
242,230,57033,1,0,0:0:0:0:
244,254,57121,2,0,L|248:302,3,41.2500012588501
67,113,57474,2,0,L|63:65,1,41.2500012588501,4|0,3:0|0:0,0:0:0:0:
149,252,57650,2,0,L|153:300,1,41.2500012588501,8|0,3:0|0:0,0:0:0:0:
153,119,57827,2,0,L|156:77,1,41.2500012588501,0|0,3:0|0:0,0:0:0:0:
61,244,58003,2,0,L|57:285,1,41.2500012588501,8|0,3:0|0:0,0:0:0:0:
256,95,58180,6,0,L|353:103,1,97.4999955368044,2|0,0:0|0:0,0:0:0:0:
512,211,58533,2,0,L|414:202,1,97.4999955368044,2|0,0:0|0:0,0:0:0:0:
220,182,58886,1,2,0:0:0:0:
343,11,59062,6,0,P|362:56|352:103,1,97.4999955368044,2|0,0:0|0:0,0:0:0:0:
326,287,59415,2,0,P|307:242|317:195,1,97.4999955368044,2|0,0:0|0:0,0:0:0:0:
507,336,59768,2,0,B|459:299|459:299|325:286,1,194.999991073609,2|0,0:0|0:0,0:0:0:0:
221,204,60297,2,0,B|268:189|268:189|316:195,1,97.4999955368044
408,209,60650,1,0,0:0:0:0:
332,2,60827,6,0,L|324:100,1,97.4999955368044,2|0,0:0|0:0,0:0:0:0:
492,112,61180,2,0,L|411:56,1,97.4999955368044,2|0,0:0|0:0,0:0:0:0:
316,195,61533,2,0,L|404:152,1,97.4999955368044,2|0,0:0|0:0,0:0:0:0:
332,2,61886,1,2,0:0:0:0:
217,191,62062,1,2,0:0:0:0:
237,0,62239,6,0,L|229:98,1,97.4999955368044,2|0,0:0|0:0,0:0:0:0:
124,189,62592,1,2,0:0:0:0:
121,221,62680,1,2,0:0:0:0:
118,253,62768,1,2,0:0:0:0:
139,0,62945,2,0,L|131:98,1,97.4999955368044,2|0,0:0|0:0,0:0:0:0:
50,0,63297,1,2,0:0:0:0:
229,97,63474,1,2,0:0:0:0:
123,188,63650,6,0,B|78:170|78:170|31:181,1,97.4999955368044
127,283,64003,1,2,0:0:0:0:
214,169,64180,1,2,0:0:0:0:
304,372,64356,1,2,0:0:0:0:
217,258,64533,1,2,0:0:0:0:
424,192,64709,1,2,0:0:0:0:
310,279,64886,1,2,0:0:0:0:
279,108,65062,6,0,B|324:126|324:126|371:115,1,97.4999955368044,2|0,0:0|0:0,0:0:0:0:
226,20,65415,1,2,0:0:0:0:
191,155,65592,1,2,0:0:0:0:
5,37,65768,1,2,0:0:0:0:
153,75,65945,1,2,0:0:0:0:
104,298,66121,2,0,B|93:251|93:251|111:206,1,97.4999955368044,2|0,0:0|0:0,0:0:0:0:
392,272,66474,6,0,B|345:283|345:283|300:265,1,97.4999955368044,2|0,0:0|0:0,0:0:0:0:
275,245,66739,1,0,0:0:0:0:
258,219,66827,1,0,0:0:0:0:
250,189,66915,1,0,0:0:0:0:
253,159,67003,1,0,0:0:0:0:
265,130,67092,1,0,0:0:0:0:
285,107,67180,1,0,0:0:0:0:
312,92,67268,1,0,0:0:0:0:
342,87,67356,6,0,L|383:83,3,41.2500012588501
471,7,67709,6,0,L|512:3,3,41.2500012588501
469,162,68062,6,0,L|465:203,1,41.2500012588501,4|0,3:0|0:0,0:0:0:0:
416,334,68239,2,0,L|412:292,1,41.2500012588501,8|0,3:0|0:0,0:0:0:0:
364,117,68415,2,0,L|360:158,1,41.2500012588501,4|0,3:0|0:0,0:0:0:0:
297,292,68592,2,0,L|293:250,1,41.2500012588501,8|0,3:0|0:0,0:0:0:0:
251,67,68768,2,0,L|247:108,1,41.2500012588501,4|0,3:0|0:0,0:0:0:0:
174,251,68945,2,0,L|170:209,1,41.2500012588501,8|0,3:0|0:0,0:0:0:0:
107,71,69121,1,4,3:0:0:0:
69,87,69209,1,0,0:0:0:0:
41,117,69297,1,0,0:0:0:0:
25,155,69386,1,0,0:0:0:0:
24,196,69474,5,2,0:0:0:0:
327,372,75121,6,0,P|338:317|334:261,1,112.5,2|0,0:0|0:0,0:0:0:0:
253,213,75827,1,2,0:0:0:0:
243,300,76003,1,2,0:0:0:0:
342,165,76180,1,2,0:0:0:0:
143,162,76356,6,0,L|79:167,1,48.7499977684022
241,316,76709,1,2,0:0:0:0:
342,165,76886,1,2,0:0:0:0:
123,164,77062,2,0,L|63:169,1,60
342,165,77415,1,2,0:0:0:0:
99,166,77592,2,0,L|28:172,1,71.2499980974198
163,311,77945,5,2,0:0:0:0:
262,292,78121,1,0,0:0:0:0:
262,292,78209,1,0,0:0:0:0:
262,292,78297,1,0,0:0:0:0:
261,179,78474,1,0,0:0:0:0:
261,179,78562,1,0,0:0:0:0:
261,179,78650,1,0,0:0:0:0:
414,142,78827,2,0,L|372:138,1,41.2500012588501
187,114,79003,1,2,0:0:0:0:
318,56,79180,1,2,0:0:0:0:
318,56,79268,1,0,0:0:0:0:
318,56,79356,6,0,L|413:64,1,82.5000025177003,4|0,0:0|0:0,0:0:0:0:
372,191,79709,1,0,0:0:0:0:
233,78,79886,1,6,0:0:0:0:
482,71,80062,2,0,L|393:62,1,82.5000025177003,6|2,0:0|0:0,0:0:0:0:
274,172,80415,1,0,0:0:0:0:
263,210,80503,1,0,0:0:0:0:
272,249,80592,1,0,0:0:0:0:
297,281,80680,1,0,0:0:0:0:
333,298,80768,1,2,0:0:0:0:
256,192,80856,12,0,83239,0:0:0:0:
