osu file format v14

[General]
AudioFilename: audio.mp3
AudioLeadIn: 0
PreviewTime: 2645
Countdown: 0
SampleSet: Soft
StackLeniency: 0.7
Mode: 0
LetterboxInBreaks: 0
SkinPreference:Default
WidescreenStoryboard: 1

[Editor]
Bookmarks: 9047
DistanceSpacing: 1.65
BeatDivisor: 4
GridSize: 32
TimelineZoom: 2.1

[Metadata]
Title:Brain Implosion Energy Drink (feat. Kasane Teto)
TitleUnicode:Brain Implosion Energy Drink (feat. Kasane Teto)
Artist:Flanger Moose
ArtistUnicode:Flanger Moose
Creator:Bloxi
Version:muya-'s Misery Melon
Source:
Tags:BRRRRRRRRRRRRRRRRRRRRRRRRRRRRRRRRRRRRRRRRRRRRRRRRRRRRRRRRRRRRRRRRRRRRRRRRRRRRRRRRRRRRRRRRRRRRRRRRRRRRRRRRRRRRRRRRRRRRRRRRRRRRRRRRRRRRRRRRRRRRRRRRRRRRRRRRRRRRRRRRRRRRRRRRRRRRRRRRRRRRRRRRRRRRRRRRRRRRRRRRRRRRRRRRRRRRRRRRRRRRRRRRRRRRRRRRRRRRRRRRRRRRRRRRRRRRRRRRRRRRRRRRRRRRRRRRRRRRRRRRRRRRRRRRRRRRRRRRRRRRRRRRRRRRRRRRRRRRRRRRRRRRRRRRRRRRRRRRRRRRRRRRRRRRRRRRRRRRRRRRRRRRRRRRRRRRRRRRRRRRRRRRRRRRRRRRRRRRRRRRRRRRRRRRRRRRRRRRRRRRRRRRRRRRRRRRRRRRRRRRRRRRRRRRRRRRRRRRRRRRRRRRRRRRRRRRRRRRRRRRRRRRRRRRRRRRRRRRRRRRRRRRRRRRRRRRRRRRRRRRRRRRRRRRRRRRRRRRRRRRRRRRRRRRRRRRRRRRRRRRRRRRRRRRRRRRRRRRRRRRRRRRRRRRRRRRRRRRRRRRRRRRRRRRRRRRRRRRRRRRRRRRRRRRRRRRRRRRRRRRRRRRRRRRRRRRRRRRRRRRRRRRRRRRRRRRRRRRRRRRRRRRRRRRRRRRRRRRRRRRRRRRRRRRRRRRRRRRRRRRRRRRRRRRRRRRRRRRRRRRRRRRRRRRRRRRRRRRRRRRRRRRRRRRRRRRRRRRRRRRRRRRRRRRRRRRRRRRRRRRRRRRRRRRRRRRRRRRRRRRRRRRRRRRRRRRRRRRRRRRRRRRRRRRRRRRRRRRRRRRRRR curi utau vocaloid female novelty english electronic synthv muya- gygy tweeker deppyforce phynta bnmc leominexd leomine tuffiii froskya
BeatmapID:4499192
BeatmapSetID:2136811

[Difficulty]
HPDrainRate:4.5
CircleSize:4.6
OverallDifficulty:9.3
ApproachRate:10
SliderMultiplier:2.1
SliderTickRate:1

[Events]
//Background and Video events
0,0,"bg.jpg",0,0
Video,381,"video.avi"
//Break Periods
//Storyboard Layer 0 (Background)
//Storyboard Layer 1 (Fail)
//Storyboard Layer 2 (Pass)
//Storyboard Layer 3 (Foreground)
//Storyboard Layer 4 (Overlay)
//Storyboard Sound Samples

[TimingPoints]
444,550.45871559633,4,2,1,50,1,0
444,-111.111111111111,4,2,1,50,0,0
994,-100,4,2,1,50,0,0
1544,-166.666666666667,4,2,1,50,0,0
2095,-125,4,2,1,50,0,0
2645,-125,4,2,1,70,0,0
9240,-83.3333333333333,4,2,1,70,0,0
18047,-83.3333333333333,4,2,1,70,0,0
23563,-66.6666666666667,4,2,1,70,0,1
23632,-66.6666666666667,4,2,1,70,0,0
23700,-66.6666666666667,4,2,1,70,0,1
23769,-66.6666666666667,4,2,1,70,0,0
23838,-66.6666666666667,4,2,1,70,0,1
23907,-66.6666666666667,4,2,1,70,0,0
23976,-66.6666666666667,4,2,1,70,0,1
24044,-66.6666666666667,4,2,1,70,0,0
24113,-66.6666666666667,4,2,1,70,0,1
24182,-66.6666666666667,4,2,1,70,0,0
24251,-66.6666666666667,4,2,1,70,0,1
24320,-66.6666666666667,4,2,1,70,0,0
24388,-66.6666666666667,4,2,1,70,0,1
24457,-66.6666666666667,4,2,1,70,0,0
24810,550.45871559633,4,2,1,70,1,0
24810,-83.3333333333333,4,2,1,70,0,0
38640,-100,4,2,1,60,0,0
39121,-100,4,2,1,55,0,0
39672,-100,4,2,1,50,0,0
40222,-100,4,2,1,45,0,0
40773,-100,4,2,1,40,0,0
41323,-100,4,2,1,35,0,0
41874,-100,4,2,1,30,0,0
42424,-100,4,2,1,25,0,0
42699,-100,4,2,1,5,0,0

[Colours]
Combo1 : 121,255,141
Combo2 : 130,255,192
Combo3 : 155,240,157
Combo4 : 192,255,155
SliderBorder : 203,80,98

[HitObjects]
0,44,444,5,2,2:2:0:0:
101,109,994,1,2,2:2:0:0:
212,5,1544,6,0,P|244:20|292:31,1,62.9999980773926,2|2,2:2|2:2,0:0:0:0:
182,75,2095,2,0,P|214:90|262:101,1,84,2|2,2:2|2:2,0:0:0:0:
495,45,2645,5,4,1:2:0:0:
467,138,2921,1,10,2:2:0:0:
360,43,3196,5,2,1:2:0:0:
417,203,3471,1,10,2:2:0:0:
317,221,3746,5,2,1:2:0:0:
337,146,4021,1,10,2:2:0:0:
435,282,4297,1,2,1:2:0:0:
223,258,4572,5,10,2:2:0:0:
251,349,4847,1,2,1:2:0:0:
342,321,5122,1,10,2:2:0:0:
314,232,5398,1,2,1:2:0:0:
247,354,5673,1,10,2:2:0:0:
131,314,5948,5,2,1:2:0:0:
152,242,6223,1,10,2:2:0:0:
24,218,6499,5,2,1:2:0:0:
68,356,6774,1,10,2:2:0:0:
144,243,7049,5,2,1:2:0:0:
78,277,7324,1,10,2:2:0:0:
191,179,7599,5,2,1:2:0:0:
92,139,7875,1,10,2:2:0:0:
262,151,8150,5,2,1:2:0:0:
223,82,8425,1,10,2:2:0:0:
357,169,8700,5,2,1:2:0:0:
398,23,8976,1,10,2:2:0:0:
512,208,9251,6,0,B|457:95|457:95|403:344|403:344|348:270|348:270|313:270,1,503.999984619141,2|12,1:2|1:2,0:0:0:0:
64,239,11453,5,4,1:2:0:0:
160,188,11728,1,10,2:2:0:0:
110,93,12003,1,2,1:2:0:0:
15,141,12278,1,10,2:2:0:0:
89,167,12554,5,2,1:2:0:0:
211,98,12829,1,10,2:2:0:0:
296,135,13104,1,2,1:2:0:0:
436,41,13379,5,10,2:2:0:0:
337,45,13655,1,2,1:2:0:0:
397,141,13930,1,10,2:2:0:0:
447,40,14205,1,2,1:2:0:0:
306,145,14480,5,10,2:2:0:0:
407,229,14755,1,2,1:2:0:0:
294,260,15031,1,10,2:2:0:0:
309,152,15306,1,2,1:2:0:0:
398,223,15581,1,10,2:2:0:0:
258,343,15856,5,2,1:2:0:0:
290,251,16132,1,10,2:2:0:0:
179,382,16407,5,2,1:2:0:0:
138,223,16682,1,10,2:2:0:0:
256,333,16957,5,2,1:2:0:0:
285,261,17232,1,10,2:2:0:0:
127,216,17508,5,2,1:2:0:0:
182,370,17783,1,10,2:2:0:0:
4,301,18058,6,0,B|379:187|379:187|363:294|363:294|363:333,1,503.999984619141,2|12,1:2|1:2,0:0:0:0:
363,297,19985,1,2,2:2:0:0:
483,384,20260,5,4,1:2:0:0:
512,282,20535,1,10,2:2:0:0:
375,305,20810,5,2,1:2:0:0:
393,380,21086,1,10,2:2:0:0:
262,368,21361,5,2,1:2:0:0:
294,254,21636,1,10,2:2:0:0:
156,240,21911,5,2,1:2:0:0:
183,333,22187,1,10,2:2:0:0:
11,354,22462,5,2,1:2:0:0:
40,270,22737,1,10,2:2:0:0:
122,301,23012,1,2,1:2:0:0:
92,384,23288,1,10,2:2:0:0:
0,151,23563,5,8,2:2:0:0:
15,133,23632,1,8,2:2:0:0:
40,144,23700,1,8,2:2:0:0:
54,133,23769,1,8,2:2:0:0:
60,136,23838,2,0,B|51:160|51:160|57:170|49:196,9,39.3750015020371,8|8|8|8|8|8|8|8|8|8,2:2|2:2|2:2|2:2|2:2|2:2|2:2|2:2|2:2|2:2,0:0:0:0:
385,262,24810,5,2,1:2:0:0:
432,179,25085,1,10,2:2:0:0:
443,324,25360,5,2,1:2:0:0:
311,310,25635,1,10,2:2:0:0:
388,254,25910,1,2,1:2:0:0:
310,384,26186,5,10,2:2:0:0:
211,338,26461,1,2,1:2:0:0:
129,375,26736,1,10,2:2:0:0:
26,286,27011,5,2,1:2:0:0:
112,261,27287,1,10,2:2:0:0:
84,176,27562,1,2,1:2:0:0:
0,200,27837,1,10,2:2:0:0:
194,271,28112,5,14,1:2:0:0:
21,24,29213,5,4,1:2:0:0:
47,117,29488,1,10,2:2:0:0:
121,168,29764,5,2,1:2:0:0:
163,13,30039,1,10,2:2:0:0:
233,126,30314,5,2,1:2:0:0:
296,49,30589,1,10,2:2:0:0:
159,98,30865,1,2,1:2:0:0:
282,200,31140,5,10,2:2:0:0:
321,128,31415,1,2,1:2:0:0:
332,269,31690,1,10,2:2:0:0:
201,207,31965,1,2,1:2:0:0:
288,200,32241,1,10,2:2:0:0:
201,351,32516,5,2,1:2:0:0:
172,280,32791,1,10,2:2:0:0:
70,377,33066,5,2,1:2:0:0:
101,228,33342,1,10,2:2:0:0:
210,350,33617,5,2,1:2:0:0:
144,384,33892,1,10,2:2:0:0:
257,286,34167,5,2,1:2:0:0:
158,246,34443,1,10,2:2:0:0:
328,258,34718,5,2,1:2:0:0:
289,189,34993,1,10,2:2:0:0:
403,279,35268,5,2,1:2:0:0:
425,162,35543,1,10,2:2:0:0:
503,323,35819,6,0,P|444:330|389:381,1,125.999996154785,2|8,1:2|2:2,0:0:0:0:
213,225,36369,2,0,P|260:265|321:273,1,125.999996154785,2|8,1:2|2:2,0:0:0:0:
505,122,36920,1,14,2:2:0:0:
256,192,38640,12,0,42699,2:0:0:0:
