osu file format v14

[General]
AudioFilename: audio.mp3
AudioLeadIn: 0
PreviewTime: 2645
Countdown: 0
SampleSet: Soft
StackLeniency: 0.7
Mode: 0
LetterboxInBreaks: 0
SkinPreference:Default
WidescreenStoryboard: 1

[Editor]
DistanceSpacing: 0.8
BeatDivisor: 8
GridSize: 4
TimelineZoom: 2.2

[Metadata]
Title:Brain Implosion Energy Drink (feat. Kasane Teto)
TitleUnicode:Brain Implosion Energy Drink (feat. Kasane Teto)
Artist:Flanger Moose
ArtistUnicode:Flanger Moose
Creator:Bloxi
Version:Tuffiii's Burnout Banana
Source:
Tags:BRRRRRRRRRRRRRRRRRRRRRRRRRRRRRRRRRRRRRRRRRRRRRRRRRRRRRRRRRRRRRRRRRRRRRRRRRRRRRRRRRRRRRRRRRRRRRRRRRRRRRRRRRRRRRRRRRRRRRRRRRRRRRRRRRRRRRRRRRRRRRRRRRRRRRRRRRRRRRRRRRRRRRRRRRRRRRRRRRRRRRRRRRRRRRRRRRRRRRRRRRRRRRRRRRRRRRRRRRRRRRRRRRRRRRRRRRRRRRRRRRRRRRRRRRRRRRRRRRRRRRRRRRRRRRRRRRRRRRRRRRRRRRRRRRRRRRRRRRRRRRRRRRRRRRRRRRRRRRRRRRRRRRRRRRRRRRRRRRRRRRRRRRRRRRRRRRRRRRRRRRRRRRRRRRRRRRRRRRRRRRRRRRRRRRRRRRRRRRRRRRRRRRRRRRRRRRRRRRRRRRRRRRRRRRRRRRRRRRRRRRRRRRRRRRRRRRRRRRRRRRRRRRRRRRRRRRRRRRRRRRRRRRRRRRRRRRRRRRRRRRRRRRRRRRRRRRRRRRRRRRRRRRRRRRRRRRRRRRRRRRRRRRRRRRRRRRRRRRRRRRRRRRRRRRRRRRRRRRRRRRRRRRRRRRRRRRRRRRRRRRRRRRRRRRRRRRRRRRRRRRRRRRRRRRRRRRRRRRRRRRRRRRRRRRRRRRRRRRRRRRRRRRRRRRRRRRRRRRRRRRRRRRRRRRRRRRRRRRRRRRRRRRRRRRRRRRRRRRRRRRRRRRRRRRRRRRRRRRRRRRRRRRRRRRRRRRRRRRRRRRRRRRRRRRRRRRRRRRRRRRRRRRRRRRRRRRRRRRRRRRRRRRRRRRRRRRRRRRRRRRRRRRRRRRRRRRRRRRRRRRRRRRRRRRRRRRRRRRRRRRRR curi utau vocaloid female novelty english electronic synthv muya- gygy tweeker deppyforce phynta bnmc leominexd leomine tuffiii froskya
BeatmapID:4509671
BeatmapSetID:2136811

[Difficulty]
HPDrainRate:5
CircleSize:3.9
OverallDifficulty:7.8
ApproachRate:8
SliderMultiplier:2.4
SliderTickRate:1

[Events]
//Background and Video events
0,0,"bg.jpg",0,0
Video,381,"video.avi"
//Break Periods
//Storyboard Layer 0 (Background)
//Storyboard Layer 1 (Fail)
//Storyboard Layer 2 (Pass)
//Storyboard Layer 3 (Foreground)
//Storyboard Layer 4 (Overlay)
//Storyboard Sound Samples

[TimingPoints]
444,550.45871559633,4,2,1,50,1,0
444,-125,4,2,1,50,0,0
719,-125,4,2,1,5,0,0
994,-125,4,2,1,50,0,0
1269,-125,4,2,1,5,0,0
1544,-125,4,2,1,50,0,0
2645,-90.9090909090909,4,2,1,70,0,0
7038,-100,4,2,1,70,0,0
8139,-90.9090909090909,4,2,1,70,0,0
9240,-83.3333333333333,4,2,1,70,0,0
11442,-90.9090909090909,4,2,1,70,0,0
23563,-90.9090909090909,4,2,1,80,0,1
23632,-90.9090909090909,4,2,1,80,0,0
23700,-90.9090909090909,4,2,1,80,0,1
23769,-90.9090909090909,4,2,1,80,0,0
23838,-90.9090909090909,4,2,1,80,0,1
23907,-90.9090909090909,4,2,1,80,0,0
23976,-90.9090909090909,4,2,1,80,0,1
24044,-90.9090909090909,4,2,1,80,0,0
24113,-90.9090909090909,4,2,1,80,0,1
24182,-90.9090909090909,4,2,1,80,0,0
24251,-90.9090909090909,4,2,1,80,0,1
24320,-90.9090909090909,4,2,1,80,0,0
24388,-90.9090909090909,4,2,1,80,0,1
24457,-90.9090909090909,4,2,1,80,0,0
24810,550.45871559633,4,2,1,70,1,0
24810,-90.9090909090909,4,2,1,70,0,0
33617,-100,4,2,1,70,0,0
34718,-90.9090909090909,4,2,1,70,0,0
37195,-90.9090909090909,4,2,1,5,0,0
38640,-100,4,2,1,60,0,0
39121,-100,4,2,1,55,0,0
39672,-100,4,2,1,50,0,0
40222,-100,4,2,1,45,0,0
40773,-100,4,2,1,40,0,0
41323,-100,4,2,1,35,0,0
41874,-100,4,2,1,30,0,0
42424,-100,4,2,1,25,0,0
42699,-100,4,2,1,5,0,0

[Colours]
Combo1 : 254,200,86
Combo2 : 255,244,168
Combo3 : 250,218,107
Combo4 : 253,233,94
SliderBorder : 203,80,98

[HitObjects]
0,339,444,6,0,P|24:299|69:284,1,96,2|0,2:2|0:0,0:0:0:0:
44,193,994,2,0,P|91:194|126:225,1,96,2|0,2:2|0:0,0:0:0:0:
151,301,1544,1,2,2:2:0:0:
228,278,1820,1,2,2:2:0:0:
308,311,2095,1,2,2:2:0:0:
393,258,2370,1,2,2:2:0:0:
294,43,2645,6,0,L|317:180,1,132.00000402832,4|10,1:2|2:2,0:0:0:0:
375,367,3196,2,0,P|438:360|478:299,1,132.00000402832,2|10,1:2|2:2,0:0:0:0:
393,135,3746,1,2,1:2:0:0:
308,311,4021,1,10,2:2:0:0:
489,84,4297,2,0,L|465:221,1,132.00000402832,2|10,1:2|2:2,0:0:0:0:
242,130,4847,6,0,L|219:-1,1,132.00000402832,2|10,1:2|2:2,0:0:0:0:
120,208,5398,2,0,L|97:338,1,132.00000402832,2|10,1:2|2:2,0:0:0:0:
249,222,5948,1,2,1:2:0:0:
143,52,6223,1,10,2:2:0:0:
0,184,6499,1,2,1:2:0:0:
0,184,6774,1,10,2:2:0:0:
222,321,7049,6,0,B|258:349|258:349|343:334,1,120,2|10,1:2|2:2,0:0:0:0:
235,169,7599,1,2,1:2:0:0:
141,375,7875,1,10,2:2:0:0:
449,238,8150,6,0,B|412:266|412:266|327:251,1,132.00000402832,2|10,1:2|2:2,0:0:0:0:
462,53,8700,1,2,1:2:0:0:
512,310,8976,1,10,2:2:0:0:
323,155,9251,2,0,B|310:88|310:88|313:81|313:81|301:14,1,143.999995605469,2|8,1:2|2:2,0:0:0:0:
229,186,9801,1,0,1:1:0:0:
389,0,10077,1,8,2:2:0:0:
345,312,10352,5,12,1:2:0:0:
345,312,11453,6,0,L|190:283,1,132.00000402832,4|10,1:2|2:2,0:0:0:0:
89,136,12003,2,0,P|26:142|0:200,1,132.00000402832,2|10,1:2|2:2,0:0:0:0:
129,335,12554,1,2,1:2:0:0:
178,147,12829,1,10,2:2:0:0:
443,203,13104,2,0,L|313:226,1,132.00000402832,2|10,1:2|2:2,0:0:0:0:
74,78,13655,5,2,1:2:0:0:
121,250,13930,1,10,2:2:0:0:
364,130,14205,2,0,P|311:92|248:105,1,132.00000402832,2|10,1:2|2:2,0:0:0:0:
148,354,14755,5,2,1:2:0:0:
276,253,15031,1,10,2:2:0:0:
191,15,15306,2,0,B|152:42|152:42|170:135,1,132.00000402832,2|10,1:2|2:2,0:0:0:0:
289,0,15856,5,2,1:2:0:0:
190,211,16132,1,10,2:2:0:0:
35,124,16407,5,2,1:2:0:0:
209,295,16682,1,10,2:2:0:0:
361,129,16957,5,2,1:2:0:0:
226,379,17232,1,10,2:2:0:0:
511,308,17508,2,0,B|476:268|476:268|364:248,1,132.00000402832,2|10,1:2|2:2,0:0:0:0:
206,77,18058,2,0,B|229:55|240:12|240:12|273:202,1,264.000008056641,2|0,1:2|1:1,0:0:0:0:
447,35,18884,1,8,2:2:0:0:
285,291,19159,5,12,1:2:0:0:
285,291,19985,5,2,2:2:0:0:
171,129,20260,2,0,L|193:0,1,132.00000402832,4|10,1:2|2:2,0:0:0:0:
6,185,20810,1,2,1:2:0:0:
178,243,21086,1,10,2:2:0:0:
62,22,21361,2,0,L|85:152,1,132.00000402832,2|10,1:2|2:2,0:0:0:0:
0,377,21911,2,0,P|42:323|104:309,1,132.00000402832,2|10,1:2|2:2,0:0:0:0:
316,373,22462,5,2,1:2:0:0:
145,226,22737,1,10,2:2:0:0:
294,181,23012,1,2,1:2:0:0:
167,374,23288,1,10,2:2:0:0:
426,261,23563,6,0,L|393:266,7,33.0000010070801,8|8|8|8|8|8|8|8,2:2|2:2|2:2|2:2|2:2|2:2|2:2|2:2,0:0:0:0:
370,271,24113,1,8,2:2:0:0:
340,275,24182,1,8,2:2:0:0:
311,278,24251,1,8,2:2:0:0:
282,283,24320,1,8,2:2:0:0:
253,287,24388,1,8,2:2:0:0:
225,292,24457,1,8,2:2:0:0:
197,110,24810,6,0,L|327:129,1,132.00000402832,2|10,1:2|2:2,0:0:0:0:
164,300,25360,2,0,L|33:319,1,132.00000402832,2|10,1:2|2:2,0:0:0:0:
112,78,25910,1,2,1:2:0:0:
227,193,26186,1,10,2:2:0:0:
32,126,26461,2,0,B|-4:148|-4:148|0:237,1,132.00000402832,2|10,1:2|2:2,0:0:0:0:
227,377,27011,5,2,1:2:0:0:
100,241,27287,1,10,2:2:0:0:
341,88,27562,1,2,1:2:0:0:
241,290,27837,1,10,2:2:0:0:
121,14,28112,5,14,1:2:0:0:
121,14,29213,6,0,L|99:144,1,132.00000402832,4|10,1:2|2:2,0:0:0:0:
278,302,29764,2,0,B|239:326|239:326|147:309,1,132.00000402832,2|10,1:2|2:2,0:0:0:0:
0,187,30314,1,2,1:2:0:0:
77,348,30589,1,10,2:2:0:0:
191,105,30865,2,0,L|213:235,1,132.00000402832,2|10,1:2|2:2,0:0:0:0:
460,323,31415,6,0,P|396:330|348:288,1,132.00000402832,2|10,1:2|2:2,0:0:0:0:
191,105,31965,2,0,P|254:97|302:139,1,132.00000402832,2|10,1:2|2:2,0:0:0:0:
470,17,32516,1,2,1:2:0:0:
327,212,32791,1,10,2:2:0:0:
246,0,33066,1,2,1:2:0:0:
246,0,33342,1,10,2:2:0:0:
58,264,33617,6,0,L|176:242,1,120,2|10,1:2|2:2,0:0:0:0:
108,24,34167,1,2,1:2:0:0:
2,197,34443,1,10,2:2:0:0:
265,352,34718,6,0,L|122:325,1,132.00000402832,2|10,1:2|2:2,0:0:0:0:
198,52,35268,1,2,1:2:0:0:
328,285,35543,1,10,2:2:0:0:
102,138,35819,6,0,B|176:94|266:154|188:182|272:231|331:197,1,264.000008056641,2|2,1:2|1:2,0:0:0:0:
508,135,36644,1,8,2:2:0:0:
508,135,36782,1,2,0:0:0:0:
508,135,36920,2,0,B|487:101|463:87|463:87|477:119|472:171,1,132.00000402832,14|0,2:2|0:0,0:0:0:0:
256,192,38640,12,0,42699,2:0:0:0:
