osu file format v14

[General]
AudioFilename: audio.mp3
AudioLeadIn: 0
PreviewTime: 2645
Countdown: 0
SampleSet: Soft
StackLeniency: 0
Mode: 0
LetterboxInBreaks: 0
SkinPreference:Default
WidescreenStoryboard: 1

[Editor]
Bookmarks: 9047
DistanceSpacing: 1.65
BeatDivisor: 4
GridSize: 32
TimelineZoom: 1.8

[Metadata]
Title:Brain Implosion Energy Drink (feat. Kasane Teto)
TitleUnicode:Brain Implosion Energy Drink (feat. Kasane Teto)
Artist:Flanger Moose
ArtistUnicode:Flanger Moose
Creator:Bloxi
Version:Phynta's Trauma Tri-Tip
Source:
Tags:BRRRRRRRRRRRRRRRRRRRRRRRRRRRRRRRRRRRRRRRRRRRRRRRRRRRRRRRRRRRRRRRRRRRRRRRRRRRRRRRRRRRRRRRRRRRRRRRRRRRRRRRRRRRRRRRRRRRRRRRRRRRRRRRRRRRRRRRRRRRRRRRRRRRRRRRRRRRRRRRRRRRRRRRRRRRRRRRRRRRRRRRRRRRRRRRRRRRRRRRRRRRRRRRRRRRRRRRRRRRRRRRRRRRRRRRRRRRRRRRRRRRRRRRRRRRRRRRRRRRRRRRRRRRRRRRRRRRRRRRRRRRRRRRRRRRRRRRRRRRRRRRRRRRRRRRRRRRRRRRRRRRRRRRRRRRRRRRRRRRRRRRRRRRRRRRRRRRRRRRRRRRRRRRRRRRRRRRRRRRRRRRRRRRRRRRRRRRRRRRRRRRRRRRRRRRRRRRRRRRRRRRRRRRRRRRRRRRRRRRRRRRRRRRRRRRRRRRRRRRRRRRRRRRRRRRRRRRRRRRRRRRRRRRRRRRRRRRRRRRRRRRRRRRRRRRRRRRRRRRRRRRRRRRRRRRRRRRRRRRRRRRRRRRRRRRRRRRRRRRRRRRRRRRRRRRRRRRRRRRRRRRRRRRRRRRRRRRRRRRRRRRRRRRRRRRRRRRRRRRRRRRRRRRRRRRRRRRRRRRRRRRRRRRRRRRRRRRRRRRRRRRRRRRRRRRRRRRRRRRRRRRRRRRRRRRRRRRRRRRRRRRRRRRRRRRRRRRRRRRRRRRRRRRRRRRRRRRRRRRRRRRRRRRRRRRRRRRRRRRRRRRRRRRRRRRRRRRRRRRRRRRRRRRRRRRRRRRRRRRRRRRRRRRRRRRRRRRRRRRRRRRRRRRRRRRRRRRRRRRRRRRRRRRRRRRRRRRRRRRRRRR curi utau vocaloid female novelty english electronic synthv muya- gygy tweeker deppyforce phynta bnmc leominexd leomine tuffiii froskya
BeatmapID:4499813
BeatmapSetID:2136811

[Difficulty]
HPDrainRate:6
CircleSize:6
OverallDifficulty:6
ApproachRate:6
SliderMultiplier:2.6
SliderTickRate:1

[Events]
//Background and Video events
0,0,"bg.jpg",0,0
Video,381,"video.avi"
//Break Periods
//Storyboard Layer 0 (Background)
//Storyboard Layer 1 (Fail)
//Storyboard Layer 2 (Pass)
//Storyboard Layer 3 (Foreground)
//Storyboard Layer 4 (Overlay)
//Storyboard Sound Samples

[TimingPoints]
444,550.45871559633,4,2,1,50,1,0
2645,-100,4,2,1,70,0,0
23563,-100,4,2,1,70,0,1
23632,-100,4,2,1,70,0,0
23700,-100,4,2,1,70,0,1
23769,-100,4,2,1,70,0,0
23838,-100,4,2,1,70,0,1
23907,-100,4,2,1,70,0,0
23976,-100,4,2,1,70,0,1
24044,-100,4,2,1,70,0,0
24113,-100,4,2,1,70,0,1
24182,-100,4,2,1,70,0,0
24251,-100,4,2,1,70,0,1
24320,-100,4,2,1,70,0,0
24388,-100,4,2,1,70,0,1
24457,-100,4,2,1,70,0,0
24810,550.45871559633,4,2,1,70,1,0
28112,-200,4,2,1,70,0,0
28663,-200,4,2,1,5,0,0
29213,-100,4,2,1,70,0,0
38640,-100,4,2,1,60,0,0
39121,-100,4,2,1,55,0,0
39672,-100,4,2,1,50,0,0
40222,-100,4,2,1,45,0,0
40773,-100,4,2,1,40,0,0
41323,-100,4,2,1,35,0,0
41874,-100,4,2,1,30,0,0
42424,-100,4,2,1,25,0,0
42699,-100,4,2,1,5,0,0

[Colours]
Combo1 : 196,45,67
Combo2 : 230,189,183
Combo3 : 204,122,111
Combo4 : 255,191,194
SliderBorder : 203,80,98

[HitObjects]
95,305,444,5,2,2:2:0:0:
95,305,994,5,2,2:2:0:0:
95,305,1544,5,2,2:2:0:0:
14,288,1820,1,2,2:2:0:0:
150,243,2095,1,2,2:2:0:0:
120,383,2370,1,2,2:2:0:0:
0,153,2645,6,0,P|64:166|137:170,1,130,4|10,1:2|2:2,0:0:0:0:
245,214,3058,1,0,0:0:0:0:
218,274,3196,1,2,1:2:0:0:
218,274,3471,2,0,P|222:226|217:194,1,65,10|0,2:2|0:0,0:0:0:0:
72,25,3746,5,2,1:2:0:0:
256,143,4021,1,10,2:2:0:0:
457,59,4297,1,2,1:2:0:0:
285,17,4572,6,0,P|286:53|293:88,1,65,10|0,2:2|0:0,0:0:0:0:
342,252,4847,2,0,P|355:176|354:113,1,130,2|10,1:2|2:2,0:0:0:0:
256,143,5260,1,0,0:0:0:0:
283,209,5398,1,2,1:2:0:0:
283,209,5673,2,0,P|308:186|341:180,1,65,10|0,2:2|0:0,0:0:0:0:
489,146,5948,5,2,1:2:0:0:
440,355,6223,1,10,2:2:0:0:
231,306,6499,1,2,1:2:0:0:
280,97,6774,2,0,P|278:64|270:29,1,65,10|0,2:2|0:0,0:0:0:0:
2,60,7049,5,2,1:2:0:0:
89,186,7324,1,10,2:2:0:0:
202,0,7599,5,2,1:2:0:0:
168,173,7875,1,10,2:2:0:0:
266,381,8150,5,2,1:2:0:0:
233,219,8425,1,10,2:2:0:0:
477,282,8700,5,2,1:2:0:0:
298,172,8976,1,10,2:2:0:0:
510,188,9251,6,0,B|454:72|454:72|398:328|398:328|342:252|342:252|306:252,1,520,2|12,1:2|1:2,0:0:0:0:
506,4,11453,6,0,P|498:76|493:144,1,130,4|10,1:2|2:2,0:0:0:0:
404,276,11866,1,0,0:0:0:0:
381,214,12003,1,2,1:2:0:0:
381,214,12278,2,0,P|413:234|415:264,1,65,10|0,2:2|0:0,0:0:0:0:
502,376,12554,5,2,1:2:0:0:
297,324,12829,1,10,2:2:0:0:
444,172,13104,1,2,1:2:0:0:
445,337,13379,6,0,B|418:356|418:356|388:345,1,65,10|0,2:2|0:0,0:0:0:0:
254,277,13655,2,0,B|256:222|256:222|264:208|264:208|267:149,1,130,2|10,1:2|2:2,0:0:0:0:
314,1,14067,1,0,0:0:0:0:
331,66,14205,1,2,1:2:0:0:
331,66,14480,2,0,B|298:74|298:74|272:54,1,65,10|0,2:2|0:0,0:0:0:0:
102,0,14755,5,2,1:2:0:0:
3,168,15031,1,10,2:2:0:0:
205,170,15306,1,2,1:2:0:0:
46,30,15581,2,0,P|20:51|15:89,1,65,10|0,2:2|0:0,0:0:0:0:
80,279,15856,5,2,1:2:0:0:
51,130,16132,1,10,2:2:0:0:
209,77,16407,5,2,1:2:0:0:
174,335,16682,1,10,2:2:0:0:
338,335,16957,5,2,1:2:0:0:
303,77,17232,1,10,2:2:0:0:
461,130,17508,5,2,1:2:0:0:
432,279,17783,1,10,2:2:0:0:
491,213,18058,6,0,B|439:175|405:178|372:342|362:343|246:84|227:87|206:378|196:382|99:201|75:204|12:271,1,520,2|12,1:2|1:2,0:0:0:0:
490,326,19985,6,0,P|514:353|512:383,1,65,2|0,2:2|0:0,0:0:0:0:
352,377,20260,2,0,P|351:333|421:285,1,130,4|10,1:2|2:2,0:0:0:0:
512,168,20673,1,0,0:0:0:0:
443,155,20810,1,2,1:2:0:0:
443,155,21086,2,0,P|419:182|421:212,1,65,10|0,2:2|0:0,0:0:0:0:
500,238,21361,5,2,1:2:0:0:
431,34,21636,1,10,2:2:0:0:
368,6,21911,5,2,1:2:0:0:
164,75,22187,1,10,2:2:0:0:
136,138,22462,5,2,1:2:0:0:
205,341,22737,1,10,2:2:0:0:
268,369,23012,5,2,1:2:0:0:
472,300,23288,1,10,2:2:0:0:
239,174,23563,5,8,2:2:0:0:
225,203,23632,5,8,2:2:0:0:
224,235,23700,5,8,2:2:0:0:
239,263,23769,5,8,2:2:0:0:
266,280,23838,6,0,L|305:273,1,32.5,8|8,2:2|2:2,0:0:0:0:
393,251,23976,5,8,2:2:0:0:
407,222,24044,5,8,2:2:0:0:
408,190,24113,5,8,2:2:0:0:
393,162,24182,5,8,2:2:0:0:
366,145,24251,6,0,L|327:152,1,32.5,8|8,2:2|2:2,0:0:0:0:
301,205,24388,5,8,2:2:0:0:
330,219,24457,5,8,2:2:0:0:
184,9,24810,6,0,B|150:11|136:45|136:45|111:17|77:28,1,130,2|10,1:2|2:2,0:0:0:0:
2,144,25222,1,0,0:0:0:0:
62,128,25360,1,2,1:2:0:0:
62,128,25635,2,0,B|64:104|48:85|48:85|42:96|44:106,1,65,10|0,2:2|0:0,0:0:0:0:
20,202,25910,5,2,1:2:0:0:
228,98,26186,1,10,2:2:0:0:
294,155,26461,5,2,1:2:0:0:
62,128,26736,1,10,2:2:0:0:
180,315,27011,5,2,1:2:0:0:
133,41,27287,1,10,2:2:0:0:
378,41,27562,5,2,1:2:0:0:
331,315,27837,1,10,2:2:0:0:
450,128,28112,6,0,P|506:144|492:202,1,130,14|0,1:2|0:0,0:0:0:0:
492,202,29213,6,0,P|496:273|509:345,1,130,4|10,1:2|2:2,0:0:0:0:
394,382,29626,1,0,0:0:0:0:
406,317,29764,1,2,1:2:0:0:
406,317,30039,2,0,P|412:355|414:387,1,65,10|0,2:2|0:0,0:0:0:0:
286,376,30314,5,2,1:2:0:0:
170,191,30589,1,10,2:2:0:0:
0,316,30865,1,2,1:2:0:0:
150,383,31140,6,0,B|161:351|161:351|147:316,1,65,10|0,2:2|0:0,0:0:0:0:
33,257,31415,2,0,B|43:267|43:267|144:252|144:252|153:260,1,130,2|10,1:2|2:2,0:0:0:0:
262,271,31828,1,0,0:0:0:0:
204,296,31965,1,2,1:2:0:0:
204,296,32241,2,0,B|218:326|218:326|253:340,1,65,10|0,2:2|0:0,0:0:0:0:
405,376,32516,5,2,1:2:0:0:
470,189,32791,1,10,2:2:0:0:
340,384,33066,5,2,1:2:0:0:
211,233,33342,1,10,2:2:0:0:
433,142,33617,5,2,1:2:0:0:
498,329,33892,1,10,2:2:0:0:
368,134,34167,5,2,1:2:0:0:
239,285,34443,1,10,2:2:0:0:
95,109,34718,5,2,1:2:0:0:
30,296,34993,1,10,2:2:0:0:
160,101,35268,5,2,1:2:0:0:
289,252,35543,1,10,2:2:0:0:
16,362,35819,6,0,L|158:376,1,130,2|8,1:2|2:2,0:0:0:0:
178,318,36232,1,2,0:0:0:0:
145,262,36369,1,2,1:2:0:0:
367,262,36644,5,10,2:2:0:0:
334,318,36782,1,2,0:0:0:0:
367,374,36920,1,14,2:2:0:0:
256,192,38640,12,0,42699,2:0:0:0:
