osu file format v14

[General]
AudioFilename: audio.mp3
AudioLeadIn: 0
PreviewTime: 2645
Countdown: 0
SampleSet: Soft
StackLeniency: 0.7
Mode: 0
LetterboxInBreaks: 0
SkinPreference:Default
WidescreenStoryboard: 1

[Editor]
DistanceSpacing: 0.8
BeatDivisor: 4
GridSize: 4
TimelineZoom: 1

[Metadata]
Title:Brain Implosion Energy Drink (feat. Kasane Teto)
TitleUnicode:Brain Implosion Energy Drink (feat. Kasane Teto)
Artist:Flanger Moose
ArtistUnicode:Flanger Moose
Creator:Bloxi
Version:Normal
Source:
Tags:BRRRRRRRRRRRRRRRRRRRRRRRRRRRRRRRRRRRRRRRRRRRRRRRRRRRRRRRRRRRRRRRRRRRRRRRRRRRRRRRRRRRRRRRRRRRRRRRRRRRRRRRRRRRRRRRRRRRRRRRRRRRRRRRRRRRRRRRRRRRRRRRRRRRRRRRRRRRRRRRRRRRRRRRRRRRRRRRRRRRRRRRRRRRRRRRRRRRRRRRRRRRRRRRRRRRRRRRRRRRRRRRRRRRRRRRRRRRRRRRRRRRRRRRRRRRRRRRRRRRRRRRRRRRRRRRRRRRRRRRRRRRRRRRRRRRRRRRRRRRRRRRRRRRRRRRRRRRRRRRRRRRRRRRRRRRRRRRRRRRRRRRRRRRRRRRRRRRRRRRRRRRRRRRRRRRRRRRRRRRRRRRRRRRRRRRRRRRRRRRRRRRRRRRRRRRRRRRRRRRRRRRRRRRRRRRRRRRRRRRRRRRRRRRRRRRRRRRRRRRRRRRRRRRRRRRRRRRRRRRRRRRRRRRRRRRRRRRRRRRRRRRRRRRRRRRRRRRRRRRRRRRRRRRRRRRRRRRRRRRRRRRRRRRRRRRRRRRRRRRRRRRRRRRRRRRRRRRRRRRRRRRRRRRRRRRRRRRRRRRRRRRRRRRRRRRRRRRRRRRRRRRRRRRRRRRRRRRRRRRRRRRRRRRRRRRRRRRRRRRRRRRRRRRRRRRRRRRRRRRRRRRRRRRRRRRRRRRRRRRRRRRRRRRRRRRRRRRRRRRRRRRRRRRRRRRRRRRRRRRRRRRRRRRRRRRRRRRRRRRRRRRRRRRRRRRRRRRRRRRRRRRRRRRRRRRRRRRRRRRRRRRRRRRRRRRRRRRRRRRRRRRRRRRRRRRRRRRRRRRRRRRRRRRRRRRRRRRRRRRRRRR curi utau vocaloid female novelty english electronic synthv muya- gygy tweeker deppyforce phynta bnmc leominexd leomine tuffiii froskya
BeatmapID:4497588
BeatmapSetID:2136811

[Difficulty]
HPDrainRate:3
CircleSize:4
OverallDifficulty:5
ApproachRate:6
SliderMultiplier:1.5
SliderTickRate:1

[Events]
//Background and Video events
0,0,"bg.jpg",0,0
Video,381,"video.avi"
//Break Periods
//Storyboard Layer 0 (Background)
//Storyboard Layer 1 (Fail)
//Storyboard Layer 2 (Pass)
//Storyboard Layer 3 (Foreground)
//Storyboard Layer 4 (Overlay)
//Storyboard Sound Samples

[TimingPoints]
444,550.45871559633,4,2,1,50,1,0
23563,-100,4,2,1,70,0,1
23632,-100,4,2,1,70,0,0
23700,-100,4,2,1,70,0,1
23769,-100,4,2,1,70,0,0
23838,-100,4,2,1,70,0,1
23907,-100,4,2,1,70,0,0
23976,-100,4,2,1,70,0,1
24044,-100,4,2,1,70,0,0
24113,-100,4,2,1,70,0,1
24182,-100,4,2,1,70,0,0
24251,-100,4,2,1,70,0,1
24320,-100,4,2,1,70,0,0
24388,-100,4,2,1,70,0,1
24457,-100,4,2,1,70,0,0
24810,550.45871559633,4,2,1,70,1,0
38640,-100,4,2,1,60,0,0
39121,-100,4,2,1,55,0,0
39672,-100,4,2,1,50,0,0
40222,-100,4,2,1,45,0,0
40773,-100,4,2,1,40,0,0
41323,-100,4,2,1,35,0,0
41874,-100,4,2,1,30,0,0
42424,-100,4,2,1,25,0,0
42699,-100,4,2,1,5,0,0

[Colours]
Combo1 : 235,129,139
Combo2 : 233,233,233
SliderBorder : 203,80,98

[HitObjects]
498,292,2645,6,0,L|424:278,1,75,4|10,1:2|2:2,0:0:0:0:
390,212,3196,2,0,L|316:225,1,75,2|10,1:2|2:2,0:0:0:0:
290,295,3746,2,0,P|272:327|155:337,1,150,2|2,1:2|1:2,0:0:0:0:
113,297,4572,1,10,2:2:0:0:
53,252,4847,5,2,1:2:0:0:
81,182,5122,1,10,2:2:0:0:
112,113,5398,2,0,L|151:31,1,75,2|10,1:2|2:2,0:0:0:0:
212,13,5948,2,0,B|247:57|295:65|295:65|367:55,1,150,2|2,1:2|1:2,0:0:0:0:
494,47,7049,6,0,P|503:82|492:118,1,75,2|10,1:2|2:2,0:0:0:0:
438,170,7599,1,2,1:2:0:0:
427,244,7875,1,10,2:2:0:0:
359,276,8150,2,0,P|349:240|360:204,1,75,2|10,1:2|2:2,0:0:0:0:
306,153,8700,2,0,B|267:152|237:180|237:180|217:148|178:137,2,150,2|2|0,1:2|1:2|1:1,0:0:0:0:
421,56,10352,5,12,1:2:0:0:
167,216,11453,6,0,B|154:255|154:255|168:294,1,75,4|10,1:2|2:2,0:0:0:0:
214,343,12003,2,0,L|303:309,1,75,2|10,1:2|2:2,0:0:0:0:
347,276,12554,2,0,B|377:211|306:239|281:150,1,150,2|2,1:2|1:2,0:0:0:0:
299,81,13379,1,10,2:2:0:0:
371,100,13655,5,2,1:2:0:0:
423,46,13930,1,10,2:2:0:0:
484,89,14205,2,0,P|477:133|482:174,1,75,2|10,1:2|2:2,0:0:0:0:
498,235,14755,2,0,B|486:288|446:318|446:318|505:338,1,150,2|2,1:2|1:2,0:0:0:0:
312,345,15856,6,0,P|306:309|320:267,1,75,2|10,1:2|2:2,0:0:0:0:
381,234,16407,1,2,1:2:0:0:
343,170,16682,1,10,2:2:0:0:
268,176,16957,2,0,L|201:224,1,75,2|10,1:2|2:2,0:0:0:0:
193,293,17508,2,0,B|163:331|124:325|124:325|104:288|72:279,1,150,2|2,1:2|1:2,0:0:0:0:
24,223,18333,2,0,L|46:136,2,75,8|0|8,2:2|1:1|2:2,0:0:0:0:
0,294,19159,5,12,1:2:0:0:
146,29,20260,6,0,P|183:18|224:28,1,75,4|10,1:2|2:2,0:0:0:0:
191,94,20810,2,0,P|219:120|230:161,1,75,2|10,1:2|2:2,0:0:0:0:
157,165,21361,2,0,P|148:202|118:233,1,75,2|10,1:2|2:2,0:0:0:0:
57,262,21911,1,2,1:2:0:0:
154,362,22462,6,0,L|240:341,1,75,2|10,1:2|2:2,0:0:0:0:
222,269,23012,2,0,L|308:248,1,75,2|10,1:2|2:2,0:0:0:0:
369,249,23563,2,0,B|357:192|397:160|397:160|382:117|382:117|429:93|431:35,1,243.75,8|8,2:2|2:2,0:0:0:0:
338,31,24810,6,0,B|286:25|286:25|246:54|246:54|181:48,1,150,2|2,1:2|1:2,0:0:0:0:
131,14,25635,1,10,2:2:0:0:
77,66,25910,2,0,B|83:106|83:106|96:137,1,75,2|10,1:2|2:2,0:0:0:0:
163,172,26461,2,0,B|156:212|156:212|143:243,1,75,2|10,1:2|2:2,0:0:0:0:
80,284,27011,1,2,1:2:0:0:
98,357,27287,1,10,2:2:0:0:
172,352,27562,2,0,L|267:319,1,75,2|10,1:2|2:2,0:0:0:0:
312,300,28112,5,14,1:2:0:0:
39,174,29213,6,0,L|53:100,1,75,4|10,1:2|2:2,0:0:0:0:
91,35,29764,2,0,P|124:21|165:22,1,75,2|10,1:2|2:2,0:0:0:0:
192,90,30314,2,0,P|259:110|331:65,1,150,2|2,1:2|1:2,0:0:0:0:
375,16,31140,1,10,2:2:0:0:
449,9,31415,5,2,1:2:0:0:
491,70,31690,1,10,2:2:0:0:
443,128,31965,2,0,P|447:168|482:210,1,75,2|10,1:2|2:2,0:0:0:0:
494,266,32516,2,0,B|418:310|430:242|351:284,1,150,2|2,1:2|1:2,0:0:0:0:
206,324,33617,6,0,L|226:218,1,75,2|10,1:2|2:2,0:0:0:0:
273,197,34167,1,2,1:2:0:0:
220,143,34443,1,10,2:2:0:0:
278,96,34718,2,0,L|258:-10,1,75,2|10,1:2|2:2,0:0:0:0:
189,20,35268,2,0,B|149:3|112:8|112:8|94:48|119:97,1,150,2|2,1:2|1:2,0:0:0:0:
125,152,36094,1,8,2:2:0:0:
179,203,36369,2,0,L|262:188,2,75,2|8|14,1:2|2:2|2:2,0:0:0:0:
256,192,38640,12,0,42699,2:0:0:0:
