osu file format v14

[General]
AudioFilename: audio.mp3
AudioLeadIn: 0
PreviewTime: 2645
Countdown: 0
SampleSet: Soft
StackLeniency: 0.7
Mode: 0
LetterboxInBreaks: 0
SkinPreference:Default
WidescreenStoryboard: 1

[Editor]
Bookmarks: 35880
DistanceSpacing: 1
BeatDivisor: 8
GridSize: 16
TimelineZoom: 2.1

[Metadata]
Title:Brain Implosion Energy Drink (feat. Kasane Teto)
TitleUnicode:Brain Implosion Energy Drink (feat. Kasane Teto)
Artist:Flanger Moose
ArtistUnicode:Flanger Moose
Creator:Bloxi
Version:GYGY's Overthinking Orange
Source:
Tags:BRRRRRRRRRRRRRRRRRRRRRRRRRRRRRRRRRRRRRRRRRRRRRRRRRRRRRRRRRRRRRRRRRRRRRRRRRRRRRRRRRRRRRRRRRRRRRRRRRRRRRRRRRRRRRRRRRRRRRRRRRRRRRRRRRRRRRRRRRRRRRRRRRRRRRRRRRRRRRRRRRRRRRRRRRRRRRRRRRRRRRRRRRRRRRRRRRRRRRRRRRRRRRRRRRRRRRRRRRRRRRRRRRRRRRRRRRRRRRRRRRRRRRRRRRRRRRRRRRRRRRRRRRRRRRRRRRRRRRRRRRRRRRRRRRRRRRRRRRRRRRRRRRRRRRRRRRRRRRRRRRRRRRRRRRRRRRRRRRRRRRRRRRRRRRRRRRRRRRRRRRRRRRRRRRRRRRRRRRRRRRRRRRRRRRRRRRRRRRRRRRRRRRRRRRRRRRRRRRRRRRRRRRRRRRRRRRRRRRRRRRRRRRRRRRRRRRRRRRRRRRRRRRRRRRRRRRRRRRRRRRRRRRRRRRRRRRRRRRRRRRRRRRRRRRRRRRRRRRRRRRRRRRRRRRRRRRRRRRRRRRRRRRRRRRRRRRRRRRRRRRRRRRRRRRRRRRRRRRRRRRRRRRRRRRRRRRRRRRRRRRRRRRRRRRRRRRRRRRRRRRRRRRRRRRRRRRRRRRRRRRRRRRRRRRRRRRRRRRRRRRRRRRRRRRRRRRRRRRRRRRRRRRRRRRRRRRRRRRRRRRRRRRRRRRRRRRRRRRRRRRRRRRRRRRRRRRRRRRRRRRRRRRRRRRRRRRRRRRRRRRRRRRRRRRRRRRRRRRRRRRRRRRRRRRRRRRRRRRRRRRRRRRRRRRRRRRRRRRRRRRRRRRRRRRRRRRRRRRRRRRRRRRRRRRRRRRRRRRRRRRRR curi utau vocaloid female novelty english electronic synthv muya- gygy tweeker deppyforce phynta bnmc leominexd leomine tuffiii froskya
BeatmapID:4499221
BeatmapSetID:2136811

[Difficulty]
HPDrainRate:4
CircleSize:4
OverallDifficulty:7.5
ApproachRate:8
SliderMultiplier:1.9
SliderTickRate:1

[Events]
//Background and Video events
0,0,"bg.jpg",0,0
Video,381,"video.avi"
//Break Periods
//Storyboard Layer 0 (Background)
//Storyboard Layer 1 (Fail)
//Storyboard Layer 2 (Pass)
//Storyboard Layer 3 (Foreground)
//Storyboard Layer 4 (Overlay)
//Storyboard Sound Samples

[TimingPoints]
444,550.45871559633,4,2,1,50,1,0
2645,-100,4,2,1,70,0,0
16407,-66.6666666666667,4,2,1,70,0,0
16957,-50,4,2,1,70,0,0
17508,-100,4,2,1,70,0,0
23563,-71.4285714285714,4,2,1,70,0,1
23632,-71.4285714285714,4,2,1,70,0,0
23700,-71.4285714285714,4,2,1,70,0,1
23769,-71.4285714285714,4,2,1,70,0,0
23838,-71.4285714285714,4,2,1,70,0,1
23907,-71.4285714285714,4,2,1,70,0,0
23976,-71.4285714285714,4,2,1,70,0,1
24044,-71.4285714285714,4,2,1,70,0,0
24113,-71.4285714285714,4,2,1,70,0,1
24182,-71.4285714285714,4,2,1,70,0,0
24251,-71.4285714285714,4,2,1,70,0,1
24320,-71.4285714285714,4,2,1,70,0,0
24388,-71.4285714285714,4,2,1,70,0,1
24457,-71.4285714285714,4,2,1,70,0,0
24810,550.45871559633,4,2,1,70,1,0
38640,-100,4,2,1,60,0,0
39121,-100,4,2,1,55,0,0
39672,-100,4,2,1,50,0,0
40222,-100,4,2,1,45,0,0
40773,-100,4,2,1,40,0,0
41323,-100,4,2,1,35,0,0
41874,-100,4,2,1,30,0,0
42424,-100,4,2,1,25,0,0
42699,-100,4,2,1,5,0,0

[Colours]
Combo1 : 255,98,192
Combo2 : 250,174,174
Combo3 : 203,80,98
Combo4 : 255,176,225

[HitObjects]
192,32,444,5,2,2:2:0:0:
320,32,994,1,2,2:2:0:0:
192,160,1544,1,2,2:2:0:0:
320,160,1820,1,2,2:2:0:0:
192,288,2095,1,2,2:2:0:0:
320,288,2370,1,2,2:2:0:0:
112,384,2645,6,0,P|96:336|112:288,1,95,4|10,1:2|2:2,0:0:0:0:
208,208,3196,2,0,P|223:163|212:118,1,95,2|10,1:2|2:2,0:0:0:0:
96,16,3746,1,2,1:2:0:0:
16,112,4021,1,10,2:2:0:0:
96,208,4297,1,2,1:2:0:0:
400,384,4847,6,0,P|416:336|400:288,1,95,2|10,1:2|2:2,0:0:0:0:
304,208,5398,2,0,P|288:163|299:118,1,95,2|10,1:2|2:2,0:0:0:0:
416,16,5948,1,2,1:2:0:0:
496,112,6223,1,10,2:2:0:0:
416,208,6499,1,2,1:2:0:0:
256,0,7049,5,2,1:2:0:0:
256,0,7324,1,10,2:2:0:0:
256,112,7599,2,0,L|256:224,1,95,2|10,1:2|2:2,0:0:0:0:
192,336,8150,1,2,1:2:0:0:
320,336,8425,1,10,2:2:0:0:
128,160,8700,1,2,1:2:0:0:
368,160,8976,1,10,2:2:0:0:
160,32,9251,6,0,P|256:16|352:32,2,190,2|0|12,1:2|1:1|1:2,0:0:0:0:
368,240,11453,6,0,P|384:192|368:144,1,95,4|10,1:2|2:2,0:0:0:0:
139,150,12003,2,0,P|128:195|144:240,1,95,2|10,1:2|2:2,0:0:0:0:
256,336,12554,1,2,1:2:0:0:
256,192,12829,1,10,2:2:0:0:
256,336,13104,1,2,1:2:0:0:
464,144,13655,6,0,L|368:144,1,95,2|10,1:2|2:2,0:0:0:0:
48,144,14205,2,0,L|144:144,1,95,2|10,1:2|2:2,0:0:0:0:
256,48,14755,1,2,1:2:0:0:
256,192,15031,1,10,2:2:0:0:
256,48,15306,1,2,1:2:0:0:
256,32,15581,1,10,2:2:0:0:
256,288,15856,6,0,L|256:175,1,95,2|10,1:2|2:2,0:0:0:0:
256,335,16407,6,0,L|256:183,1,142.500005435944,2|10,1:2|2:2,0:0:0:0:
256,382,16957,6,0,L|256:182,1,190,2|10,1:2|2:2,0:0:0:0:
128,80,17508,1,2,1:2:0:0:
256,16,17783,1,10,2:2:0:0:
384,80,18058,1,2,1:2:0:0:
256,192,18196,12,12,19159,1:2:0:0:
128,336,20260,5,4,1:2:0:0:
128,336,20535,1,10,2:2:0:0:
384,336,20810,1,2,1:2:0:0:
384,336,21086,1,10,2:2:0:0:
480,240,21361,2,0,P|432:224|384:240,1,95,2|10,1:2|2:2,0:0:0:0:
48,240,21911,2,0,P|96:224|144:240,1,95,2|10,1:2|2:2,0:0:0:0:
256,352,22462,1,2,1:2:0:0:
384,224,22737,1,10,2:2:0:0:
128,224,23012,1,2,1:2:0:0:
256,96,23288,1,10,2:2:0:0:
480,288,23563,6,0,B|416:272|416:272|352:288|352:288|288:272|288:272|224:288|224:288|160:272|160:272|96:288|96:288|16:272,1,465.499985794068,8|2,2:2|2:2,0:0:0:0:
27,274,24810,6,0,P|16:224|32:160,1,95,2|10,1:2|2:2,0:0:0:0:
160,96,25360,1,2,1:2:0:0:
160,96,25635,1,10,2:2:0:0:
304,176,25910,2,0,P|293:221|299:268,1,95,2|10,1:2|2:2,0:0:0:0:
448,352,26461,1,2,1:2:0:0:
448,352,26736,1,10,2:2:0:0:
512,240,27011,5,2,1:2:0:0:
448,96,27287,1,10,2:2:0:0:
288,48,27562,1,2,1:2:0:0:
144,160,27837,1,10,2:2:0:0:
192,352,28112,1,14,1:2:0:0:
512,192,29213,5,4,1:2:0:0:
400,144,29488,1,10,2:2:0:0:
256,192,29764,1,2,1:2:0:0:
128,144,30039,1,10,2:2:0:0:
0,192,30314,2,0,L|0:288,2,95,2|10|2,1:2|2:2|1:2,0:0:0:0:
512,192,31415,5,2,1:2:0:0:
400,240,31690,1,10,2:2:0:0:
256,192,31965,1,2,1:2:0:0:
128,240,32241,1,10,2:2:0:0:
0,192,32516,2,0,L|0:96,2,95,2|10|2,1:2|2:2|1:2,0:0:0:0:
256,368,33617,5,2,1:2:0:0:
256,368,33892,1,10,2:2:0:0:
256,240,34167,1,2,1:2:0:0:
256,240,34443,1,10,2:2:0:0:
80,304,34718,2,0,P|122:322|165:306,1,95,2|10,1:2|2:2,0:0:0:0:
416,176,35268,2,0,P|373:194|330:178,1,95,2|10,1:2|2:2,0:0:0:0:
256,16,35819,1,2,1:2:0:0:
256,16,36094,1,8,2:2:0:0:
0,240,36369,6,0,L|64:240,1,47.5,2|0,1:2|0:0,0:0:0:0:
128,176,36644,6,0,L|192:176,1,47.5,8|0,2:2|0:0,0:0:0:0:
320,352,36920,6,0,L|320:384,2,23.75,14|0|2,2:2|0:0|0:0,0:0:0:0:
256,192,38640,12,0,42699,2:0:0:0:
