osu file format v14

[General]
AudioFilename: audio.mp3
AudioLeadIn: 0
PreviewTime: 2645
Countdown: 0
SampleSet: Soft
StackLeniency: 0
Mode: 0
LetterboxInBreaks: 0
SkinPreference:Default
WidescreenStoryboard: 1

[Editor]
DistanceSpacing: 0.8
BeatDivisor: 4
GridSize: 32
TimelineZoom: 1.8

[Metadata]
Title:Brain Implosion Energy Drink (feat. Kasane Teto)
TitleUnicode:Brain Implosion Energy Drink (feat. Kasane Teto)
Artist:Flanger Moose
ArtistUnicode:Flanger Moose
Creator:Bloxi
Version:Froskya's Repressed Raspberry
Source:
Tags:BRRRRRRRRRRRRRRRRRRRRRRRRRRRRRRRRRRRRRRRRRRRRRRRRRRRRRRRRRRRRRRRRRRRRRRRRRRRRRRRRRRRRRRRRRRRRRRRRRRRRRRRRRRRRRRRRRRRRRRRRRRRRRRRRRRRRRRRRRRRRRRRRRRRRRRRRRRRRRRRRRRRRRRRRRRRRRRRRRRRRRRRRRRRRRRRRRRRRRRRRRRRRRRRRRRRRRRRRRRRRRRRRRRRRRRRRRRRRRRRRRRRRRRRRRRRRRRRRRRRRRRRRRRRRRRRRRRRRRRRRRRRRRRRRRRRRRRRRRRRRRRRRRRRRRRRRRRRRRRRRRRRRRRRRRRRRRRRRRRRRRRRRRRRRRRRRRRRRRRRRRRRRRRRRRRRRRRRRRRRRRRRRRRRRRRRRRRRRRRRRRRRRRRRRRRRRRRRRRRRRRRRRRRRRRRRRRRRRRRRRRRRRRRRRRRRRRRRRRRRRRRRRRRRRRRRRRRRRRRRRRRRRRRRRRRRRRRRRRRRRRRRRRRRRRRRRRRRRRRRRRRRRRRRRRRRRRRRRRRRRRRRRRRRRRRRRRRRRRRRRRRRRRRRRRRRRRRRRRRRRRRRRRRRRRRRRRRRRRRRRRRRRRRRRRRRRRRRRRRRRRRRRRRRRRRRRRRRRRRRRRRRRRRRRRRRRRRRRRRRRRRRRRRRRRRRRRRRRRRRRRRRRRRRRRRRRRRRRRRRRRRRRRRRRRRRRRRRRRRRRRRRRRRRRRRRRRRRRRRRRRRRRRRRRRRRRRRRRRRRRRRRRRRRRRRRRRRRRRRRRRRRRRRRRRRRRRRRRRRRRRRRRRRRRRRRRRRRRRRRRRRRRRRRRRRRRRRRRRRRRRRRRRRRRRRRRRRRRRRRRRRR curi utau vocaloid female novelty english electronic synthv muya- gygy tweeker deppyforce phynta bnmc leominexd leomine tuffiii froskya
BeatmapID:4525748
BeatmapSetID:2136811

[Difficulty]
HPDrainRate:6
CircleSize:6
OverallDifficulty:8.5
ApproachRate:9
SliderMultiplier:2.2
SliderTickRate:1

[Events]
//Background and Video events
0,0,"bg.jpg",0,0
Video,381,"video.avi"
//Break Periods
//Storyboard Layer 0 (Background)
//Storyboard Layer 1 (Fail)
//Storyboard Layer 2 (Pass)
//Storyboard Layer 3 (Foreground)
//Storyboard Layer 4 (Overlay)
//Storyboard Sound Samples

[TimingPoints]
444,550.45871559633,4,2,1,50,1,0
444,-125,4,2,1,50,0,0
856,-125,4,2,1,5,0,0
994,-125,4,2,1,50,0,0
1544,-100,4,2,1,50,0,0
2645,-86.9565217391304,4,2,1,70,0,0
2841,-86.9565217391304,4,2,1,5,0,0
2910,-86.9565217391304,4,2,1,70,0,0
3391,-86.9565217391304,4,2,1,5,0,0
3460,-86.9565217391304,4,2,1,70,0,0
4492,-86.9565217391304,4,2,1,5,0,0
4561,-86.9565217391304,4,2,1,70,0,0
5043,-86.9565217391304,4,2,1,5,0,0
5112,-86.9565217391304,4,2,1,70,0,0
5593,-86.9565217391304,4,2,1,5,0,0
5662,-86.9565217391304,4,2,1,70,0,0
6694,-86.9565217391304,4,2,1,5,0,0
6763,-86.9565217391304,4,2,1,70,0,0
7245,-86.9565217391304,4,2,1,5,0,0
7313,-86.9565217391304,4,2,1,70,0,0
7795,-86.9565217391304,4,2,1,5,0,0
7864,-86.9565217391304,4,2,1,70,0,0
8346,-86.9565217391304,4,2,1,5,0,0
8414,-86.9565217391304,4,2,1,70,0,0
8896,-86.9565217391304,4,2,1,70,0,0
8965,-86.9565217391304,4,2,1,70,0,0
10341,-66.6666666666667,4,2,1,70,0,0
10410,-86.9565217391304,4,2,1,5,0,0
11442,-86.9565217391304,4,2,1,70,0,0
11648,-86.9565217391304,4,2,1,5,0,0
11717,-86.9565217391304,4,2,1,70,0,0
12199,-86.9565217391304,4,2,1,5,0,0
12268,-86.9565217391304,4,2,1,70,0,0
13300,-86.9565217391304,4,2,1,5,0,0
13368,-86.9565217391304,4,2,1,70,0,0
13850,-86.9565217391304,4,2,1,5,0,0
13919,-86.9565217391304,4,2,1,70,0,0
14401,-86.9565217391304,4,2,1,5,0,0
14469,-86.9565217391304,4,2,1,70,0,0
15501,-86.9565217391304,4,2,1,5,0,0
15570,-86.9565217391304,4,2,1,70,0,0
16052,-86.9565217391304,4,2,1,5,0,0
16121,-86.9565217391304,4,2,1,70,0,0
16602,-86.9565217391304,4,2,1,5,0,0
16671,-86.9565217391304,4,2,1,70,0,0
17153,-86.9565217391304,4,2,1,5,0,0
17222,-86.9565217391304,4,2,1,70,0,0
19148,-66.6666666666667,4,2,1,70,0,0
19217,-66.6666666666667,4,2,1,5,0,0
19974,-200,4,2,1,70,0,0
20180,-125,4,2,1,5,0,0
20249,-86.9565217391304,4,2,1,70,0,0
20456,-86.9565217391304,4,2,1,5,0,0
20524,-86.9565217391304,4,2,1,70,0,0
21006,-86.9565217391304,4,2,1,5,0,0
21075,-86.9565217391304,4,2,1,70,0,0
22107,-86.9565217391304,4,2,1,5,0,0
22176,-86.9565217391304,4,2,1,70,0,0
22657,-86.9565217391304,4,2,1,5,0,0
22726,-86.9565217391304,4,2,1,70,0,0
23208,-86.9565217391304,4,2,1,5,0,0
23277,-86.9565217391304,4,2,1,70,0,0
23563,-86.9565217391304,4,2,1,70,0,1
23632,-86.9565217391304,4,2,1,70,0,0
23700,-86.9565217391304,4,2,1,70,0,1
23769,-86.9565217391304,4,2,1,70,0,0
23838,-86.9565217391304,4,2,1,70,0,1
23907,-86.9565217391304,4,2,1,70,0,0
23976,-86.9565217391304,4,2,1,70,0,1
24044,-86.9565217391304,4,2,1,70,0,0
24113,-86.9565217391304,4,2,1,70,0,1
24182,-86.9565217391304,4,2,1,70,0,0
24251,-86.9565217391304,4,2,1,70,0,1
24320,-86.9565217391304,4,2,1,70,0,0
24388,-86.9565217391304,4,2,1,70,0,1
24457,-86.9565217391304,4,2,1,70,0,0
24526,-200,4,2,1,70,0,0
24732,-86.9565217391304,4,2,1,5,0,0
24810,550.45871559633,4,2,1,70,1,0
24810,-86.9565217391304,4,2,1,70,0,0
25016,-86.9565217391304,4,2,1,5,0,0
25085,-86.9565217391304,4,2,1,70,0,0
25566,-86.9565217391304,4,2,1,5,0,0
25635,-86.9565217391304,4,2,1,70,0,0
26667,-86.9565217391304,4,2,1,5,0,0
26736,-86.9565217391304,4,2,1,70,0,0
27218,-86.9565217391304,4,2,1,5,0,0
27287,-86.9565217391304,4,2,1,70,0,0
27768,-86.9565217391304,4,2,1,5,0,0
27837,-86.9565217391304,4,2,1,70,0,0
28112,-232.558139534884,4,2,1,70,0,0
28663,-232.558139534884,4,2,1,5,0,0
29213,-86.9565217391304,4,2,1,70,0,0
29420,-86.9565217391304,4,2,1,5,0,0
29488,-86.9565217391304,4,2,1,70,0,0
29970,-86.9565217391304,4,2,1,5,0,0
30039,-86.9565217391304,4,2,1,70,0,0
31071,-86.9565217391304,4,2,1,5,0,0
31140,-86.9565217391304,4,2,1,70,0,0
31621,-86.9565217391304,4,2,1,5,0,0
31690,-86.9565217391304,4,2,1,70,0,0
32172,-86.9565217391304,4,2,1,5,0,0
32241,-86.9565217391304,4,2,1,70,0,0
33273,-86.9565217391304,4,2,1,5,0,0
33342,-86.9565217391304,4,2,1,70,0,0
33823,-86.9565217391304,4,2,1,5,0,0
33892,-86.9565217391304,4,2,1,70,0,0
34374,-86.9565217391304,4,2,1,5,0,0
34443,-86.9565217391304,4,2,1,70,0,0
34924,-86.9565217391304,4,2,1,5,0,0
34993,-86.9565217391304,4,2,1,70,0,0
38640,-100,4,2,1,60,0,0
39121,-100,4,2,1,55,0,0
39672,-100,4,2,1,50,0,0
40222,-100,4,2,1,45,0,0
40773,-100,4,2,1,40,0,0
41323,-100,4,2,1,35,0,0
41874,-100,4,2,1,30,0,0
42424,-100,4,2,1,25,0,0
42699,-100,4,2,1,5,0,0

[Colours]
Combo1 : 251,111,173
Combo2 : 227,136,150
Combo3 : 216,86,105
Combo4 : 253,172,208
SliderBorder : 203,80,98

[HitObjects]
465,232,444,6,0,P|483:274|478:228,1,132,2|0,2:2|0:0,0:0:0:0:
401,102,994,2,0,P|421:58|415:105,1,132,2|0,2:2|0:0,0:0:0:0:
343,212,1544,6,0,P|350:230|349:212,1,55,2|0,2:2|0:0,0:0:0:0:
269,125,1820,2,0,P|278:107|277:127,1,55,2|0,2:2|0:0,0:0:0:0:
192,256,2095,2,0,P|195:274|196:255,1,55,2|0,2:2|0:0,0:0:0:0:
131,84,2370,2,0,P|140:66|139:86,1,55,2|0,2:2|0:0,0:0:0:0:
0,207,2645,6,0,P|54:190|94:181,1,94.8750018095971,4|0,1:2|0:0,0:0:0:0:
125,172,2921,2,0,P|111:210|107:238,1,63.250001206398,10|0,2:2|0:0,0:0:0:0:
217,347,3196,2,0,P|200:294|191:254,1,94.8750018095971,2|0,1:2|0:0,0:0:0:0:
185,221,3471,2,0,P|223:235|251:239,1,63.250001206398,10|0,2:2|0:0,0:0:0:0:
350,140,3746,6,0,P|320:150|304:180,1,63.250001206398,2|0,1:2|0:0,0:0:0:0:
390,273,4021,2,0,P|396:242|377:214,1,63.250001206398,10|0,2:2|0:0,0:0:0:0:
288,319,4297,2,0,P|319:352|366:358,1,94.8750018095971,2|0,1:2|0:0,0:0:0:0:
396,377,4572,2,0,P|425:369|443:343,1,63.250001206398,10|0,2:2|0:0,0:0:0:0:
512,194,4847,6,0,L|495:96,1,94.8750018095971,2|0,1:2|0:0,0:0:0:0:
488,65,5122,2,0,L|411:48,1,63.250001206398,10|0,2:2|0:0,0:0:0:0:
318,152,5398,2,0,L|220:135,1,94.8750018095971,2|0,1:2|0:0,0:0:0:0:
189,128,5673,2,0,L|172:51,1,63.250001206398,10|0,2:2|0:0,0:0:0:0:
38,31,5948,6,0,B|43:60|43:60|49:65|49:65|54:90,1,63.250001206398,2|0,1:2|0:0,0:0:0:0:
101,208,6223,2,0,B|106:178|106:178|112:174|112:174|117:149,1,63.250001206398,10|0,2:2|0:0,0:0:0:0:
6,242,6499,2,0,B|16:289|16:289|10:297|10:297|21:346,1,94.8750018095971,2|0,1:2|0:0,0:0:0:0:
46,355,6774,2,0,B|75:360|75:360|80:366|80:366|105:371,1,63.250001206398,10|0,2:2|0:0,0:0:0:0:
232,240,7049,6,0,P|185:244|156:285,1,94.8750018095971,2|0,1:2|0:0,0:0:0:0:
163,314,7324,2,0,P|193:320|223:331,1,63.250001206398,10|0,2:2|0:0,0:0:0:0:
366,352,7599,2,0,P|320:339|298:294,1,94.8750018095971,2|0,1:2|0:0,0:0:0:0:
309,266,7875,2,0,P|339:260|369:252,1,63.250001206398,10|0,2:2|0:0,0:0:0:0:
499,116,8150,2,0,P|452:120|423:161,1,94.8750018095971,2|0,1:2|0:0,0:0:0:0:
430,190,8425,2,0,P|460:196|490:207,1,63.250001206398,10|0,2:2|0:0,0:0:0:0:
428,336,8700,6,0,B|398:343|398:343|372:323,1,63.250001206398,2|0,1:2|0:0,0:0:0:0:
294,188,8976,2,0,B|319:168|319:168|349:175,1,63.250001206398,10|0,2:2|0:0,0:0:0:0:
204,372,9251,6,0,L|232:221,2,126.500002412796,2|10|2,1:2|2:2|1:2,0:0:0:0:
248,122,10077,1,8,2:2:0:0:
47,372,10352,2,0,L|95:361,1,41.2500015735627,12|0,1:2|0:0,0:0:0:0:
47,372,11453,6,0,L|142:348,1,94.8750018095971,4|0,1:2|0:0,0:0:0:0:
162,322,11728,2,0,L|223:337,1,63.250001206398,10|0,2:2|0:0,0:0:0:0:
368,364,12003,2,0,L|344:269,1,94.8750018095971,2|0,1:2|0:0,0:0:0:0:
318,250,12278,2,0,L|333:188,1,63.250001206398,10|0,2:2|0:0,0:0:0:0:
256,70,12554,6,0,B|271:97|271:97|302:102,1,63.250001206398,2|0,1:2|0:0,0:0:0:0:
419,18,12829,2,0,B|387:23|387:23|372:50,1,63.250001206398,10|0,2:2|0:0,0:0:0:0:
409,209,13104,2,0,B|456:200|456:200|478:160,1,94.8750018095971,2|0,1:2|0:0,0:0:0:0:
491,128,13379,2,0,B|476:101|476:101|444:95,1,63.250001206398,10|0,2:2|0:0,0:0:0:0:
305,177,13655,6,0,P|266:203|220:195,1,94.8750018095971,2|0,1:2|0:0,0:0:0:0:
199,168,13930,2,0,P|173:150|142:154,1,63.250001206398,10|0,2:2|0:0,0:0:0:0:
61,294,14205,2,0,P|99:319|145:311,1,94.8750018095971,2|0,1:2|0:0,0:0:0:0:
167,284,14480,2,0,P|192:266|223:270,1,63.250001206398,10|0,2:2|0:0,0:0:0:0:
336,364,14755,6,0,L|268:352,1,63.250001206398,2|0,1:2|0:0,0:0:0:0:
380,245,15031,2,0,L|391:307,1,63.250001206398,10|0,2:2|0:0,0:0:0:0:
272,186,15306,2,0,L|365:169,1,94.8750018095971,2|0,1:2|0:0,0:0:0:0:
383,139,15581,2,0,L|451:151,1,63.250001206398,10|0,2:2|0:0,0:0:0:0:
333,24,15856,6,0,B|262:42|303:57|242:73,1,94.8750018095971,2|0,1:2|0:0,0:0:0:0:
221,85,16132,2,0,P|190:76|154:67,1,63.250001206398,10|0,2:2|0:0,0:0:0:0:
11,121,16407,2,0,B|82:139|41:154|102:170,1,94.8750018095971,2|0,1:2|0:0,0:0:0:0:
123,182,16682,2,0,P|154:173|190:164,1,63.250001206398,10|0,2:2|0:0,0:0:0:0:
311,258,16957,2,0,B|240:276|281:291|220:307,1,94.8750018095971,2|0,1:2|0:0,0:0:0:0:
199,319,17232,2,0,P|168:310|132:301,1,63.250001206398,10|0,2:2|0:0,0:0:0:0:
3,199,17508,6,0,P|38:213|53:251,1,63.250001206398,2|0,1:2|0:0,0:0:0:0:
8,380,17783,2,0,P|22:345|60:330,1,63.250001206398,10|0,2:2|0:0,0:0:0:0:
210,226,18058,6,0,B|200:160|160:183|150:115,2,126.500002412796,2|8|2,1:2|2:2|1:2,0:0:0:0:
97,0,18884,1,8,2:2:0:0:
389,137,19159,2,0,L|382:177,1,41.2500015735627,12|0,1:2|0:0,0:0:0:0:
389,137,19985,6,0,L|382:177,1,41.25,2|0,2:2|0:0,0:0:0:0:
376,212,20260,6,0,P|320:199|280:194,1,94.8750018095971,4|0,1:2|0:0,0:0:0:0:
248,188,20535,2,0,P|265:224|271:252,1,63.250001206398,10|0,2:2|0:0,0:0:0:0:
172,370,20810,2,0,P|184:315|189:275,1,94.8750018095971,2|0,1:2|0:0,0:0:0:0:
192,242,21086,2,0,P|155:259|127:265,1,63.250001206398,10|0,2:2|0:0,0:0:0:0:
8,192,21361,6,0,P|10:161|32:139,1,63.250001206398,2|0,1:2|0:0,0:0:0:0:
168,157,21636,2,0,P|147:180|117:185,1,63.250001206398,10|0,2:2|0:0,0:0:0:0:
71,42,21911,2,0,P|112:24|158:39,1,94.8750018095971,2|0,1:2|0:0,0:0:0:0:
192,34,22187,2,0,P|214:53|219:83,1,63.250001206398,10|0,2:2|0:0,0:0:0:0:
117,185,22462,6,0,B|136:289,1,94.8750018095971,2|0,1:2|0:0,0:0:0:0:
141,312,22737,2,0,B|217:336,1,63.250001206398,10|0,2:2|0:0,0:0:0:0:
341,362,23012,2,0,B|360:258,1,94.8750018095971,2|0,1:2|0:0,0:0:0:0:
365,235,23288,2,0,B|441:211,1,63.250001206398,10|0,2:2|0:0,0:0:0:0:
512,60,23563,5,8,2:2:0:0:
485,32,23632,5,8,2:2:0:0:
453,16,23700,5,8,2:2:0:0:
418,16,23769,5,8,2:2:0:0:
380,28,23838,5,8,2:2:0:0:
350,60,23907,5,8,2:2:0:0:
325,91,23976,5,8,2:2:0:0:
285,115,24044,5,8,2:2:0:0:
239,117,24113,5,8,2:2:0:0:
194,95,24182,5,8,2:2:0:0:
158,61,24251,5,8,2:2:0:0:
108,38,24320,5,8,2:2:0:0:
53,45,24388,5,8,2:2:0:0:
5,74,24457,5,8,2:2:0:0:
0,133,24526,6,0,L|11:184,1,41.25,2|0,0:0|0:0,0:0:0:0:
17,207,24810,6,0,P|75:207|105:243,1,94.8750018095971,2|0,1:2|0:0,0:0:0:0:
112,263,25085,2,0,P|133:284|193:282,1,63.250001206398,10|0,2:2|0:0,0:0:0:0:
323,282,25360,2,0,P|265:282|235:318,1,94.8750018095971,2|0,1:2|0:0,0:0:0:0:
228,338,25635,2,0,P|207:359|147:357,1,63.250001206398,10|0,2:2|0:0,0:0:0:0:
38,279,25910,6,0,P|46:309|53:340,1,63.250001206398,2|0,1:2|0:0,0:0:0:0:
174,218,26186,2,0,P|165:187|158:156,1,63.250001206398,10|0,2:2|0:0,0:0:0:0:
21,35,26461,2,0,P|88:51|133:58,1,94.8750018095971,2|0,1:2|0:0,0:0:0:0:
138,80,26736,2,0,P|169:71|200:64,1,63.250001206398,10|0,2:2|0:0,0:0:0:0:
372,27,27011,6,0,B|362:74|362:74|368:82|368:82|357:131,1,94.8750018095971,2|0,1:2|0:0,0:0:0:0:
352,152,27287,2,0,B|323:157|323:157|318:163|318:163|293:168,1,63.250001206398,10|0,2:2|0:0,0:0:0:0:
132,210,27562,2,0,B|142:257|142:257|136:265|136:265|147:314,1,94.8750018095971,2|0,1:2|0:0,0:0:0:0:
152,335,27837,2,0,B|181:340|181:340|186:346|186:346|211:351,1,63.250001206398,10|0,2:2|0:0,0:0:0:0:
414,383,28112,6,0,L|398:289,1,94.6000014434815,14|0,1:2|0:0,0:0:0:0:
414,383,29213,6,0,L|395:268,1,94.8750018095971,4|0,1:2|0:0,0:0:0:0:
373,265,29488,2,0,L|383:202,1,63.250001206398,10|0,2:2|0:0,0:0:0:0:
453,81,29764,2,0,L|338:62,1,94.8750018095971,2|0,1:2|0:0,0:0:0:0:
335,40,30039,2,0,L|272:50,1,63.250001206398,10|0,2:2|0:0,0:0:0:0:
136,7,30314,6,0,P|149:48|155:84,1,63.250001206398,2|0,1:2|0:0,0:0:0:0:
260,182,30589,2,0,P|266:150|276:120,1,63.250001206398,10|0,2:2|0:0,0:0:0:0:
121,172,30865,2,0,P|133:217|141:264,1,94.8750018095971,2|0,1:2|0:0,0:0:0:0:
146,299,31140,2,0,P|116:289|84:282,1,63.250001206398,10|0,2:2|0:0,0:0:0:0:
222,372,31415,6,0,P|270:339|267:291,1,94.8750018095971,2|0,1:2|0:0,0:0:0:0:
257,275,31690,2,0,P|247:244|241:213,1,63.250001206398,10|0,2:2|0:0,0:0:0:0:
377,107,31965,2,0,P|344:155|296:152,1,94.8750018095971,2|0,1:2|0:0,0:0:0:0:
280,142,32241,2,0,P|249:132|218:126,1,63.250001206398,10|0,2:2|0:0,0:0:0:0:
30,101,32516,6,0,B|45:128|45:128|76:133,1,63.250001206398,2|0,1:2|0:0,0:0:0:0:
193,49,32791,2,0,B|161:54|161:54|146:81,1,63.250001206398,10|0,2:2|0:0,0:0:0:0:
183,240,33066,2,0,B|230:231|230:231|252:191,1,94.8750018095971,2|0,1:2|0:0,0:0:0:0:
265,159,33342,2,0,B|250:132|250:132|218:126,1,63.250001206398,10|0,2:2|0:0,0:0:0:0:
53,206,33617,6,0,B|40:229|40:229|59:320,1,94.8750018095971,2|0,1:2|0:0,0:0:0:0:
80,321,33892,2,0,L|67:382,1,63.250001206398,10|0,2:2|0:0,0:0:0:0:
238,366,34167,2,0,B|225:343|225:343|244:252,1,94.8750018095971,2|0,1:2|0:0,0:0:0:0:
265,251,34443,2,0,L|252:190,1,63.250001206398,10|0,2:2|0:0,0:0:0:0:
403,135,34718,2,0,B|390:158|390:158|409:249,1,94.8750018095971,2|0,1:2|0:0,0:0:0:0:
430,250,34993,2,0,L|417:311,1,63.250001206398,10|0,2:2|0:0,0:0:0:0:
265,251,35268,6,0,L|326:235,1,63.250001206398,2|0,1:2|0:0,0:0:0:0:
209,374,35543,2,0,L|147:358,1,63.250001206398,10|0,2:2|0:0,0:0:0:0:
66,171,35819,6,0,B|139:190|98:221|170:242,1,126.500002412796,2|8,1:2|2:2,0:0:0:0:
265,154,36232,1,2,0:0:0:0:
159,44,36369,2,0,P|173:108|186:173,1,126.500002412796,2|10,1:2|2:2,0:0:0:0:
274,286,36782,1,0,0:0:0:0:
413,16,36920,5,14,2:2:0:0:
256,192,38640,12,0,42699,2:0:0:0:
