osu file format v14

[General]
AudioFilename: audio.mp3
AudioLeadIn: 0
PreviewTime: 2645
Countdown: 0
SampleSet: Soft
StackLeniency: 0.7
Mode: 0
LetterboxInBreaks: 0
SkinPreference:Default
WidescreenStoryboard: 0

[Editor]
DistanceSpacing: 0.8
BeatDivisor: 4
GridSize: 4
TimelineZoom: 1

[Metadata]
Title:Brain Implosion Energy Drink (feat. Kasane Teto)
TitleUnicode:Brain Implosion Energy Drink (feat. Kasane Teto)
Artist:Flanger Moose
ArtistUnicode:Flanger Moose
Creator:Bloxi
Version:FUCK.
Source:
Tags:BRRRRRRRRRRRRRRRRRRRRRRRRRRRRRRRRRRRRRRRRRRRRRRRRRRRRRRRRRRRRRRRRRRRRRRRRRRRRRRRRRRRRRRRRRRRRRRRRRRRRRRRRRRRRRRRRRRRRRRRRRRRRRRRRRRRRRRRRRRRRRRRRRRRRRRRRRRRRRRRRRRRRRRRRRRRRRRRRRRRRRRRRRRRRRRRRRRRRRRRRRRRRRRRRRRRRRRRRRRRRRRRRRRRRRRRRRRRRRRRRRRRRRRRRRRRRRRRRRRRRRRRRRRRRRRRRRRRRRRRRRRRRRRRRRRRRRRRRRRRRRRRRRRRRRRRRRRRRRRRRRRRRRRRRRRRRRRRRRRRRRRRRRRRRRRRRRRRRRRRRRRRRRRRRRRRRRRRRRRRRRRRRRRRRRRRRRRRRRRRRRRRRRRRRRRRRRRRRRRRRRRRRRRRRRRRRRRRRRRRRRRRRRRRRRRRRRRRRRRRRRRRRRRRRRRRRRRRRRRRRRRRRRRRRRRRRRRRRRRRRRRRRRRRRRRRRRRRRRRRRRRRRRRRRRRRRRRRRRRRRRRRRRRRRRRRRRRRRRRRRRRRRRRRRRRRRRRRRRRRRRRRRRRRRRRRRRRRRRRRRRRRRRRRRRRRRRRRRRRRRRRRRRRRRRRRRRRRRRRRRRRRRRRRRRRRRRRRRRRRRRRRRRRRRRRRRRRRRRRRRRRRRRRRRRRRRRRRRRRRRRRRRRRRRRRRRRRRRRRRRRRRRRRRRRRRRRRRRRRRRRRRRRRRRRRRRRRRRRRRRRRRRRRRRRRRRRRRRRRRRRRRRRRRRRRRRRRRRRRRRRRRRRRRRRRRRRRRRRRRRRRRRRRRRRRRRRRRRRRRRRRRRRRRRRRRRRRRRRRRRRRR curi utau vocaloid female novelty english electronic synthv muya- gygy tweeker deppyforce phynta bnmc leominexd leomine tuffiii froskya
BeatmapID:4496678
BeatmapSetID:2136811

[Difficulty]
HPDrainRate:5
CircleSize:4
OverallDifficulty:8
ApproachRate:8
SliderMultiplier:2.6
SliderTickRate:1

[Events]
//Background and Video events
0,0,"bg.jpg",0,0
Video,381,"video.avi"
//Break Periods
//Storyboard Layer 0 (Background)
//Storyboard Layer 1 (Fail)
//Storyboard Layer 2 (Pass)
//Storyboard Layer 3 (Foreground)
//Storyboard Layer 4 (Overlay)
//Storyboard Sound Samples

[TimingPoints]
444,550.45871559633,4,2,1,50,1,0
2645,-100,4,2,1,70,0,0
23563,-100,4,2,1,70,0,1
23632,-100,4,2,1,70,0,0
23700,-100,4,2,1,70,0,1
23769,-100,4,2,1,70,0,0
23838,-100,4,2,1,70,0,1
23907,-100,4,2,1,70,0,0
23976,-100,4,2,1,70,0,1
24044,-100,4,2,1,70,0,0
24113,-100,4,2,1,70,0,1
24182,-100,4,2,1,70,0,0
24251,-100,4,2,1,70,0,1
24320,-100,4,2,1,70,0,0
24388,-100,4,2,1,70,0,1
24457,-100,4,2,1,70,0,0
24810,550.45871559633,4,2,1,70,1,0
38640,-100,4,2,1,60,0,0
39121,-100,4,2,1,55,0,0
39672,-100,4,2,1,50,0,0
40222,-100,4,2,1,45,0,0
40773,-100,4,2,1,40,0,0
41323,-100,4,2,1,35,0,0
41874,-100,4,2,1,30,0,0
42424,-100,4,2,1,25,0,0
42699,-100,4,2,1,5,0,0

[Colours]
Combo1 : 235,129,139
Combo2 : 233,233,233
SliderBorder : 203,80,98

[HitObjects]
176,31,444,5,2,2:2:0:0:
256,192,994,1,2,2:2:0:0:
336,31,1544,5,2,2:2:0:0:
413,43,1820,5,2,2:2:0:0:
463,102,2095,5,2,2:2:0:0:
474,179,2370,5,2,2:2:0:0:
314,258,2645,6,0,P|376:275|433:247,1,130,4|10,1:2|2:2,0:0:0:0:
252,116,3196,2,0,P|190:99|133:127,1,130,2|10,1:2|2:2,0:0:0:0:
199,188,3746,5,2,1:2:0:0:
406,52,4021,1,10,2:2:0:0:
311,230,4297,1,2,1:2:0:0:
436,381,4572,6,0,L|446:252,1,130,10|2,2:2|1:2,0:0:0:0:
493,164,5122,1,10,2:2:0:0:
320,274,5398,1,2,1:2:0:0:
147,164,5673,1,10,2:2:0:0:
204,381,5948,6,0,L|194:252,1,130,2|10,1:2|2:2,0:0:0:0:
169,52,6499,2,0,P|225:82|256:138,1,130,2|10,1:2|2:2,0:0:0:0:
311,252,7049,5,2,1:2:0:0:
110,331,7324,1,10,2:2:0:0:
251,159,7599,1,2,1:2:0:0:
95,0,7875,1,10,2:2:0:0:
342,52,8150,2,0,P|286:82|255:138,1,130,2|10,1:2|2:2,0:0:0:0:
385,333,8700,5,2,1:2:0:0:
183,60,8976,1,10,2:2:0:0:
0,224,9251,2,0,B|56:108|56:108|112:364|112:364|168:288|168:288|204:288,1,520,2|12,1:2|1:2,0:0:0:0:
202,288,11453,6,0,P|173:231|190:169,1,130,4|10,1:2|2:2,0:0:0:0:
371,152,12003,2,0,P|336:204|274:220,1,130,2|10,1:2|2:2,0:0:0:0:
169,72,12554,1,2,1:2:0:0:
284,300,12829,1,10,2:2:0:0:
276,124,13104,1,2,1:2:0:0:
497,62,13379,6,0,B|432:48|432:48|368:52,1,130,10|2,2:2|1:2,0:0:0:0:
512,180,13930,1,10,2:2:0:0:
436,16,14205,1,2,1:2:0:0:
360,180,14480,1,10,2:2:0:0:
442,321,14755,6,0,B|378:325|378:325|313:311,1,130,2|10,1:2|2:2,0:0:0:0:
188,178,15306,2,0,B|123:164|123:164|59:168,1,130,2|10,1:2|2:2,0:0:0:0:
292,384,15856,5,2,1:2:0:0:
200,196,16132,1,10,2:2:0:0:
448,156,16407,5,2,1:2:0:0:
260,248,16682,1,10,2:2:0:0:
220,0,16957,5,2,1:2:0:0:
312,188,17232,1,10,2:2:0:0:
64,228,17508,5,2,1:2:0:0:
252,136,17783,1,10,2:2:0:0:
439,46,18058,6,0,B|445:162|555:217|522:293|453:320|388:364|338:268|322:218|357:165|395:177|422:157|408:106,1,520,2|12,1:2|1:2,0:0:0:0:
360,113,20260,6,0,L|234:75,1,130,4|10,1:2|2:2,0:0:0:0:
452,223,20810,2,0,L|326:261,1,130,2|10,1:2|2:2,0:0:0:0:
217,296,21361,1,2,1:2:0:0:
411,336,21636,1,10,2:2:0:0:
240,164,21911,1,2,1:2:0:0:
306,382,22187,1,10,2:2:0:0:
391,172,22462,6,0,P|437:128|430:65,1,130,2|10,1:2|2:2,0:0:0:0:
255,186,23012,2,0,P|269:247|326:272,1,130,2|10,1:2|2:2,0:0:0:0:
311,61,23563,5,8,2:2:0:0:
298,51,23632,5,8,2:2:0:0:
283,43,23700,5,8,2:2:0:0:
268,38,23769,5,8,2:2:0:0:
252,35,23838,5,8,2:2:0:0:
236,36,23907,5,8,2:2:0:0:
220,39,23976,5,8,2:2:0:0:
204,44,24044,5,8,2:2:0:0:
190,52,24113,5,8,2:2:0:0:
178,62,24182,5,8,2:2:0:0:
167,75,24251,5,8,2:2:0:0:
158,88,24320,5,8,2:2:0:0:
152,103,24388,5,8,2:2:0:0:
149,119,24457,5,8,2:2:0:0:
18,348,24810,6,0,P|6:282|3:213,1,130,2|10,1:2|2:2,0:0:0:0:
107,272,25360,1,2,1:2:0:0:
174,194,25635,1,10,2:2:0:0:
251,367,25910,2,0,P|263:301|266:232,1,130,2|10,1:2|2:2,0:0:0:0:
70,158,26461,2,0,P|74:93|86:30,1,130,2|10,1:2|2:2,0:0:0:0:
198,112,27011,5,2,1:2:0:0:
3,11,27287,1,10,2:2:0:0:
185,221,27562,1,2,1:2:0:0:
232,8,27837,1,10,2:2:0:0:
474,170,28112,1,14,1:2:0:0:
474,170,29213,6,0,B|501:114|501:114|474:52,1,130,4|10,1:2|2:2,0:0:0:0:
306,226,29764,2,0,B|279:282|279:282|306:344,1,130,2|10,1:2|2:2,0:0:0:0:
435,381,30314,5,2,1:2:0:0:
247,294,30589,1,10,2:2:0:0:
384,127,30865,1,2,1:2:0:0:
393,301,31140,1,10,2:2:0:0:
228,171,31415,6,0,P|291:174|340:216,1,130,2|10,1:2|2:2,0:0:0:0:
172,345,31965,2,0,P|108:341|59:299,1,130,2|10,1:2|2:2,0:0:0:0:
0,171,32516,1,2,1:2:0:0:
145,263,32791,1,10,2:2:0:0:
0,70,33066,1,2,1:2:0:0:
53,320,33342,1,10,2:2:0:0:
212,147,33617,6,0,L|88:186,1,130,2|10,1:2|2:2,0:0:0:0:
373,91,34167,2,0,L|498:53,1,130,2|10,1:2|2:2,0:0:0:0:
318,265,34718,1,2,1:2:0:0:
336,12,34993,1,10,2:2:0:0:
474,170,35268,6,0,P|508:110|494:47,1,130,2|10,1:2|2:2,0:0:0:0:
220,32,35819,1,2,1:2:0:0:
344,180,36094,1,8,2:2:0:0:
344,180,36232,1,2,2:2:0:0:
344,180,36369,2,0,P|310:240|324:303,1,130,2|10,1:2|2:2,0:0:0:0:
497,52,36920,5,14,2:2:0:0:
256,192,38640,12,0,42699,2:0:0:0:
