osu file format v14

[General]
AudioFilename: audio.mp3
AudioLeadIn: 0
PreviewTime: 2645
Countdown: 0
SampleSet: Soft
StackLeniency: 0.3
Mode: 0
LetterboxInBreaks: 0
SkinPreference:Default
WidescreenStoryboard: 1

[Editor]
Bookmarks: 9047
DistanceSpacing: 1.65
BeatDivisor: 4
GridSize: 4
TimelineZoom: 2.6

[Metadata]
Title:Brain Implosion Energy Drink (feat. Kasane Teto)
TitleUnicode:Brain Implosion Energy Drink (feat. Kasane Teto)
Artist:Flanger Moose
ArtistUnicode:Flanger Moose
Creator:Bloxi
Version:De-pp-y's Depression Durian
Source:
Tags:BRRRRRRRRRRRRRRRRRRRRRRRRRRRRRRRRRRRRRRRRRRRRRRRRRRRRRRRRRRRRRRRRRRRRRRRRRRRRRRRRRRRRRRRRRRRRRRRRRRRRRRRRRRRRRRRRRRRRRRRRRRRRRRRRRRRRRRRRRRRRRRRRRRRRRRRRRRRRRRRRRRRRRRRRRRRRRRRRRRRRRRRRRRRRRRRRRRRRRRRRRRRRRRRRRRRRRRRRRRRRRRRRRRRRRRRRRRRRRRRRRRRRRRRRRRRRRRRRRRRRRRRRRRRRRRRRRRRRRRRRRRRRRRRRRRRRRRRRRRRRRRRRRRRRRRRRRRRRRRRRRRRRRRRRRRRRRRRRRRRRRRRRRRRRRRRRRRRRRRRRRRRRRRRRRRRRRRRRRRRRRRRRRRRRRRRRRRRRRRRRRRRRRRRRRRRRRRRRRRRRRRRRRRRRRRRRRRRRRRRRRRRRRRRRRRRRRRRRRRRRRRRRRRRRRRRRRRRRRRRRRRRRRRRRRRRRRRRRRRRRRRRRRRRRRRRRRRRRRRRRRRRRRRRRRRRRRRRRRRRRRRRRRRRRRRRRRRRRRRRRRRRRRRRRRRRRRRRRRRRRRRRRRRRRRRRRRRRRRRRRRRRRRRRRRRRRRRRRRRRRRRRRRRRRRRRRRRRRRRRRRRRRRRRRRRRRRRRRRRRRRRRRRRRRRRRRRRRRRRRRRRRRRRRRRRRRRRRRRRRRRRRRRRRRRRRRRRRRRRRRRRRRRRRRRRRRRRRRRRRRRRRRRRRRRRRRRRRRRRRRRRRRRRRRRRRRRRRRRRRRRRRRRRRRRRRRRRRRRRRRRRRRRRRRRRRRRRRRRRRRRRRRRRRRRRRRRRRRRRRRRRRRRRRRRRRRRRRRRRRRRRR curi utau vocaloid female novelty english electronic synthv muya- gygy tweeker deppyforce phynta bnmc leominexd leomine tuffiii froskya
BeatmapID:4499470
BeatmapSetID:2136811

[Difficulty]
HPDrainRate:5
CircleSize:4
OverallDifficulty:10
ApproachRate:8.5
SliderMultiplier:1.8
SliderTickRate:1

[Events]
//Background and Video events
0,0,"bg.jpg",0,0
Video,381,"video.avi"
//Break Periods
//Storyboard Layer 0 (Background)
//Storyboard Layer 1 (Fail)
//Storyboard Layer 2 (Pass)
//Storyboard Layer 3 (Foreground)
//Storyboard Layer 4 (Overlay)
//Storyboard Sound Samples

[TimingPoints]
444,550.45871559633,4,2,1,50,1,0
2645,-100,4,2,1,70,0,0
23563,-100,4,2,1,70,0,1
23624,-100,4,2,1,70,0,0
23685,-100,4,2,1,70,0,1
23746,-100,4,2,1,70,0,0
23807,-100,4,2,1,70,0,1
23869,-100,4,2,1,70,0,0
23930,-100,4,2,1,70,0,1
23991,-100,4,2,1,70,0,0
24052,-100,4,2,1,70,0,1
24113,-100,4,2,1,70,0,0
24148,-100,4,2,1,70,0,1
24182,-100,4,2,1,70,0,0
24216,-100,4,2,1,70,0,1
24251,-100,4,2,1,70,0,0
24285,-100,4,2,1,70,0,1
24320,-100,4,2,1,70,0,0
24354,-100,4,2,1,70,0,1
24388,-100,4,2,1,70,0,0
24423,-100,4,2,1,70,0,1
24457,-100,4,2,1,70,0,0
24492,-100,4,2,1,70,0,1
24526,-100,4,2,1,70,0,0
24597,-100,4,2,1,70,0,0
24810,550.45871559633,4,2,1,70,1,0
38640,-100,4,2,1,60,0,0
39121,-100,4,2,1,55,0,0
39672,-100,4,2,1,50,0,0
40222,-100,4,2,1,45,0,0
40773,-100,4,2,1,40,0,0
41323,-100,4,2,1,35,0,0
41874,-100,4,2,1,30,0,0
42424,-100,4,2,1,25,0,0
42699,-100,4,2,1,5,0,0

[Colours]
Combo1 : 109,150,123
Combo2 : 166,225,180
Combo3 : 91,200,116
Combo4 : 159,185,168
SliderBorder : 203,80,98

[HitObjects]
127,66,2645,6,0,P|147:107|149:152,1,90,4|10,1:2|2:2,0:0:0:0:
236,343,3196,2,0,P|238:298|257:257,1,90,2|10,1:2|2:2,0:0:0:0:
390,131,3746,5,2,1:2:0:0:
65,198,4021,1,10,2:2:0:0:
423,160,4297,5,2,1:2:0:0:
136,145,4572,1,10,2:2:0:0:
241,350,4847,5,2,1:2:0:0:
320,77,5122,1,10,2:2:0:0:
83,220,5398,5,2,1:2:0:0:
386,291,5673,1,10,2:2:0:0:
183,56,5948,5,2,1:2:0:0:
209,367,6223,1,10,2:2:0:0:
370,100,6499,5,2,1:2:0:0:
83,220,6774,1,10,2:2:0:0:
289,336,7049,6,0,P|305:291|293:244,1,90,2|10,1:2|2:2,0:0:0:0:
389,93,7599,2,0,L|408:188,1,90,2|10,1:2|2:2,0:0:0:0:
507,355,8150,2,0,P|468:326|428:321,1,90,2|10,1:2|2:2,0:0:0:0:
108,211,8700,1,2,1:2:0:0:
316,28,8976,1,10,2:2:0:0:
316,28,9113,1,0,0:0:0:0:
316,28,9251,2,0,L|301:127,1,90,2|8,1:2|2:2,0:0:0:0:
267,344,9801,5,0,1:1:0:0:
184,141,10077,1,8,2:2:0:0:
265,378,10352,1,12,1:2:0:0:
265,378,11453,6,0,P|218:344|212:306,1,90,4|10,1:2|2:2,0:0:0:0:
386,113,12003,2,0,P|373:172|350:187,1,90,2|10,1:2|2:2,0:0:0:0:
100,173,12554,5,2,1:2:0:0:
285,338,12829,1,10,2:2:0:0:
326,51,13104,5,2,1:2:0:0:
202,290,13379,1,10,2:2:0:0:
36,99,13655,5,2,1:2:0:0:
268,184,13930,1,10,2:2:0:0:
1,293,14205,5,2,1:2:0:0:
236,155,14480,1,10,2:2:0:0:
55,14,14755,2,0,P|23:50|17:92,2,90,2|10|2,1:2|2:2|1:2,0:0:0:0:
191,249,15581,1,10,2:2:0:0:
368,9,15856,5,2,1:2:0:0:
246,316,16132,1,10,2:2:0:0:
128,61,16407,5,2,1:2:0:0:
244,345,16682,1,10,2:2:0:0:
376,126,16957,5,2,1:2:0:0:
242,374,17232,1,10,2:2:0:0:
155,97,17508,5,2,1:2:0:0:
377,266,17783,1,10,2:2:0:0:
101,346,18058,2,0,P|59:328|42:276,1,90,2|8,1:2|2:2,0:0:0:0:
197,79,18609,2,0,L|185:178,1,90,0|8,1:1|2:2,0:0:0:0:
318,387,19159,1,12,1:2:0:0:
318,387,19985,1,2,2:2:0:0:
409,107,20260,6,0,P|413:52|394:19,1,90,4|10,1:2|2:2,0:0:0:0:
183,203,20810,2,0,P|203:246|242:268,1,90,2|10,1:2|2:2,0:0:0:0:
444,240,21361,5,2,1:2:0:0:
160,110,21636,1,10,2:2:0:0:
397,7,21911,5,2,1:2:0:0:
321,263,22187,1,10,2:2:0:0:
132,81,22462,5,2,1:2:0:0:
218,348,22737,1,10,2:2:0:0:
279,134,23012,5,2,1:2:0:0:
13,244,23288,1,10,2:2:0:0:
309,374,23563,5,8,2:2:0:0:
306,375,23624,5,8,2:2:0:0:
307,370,23685,5,8,2:2:0:0:
305,373,23746,5,8,2:2:0:0:
302,374,23807,5,8,2:2:0:0:
303,377,23869,5,8,2:2:0:0:
308,371,23930,5,8,2:2:0:0:
306,378,23991,5,8,2:2:0:0:
310,376,24052,5,8,2:2:0:0:
370,368,24113,6,0,L|375:359,1,11.25,8|0,2:2|0:0,0:0:0:0:
379,363,24182,6,0,L|361:362,1,11.25,8|0,2:2|0:0,0:0:0:0:
369,357,24250,6,0,L|379:364,1,11.25,8|0,2:2|0:0,0:0:0:0:
377,368,24319,6,0,L|381:357,1,11.25,8|0,2:2|0:0,0:0:0:0:
366,362,24388,6,0,L|375:370,1,11.25,8|0,2:2|0:0,0:0:0:0:
378,357,24457,6,0,L|365:363,1,11.25,8|0,2:2|0:0,0:0:0:0:
367,361,24526,5,2,2:2:0:0:
238,107,24810,6,0,L|224:207,1,90,2|10,1:2|2:2,0:0:0:0:
398,340,25360,2,0,P|439:310|440:259,1,90,2|10,1:2|2:2,0:0:0:0:
342,49,25910,5,2,1:2:0:0:
213,280,26186,1,10,2:2:0:0:
113,13,26461,5,2,1:2:0:0:
316,185,26736,1,10,2:2:0:0:
5,243,27011,5,2,1:2:0:0:
209,33,27287,1,10,2:2:0:0:
166,322,27562,1,2,1:2:0:0:
30,62,27837,1,10,2:2:0:0:
291,193,28112,1,14,1:2:0:0:
291,193,29213,6,0,L|306:86,1,90,4|10,1:2|2:2,0:0:0:0:
178,291,29764,2,0,L|152:197,1,90,2|10,1:2|2:2,0:0:0:0:
349,360,30314,5,2,1:2:0:0:
389,75,30589,1,10,2:2:0:0:
182,165,30865,5,2,1:2:0:0:
462,240,31140,1,10,2:2:0:0:
158,321,31415,5,2,1:2:0:0:
307,99,31690,1,10,2:2:0:0:
57,15,31965,5,2,1:2:0:0:
178,291,32241,1,10,2:2:0:0:
346,84,32516,2,0,P|355:32|335:-8,2,90,2|10|2,1:2|2:2|1:2,0:0:0:0:
176,175,33342,1,10,2:2:0:0:
463,249,33617,5,2,1:2:0:0:
189,137,33892,1,10,2:2:0:0:
313,351,34167,5,2,1:2:0:0:
431,82,34443,1,10,2:2:0:0:
197,257,34718,5,2,1:2:0:0:
496,181,34993,1,10,2:2:0:0:
225,64,35268,5,2,1:2:0:0:
381,302,35543,1,10,2:2:0:0:
113,382,35819,5,2,1:2:0:0:
307,99,36094,1,8,2:2:0:0:
307,99,36232,1,2,2:2:0:0:
307,99,36369,1,2,1:2:0:0:
57,15,36644,1,8,2:2:0:0:
57,15,36782,1,2,0:0:0:0:
57,15,36920,1,14,2:0:0:0:
256,192,38640,12,0,42699,2:0:0:0:
