osu file format v14

[General]
AudioFilename: audio.mp3
AudioLeadIn: 0
PreviewTime: 738
Countdown: 1
SampleSet: None
StackLeniency: 0.2
Mode: 0
LetterboxInBreaks: 0
WidescreenStoryboard: 0

[Editor]
DistanceSpacing: 1
BeatDivisor: 4
GridSize: 4
TimelineZoom: 1

[Metadata]
Title:Jontron Re Bang Bang
TitleUnicode:Jontron Re Bang Bang
Artist:Fizzy Note
ArtistUnicode:Fizzy Note
Creator:[Dashyy]
Version:ECH
Source:
Tags:jontron ninja re bang bang ytpmv ech melancholy haze
BeatmapID:935758
BeatmapSetID:434235

[Difficulty]
HPDrainRate:6
CircleSize:4.3
OverallDifficulty:7.5
ApproachRate:9
SliderMultiplier:2
SliderTickRate:2

[Events]
//Background and Video events
0,0,"maxresdefault.jpg",0,0
Video,0,"Jontron_Re_Bang_Bang_[YTPMV].avi"
//Break Periods
//Storyboard Layer 0 (Background)
//Storyboard Layer 1 (Fail)
//Storyboard Layer 2 (Pass)
//Storyboard Layer 3 (Foreground)
//Storyboard Sound Samples

[TimingPoints]
46,461.538461538462,4,3,0,5,1,0
738,-100,4,3,0,100,0,0
31430,-100,4,3,0,5,0,0

[Colours]
Combo1 : 0,255,128
Combo2 : 255,0,0
Combo3 : 0,146,255
Combo4 : 255,255,0

[HitObjects]
75,255,46,6,2,P|115:287|204:252,1,150
224,236,507,2,0,P|260:204|320:188,1,100
272,84,969,5,8,0:0:0:0:
392,304,1199,1,0,0:0:0:0:
184,216,1430,1,0,0:0:0:0:
400,152,1661,1,0,0:0:0:0:
248,324,1892,1,8,0:0:0:0:
96,164,2122,1,0,0:0:0:0:
100,168,2353,6,0,P|112:112|140:76,1,100,8|0,0:0|0:0,0:0:0:0:
344,194,2815,2,8,P|332:250|304:286,1,100,8|0,0:0|0:0,0:0:0:0:
271,306,3161,1,0,0:0:0:0:
271,306,3276,1,0,0:0:0:0:
180,160,3507,1,8,0:0:0:0:
180,160,3738,6,8,P|200:88|192:52,1,100,8|0,0:0|0:0,0:0:0:0:
400,240,4199,2,0,P|396:304|408:340,1,100
248,152,4661,1,8,0:0:0:0:
472,292,4892,1,0,0:0:0:0:
472,292,5007,1,0,0:0:0:0:
472,292,5122,1,0,0:0:0:0:
388,88,5353,1,0,0:0:0:0:
388,88,5584,6,8,P|388:144|404:184,1,100,8|0,0:0|0:0,0:0:0:0:
288,332,6046,2,0,P|276:280|256:232,1,100
136,50,6507,2,0,P|76:62|28:106,1,100,8|0,0:0|0:0,0:0:0:0:
288,336,6969,2,0,P|344:324|396:288,1,100
216,36,7430,2,0,P|144:20|108:28,1,100,8|0,0:0|0:0,0:0:0:0:
240,288,7892,5,0,0:0:0:0:
401,156,8122,1,0,0:0:0:0:
153,98,8353,1,8,0:0:0:0:
344,312,8584,1,0,0:0:0:0:
300,44,8815,1,4,0:0:0:0:
119,254,9046,1,12,0:0:0:0:
336,167,9276,6,8,P|392:159|440:167,1,100,8|0,0:0|0:0,0:0:0:0:
238,333,9738,2,0,P|174:329|134:321,1,100
136,104,10199,1,8,0:0:0:0:
184,296,10430,1,0,0:0:0:0:
184,296,10546,1,0,0:0:0:0:
184,296,10661,1,0,0:0:0:0:
332,209,10892,1,8,0:0:0:0:
332,209,11122,6,0,L|428:165,1,100,8|0,0:0|0:0,0:0:0:0:
184,308,11584,2,0,L|284:348,1,100
308,148,12046,2,0,P|260:175|242:244,1,100,8|0,0:0|0:0,0:0:0:0:
241,214,12392,1,0,0:0:0:0:
241,214,12507,1,0,0:0:0:0:
373,197,12738,1,0,0:0:0:0:
373,197,12969,2,0,P|389:129|385:57,1,100,8|0,0:0|0:0,0:0:0:0:
112,164,13430,2,0,P|96:232|100:304,1,100
373,197,13892,2,0,P|389:129|385:57,1,100,8|0,0:0|0:0,0:0:0:0:
291,69,14353,5,0,0:0:0:0:
224,304,14584,1,0,0:0:0:0:
96,140,14815,1,8,0:0:0:0:
260,140,15046,1,0,0:0:0:0:
156,336,15276,1,0,0:0:0:0:
200,36,15507,1,0,0:0:0:0:
304,144,15738,5,8,0:0:0:0:
316,176,15853,1,0,0:0:0:0:
348,196,15969,1,0,0:0:0:0:
380,192,16084,1,0,0:0:0:0:
409,177,16199,2,4,L|445:136,2,50
216,288,16661,6,0,P|148:232|140:188,1,100,8|0,0:0|0:0,0:0:0:0:
296,96,17122,2,0,P|364:152|372:196,1,100
236,240,17584,1,8,0:0:0:0:
368,340,17815,1,0,0:0:0:0:
368,340,17930,1,0,0:0:0:0:
368,340,18046,1,0,0:0:0:0:
273,161,18276,1,0,0:0:0:0:
273,161,18507,6,0,P|217:173|169:173,1,100,8|0,0:0|0:0,0:0:0:0:
246,42,18969,2,0,P|302:30|350:30,1,100
192,248,19430,1,8,0:0:0:0:
216,40,19661,1,0,0:0:0:0:
188,32,19776,1,0,0:0:0:0:
152,40,19892,1,0,0:0:0:0:
108,132,20122,1,0,0:0:0:0:
108,132,20353,6,8,P|80:200|56:224,1,100,8|0,0:0|0:0,0:0:0:0:
251,306,20815,2,0,P|319:334|343:358,1,100
408,143,21276,2,0,P|436:75|460:51,1,100,8|0,0:0|0:0,0:0:0:0:
208,44,21738,5,0,0:0:0:0:
252,252,21969,1,0,0:0:0:0:
360,108,22199,1,8,0:0:0:0:
96,184,22430,1,0,0:0:0:0:
288,60,22661,1,0,0:0:0:0:
172,316,22892,1,0,0:0:0:0:
384,176,23122,1,8,0:0:0:0:
136,40,23353,1,0,0:0:0:0:
216,264,23584,2,4,P|251:307|310:328,1,100
392,188,24046,6,0,P|440:156|488:144,1,100,8|0,0:0|0:0,0:0:0:0:
121,199,24507,2,0,P|73:231|25:243,1,100
121,199,24969,1,8,0:0:0:0:
288,312,25199,1,0,0:0:0:0:
288,312,25315,1,0,0:0:0:0:
288,312,25430,1,0,0:0:0:0:
384,160,25661,1,0,0:0:0:0:
384,160,25892,6,0,P|368:108|320:76,1,100,8|0,0:0|0:0,0:0:0:0:
107,236,26353,2,0,P|123:288|171:320,1,100
392,280,26815,1,8,0:0:0:0:
252,176,27046,1,0,0:0:0:0:
252,176,27161,1,0,0:0:0:0:
252,176,27276,1,0,0:0:0:0:
459,201,27507,1,0,0:0:0:0:
459,201,27738,6,0,P|451:261|431:305,1,100,8|0,0:0|0:0,0:0:0:0:
120,216,28199,2,0,P|128:156|148:112,1,100
324,348,28661,2,0,P|264:340|220:320,1,100,8|0,0:0|0:0,0:0:0:0:
291,57,29122,2,0,P|351:65|395:85,1,100
240,264,29584,5,8,0:0:0:0:
168,160,29815,1,0,0:0:0:0:
312,104,30046,1,0,0:0:0:0:
200,288,30276,1,0,0:0:0:0:
140,48,30507,1,8,0:0:0:0:
256,192,30738,12,12,31430,0:0:0:0:
