osu file format v14

[General]
AudioFilename: fffff.MP3
AudioLeadIn: 0
PreviewTime: 88417
Countdown: 0
SampleSet: Soft
StackLeniency: 0.7
Mode: 3
LetterboxInBreaks: 0
SpecialStyle: 0
WidescreenStoryboard: 1

[Editor]
DistanceSpacing: 2
BeatDivisor: 6
GridSize: 16
TimelineZoom: 2.4

[Metadata]
Title:fffff op.2
TitleUnicode:ƒƒƒƒƒ op.2
Artist:Five Hammer
ArtistUnicode:Five Hammer
Creator:_Stan
Version:Hard
Source:pop'n music 17 THE MOVIE
Tags:カーニバル infilect popn popnmusic pop n music o2jam hard pf+ grand hammer seiya murai Evening Akasha Kuo Kyoka kk FAMoss biemote video game instrumental
BeatmapID:3210695
BeatmapSetID:1452883

[Difficulty]
HPDrainRate:7.5
CircleSize:6
OverallDifficulty:7.5
ApproachRate:5
SliderMultiplier:1.4
SliderTickRate:1

[Events]
//Background and Video events
0,0,"bg.jpg",0,0
//Break Periods
//Storyboard Layer 0 (Background)
//Storyboard Layer 1 (Fail)
//Storyboard Layer 2 (Pass)
//Storyboard Layer 3 (Foreground)
//Storyboard Layer 4 (Overlay)
//Storyboard Sound Samples

[TimingPoints]
901,225.563909774436,4,2,1,40,1,0

[HitObjects]
42,192,901,5,2,0:0:0:0:
298,192,901,1,4,0:0:0:0:
128,192,1013,1,2,0:0:0:0:
213,192,1126,1,8,0:0:0:0:
469,192,1126,1,0,0:0:0:0:
384,192,1239,1,0,0:0:0:0:
42,192,1352,1,2,0:0:0:0:
298,192,1352,1,0,0:0:0:0:
128,192,1464,1,2,0:0:0:0:
213,192,1577,1,8,0:0:0:0:
469,192,1577,1,0,0:0:0:0:
384,192,1690,1,0,0:0:0:0:
42,192,1803,1,2,0:0:0:0:
298,192,1803,1,0,0:0:0:0:
128,192,1916,1,2,0:0:0:0:
213,192,2028,1,8,0:0:0:0:
469,192,2028,1,0,0:0:0:0:
384,192,2141,1,0,0:0:0:0:
42,192,2254,1,2,0:0:0:0:
298,192,2254,1,0,0:0:0:0:
128,192,2367,1,2,0:0:0:0:
213,192,2479,128,8,2705:0:0:0:0:
469,192,2479,128,0,2705:0:0:0:0:
42,192,2705,1,2,0:0:0:0:
384,192,2705,1,0,0:0:0:0:
298,192,2818,1,2,0:0:0:0:
213,192,2931,1,8,0:0:0:0:
469,192,2931,1,0,0:0:0:0:
128,192,3043,1,0,0:0:0:0:
42,192,3156,1,2,0:0:0:0:
384,192,3156,1,0,0:0:0:0:
298,192,3269,1,2,0:0:0:0:
213,192,3382,1,8,0:0:0:0:
469,192,3382,1,0,0:0:0:0:
128,192,3494,1,0,0:0:0:0:
42,192,3607,1,2,0:0:0:0:
384,192,3607,1,0,0:0:0:0:
298,192,3720,1,2,0:0:0:0:
213,192,3833,1,8,0:0:0:0:
469,192,3833,1,0,0:0:0:0:
128,192,3946,1,0,0:0:0:0:
42,192,4058,1,2,0:0:0:0:
384,192,4058,1,0,0:0:0:0:
298,192,4171,1,2,0:0:0:0:
213,192,4284,128,8,4510:0:0:0:0:
469,192,4284,128,0,4510:0:0:0:0:
42,192,4510,1,2,0:0:0:0:
298,192,4510,1,0,0:0:0:0:
384,192,4622,1,2,0:0:0:0:
213,192,4735,1,8,0:0:0:0:
469,192,4735,1,0,0:0:0:0:
128,192,4848,1,0,0:0:0:0:
42,192,4961,1,2,0:0:0:0:
298,192,4961,1,0,0:0:0:0:
384,192,5073,1,2,0:0:0:0:
213,192,5186,1,8,0:0:0:0:
469,192,5186,1,0,0:0:0:0:
128,192,5299,1,0,0:0:0:0:
42,192,5412,1,2,0:0:0:0:
298,192,5412,1,0,0:0:0:0:
384,192,5525,1,2,0:0:0:0:
213,192,5637,1,8,0:0:0:0:
469,192,5637,1,0,0:0:0:0:
128,192,5750,1,0,0:0:0:0:
42,192,5863,1,2,0:0:0:0:
298,192,5863,1,0,0:0:0:0:
384,192,5976,1,2,0:0:0:0:
213,192,6088,128,8,6314:0:0:0:0:
469,192,6088,128,0,6314:0:0:0:0:
42,192,6314,1,2,0:0:0:0:
298,192,6314,1,0,0:0:0:0:
213,192,6427,1,2,0:0:0:0:
128,192,6540,1,8,0:0:0:0:
469,192,6540,1,0,0:0:0:0:
384,192,6652,1,0,0:0:0:0:
42,192,6765,1,2,0:0:0:0:
298,192,6765,1,0,0:0:0:0:
213,192,6878,1,2,0:0:0:0:
128,192,6991,1,8,0:0:0:0:
469,192,6991,1,0,0:0:0:0:
384,192,7104,1,0,0:0:0:0:
42,192,7216,1,2,0:0:0:0:
298,192,7216,1,0,0:0:0:0:
213,192,7329,1,2,0:0:0:0:
384,192,7442,1,8,0:0:0:0:
469,192,7442,1,0,0:0:0:0:
42,192,7555,1,8,0:0:0:0:
128,192,7555,1,0,0:0:0:0:
298,192,7667,1,2,0:0:0:0:
384,192,7667,1,8,0:0:0:0:
42,192,7780,1,2,0:0:0:0:
128,192,7780,1,8,0:0:0:0:
213,192,7893,1,8,0:0:0:0:
298,192,7893,1,0,0:0:0:0:
384,192,8006,1,8,0:0:0:0:
469,192,8006,1,0,0:0:0:0:
42,192,9021,128,4,9923:0:0:0:0:
298,192,9021,1,2,0:0:0:0:
469,192,9134,1,2,0:0:0:0:
213,192,9246,1,8,0:0:0:0:
384,192,9359,1,0,0:0:0:0:
128,192,9472,1,2,0:0:0:0:
213,192,9585,1,2,0:0:0:0:
298,192,9697,1,8,0:0:0:0:
384,192,9810,1,0,0:0:0:0:
213,192,9923,1,2,0:0:0:0:
469,192,9923,128,0,10825:0:0:0:0:
42,192,10036,1,2,0:0:0:0:
298,192,10149,1,8,0:0:0:0:
128,192,10261,1,0,0:0:0:0:
384,192,10374,1,2,0:0:0:0:
298,192,10487,1,2,0:0:0:0:
213,192,10600,1,8,0:0:0:0:
128,192,10713,1,0,0:0:0:0:
42,192,10825,1,2,0:0:0:0:
384,192,10825,128,0,11728:0:0:0:0:
298,192,10938,1,2,0:0:0:0:
128,192,11051,1,8,0:0:0:0:
469,192,11164,1,0,0:0:0:0:
213,192,11276,1,2,0:0:0:0:
42,192,11389,1,2,0:0:0:0:
128,192,11502,1,8,0:0:0:0:
213,192,11615,1,0,0:0:0:0:
298,192,11728,128,2,12630:0:0:0:0:
469,192,11728,1,0,0:0:0:0:
42,192,11840,1,2,0:0:0:0:
213,192,11953,1,8,0:0:0:0:
384,192,12066,1,0,0:0:0:0:
128,192,12179,1,2,0:0:0:0:
469,192,12291,1,2,0:0:0:0:
213,192,12404,1,8,0:0:0:0:
42,192,12517,1,0,0:0:0:0:
213,192,12630,128,2,13532:0:0:0:0:
469,192,12630,1,0,0:0:0:0:
128,192,12743,1,2,0:0:0:0:
384,192,12855,1,8,0:0:0:0:
42,192,12968,1,0,0:0:0:0:
469,192,13081,1,2,0:0:0:0:
384,192,13194,1,2,0:0:0:0:
298,192,13307,1,8,0:0:0:0:
42,192,13419,1,0,0:0:0:0:
128,192,13532,128,2,14434:0:0:0:0:
469,192,13532,1,0,0:0:0:0:
298,192,13645,1,2,0:0:0:0:
42,192,13758,1,8,0:0:0:0:
384,192,13870,1,0,0:0:0:0:
213,192,13983,1,2,0:0:0:0:
298,192,14096,1,2,0:0:0:0:
384,192,14209,1,8,0:0:0:0:
469,192,14322,1,0,0:0:0:0:
42,192,14434,128,2,15337:0:0:0:0:
213,192,14434,1,0,0:0:0:0:
384,192,14547,1,2,0:0:0:0:
128,192,14660,1,8,0:0:0:0:
298,192,14773,1,0,0:0:0:0:
469,192,14885,1,2,0:0:0:0:
384,192,14998,1,2,0:0:0:0:
298,192,15111,1,8,0:0:0:0:
213,192,15224,1,0,0:0:0:0:
384,192,15337,1,2,0:0:0:0:
469,192,15337,128,0,16239:0:0:0:0:
128,192,15449,1,2,0:0:0:0:
384,192,15562,1,8,0:0:0:0:
128,192,15675,1,0,0:0:0:0:
298,192,15788,1,2,0:0:0:0:
42,192,15900,1,2,0:0:0:0:
298,192,16013,1,8,0:0:0:0:
42,192,16126,1,0,0:0:0:0:
213,192,16239,1,2,0:0:0:0:
42,192,16352,1,8,0:0:0:0:
128,192,16352,1,0,0:0:0:0:
298,192,16464,1,2,0:0:0:0:
384,192,16577,1,8,0:0:0:0:
469,192,16577,1,0,0:0:0:0:
213,192,16690,1,2,0:0:0:0:
42,192,16803,1,8,0:0:0:0:
128,192,16803,1,0,0:0:0:0:
298,192,16916,1,2,0:0:0:0:
384,192,17028,1,8,0:0:0:0:
469,192,17028,1,0,0:0:0:0:
42,192,17141,1,2,0:0:0:0:
128,192,17254,1,8,0:0:0:0:
213,192,17254,1,0,0:0:0:0:
469,192,17367,1,2,0:0:0:0:
298,192,17479,1,8,0:0:0:0:
384,192,17479,1,0,0:0:0:0:
42,192,17592,1,2,0:0:0:0:
128,192,17705,1,8,0:0:0:0:
213,192,17705,1,0,0:0:0:0:
469,192,17818,1,2,0:0:0:0:
298,192,17931,1,8,0:0:0:0:
384,192,17931,1,0,0:0:0:0:
42,192,18043,1,2,0:0:0:0:
213,192,18156,1,8,0:0:0:0:
298,192,18156,1,0,0:0:0:0:
469,192,18269,1,2,0:0:0:0:
128,192,18382,1,8,0:0:0:0:
213,192,18382,1,0,0:0:0:0:
384,192,18494,1,2,0:0:0:0:
42,192,18607,1,8,0:0:0:0:
128,192,18607,1,0,0:0:0:0:
298,192,18720,1,2,0:0:0:0:
42,192,18833,1,8,0:0:0:0:
469,192,18833,1,0,0:0:0:0:
213,192,18946,1,2,0:0:0:0:
384,192,19058,1,8,0:0:0:0:
469,192,19058,1,0,0:0:0:0:
128,192,19171,1,2,0:0:0:0:
298,192,19284,1,8,0:0:0:0:
384,192,19284,1,0,0:0:0:0:
42,192,19397,1,2,0:0:0:0:
213,192,19510,1,8,0:0:0:0:
298,192,19510,1,0,0:0:0:0:
469,192,19622,1,2,0:0:0:0:
128,192,19735,1,8,0:0:0:0:
213,192,19735,1,0,0:0:0:0:
384,192,19848,1,2,0:0:0:0:
42,192,19961,1,8,0:0:0:0:
128,192,19961,1,0,0:0:0:0:
298,192,20073,1,2,0:0:0:0:
384,192,20186,1,8,0:0:0:0:
469,192,20186,1,0,0:0:0:0:
213,192,20299,1,2,0:0:0:0:
42,192,20412,1,8,0:0:0:0:
128,192,20412,1,0,0:0:0:0:
298,192,20525,1,2,0:0:0:0:
384,192,20637,1,8,0:0:0:0:
469,192,20637,1,0,0:0:0:0:
42,192,20750,1,2,0:0:0:0:
128,192,20863,1,8,0:0:0:0:
213,192,20863,1,0,0:0:0:0:
469,192,20976,1,2,0:0:0:0:
298,192,21088,1,8,0:0:0:0:
384,192,21088,1,0,0:0:0:0:
42,192,21201,1,2,0:0:0:0:
128,192,21314,1,8,0:0:0:0:
213,192,21314,1,0,0:0:0:0:
469,192,21427,1,2,0:0:0:0:
298,192,21540,1,8,0:0:0:0:
384,192,21540,1,0,0:0:0:0:
213,192,21652,128,2,21991:0:0:0:0:
128,192,21765,128,8,21991:0:0:0:0:
42,192,21878,128,2,21991:0:0:0:0:
469,192,21991,1,8,0:0:0:0:
298,192,22104,128,2,22442:0:0:0:0:
384,192,22216,128,8,22442:0:0:0:0:
469,192,22329,128,2,22442:0:0:0:0:
42,192,22442,1,8,0:0:0:0:
128,192,22555,1,2,0:0:0:0:
298,192,22555,1,8,0:0:0:0:
469,192,22555,1,4,0:0:0:0:
128,192,22893,1,2,0:0:0:0:
298,192,22893,1,8,0:0:0:0:
469,192,22893,1,4,0:0:0:0:
42,192,23231,1,4,0:0:0:0:
213,192,23231,1,8,0:0:0:0:
384,192,23231,1,2,0:0:0:0:
213,192,24359,128,6,24810:0:0:0:0:
42,192,24810,1,2,0:0:0:0:
384,192,24810,1,0,0:0:0:0:
128,192,24923,1,2,0:0:0:0:
213,192,25036,1,8,0:0:0:0:
469,192,25036,1,0,0:0:0:0:
42,192,25261,1,2,0:0:0:0:
298,192,25261,128,0,25487:0:0:0:0:
213,192,25487,1,8,0:0:0:0:
469,192,25487,1,0,0:0:0:0:
384,192,25600,128,0,25825:0:0:0:0:
42,192,25713,1,2,0:0:0:0:
128,192,25825,1,2,0:0:0:0:
213,192,25938,1,8,0:0:0:0:
469,192,25938,128,0,26164:0:0:0:0:
42,192,26164,1,2,0:0:0:0:
298,192,26164,1,0,0:0:0:0:
213,192,26389,1,8,0:0:0:0:
469,192,26389,1,0,0:0:0:0:
42,192,26615,1,2,0:0:0:0:
298,192,26615,1,0,0:0:0:0:
384,192,26728,1,2,0:0:0:0:
128,192,26840,1,8,0:0:0:0:
469,192,26840,1,0,0:0:0:0:
213,192,27066,1,0,0:0:0:0:
128,192,27179,1,2,0:0:0:0:
384,192,27179,1,0,0:0:0:0:
42,192,27291,1,8,0:0:0:0:
298,192,27291,1,0,0:0:0:0:
213,192,27404,128,2,27968:0:0:0:0:
42,192,27743,1,8,0:0:0:0:
469,192,27743,1,0,0:0:0:0:
384,192,27968,1,2,0:0:0:0:
42,192,28194,1,8,0:0:0:0:
298,192,28194,1,0,0:0:0:0:
213,192,28419,1,2,0:0:0:0:
469,192,28419,1,0,0:0:0:0:
384,192,28532,1,2,0:0:0:0:
42,192,28645,1,8,0:0:0:0:
298,192,28645,1,0,0:0:0:0:
213,192,28870,128,2,29096:0:0:0:0:
469,192,28870,1,0,0:0:0:0:
42,192,29096,1,8,0:0:0:0:
298,192,29096,1,0,0:0:0:0:
128,192,29209,128,0,29434:0:0:0:0:
469,192,29322,1,2,0:0:0:0:
384,192,29434,1,2,0:0:0:0:
42,192,29547,128,8,29773:0:0:0:0:
298,192,29547,1,0,0:0:0:0:
213,192,29773,1,2,0:0:0:0:
469,192,29773,1,0,0:0:0:0:
384,192,29923,1,0,0:0:0:0:
42,192,29998,1,8,0:0:0:0:
298,192,30073,1,0,0:0:0:0:
213,192,30224,1,2,0:0:0:0:
128,192,30374,1,0,0:0:0:0:
469,192,30449,1,8,0:0:0:0:
42,192,30525,1,0,0:0:0:0:
213,192,30675,128,0,30900:0:0:0:0:
42,192,30900,1,8,0:0:0:0:
469,192,30900,1,0,0:0:0:0:
128,192,31013,128,8,31239:0:0:0:0:
384,192,31126,1,8,0:0:0:0:
42,192,31352,128,8,31577:0:0:0:0:
298,192,31352,128,0,31577:0:0:0:0:
213,192,31577,1,4,0:0:0:0:
469,192,31577,1,2,0:0:0:0:
42,192,31803,1,8,0:0:0:0:
298,192,31803,1,0,0:0:0:0:
213,192,32028,1,2,0:0:0:0:
469,192,32028,1,0,0:0:0:0:
384,192,32141,1,2,0:0:0:0:
42,192,32254,1,8,0:0:0:0:
298,192,32254,1,0,0:0:0:0:
213,192,32479,128,2,32705:0:0:0:0:
469,192,32479,1,0,0:0:0:0:
42,192,32705,1,8,0:0:0:0:
298,192,32705,1,0,0:0:0:0:
128,192,32818,128,0,33043:0:0:0:0:
469,192,32931,1,2,0:0:0:0:
384,192,33043,1,2,0:0:0:0:
42,192,33156,128,8,33382:0:0:0:0:
298,192,33156,1,0,0:0:0:0:
213,192,33382,1,2,0:0:0:0:
469,192,33382,1,0,0:0:0:0:
42,192,33607,1,8,0:0:0:0:
298,192,33607,1,0,0:0:0:0:
213,192,33833,1,2,0:0:0:0:
469,192,33833,1,0,0:0:0:0:
128,192,33946,1,2,0:0:0:0:
42,192,34058,1,8,0:0:0:0:
384,192,34058,1,0,0:0:0:0:
298,192,34284,1,0,0:0:0:0:
128,192,34397,1,2,0:0:0:0:
384,192,34397,1,0,0:0:0:0:
213,192,34510,1,8,0:0:0:0:
469,192,34510,1,0,0:0:0:0:
298,192,34622,128,2,35186:0:0:0:0:
42,192,34961,1,8,0:0:0:0:
469,192,34961,1,0,0:0:0:0:
128,192,35186,1,2,0:0:0:0:
213,192,35412,1,8,0:0:0:0:
469,192,35412,1,0,0:0:0:0:
42,192,35637,1,2,0:0:0:0:
298,192,35637,1,0,0:0:0:0:
128,192,35750,1,2,0:0:0:0:
213,192,35863,1,8,0:0:0:0:
469,192,35863,1,0,0:0:0:0:
42,192,36088,1,2,0:0:0:0:
298,192,36088,128,0,36314:0:0:0:0:
213,192,36314,1,8,0:0:0:0:
469,192,36314,1,0,0:0:0:0:
384,192,36427,128,0,36652:0:0:0:0:
42,192,36540,1,2,0:0:0:0:
128,192,36652,1,2,0:0:0:0:
213,192,36765,1,8,0:0:0:0:
469,192,36765,128,0,36991:0:0:0:0:
298,192,36991,1,2,0:0:0:0:
469,192,37141,1,0,0:0:0:0:
42,192,37216,1,8,0:0:0:0:
298,192,37291,1,0,0:0:0:0:
469,192,37442,1,2,0:0:0:0:
298,192,37592,1,0,0:0:0:0:
42,192,37667,1,8,0:0:0:0:
469,192,37667,1,0,0:0:0:0:
213,192,37893,1,0,0:0:0:0:
128,192,38006,1,2,0:0:0:0:
42,192,38119,1,8,0:0:0:0:
469,192,38119,1,0,0:0:0:0:
298,192,38231,1,8,0:0:0:0:
213,192,38457,1,2,0:0:0:0:
42,192,38570,1,8,0:0:0:0:
469,192,38570,1,0,0:0:0:0:
128,192,38795,1,2,0:0:0:0:
298,192,38795,1,0,0:0:0:0:
128,192,39021,1,8,0:0:0:0:
298,192,39021,1,0,0:0:0:0:
469,192,39021,1,0,0:0:0:0:
213,192,39246,1,2,0:0:0:0:
384,192,39246,1,0,0:0:0:0:
42,192,39472,1,8,0:0:0:0:
213,192,39472,1,0,0:0:0:0:
384,192,39472,1,0,0:0:0:0:
298,192,39697,128,2,39923:0:0:0:0:
469,192,39697,128,0,39923:0:0:0:0:
42,192,39923,1,8,0:0:0:0:
298,192,40036,128,0,40261:0:0:0:0:
469,192,40036,128,0,40261:0:0:0:0:
128,192,40261,1,2,0:0:0:0:
42,192,40374,1,8,0:0:0:0:
298,192,40374,1,0,0:0:0:0:
469,192,40374,1,0,0:0:0:0:
298,192,40600,128,2,40825:0:0:0:0:
469,192,40600,128,0,40825:0:0:0:0:
42,192,40825,1,12,0:0:0:0:
298,192,40938,128,2,41164:0:0:0:0:
469,192,40938,128,0,41164:0:0:0:0:
128,192,41164,1,2,0:0:0:0:
42,192,41276,1,8,0:0:0:0:
298,192,41276,1,4,0:0:0:0:
469,192,41276,1,0,0:0:0:0:
298,192,41502,128,2,41728:0:0:0:0:
469,192,41502,128,0,41728:0:0:0:0:
42,192,41728,1,12,0:0:0:0:
298,192,41840,128,2,42066:0:0:0:0:
469,192,41840,128,0,42066:0:0:0:0:
128,192,42066,1,2,0:0:0:0:
42,192,42179,1,8,0:0:0:0:
298,192,42179,1,4,0:0:0:0:
469,192,42179,1,0,0:0:0:0:
213,192,42404,1,2,0:0:0:0:
384,192,42404,1,0,0:0:0:0:
42,192,42630,1,8,0:0:0:0:
213,192,42630,1,0,0:0:0:0:
384,192,42630,1,0,0:0:0:0:
128,192,42855,1,2,0:0:0:0:
298,192,42855,1,0,0:0:0:0:
128,192,43081,1,8,0:0:0:0:
298,192,43081,1,0,0:0:0:0:
469,192,43081,1,0,0:0:0:0:
42,192,43307,128,2,43532:0:0:0:0:
213,192,43307,128,0,43532:0:0:0:0:
469,192,43532,1,8,0:0:0:0:
42,192,43645,128,0,43870:0:0:0:0:
213,192,43645,128,0,43870:0:0:0:0:
298,192,43870,1,2,0:0:0:0:
42,192,43983,1,8,0:0:0:0:
213,192,43983,1,0,0:0:0:0:
469,192,43983,1,0,0:0:0:0:
384,192,44096,1,0,0:0:0:0:
42,192,44209,128,2,44434:0:0:0:0:
213,192,44209,128,0,44434:0:0:0:0:
469,192,44434,1,12,0:0:0:0:
42,192,44547,128,2,44773:0:0:0:0:
213,192,44547,128,0,44773:0:0:0:0:
298,192,44773,1,2,0:0:0:0:
42,192,44885,1,8,0:0:0:0:
213,192,44885,1,4,0:0:0:0:
469,192,44885,1,0,0:0:0:0:
384,192,44998,1,2,0:0:0:0:
42,192,45111,128,2,45337:0:0:0:0:
213,192,45111,128,0,45337:0:0:0:0:
469,192,45337,1,12,0:0:0:0:
42,192,45449,128,2,45675:0:0:0:0:
213,192,45449,128,0,45675:0:0:0:0:
298,192,45675,1,2,0:0:0:0:
42,192,45788,1,8,0:0:0:0:
213,192,45788,1,4,0:0:0:0:
469,192,45788,1,0,0:0:0:0:
128,192,46013,1,2,0:0:0:0:
384,192,46013,1,0,0:0:0:0:
128,192,46239,1,8,0:0:0:0:
384,192,46239,1,0,0:0:0:0:
469,192,46239,1,0,0:0:0:0:
42,192,46464,1,2,0:0:0:0:
298,192,46464,1,0,0:0:0:0:
42,192,46690,1,8,0:0:0:0:
298,192,46690,1,0,0:0:0:0:
384,192,46690,1,0,0:0:0:0:
213,192,46916,128,2,47141:0:0:0:0:
469,192,46916,128,0,47141:0:0:0:0:
42,192,47141,1,8,0:0:0:0:
213,192,47254,128,0,47479:0:0:0:0:
469,192,47254,128,0,47479:0:0:0:0:
298,192,47479,1,2,0:0:0:0:
42,192,47592,1,8,0:0:0:0:
213,192,47592,1,0,0:0:0:0:
469,192,47592,1,0,0:0:0:0:
213,192,47818,128,2,48043:0:0:0:0:
469,192,47818,128,0,48043:0:0:0:0:
42,192,48043,1,12,0:0:0:0:
213,192,48156,128,2,48382:0:0:0:0:
469,192,48156,128,0,48382:0:0:0:0:
298,192,48382,1,2,0:0:0:0:
42,192,48494,1,4,0:0:0:0:
213,192,48494,1,8,0:0:0:0:
469,192,48494,1,0,0:0:0:0:
213,192,48720,128,2,48946:0:0:0:0:
469,192,48720,128,0,48946:0:0:0:0:
42,192,48946,1,12,0:0:0:0:
213,192,49058,128,2,49284:0:0:0:0:
469,192,49058,128,0,49284:0:0:0:0:
298,192,49284,1,2,0:0:0:0:
42,192,49397,1,4,0:0:0:0:
213,192,49397,1,8,0:0:0:0:
469,192,49397,1,0,0:0:0:0:
128,192,49622,1,2,0:0:0:0:
384,192,49622,1,0,0:0:0:0:
42,192,49848,1,8,0:0:0:0:
128,192,49848,1,0,0:0:0:0:
384,192,49848,1,0,0:0:0:0:
213,192,50073,1,2,0:0:0:0:
469,192,50073,1,0,0:0:0:0:
128,192,50299,1,8,0:0:0:0:
213,192,50299,1,0,0:0:0:0:
469,192,50299,1,0,0:0:0:0:
42,192,50525,128,2,50750:0:0:0:0:
298,192,50525,128,0,50750:0:0:0:0:
469,192,50750,1,8,0:0:0:0:
42,192,50863,128,0,51088:0:0:0:0:
298,192,50863,128,0,51088:0:0:0:0:
213,192,51088,1,2,0:0:0:0:
42,192,51201,1,8,0:0:0:0:
298,192,51201,1,0,0:0:0:0:
469,192,51201,1,0,0:0:0:0:
42,192,51427,128,2,51652:0:0:0:0:
298,192,51427,128,0,51652:0:0:0:0:
469,192,51652,1,8,0:0:0:0:
42,192,51765,128,2,51991:0:0:0:0:
298,192,51765,128,0,51991:0:0:0:0:
213,192,51991,1,2,0:0:0:0:
42,192,52104,1,8,0:0:0:0:
298,192,52104,1,0,0:0:0:0:
469,192,52104,1,0,0:0:0:0:
128,192,52329,1,2,0:0:0:0:
213,192,52329,1,0,0:0:0:0:
384,192,52442,1,2,0:0:0:0:
469,192,52442,1,8,0:0:0:0:
128,192,52555,1,8,0:0:0:0:
213,192,52555,1,0,0:0:0:0:
384,192,52667,1,8,0:0:0:0:
469,192,52667,1,2,0:0:0:0:
42,192,52780,1,2,0:0:0:0:
128,192,52780,1,8,0:0:0:0:
298,192,52893,1,2,0:0:0:0:
384,192,52893,1,8,0:0:0:0:
42,192,53006,1,8,0:0:0:0:
128,192,53006,1,0,0:0:0:0:
298,192,53119,1,8,0:0:0:0:
384,192,53119,1,2,0:0:0:0:
213,192,53231,1,4,0:0:0:0:
469,192,53231,1,2,0:0:0:0:
384,192,53344,1,2,0:0:0:0:
42,192,53457,1,8,0:0:0:0:
298,192,53457,1,0,0:0:0:0:
128,192,53570,1,0,0:0:0:0:
213,192,53682,1,2,0:0:0:0:
469,192,53682,1,0,0:0:0:0:
384,192,53795,1,2,0:0:0:0:
42,192,53908,1,8,0:0:0:0:
298,192,53908,1,0,0:0:0:0:
128,192,54021,1,0,0:0:0:0:
213,192,54134,1,2,0:0:0:0:
469,192,54134,1,0,0:0:0:0:
384,192,54246,1,2,0:0:0:0:
42,192,54359,1,8,0:0:0:0:
298,192,54359,1,0,0:0:0:0:
128,192,54472,1,0,0:0:0:0:
213,192,54585,1,2,0:0:0:0:
469,192,54585,1,0,0:0:0:0:
384,192,54697,1,2,0:0:0:0:
42,192,54810,128,8,55036:0:0:0:0:
298,192,54810,128,0,55036:0:0:0:0:
128,192,55036,1,2,0:0:0:0:
469,192,55036,1,0,0:0:0:0:
213,192,55149,1,2,0:0:0:0:
42,192,55261,1,8,0:0:0:0:
298,192,55261,1,0,0:0:0:0:
384,192,55374,1,0,0:0:0:0:
128,192,55487,1,2,0:0:0:0:
469,192,55487,1,0,0:0:0:0:
213,192,55600,1,2,0:0:0:0:
42,192,55713,1,8,0:0:0:0:
298,192,55713,1,0,0:0:0:0:
384,192,55825,1,0,0:0:0:0:
128,192,55938,1,2,0:0:0:0:
469,192,55938,1,0,0:0:0:0:
213,192,56051,1,2,0:0:0:0:
42,192,56164,1,8,0:0:0:0:
298,192,56164,1,0,0:0:0:0:
384,192,56276,1,0,0:0:0:0:
128,192,56389,1,2,0:0:0:0:
469,192,56389,1,0,0:0:0:0:
213,192,56502,1,2,0:0:0:0:
42,192,56615,128,8,56840:0:0:0:0:
298,192,56615,128,0,56840:0:0:0:0:
213,192,56840,1,2,0:0:0:0:
469,192,56840,1,4,0:0:0:0:
128,192,56953,1,2,0:0:0:0:
42,192,57066,1,8,0:0:0:0:
298,192,57066,1,0,0:0:0:0:
384,192,57179,1,0,0:0:0:0:
213,192,57291,1,2,0:0:0:0:
469,192,57291,1,0,0:0:0:0:
128,192,57404,1,2,0:0:0:0:
42,192,57517,1,8,0:0:0:0:
298,192,57517,1,0,0:0:0:0:
384,192,57630,1,0,0:0:0:0:
213,192,57743,1,2,0:0:0:0:
469,192,57743,1,0,0:0:0:0:
128,192,57855,1,2,0:0:0:0:
42,192,57968,1,8,0:0:0:0:
298,192,57968,1,0,0:0:0:0:
384,192,58081,1,0,0:0:0:0:
213,192,58194,1,2,0:0:0:0:
469,192,58194,1,0,0:0:0:0:
128,192,58307,1,2,0:0:0:0:
42,192,58419,128,8,58645:0:0:0:0:
298,192,58419,128,0,58645:0:0:0:0:
213,192,58645,1,2,0:0:0:0:
469,192,58645,1,0,0:0:0:0:
298,192,58758,1,2,0:0:0:0:
42,192,58870,1,8,0:0:0:0:
384,192,58870,1,0,0:0:0:0:
128,192,58983,1,0,0:0:0:0:
213,192,59096,1,2,0:0:0:0:
469,192,59096,1,0,0:0:0:0:
298,192,59209,1,2,0:0:0:0:
42,192,59322,1,8,0:0:0:0:
384,192,59322,1,0,0:0:0:0:
128,192,59434,1,0,0:0:0:0:
213,192,59547,1,2,0:0:0:0:
469,192,59547,1,0,0:0:0:0:
298,192,59660,1,2,0:0:0:0:
384,192,59660,1,8,0:0:0:0:
42,192,59773,1,8,0:0:0:0:
128,192,59773,1,0,0:0:0:0:
384,192,59885,1,8,0:0:0:0:
469,192,59885,1,0,0:0:0:0:
128,192,59998,1,8,0:0:0:0:
213,192,59998,1,2,0:0:0:0:
42,192,60111,1,8,0:0:0:0:
469,192,60111,1,2,0:0:0:0:
213,192,60224,1,8,0:0:0:0:
298,192,60224,1,0,0:0:0:0:
128,192,60337,1,0,0:0:0:0:
384,192,60337,1,0,0:0:0:0:
42,192,61352,1,2,0:0:0:0:
298,192,61352,1,4,0:0:0:0:
213,192,61577,1,8,0:0:0:0:
469,192,61577,1,0,0:0:0:0:
384,192,61690,1,0,0:0:0:0:
42,192,61803,1,2,0:0:0:0:
298,192,61803,1,0,0:0:0:0:
213,192,61916,1,2,0:0:0:0:
128,192,62028,1,8,0:0:0:0:
469,192,62028,1,0,0:0:0:0:
42,192,62141,1,0,0:0:0:0:
384,192,62254,1,2,0:0:0:0:
213,192,62367,1,2,0:0:0:0:
42,192,62479,1,8,0:0:0:0:
469,192,62479,1,0,0:0:0:0:
298,192,62592,1,0,0:0:0:0:
128,192,62705,1,2,0:0:0:0:
384,192,62818,1,0,0:0:0:0:
42,192,62931,1,8,0:0:0:0:
213,192,62931,1,0,0:0:0:0:
469,192,63043,1,0,0:0:0:0:
128,192,63156,1,2,0:0:0:0:
298,192,63156,1,0,0:0:0:0:
469,192,63269,1,2,0:0:0:0:
42,192,63382,1,8,0:0:0:0:
213,192,63382,1,0,0:0:0:0:
384,192,63494,1,0,0:0:0:0:
128,192,63607,1,2,0:0:0:0:
298,192,63720,1,2,0:0:0:0:
42,192,63833,1,8,0:0:0:0:
469,192,63833,1,0,0:0:0:0:
213,192,63946,1,0,0:0:0:0:
384,192,64058,1,2,0:0:0:0:
469,192,64058,1,0,0:0:0:0:
42,192,64284,1,8,0:0:0:0:
128,192,64284,1,0,0:0:0:0:
298,192,64510,1,2,0:0:0:0:
469,192,64510,1,0,0:0:0:0:
42,192,64622,1,2,0:0:0:0:
213,192,64735,1,8,0:0:0:0:
384,192,64735,1,0,0:0:0:0:
42,192,64848,1,0,0:0:0:0:
128,192,64961,1,2,0:0:0:0:
298,192,64961,1,0,0:0:0:0:
384,192,65186,1,8,0:0:0:0:
469,192,65186,1,0,0:0:0:0:
42,192,65299,1,0,0:0:0:0:
213,192,65412,1,2,0:0:0:0:
384,192,65637,1,8,0:0:0:0:
469,192,65637,1,0,0:0:0:0:
42,192,65863,1,2,0:0:0:0:
213,192,65863,1,0,0:0:0:0:
384,192,66088,1,8,0:0:0:0:
469,192,66088,1,0,0:0:0:0:
128,192,66201,1,0,0:0:0:0:
298,192,66314,1,2,0:0:0:0:
42,192,66540,1,8,0:0:0:0:
213,192,66540,1,0,0:0:0:0:
298,192,66765,1,2,0:0:0:0:
469,192,66765,1,0,0:0:0:0:
42,192,66991,1,8,0:0:0:0:
128,192,66991,1,0,0:0:0:0:
384,192,67104,1,0,0:0:0:0:
213,192,67216,1,2,0:0:0:0:
42,192,67442,1,8,0:0:0:0:
128,192,67442,1,0,0:0:0:0:
298,192,67667,1,2,0:0:0:0:
469,192,67667,1,0,0:0:0:0:
42,192,67893,1,8,0:0:0:0:
128,192,67893,1,0,0:0:0:0:
298,192,68006,1,2,0:0:0:0:
469,192,68119,1,2,0:0:0:0:
42,192,68344,1,8,0:0:0:0:
213,192,68344,1,0,0:0:0:0:
298,192,68570,1,2,0:0:0:0:
469,192,68570,128,0,68682:0:0:0:0:
42,192,68720,1,0,0:0:0:0:
298,192,68795,1,8,0:0:0:0:
128,192,68870,1,0,0:0:0:0:
469,192,68908,128,0,69021:0:0:0:0:
213,192,69021,1,2,0:0:0:0:
42,192,69171,1,0,0:0:0:0:
298,192,69246,1,8,0:0:0:0:
469,192,69246,128,0,69359:0:0:0:0:
128,192,69322,1,0,0:0:0:0:
213,192,69472,1,2,0:0:0:0:
469,192,69585,128,2,69697:0:0:0:0:
42,192,69622,1,0,0:0:0:0:
298,192,69697,1,8,0:0:0:0:
128,192,69773,1,0,0:0:0:0:
213,192,69923,1,2,0:0:0:0:
469,192,69923,128,0,70036:0:0:0:0:
42,192,70073,1,0,0:0:0:0:
298,192,70149,1,8,0:0:0:0:
469,192,70149,128,0,70261:0:0:0:0:
128,192,70224,1,0,0:0:0:0:
213,192,70374,1,2,0:0:0:0:
384,192,70374,128,0,70487:0:0:0:0:
42,192,70525,1,0,0:0:0:0:
469,192,70600,1,8,0:0:0:0:
213,192,70675,1,0,0:0:0:0:
384,192,70713,128,0,70825:0:0:0:0:
128,192,70825,1,2,0:0:0:0:
42,192,70976,1,0,0:0:0:0:
384,192,71051,128,8,71164:0:0:0:0:
469,192,71051,1,0,0:0:0:0:
213,192,71126,1,0,0:0:0:0:
128,192,71276,1,2,0:0:0:0:
384,192,71389,128,2,71502:0:0:0:0:
42,192,71427,1,0,0:0:0:0:
469,192,71502,1,8,0:0:0:0:
213,192,71577,1,0,0:0:0:0:
128,192,71728,1,2,0:0:0:0:
384,192,71728,128,0,71840:0:0:0:0:
42,192,71878,1,0,0:0:0:0:
384,192,71953,128,8,72066:0:0:0:0:
469,192,71953,1,0,0:0:0:0:
213,192,72028,1,0,0:0:0:0:
298,192,72179,128,2,72291:0:0:0:0:
469,192,72179,1,0,0:0:0:0:
42,192,72329,1,0,0:0:0:0:
384,192,72404,1,8,0:0:0:0:
128,192,72479,1,0,0:0:0:0:
298,192,72517,128,0,72630:0:0:0:0:
469,192,72630,1,2,0:0:0:0:
42,192,72780,1,0,0:0:0:0:
298,192,72855,128,8,72968:0:0:0:0:
384,192,72855,1,0,0:0:0:0:
128,192,72931,1,0,0:0:0:0:
469,192,73081,1,2,0:0:0:0:
298,192,73194,128,2,73307:0:0:0:0:
42,192,73231,1,0,0:0:0:0:
384,192,73307,1,8,0:0:0:0:
128,192,73382,1,0,0:0:0:0:
298,192,73532,1,2,0:0:0:0:
469,192,73532,1,0,0:0:0:0:
42,192,73758,1,8,0:0:0:0:
213,192,73758,1,0,0:0:0:0:
298,192,73983,128,2,74209:0:0:0:0:
469,192,73983,128,4,74209:0:0:0:0:
42,192,74209,1,8,0:0:0:0:
128,192,74209,1,0,0:0:0:0:
298,192,74434,128,2,74660:0:0:0:0:
469,192,74434,128,4,74660:0:0:0:0:
42,192,74660,1,8,0:0:0:0:
128,192,74660,1,0,0:0:0:0:
213,192,74885,128,4,75111:0:0:0:0:
384,192,74885,128,2,75111:0:0:0:0:
42,192,75111,1,8,0:0:0:0:
469,192,75111,1,0,0:0:0:0:
128,192,75337,128,2,75562:0:0:0:0:
298,192,75337,128,4,75562:0:0:0:0:
42,192,75562,1,8,0:0:0:0:
469,192,75562,1,0,0:0:0:0:
42,192,75788,1,2,0:0:0:0:
384,192,75788,1,4,0:0:0:0:
128,192,76013,1,8,0:0:0:0:
469,192,76013,1,0,0:0:0:0:
42,192,76239,1,2,0:0:0:0:
298,192,76239,1,0,0:0:0:0:
384,192,76352,1,2,0:0:0:0:
213,192,76464,1,8,0:0:0:0:
469,192,76464,1,0,0:0:0:0:
42,192,76690,1,2,0:0:0:0:
298,192,76690,1,0,0:0:0:0:
128,192,76803,1,2,0:0:0:0:
384,192,76803,1,0,0:0:0:0:
213,192,76916,1,8,0:0:0:0:
469,192,76916,1,0,0:0:0:0:
42,192,77028,128,0,77367:0:0:0:0:
384,192,77141,1,2,0:0:0:0:
213,192,77367,1,8,0:0:0:0:
469,192,77367,1,0,0:0:0:0:
128,192,77479,1,0,0:0:0:0:
42,192,77592,1,2,0:0:0:0:
469,192,77592,128,0,77931:0:0:0:0:
213,192,77818,1,8,0:0:0:0:
298,192,77931,128,0,78269:0:0:0:0:
42,192,78043,1,2,0:0:0:0:
128,192,78156,1,2,0:0:0:0:
213,192,78269,1,8,0:0:0:0:
384,192,78269,128,0,78607:0:0:0:0:
42,192,78494,1,2,0:0:0:0:
128,192,78607,1,2,0:0:0:0:
469,192,78607,128,0,78833:0:0:0:0:
213,192,78720,1,8,0:0:0:0:
298,192,78833,1,0,0:0:0:0:
42,192,78946,1,2,0:0:0:0:
384,192,78946,128,0,79171:0:0:0:0:
128,192,79171,1,8,0:0:0:0:
469,192,79171,128,0,79397:0:0:0:0:
213,192,79397,1,2,0:0:0:0:
298,192,79510,1,2,0:0:0:0:
42,192,79622,1,8,0:0:0:0:
384,192,79622,1,0,0:0:0:0:
469,192,79735,1,0,0:0:0:0:
213,192,79848,1,2,0:0:0:0:
298,192,79961,1,2,0:0:0:0:
42,192,80073,1,8,0:0:0:0:
384,192,80073,1,0,0:0:0:0:
469,192,80186,1,0,0:0:0:0:
213,192,80299,1,2,0:0:0:0:
42,192,80412,1,2,0:0:0:0:
298,192,80525,1,8,0:0:0:0:
469,192,80525,1,0,0:0:0:0:
128,192,80637,1,0,0:0:0:0:
213,192,80863,1,2,0:0:0:0:
42,192,80976,1,8,0:0:0:0:
384,192,80976,1,0,0:0:0:0:
298,192,81088,1,0,0:0:0:0:
128,192,81201,1,2,0:0:0:0:
469,192,81201,1,0,0:0:0:0:
213,192,81314,1,0,0:0:0:0:
42,192,81427,1,8,0:0:0:0:
298,192,81427,1,0,0:0:0:0:
469,192,81540,1,0,0:0:0:0:
128,192,81652,1,2,0:0:0:0:
384,192,81652,1,0,0:0:0:0:
298,192,81765,1,2,0:0:0:0:
213,192,81878,1,8,0:0:0:0:
469,192,81878,1,0,0:0:0:0:
128,192,81991,1,2,0:0:0:0:
42,192,82104,1,2,0:0:0:0:
384,192,82104,1,0,0:0:0:0:
298,192,82216,1,2,0:0:0:0:
213,192,82329,1,8,0:0:0:0:
469,192,82329,1,0,0:0:0:0:
128,192,82442,1,2,0:0:0:0:
42,192,82555,1,2,0:0:0:0:
298,192,82555,128,0,82780:0:0:0:0:
213,192,82780,1,8,0:0:0:0:
469,192,82780,128,0,83006:0:0:0:0:
42,192,83006,128,2,83231:0:0:0:0:
384,192,83006,1,0,0:0:0:0:
213,192,83231,1,8,0:0:0:0:
469,192,83231,1,0,0:0:0:0:
42,192,83344,128,0,83570:0:0:0:0:
298,192,83457,1,2,0:0:0:0:
42,192,83682,128,8,83908:0:0:0:0:
384,192,83682,1,0,0:0:0:0:
213,192,83908,1,2,0:0:0:0:
42,192,84021,128,2,84246:0:0:0:0:
298,192,84134,1,8,0:0:0:0:
469,192,84134,1,0,0:0:0:0:
128,192,84359,128,2,84472:0:0:0:0:
384,192,84359,1,0,0:0:0:0:
213,192,84585,128,8,84697:0:0:0:0:
469,192,84585,1,0,0:0:0:0:
42,192,84810,1,2,0:0:0:0:
469,192,84810,128,0,85036:0:0:0:0:
128,192,85036,1,8,0:0:0:0:
384,192,85036,1,0,0:0:0:0:
469,192,85149,128,0,85374:0:0:0:0:
213,192,85261,1,2,0:0:0:0:
298,192,85487,1,8,0:0:0:0:
469,192,85487,128,0,85713:0:0:0:0:
128,192,85713,1,2,0:0:0:0:
469,192,85825,128,2,86051:0:0:0:0:
42,192,85938,1,8,0:0:0:0:
213,192,85938,1,0,0:0:0:0:
128,192,86164,1,2,0:0:0:0:
384,192,86164,128,0,86276:0:0:0:0:
42,192,86389,1,8,0:0:0:0:
298,192,86389,128,0,86502:0:0:0:0:
213,192,86615,128,2,86840:0:0:0:0:
469,192,86615,1,0,0:0:0:0:
42,192,86840,1,8,0:0:0:0:
298,192,86840,1,0,0:0:0:0:
213,192,86953,128,0,87179:0:0:0:0:
469,192,87066,1,2,0:0:0:0:
42,192,87291,1,8,0:0:0:0:
213,192,87291,128,0,87517:0:0:0:0:
469,192,87517,1,2,0:0:0:0:
298,192,87630,1,2,0:0:0:0:
42,192,87743,1,8,0:0:0:0:
128,192,87743,1,0,0:0:0:0:
384,192,87855,1,0,0:0:0:0:
128,192,87968,1,2,0:0:0:0:
213,192,87968,1,0,0:0:0:0:
213,192,88194,1,8,0:0:0:0:
298,192,88194,1,0,0:0:0:0:
298,192,88419,128,2,88645:0:0:0:0:
384,192,88419,128,4,88645:0:0:0:0:
42,192,88645,1,8,0:0:0:0:
128,192,88645,1,0,0:0:0:0:
298,192,88870,128,2,89096:0:0:0:0:
384,192,88870,128,4,89096:0:0:0:0:
42,192,89096,1,8,0:0:0:0:
128,192,89096,1,0,0:0:0:0:
213,192,89322,128,4,89547:0:0:0:0:
298,192,89322,128,2,89547:0:0:0:0:
42,192,89547,1,8,0:0:0:0:
469,192,89547,1,0,0:0:0:0:
128,192,89773,128,2,89998:0:0:0:0:
213,192,89773,128,4,89998:0:0:0:0:
384,192,89998,1,8,0:0:0:0:
469,192,89998,1,0,0:0:0:0:
42,192,90224,1,2,0:0:0:0:
298,192,90224,1,4,0:0:0:0:
213,192,90337,1,0,0:0:0:0:
128,192,90449,1,8,0:0:0:0:
469,192,90449,1,0,0:0:0:0:
42,192,90562,1,0,0:0:0:0:
213,192,90675,1,2,0:0:0:0:
384,192,90675,1,0,0:0:0:0:
128,192,90788,1,2,0:0:0:0:
42,192,90900,1,8,0:0:0:0:
469,192,90900,1,0,0:0:0:0:
213,192,91013,1,0,0:0:0:0:
128,192,91126,1,2,0:0:0:0:
384,192,91126,1,0,0:0:0:0:
42,192,91239,1,2,0:0:0:0:
213,192,91352,1,8,0:0:0:0:
469,192,91352,1,0,0:0:0:0:
128,192,91464,1,0,0:0:0:0:
42,192,91577,1,2,0:0:0:0:
384,192,91577,1,0,0:0:0:0:
213,192,91690,1,0,0:0:0:0:
128,192,91803,1,8,0:0:0:0:
469,192,91803,1,0,0:0:0:0:
298,192,91916,1,0,0:0:0:0:
42,192,92028,1,2,0:0:0:0:
384,192,92028,1,0,0:0:0:0:
469,192,92141,1,2,0:0:0:0:
128,192,92254,1,8,0:0:0:0:
298,192,92254,1,0,0:0:0:0:
384,192,92367,1,0,0:0:0:0:
42,192,92479,1,2,0:0:0:0:
469,192,92479,1,0,0:0:0:0:
298,192,92592,1,2,0:0:0:0:
128,192,92705,1,8,0:0:0:0:
384,192,92705,1,0,0:0:0:0:
469,192,92818,1,8,0:0:0:0:
42,192,92931,1,2,0:0:0:0:
298,192,92931,1,0,0:0:0:0:
384,192,93043,1,2,0:0:0:0:
128,192,93156,1,8,0:0:0:0:
469,192,93156,1,0,0:0:0:0:
298,192,93269,1,0,0:0:0:0:
42,192,93382,1,2,0:0:0:0:
469,192,93382,128,0,93607:0:0:0:0:
128,192,93607,1,8,0:0:0:0:
384,192,93607,1,0,0:0:0:0:
42,192,93833,128,2,93983:0:0:0:0:
298,192,93833,1,0,0:0:0:0:
128,192,93983,128,0,94134:0:0:0:0:
384,192,94058,1,8,0:0:0:0:
469,192,94058,1,0,0:0:0:0:
213,192,94134,128,0,94284:0:0:0:0:
42,192,94284,1,2,0:0:0:0:
469,192,94284,128,0,94434:0:0:0:0:
384,192,94434,128,0,94585:0:0:0:0:
42,192,94510,1,8,0:0:0:0:
128,192,94510,1,0,0:0:0:0:
298,192,94585,128,0,94735:0:0:0:0:
213,192,94735,128,2,94885:0:0:0:0:
469,192,94735,1,0,0:0:0:0:
128,192,94885,128,0,95036:0:0:0:0:
384,192,94961,1,8,0:0:0:0:
469,192,94961,1,0,0:0:0:0:
42,192,95036,128,0,95186:0:0:0:0:
213,192,95186,1,2,0:0:0:0:
298,192,95186,128,0,95337:0:0:0:0:
384,192,95337,128,0,95487:0:0:0:0:
42,192,95412,1,8,0:0:0:0:
128,192,95412,1,0,0:0:0:0:
469,192,95487,128,0,95637:0:0:0:0:
128,192,95637,128,2,95788:0:0:0:0:
298,192,95637,1,0,0:0:0:0:
42,192,95788,128,0,95938:0:0:0:0:
384,192,95863,1,8,0:0:0:0:
469,192,95863,1,0,0:0:0:0:
213,192,95938,128,0,96088:0:0:0:0:
128,192,96088,128,2,96239:0:0:0:0:
469,192,96088,1,0,0:0:0:0:
298,192,96239,128,0,96389:0:0:0:0:
42,192,96314,1,8,0:0:0:0:
469,192,96314,1,0,0:0:0:0:
213,192,96389,128,0,96540:0:0:0:0:
384,192,96540,128,2,96690:0:0:0:0:
298,192,96690,128,0,96840:0:0:0:0:
42,192,96765,1,8,0:0:0:0:
128,192,96765,1,0,0:0:0:0:
469,192,96840,128,0,96991:0:0:0:0:
213,192,96991,1,2,0:0:0:0:
384,192,96991,128,0,97216:0:0:0:0:
42,192,97216,1,8,0:0:0:0:
298,192,97216,128,0,97442:0:0:0:0:
128,192,97442,1,2,0:0:0:0:
469,192,97442,1,0,0:0:0:0:
384,192,97555,1,2,0:0:0:0:
42,192,97667,1,8,0:0:0:0:
298,192,97667,1,0,0:0:0:0:
469,192,97780,1,0,0:0:0:0:
128,192,97893,1,2,0:0:0:0:
384,192,97893,1,0,0:0:0:0:
298,192,98006,1,2,0:0:0:0:
42,192,98119,1,8,0:0:0:0:
469,192,98119,1,0,0:0:0:0:
384,192,98231,1,0,0:0:0:0:
128,192,98344,1,2,0:0:0:0:
298,192,98344,1,0,0:0:0:0:
469,192,98457,1,2,0:0:0:0:
42,192,98570,1,8,0:0:0:0:
384,192,98570,1,0,0:0:0:0:
298,192,98682,1,0,0:0:0:0:
128,192,98795,1,2,0:0:0:0:
469,192,98795,1,0,0:0:0:0:
298,192,98908,1,0,0:0:0:0:
42,192,99021,1,8,0:0:0:0:
469,192,99021,1,0,0:0:0:0:
298,192,99134,1,0,0:0:0:0:
128,192,99246,1,2,0:0:0:0:
384,192,99246,1,0,0:0:0:0:
213,192,99359,1,2,0:0:0:0:
42,192,99472,1,8,0:0:0:0:
469,192,99472,1,0,0:0:0:0:
128,192,99585,1,0,0:0:0:0:
213,192,99697,1,2,0:0:0:0:
384,192,99697,1,0,0:0:0:0:
42,192,99810,1,2,0:0:0:0:
128,192,99923,1,8,0:0:0:0:
469,192,99923,1,0,0:0:0:0:
213,192,100036,1,0,0:0:0:0:
42,192,100149,1,2,0:0:0:0:
384,192,100149,1,0,0:0:0:0:
128,192,100261,1,2,0:0:0:0:
213,192,100374,1,8,0:0:0:0:
469,192,100374,1,0,0:0:0:0:
42,192,100487,1,0,0:0:0:0:
128,192,100600,1,2,0:0:0:0:
384,192,100600,1,0,0:0:0:0:
213,192,100713,1,2,0:0:0:0:
42,192,100825,1,8,0:0:0:0:
384,192,100825,1,0,0:0:0:0:
128,192,100938,1,0,0:0:0:0:
213,192,101051,1,2,0:0:0:0:
469,192,101051,1,0,0:0:0:0:
298,192,101164,1,2,0:0:0:0:
42,192,101276,1,8,0:0:0:0:
384,192,101276,1,0,0:0:0:0:
298,192,101389,1,0,0:0:0:0:
213,192,101502,1,2,0:0:0:0:
469,192,101502,1,0,0:0:0:0:
128,192,101615,1,2,0:0:0:0:
42,192,101728,1,8,0:0:0:0:
298,192,101728,1,0,0:0:0:0:
213,192,101840,1,0,0:0:0:0:
128,192,101953,1,2,0:0:0:0:
469,192,101953,1,0,0:0:0:0:
213,192,102066,1,2,0:0:0:0:
42,192,102179,1,8,0:0:0:0:
298,192,102179,1,0,0:0:0:0:
384,192,102291,1,0,0:0:0:0:
213,192,102404,1,2,0:0:0:0:
469,192,102404,1,0,0:0:0:0:
128,192,102630,1,8,0:0:0:0:
384,192,102630,1,0,0:0:0:0:
42,192,102855,128,2,103081:0:0:0:0:
298,192,102855,128,4,103081:0:0:0:0:
213,192,103081,1,8,0:0:0:0:
469,192,103081,1,0,0:0:0:0:
42,192,103307,128,2,103532:0:0:0:0:
298,192,103307,128,4,103532:0:0:0:0:
213,192,103532,1,8,0:0:0:0:
469,192,103532,1,0,0:0:0:0:
128,192,103758,128,4,103983:0:0:0:0:
384,192,103758,128,2,103983:0:0:0:0:
42,192,103983,1,8,0:0:0:0:
298,192,103983,1,0,0:0:0:0:
213,192,104209,128,2,104434:0:0:0:0:
469,192,104209,128,4,104434:0:0:0:0:
128,192,104434,1,8,0:0:0:0:
384,192,104434,1,0,0:0:0:0:
42,192,104660,1,4,0:0:0:0:
298,192,104660,1,2,0:0:0:0:
128,192,104773,1,2,0:0:0:0:
213,192,104885,1,8,0:0:0:0:
469,192,104885,1,0,0:0:0:0:
384,192,104998,1,0,0:0:0:0:
42,192,105111,1,2,0:0:0:0:
298,192,105111,1,0,0:0:0:0:
128,192,105224,1,2,0:0:0:0:
213,192,105337,1,8,0:0:0:0:
469,192,105337,1,0,0:0:0:0:
384,192,105449,1,0,0:0:0:0:
42,192,105562,1,2,0:0:0:0:
298,192,105562,1,0,0:0:0:0:
128,192,105675,1,2,0:0:0:0:
213,192,105788,1,8,0:0:0:0:
469,192,105788,1,0,0:0:0:0:
384,192,105900,1,0,0:0:0:0:
42,192,106013,1,2,0:0:0:0:
298,192,106013,1,0,0:0:0:0:
128,192,106126,1,2,0:0:0:0:
213,192,106239,128,8,106464:0:0:0:0:
469,192,106239,128,0,106464:0:0:0:0:
42,192,106464,1,2,0:0:0:0:
384,192,106464,1,0,0:0:0:0:
298,192,106577,1,2,0:0:0:0:
213,192,106690,1,8,0:0:0:0:
469,192,106690,1,0,0:0:0:0:
128,192,106803,1,0,0:0:0:0:
42,192,106916,1,2,0:0:0:0:
384,192,106916,1,0,0:0:0:0:
298,192,107028,1,2,0:0:0:0:
213,192,107141,1,8,0:0:0:0:
469,192,107141,1,0,0:0:0:0:
128,192,107254,1,0,0:0:0:0:
42,192,107367,1,2,0:0:0:0:
384,192,107367,1,0,0:0:0:0:
298,192,107479,1,2,0:0:0:0:
213,192,107592,1,8,0:0:0:0:
469,192,107592,1,0,0:0:0:0:
128,192,107705,1,0,0:0:0:0:
42,192,107818,1,2,0:0:0:0:
384,192,107818,1,0,0:0:0:0:
298,192,107931,1,2,0:0:0:0:
213,192,108043,128,8,108269:0:0:0:0:
469,192,108043,128,0,108269:0:0:0:0:
42,192,108269,1,2,0:0:0:0:
298,192,108269,1,0,0:0:0:0:
384,192,108382,1,2,0:0:0:0:
213,192,108494,1,8,0:0:0:0:
469,192,108494,1,0,0:0:0:0:
128,192,108607,1,0,0:0:0:0:
42,192,108720,1,2,0:0:0:0:
298,192,108720,1,0,0:0:0:0:
384,192,108833,1,2,0:0:0:0:
213,192,108946,1,8,0:0:0:0:
469,192,108946,1,0,0:0:0:0:
128,192,109058,1,0,0:0:0:0:
42,192,109171,1,2,0:0:0:0:
298,192,109171,1,0,0:0:0:0:
384,192,109284,1,2,0:0:0:0:
213,192,109397,1,8,0:0:0:0:
469,192,109397,1,0,0:0:0:0:
128,192,109510,1,0,0:0:0:0:
42,192,109622,1,2,0:0:0:0:
298,192,109622,1,0,0:0:0:0:
384,192,109735,1,2,0:0:0:0:
213,192,109848,128,8,110073:0:0:0:0:
469,192,109848,128,0,110073:0:0:0:0:
42,192,110073,1,2,0:0:0:0:
298,192,110073,1,0,0:0:0:0:
213,192,110186,1,2,0:0:0:0:
128,192,110299,1,8,0:0:0:0:
469,192,110299,1,0,0:0:0:0:
384,192,110412,1,0,0:0:0:0:
42,192,110525,1,2,0:0:0:0:
298,192,110525,1,0,0:0:0:0:
213,192,110637,1,2,0:0:0:0:
128,192,110750,1,8,0:0:0:0:
469,192,110750,1,0,0:0:0:0:
384,192,110863,1,0,0:0:0:0:
42,192,110976,1,2,0:0:0:0:
298,192,110976,1,0,0:0:0:0:
128,192,111088,1,2,0:0:0:0:
213,192,111088,1,8,0:0:0:0:
384,192,111201,1,8,0:0:0:0:
469,192,111201,1,0,0:0:0:0:
42,192,111314,1,8,0:0:0:0:
128,192,111314,1,0,0:0:0:0:
298,192,111427,1,8,0:0:0:0:
384,192,111427,1,2,0:0:0:0:
42,192,111540,1,8,0:0:0:0:
469,192,111540,1,2,0:0:0:0:
213,192,111652,1,8,0:0:0:0:
298,192,111652,1,0,0:0:0:0:
42,192,111765,1,8,0:0:0:0:
469,192,111765,1,0,0:0:0:0:
42,192,112555,128,2,113457:0:0:0:0:
213,192,112555,128,4,113457:0:0:0:0:
384,192,112555,128,8,113457:0:0:0:0:
