osu file format v14

[General]
AudioFilename: fffff.MP3
AudioLeadIn: 0
PreviewTime: 88417
Countdown: 0
SampleSet: Soft
StackLeniency: 0.7
Mode: 3
LetterboxInBreaks: 0
SpecialStyle: 0
WidescreenStoryboard: 1

[Editor]
DistanceSpacing: 2
BeatDivisor: 1
GridSize: 16
TimelineZoom: 2.2

[Metadata]
Title:fffff op.2
TitleUnicode:ƒƒƒƒƒ op.2
Artist:Five Hammer
ArtistUnicode:Five Hammer
Creator:_Stan
Version:Easy
Source:pop'n music 17 THE MOVIE
Tags:カーニバル infilect popn popnmusic pop n music o2jam hard pf+ grand hammer seiya murai Evening Akasha Kuo Kyoka kk FAMoss biemote video game instrumental
BeatmapID:3210694
BeatmapSetID:1452883

[Difficulty]
HPDrainRate:7
CircleSize:6
OverallDifficulty:7
ApproachRate:5
SliderMultiplier:1.4
SliderTickRate:1

[Events]
//Background and Video events
0,0,"bg.jpg",0,0
//Break Periods
//Storyboard Layer 0 (Background)
//Storyboard Layer 1 (Fail)
//Storyboard Layer 2 (Pass)
//Storyboard Layer 3 (Foreground)
//Storyboard Layer 4 (Overlay)
//Storyboard Sound Samples

[TimingPoints]
901,225.563909774436,4,2,1,40,1,0

[HitObjects]
469,192,901,5,6,0:0:0:0:
213,192,1126,1,8,0:0:0:0:
42,192,1352,1,2,0:0:0:0:
213,192,1577,1,8,0:0:0:0:
213,192,2028,1,8,0:0:0:0:
42,192,2254,1,2,0:0:0:0:
213,192,2479,1,8,0:0:0:0:
128,192,2931,1,8,0:0:0:0:
298,192,3156,1,2,0:0:0:0:
128,192,3382,1,8,0:0:0:0:
128,192,3833,1,8,0:0:0:0:
298,192,4058,1,2,0:0:0:0:
128,192,4284,1,8,0:0:0:0:
384,192,4735,1,8,0:0:0:0:
213,192,4961,1,2,0:0:0:0:
384,192,5186,1,8,0:0:0:0:
384,192,5637,1,8,0:0:0:0:
213,192,5863,1,2,0:0:0:0:
384,192,6088,1,8,0:0:0:0:
298,192,6540,1,8,0:0:0:0:
469,192,6765,1,2,0:0:0:0:
298,192,6991,1,8,0:0:0:0:
298,192,7442,1,8,0:0:0:0:
469,192,7667,1,10,0:0:0:0:
298,192,7893,1,8,0:0:0:0:
128,192,8119,128,0,9021:0:0:0:0:
42,192,9021,1,4,0:0:0:0:
469,192,9021,1,2,0:0:0:0:
298,192,9246,1,8,0:0:0:0:
298,192,9697,1,8,0:0:0:0:
128,192,9923,1,2,0:0:0:0:
384,192,10149,1,8,0:0:0:0:
384,192,10600,1,8,0:0:0:0:
213,192,10825,1,2,0:0:0:0:
469,192,11051,1,8,0:0:0:0:
469,192,11502,1,8,0:0:0:0:
298,192,11728,1,2,0:0:0:0:
42,192,11953,1,8,0:0:0:0:
42,192,12404,1,8,0:0:0:0:
384,192,12630,1,2,0:0:0:0:
128,192,12855,1,8,0:0:0:0:
128,192,13307,1,8,0:0:0:0:
469,192,13532,1,2,0:0:0:0:
213,192,13758,1,8,0:0:0:0:
213,192,14209,1,8,0:0:0:0:
42,192,14434,1,2,0:0:0:0:
384,192,14660,1,8,0:0:0:0:
384,192,15111,1,8,0:0:0:0:
469,192,15337,1,2,0:0:0:0:
213,192,15562,1,8,0:0:0:0:
213,192,16013,1,8,0:0:0:0:
469,192,16239,1,2,0:0:0:0:
384,192,16464,1,2,0:0:0:0:
298,192,16690,128,2,17141:0:0:0:0:
42,192,17141,1,2,0:0:0:0:
128,192,17367,1,2,0:0:0:0:
213,192,17592,128,2,18043:0:0:0:0:
469,192,18043,1,2,0:0:0:0:
298,192,18269,1,2,0:0:0:0:
128,192,18494,128,2,18946:0:0:0:0:
42,192,18946,1,2,0:0:0:0:
213,192,19171,1,2,0:0:0:0:
384,192,19397,128,2,19848:0:0:0:0:
213,192,19848,1,2,0:0:0:0:
128,192,20073,1,2,0:0:0:0:
42,192,20299,128,2,20750:0:0:0:0:
298,192,20750,1,2,0:0:0:0:
384,192,20976,1,2,0:0:0:0:
469,192,21201,128,2,21652:0:0:0:0:
42,192,21652,1,2,0:0:0:0:
213,192,21878,1,2,0:0:0:0:
384,192,22104,1,2,0:0:0:0:
128,192,22329,1,2,0:0:0:0:
469,192,22555,1,14,0:0:0:0:
469,192,22893,1,14,0:0:0:0:
42,192,23231,1,14,0:0:0:0:
469,192,24359,128,6,24810:0:0:0:0:
128,192,24810,1,2,0:0:0:0:
213,192,25036,1,8,0:0:0:0:
298,192,25261,1,2,0:0:0:0:
469,192,25600,1,0,0:0:0:0:
42,192,25938,1,8,0:0:0:0:
384,192,26164,1,2,0:0:0:0:
384,192,26389,1,8,0:0:0:0:
128,192,26615,1,2,0:0:0:0:
128,192,26840,1,8,0:0:0:0:
298,192,27066,128,0,27404:0:0:0:0:
469,192,27404,1,2,0:0:0:0:
213,192,27743,1,8,0:0:0:0:
469,192,27968,1,2,0:0:0:0:
42,192,28194,1,8,0:0:0:0:
128,192,28419,1,2,0:0:0:0:
213,192,28645,1,8,0:0:0:0:
469,192,28870,1,2,0:0:0:0:
384,192,29209,1,0,0:0:0:0:
298,192,29547,1,8,0:0:0:0:
128,192,29773,128,2,30224:0:0:0:0:
384,192,30224,128,2,30675:0:0:0:0:
42,192,30675,1,0,0:0:0:0:
128,192,31013,1,8,0:0:0:0:
213,192,31352,1,8,0:0:0:0:
469,192,31577,1,6,0:0:0:0:
298,192,31803,1,8,0:0:0:0:
128,192,32028,1,2,0:0:0:0:
128,192,32254,1,8,0:0:0:0:
298,192,32479,1,2,0:0:0:0:
469,192,32818,1,0,0:0:0:0:
42,192,33156,1,8,0:0:0:0:
384,192,33382,1,2,0:0:0:0:
384,192,33607,1,8,0:0:0:0:
128,192,33833,1,2,0:0:0:0:
128,192,34058,1,8,0:0:0:0:
298,192,34284,1,0,0:0:0:0:
469,192,34622,1,2,0:0:0:0:
42,192,34961,1,8,0:0:0:0:
213,192,35186,1,2,0:0:0:0:
469,192,35412,1,8,0:0:0:0:
384,192,35637,1,2,0:0:0:0:
298,192,35863,1,8,0:0:0:0:
42,192,36088,1,2,0:0:0:0:
128,192,36427,1,0,0:0:0:0:
213,192,36765,1,8,0:0:0:0:
384,192,36991,128,2,37667:0:0:0:0:
42,192,37667,1,8,0:0:0:0:
213,192,38119,1,8,0:0:0:0:
469,192,38457,1,2,0:0:0:0:
298,192,38795,1,2,0:0:0:0:
213,192,39021,1,8,0:0:0:0:
128,192,39246,1,2,0:0:0:0:
42,192,39472,1,8,0:0:0:0:
469,192,39697,1,2,0:0:0:0:
384,192,40036,1,0,0:0:0:0:
298,192,40374,1,8,0:0:0:0:
42,192,40600,1,2,0:0:0:0:
128,192,40938,1,2,0:0:0:0:
213,192,41276,1,12,0:0:0:0:
469,192,41502,1,2,0:0:0:0:
384,192,41840,1,2,0:0:0:0:
298,192,42179,1,12,0:0:0:0:
42,192,42404,1,2,0:0:0:0:
128,192,42630,1,8,0:0:0:0:
213,192,42855,1,2,0:0:0:0:
298,192,43081,1,8,0:0:0:0:
469,192,43307,1,2,0:0:0:0:
384,192,43645,1,0,0:0:0:0:
298,192,43983,1,8,0:0:0:0:
42,192,44209,1,2,0:0:0:0:
128,192,44547,1,2,0:0:0:0:
213,192,44885,1,12,0:0:0:0:
469,192,45111,1,2,0:0:0:0:
384,192,45449,1,2,0:0:0:0:
298,192,45788,1,12,0:0:0:0:
42,192,46013,1,2,0:0:0:0:
469,192,46239,1,8,0:0:0:0:
128,192,46464,1,2,0:0:0:0:
384,192,46690,1,8,0:0:0:0:
213,192,46916,1,2,0:0:0:0:
128,192,47254,1,0,0:0:0:0:
42,192,47592,1,8,0:0:0:0:
298,192,47818,1,2,0:0:0:0:
384,192,48156,1,2,0:0:0:0:
469,192,48494,1,12,0:0:0:0:
213,192,48720,1,2,0:0:0:0:
128,192,49058,1,2,0:0:0:0:
42,192,49397,1,12,0:0:0:0:
384,192,49622,1,2,0:0:0:0:
128,192,49848,1,8,0:0:0:0:
469,192,50073,1,2,0:0:0:0:
42,192,50299,1,8,0:0:0:0:
298,192,50525,1,2,0:0:0:0:
384,192,50863,1,0,0:0:0:0:
469,192,51201,1,8,0:0:0:0:
213,192,51427,1,2,0:0:0:0:
128,192,51765,1,2,0:0:0:0:
42,192,52104,1,8,0:0:0:0:
384,192,52329,1,2,0:0:0:0:
298,192,52667,1,10,0:0:0:0:
213,192,53006,1,8,0:0:0:0:
42,192,53231,1,6,0:0:0:0:
469,192,53457,1,8,0:0:0:0:
298,192,53682,1,2,0:0:0:0:
469,192,53908,1,8,0:0:0:0:
469,192,54359,1,8,0:0:0:0:
298,192,54585,1,2,0:0:0:0:
469,192,54810,1,8,0:0:0:0:
213,192,55261,1,8,0:0:0:0:
384,192,55487,1,2,0:0:0:0:
213,192,55713,1,8,0:0:0:0:
213,192,56164,1,8,0:0:0:0:
384,192,56389,1,2,0:0:0:0:
213,192,56615,1,8,0:0:0:0:
298,192,57066,1,8,0:0:0:0:
128,192,57291,1,2,0:0:0:0:
298,192,57517,1,8,0:0:0:0:
298,192,57968,1,8,0:0:0:0:
128,192,58194,1,2,0:0:0:0:
298,192,58419,1,8,0:0:0:0:
42,192,58870,1,8,0:0:0:0:
213,192,59096,1,2,0:0:0:0:
42,192,59322,1,8,0:0:0:0:
42,192,59773,1,8,0:0:0:0:
213,192,59998,1,10,0:0:0:0:
42,192,60224,1,8,0:0:0:0:
298,192,61352,1,6,0:0:0:0:
469,192,61577,1,8,0:0:0:0:
213,192,61803,1,2,0:0:0:0:
384,192,62028,1,8,0:0:0:0:
128,192,62254,1,2,0:0:0:0:
298,192,62479,1,8,0:0:0:0:
42,192,62705,1,2,0:0:0:0:
469,192,63156,1,2,0:0:0:0:
384,192,63382,1,8,0:0:0:0:
298,192,63607,1,2,0:0:0:0:
213,192,63833,1,8,0:0:0:0:
128,192,64058,1,2,0:0:0:0:
42,192,64284,1,8,0:0:0:0:
469,192,64510,1,2,0:0:0:0:
213,192,64961,1,2,0:0:0:0:
128,192,65299,1,0,0:0:0:0:
42,192,65637,1,8,0:0:0:0:
298,192,65863,1,2,0:0:0:0:
213,192,66201,1,0,0:0:0:0:
128,192,66540,1,8,0:0:0:0:
384,192,66765,1,2,0:0:0:0:
298,192,67104,1,0,0:0:0:0:
213,192,67442,1,8,0:0:0:0:
469,192,67667,1,2,0:0:0:0:
384,192,68006,1,2,0:0:0:0:
298,192,68344,1,8,0:0:0:0:
42,192,68570,128,2,68908:0:0:0:0:
213,192,68908,128,0,69246:0:0:0:0:
42,192,69246,128,8,69585:0:0:0:0:
213,192,69585,128,2,69923:0:0:0:0:
469,192,69923,1,2,0:0:0:0:
298,192,70149,1,8,0:0:0:0:
128,192,70374,128,2,70713:0:0:0:0:
298,192,70713,128,0,71051:0:0:0:0:
128,192,71051,128,8,71389:0:0:0:0:
298,192,71389,128,2,71728:0:0:0:0:
42,192,71728,1,2,0:0:0:0:
469,192,71953,1,8,0:0:0:0:
213,192,72179,128,2,72517:0:0:0:0:
384,192,72517,128,0,72855:0:0:0:0:
213,192,72855,128,8,73194:0:0:0:0:
384,192,73194,128,2,73532:0:0:0:0:
42,192,73532,1,2,0:0:0:0:
213,192,73758,1,8,0:0:0:0:
384,192,73983,1,2,0:0:0:0:
469,192,73983,1,4,0:0:0:0:
384,192,74434,1,2,0:0:0:0:
469,192,74434,1,4,0:0:0:0:
42,192,74885,1,4,0:0:0:0:
128,192,74885,1,2,0:0:0:0:
213,192,75337,1,2,0:0:0:0:
298,192,75337,1,4,0:0:0:0:
42,192,75788,1,6,0:0:0:0:
469,192,76013,1,8,0:0:0:0:
384,192,76239,1,2,0:0:0:0:
298,192,76464,1,8,0:0:0:0:
42,192,76690,1,2,0:0:0:0:
128,192,77028,1,0,0:0:0:0:
213,192,77367,1,8,0:0:0:0:
384,192,77592,1,2,0:0:0:0:
384,192,77931,1,0,0:0:0:0:
384,192,78269,1,8,0:0:0:0:
384,192,78607,1,2,0:0:0:0:
42,192,78946,1,2,0:0:0:0:
213,192,79171,1,8,0:0:0:0:
469,192,79397,1,2,0:0:0:0:
384,192,79622,1,8,0:0:0:0:
42,192,79848,1,2,0:0:0:0:
128,192,80073,1,8,0:0:0:0:
384,192,80299,1,2,0:0:0:0:
298,192,80525,1,8,0:0:0:0:
128,192,80750,1,2,0:0:0:0:
213,192,80976,1,8,0:0:0:0:
469,192,81201,1,2,0:0:0:0:
384,192,81540,1,0,0:0:0:0:
298,192,81878,1,8,0:0:0:0:
213,192,82216,1,2,0:0:0:0:
42,192,82555,1,2,0:0:0:0:
469,192,82780,1,8,0:0:0:0:
42,192,83006,1,2,0:0:0:0:
213,192,83344,1,0,0:0:0:0:
42,192,83682,1,8,0:0:0:0:
213,192,84021,1,2,0:0:0:0:
128,192,84359,1,2,0:0:0:0:
42,192,84585,1,8,0:0:0:0:
469,192,84810,1,2,0:0:0:0:
298,192,85149,1,0,0:0:0:0:
469,192,85487,1,8,0:0:0:0:
298,192,85825,1,2,0:0:0:0:
384,192,86164,1,2,0:0:0:0:
469,192,86389,1,8,0:0:0:0:
128,192,86615,1,2,0:0:0:0:
384,192,86953,1,0,0:0:0:0:
128,192,87291,1,8,0:0:0:0:
384,192,87630,1,2,0:0:0:0:
42,192,87968,1,2,0:0:0:0:
213,192,88194,1,8,0:0:0:0:
384,192,88419,1,2,0:0:0:0:
469,192,88419,1,4,0:0:0:0:
384,192,88870,1,2,0:0:0:0:
469,192,88870,1,4,0:0:0:0:
42,192,89322,1,4,0:0:0:0:
128,192,89322,1,2,0:0:0:0:
213,192,89773,1,2,0:0:0:0:
298,192,89773,1,4,0:0:0:0:
42,192,90224,1,6,0:0:0:0:
128,192,90562,1,0,0:0:0:0:
213,192,90900,1,8,0:0:0:0:
298,192,91239,1,2,0:0:0:0:
384,192,91577,1,2,0:0:0:0:
213,192,91803,1,8,0:0:0:0:
469,192,92028,1,2,0:0:0:0:
384,192,92367,1,0,0:0:0:0:
298,192,92705,1,8,0:0:0:0:
213,192,93043,1,2,0:0:0:0:
42,192,93382,1,2,0:0:0:0:
298,192,93607,1,8,0:0:0:0:
469,192,93833,1,2,0:0:0:0:
128,192,94058,1,8,0:0:0:0:
469,192,94284,1,2,0:0:0:0:
128,192,94510,1,8,0:0:0:0:
384,192,94735,1,2,0:0:0:0:
42,192,94961,1,8,0:0:0:0:
384,192,95186,1,2,0:0:0:0:
42,192,95412,1,8,0:0:0:0:
298,192,95637,1,2,0:0:0:0:
213,192,95863,1,8,0:0:0:0:
128,192,96088,1,2,0:0:0:0:
42,192,96314,1,8,0:0:0:0:
384,192,96540,1,2,0:0:0:0:
298,192,96765,1,8,0:0:0:0:
213,192,96991,1,2,0:0:0:0:
128,192,97216,1,8,0:0:0:0:
42,192,97442,1,2,0:0:0:0:
298,192,97780,1,0,0:0:0:0:
42,192,98119,1,8,0:0:0:0:
298,192,98457,1,2,0:0:0:0:
42,192,98795,1,2,0:0:0:0:
213,192,99021,1,8,0:0:0:0:
384,192,99246,1,2,0:0:0:0:
128,192,99585,1,0,0:0:0:0:
384,192,99923,1,8,0:0:0:0:
128,192,100261,1,2,0:0:0:0:
384,192,100600,1,2,0:0:0:0:
213,192,100825,1,8,0:0:0:0:
42,192,101051,1,2,0:0:0:0:
469,192,101389,1,0,0:0:0:0:
42,192,101728,1,8,0:0:0:0:
469,192,102066,1,2,0:0:0:0:
42,192,102404,1,2,0:0:0:0:
213,192,102630,1,8,0:0:0:0:
384,192,102855,1,2,0:0:0:0:
469,192,102855,1,4,0:0:0:0:
384,192,103307,1,2,0:0:0:0:
469,192,103307,1,4,0:0:0:0:
42,192,103758,1,4,0:0:0:0:
128,192,103758,1,2,0:0:0:0:
213,192,104209,1,2,0:0:0:0:
298,192,104209,1,4,0:0:0:0:
42,192,104660,1,6,0:0:0:0:
213,192,104885,1,8,0:0:0:0:
384,192,105111,1,2,0:0:0:0:
213,192,105337,1,8,0:0:0:0:
384,192,105788,1,8,0:0:0:0:
213,192,106013,1,2,0:0:0:0:
384,192,106239,1,8,0:0:0:0:
128,192,106690,1,8,0:0:0:0:
298,192,106916,1,2,0:0:0:0:
128,192,107141,1,8,0:0:0:0:
298,192,107592,1,8,0:0:0:0:
128,192,107818,1,2,0:0:0:0:
298,192,108043,1,8,0:0:0:0:
42,192,108494,1,8,0:0:0:0:
469,192,108720,1,2,0:0:0:0:
42,192,108946,1,8,0:0:0:0:
469,192,109397,1,8,0:0:0:0:
42,192,109622,1,2,0:0:0:0:
469,192,109848,1,8,0:0:0:0:
298,192,110299,1,8,0:0:0:0:
213,192,110525,1,2,0:0:0:0:
298,192,110750,1,8,0:0:0:0:
42,192,110976,1,2,0:0:0:0:
128,192,111201,1,8,0:0:0:0:
213,192,111427,1,10,0:0:0:0:
298,192,111652,1,8,0:0:0:0:
384,192,111878,128,0,113457:0:0:0:0:
128,192,112555,128,14,113457:0:0:0:0:
