osu file format v14

[General]
AudioFilename: fffff.MP3
AudioLeadIn: 0
PreviewTime:24331
Countdown: 0
SampleSet: Normal
StackLeniency: 0
Mode: 1
LetterboxInBreaks: 0
WidescreenStoryboard: 1

[Editor]
Bookmarks: 9021,24359,53231,61352,75788,104660
DistanceSpacing: 2
BeatDivisor: 4
GridSize: 32
TimelineZoom: 1.900001

[Metadata]
Title:fffff op.2
TitleUnicode:ƒƒƒƒƒ op.2
Artist:Five Hammer
ArtistUnicode:Five Hammer
Creator:Hivie
Version:Kantan
Source:pop'n music 17 THE MOVIE
Tags:genjuro カーニバル infilect popn popnmusic pop n music o2jam hard pf+ grand hammer video game instrumental piano Seiya Murai Forte fortissississimo fortissimo fortississimo electronic
BeatmapID:4251441
BeatmapSetID:1741132

[Difficulty]
HPDrainRate:8
CircleSize:2
OverallDifficulty:3
ApproachRate:10
SliderMultiplier:1.1
SliderTickRate:1

[Events]
//Background and Video events
0,0,"background.jpg",0,40
//Break Periods
//Storyboard Layer 0 (Background)
//Storyboard Layer 1 (Fail)
//Storyboard Layer 2 (Pass)
//Storyboard Layer 3 (Foreground)
//Storyboard Layer 4 (Overlay)
//Storyboard Sound Samples

[TimingPoints]
901,225.563909774436,4,1,0,90,1,0

[HitObjects]
256,192,901,5,0,0:0:0:0:
256,192,1352,1,0,0:0:0:0:
256,192,1577,1,8,0:0:0:0:
256,192,1803,1,0,0:0:0:0:
256,192,2028,1,8,0:0:0:0:
256,192,2254,1,0,0:0:0:0:
256,192,2705,1,8,0:0:0:0:
256,192,3156,1,8,0:0:0:0:
256,192,3382,1,8,0:0:0:0:
256,192,3607,1,0,0:0:0:0:
256,192,4510,1,0,0:0:0:0:
256,192,4961,1,8,0:0:0:0:
256,192,5186,1,0,0:0:0:0:
256,192,5412,1,8,0:0:0:0:
256,192,5637,1,8,0:0:0:0:
256,192,5863,1,0,0:0:0:0:
256,192,6314,1,0,0:0:0:0:
256,192,6765,1,8,0:0:0:0:
256,192,6991,1,8,0:0:0:0:
256,192,7216,1,0,0:0:0:0:
256,192,7667,1,8,0:0:0:0:
256,192,7893,1,8,0:0:0:0:
256,192,9021,1,0,0:0:0:0:
256,192,9472,1,8,0:0:0:0:
256,192,9923,1,8,0:0:0:0:
256,192,10149,1,8,0:0:0:0:
256,192,10374,1,0,0:0:0:0:
256,192,10825,1,0,0:0:0:0:
256,192,11051,1,0,0:0:0:0:
256,192,11276,1,8,0:0:0:0:
256,192,11728,1,0,0:0:0:0:
256,192,12630,1,0,0:0:0:0:
256,192,13081,1,8,0:0:0:0:
256,192,13532,1,8,0:0:0:0:
256,192,13758,1,0,0:0:0:0:
256,192,13983,1,8,0:0:0:0:
256,192,14434,1,0,0:0:0:0:
256,192,14660,1,8,0:0:0:0:
256,192,14885,1,0,0:0:0:0:
256,192,15337,1,8,0:0:0:0:
256,192,16239,1,0,0:0:0:0:
256,192,16464,1,0,0:0:0:0:
256,192,16690,1,8,0:0:0:0:
256,192,16916,1,0,0:0:0:0:
256,192,17141,1,8,0:0:0:0:
256,192,17592,1,0,0:0:0:0:
256,192,18043,1,8,0:0:0:0:
256,192,18269,1,8,0:0:0:0:
256,192,18494,1,0,0:0:0:0:
256,192,18720,1,8,0:0:0:0:
256,192,18946,1,0,0:0:0:0:
256,192,19848,1,0,0:0:0:0:
256,192,20073,1,0,0:0:0:0:
256,192,20299,1,8,0:0:0:0:
256,192,20525,1,8,0:0:0:0:
256,192,20750,1,0,0:0:0:0:
256,192,21201,1,0,0:0:0:0:
256,192,21652,1,8,0:0:0:0:
256,192,21878,1,8,0:0:0:0:
256,192,22104,1,0,0:0:0:0:
256,192,22555,1,12,0:0:0:0:
256,192,22893,1,12,0:0:0:0:
256,192,23231,1,4,0:0:0:0:
256,192,24359,1,8,0:0:0:0:
256,192,24810,1,0,0:0:0:0:
256,192,25261,1,8,0:0:0:0:
256,192,25600,1,8,0:0:0:0:
256,192,26164,1,8,0:0:0:0:
256,192,26389,1,8,0:0:0:0:
256,192,26615,1,0,0:0:0:0:
256,192,26840,1,0,0:0:0:0:
256,192,27066,1,8,0:0:0:0:
256,192,27404,1,8,0:0:0:0:
256,192,28194,1,8,0:0:0:0:
256,192,28419,1,8,0:0:0:0:
256,192,28645,1,0,0:0:0:0:
256,192,28870,1,8,0:0:0:0:
256,192,29209,1,0,0:0:0:0:
256,192,29773,1,8,0:0:0:0:
256,192,30224,1,8,0:0:0:0:
256,192,30675,1,8,0:0:0:0:
256,192,31577,1,4,0:0:0:0:
256,192,32028,1,8,0:0:0:0:
256,192,32254,1,0,0:0:0:0:
256,192,32479,1,8,0:0:0:0:
256,192,32818,1,8,0:0:0:0:
256,192,33382,1,8,0:0:0:0:
256,192,33607,1,8,0:0:0:0:
256,192,33833,1,8,0:0:0:0:
256,192,34058,1,0,0:0:0:0:
256,192,34284,1,8,0:0:0:0:
256,192,34622,1,8,0:0:0:0:
256,192,35412,1,8,0:0:0:0:
256,192,35637,1,8,0:0:0:0:
256,192,35863,1,0,0:0:0:0:
256,192,36088,1,8,0:0:0:0:
256,192,36427,1,8,0:0:0:0:
256,192,36765,1,0,0:0:0:0:
256,192,36991,1,8,0:0:0:0:
256,192,37667,1,0,0:0:0:0:
256,192,38119,1,8,0:0:0:0:
256,192,38795,1,0,0:0:0:0:
256,192,39246,1,0,0:0:0:0:
256,192,39697,1,8,0:0:0:0:
256,192,40036,1,8,0:0:0:0:
256,192,40374,1,0,0:0:0:0:
256,192,40825,1,12,0:0:0:0:
256,192,41276,1,12,0:0:0:0:
256,192,41728,1,12,0:0:0:0:
256,192,42404,1,0,0:0:0:0:
256,192,42855,1,0,0:0:0:0:
256,192,43306,1,8,0:0:0:0:
256,192,43645,1,8,0:0:0:0:
256,192,43983,1,0,0:0:0:0:
256,192,44434,1,12,0:0:0:0:
256,192,44885,1,12,0:0:0:0:
256,192,45337,1,12,0:0:0:0:
256,192,46013,1,0,0:0:0:0:
256,192,46464,1,8,0:0:0:0:
256,192,46915,1,8,0:0:0:0:
256,192,47254,1,8,0:0:0:0:
256,192,47592,1,0,0:0:0:0:
256,192,48043,1,12,0:0:0:0:
256,192,48494,1,12,0:0:0:0:
256,192,48946,1,12,0:0:0:0:
256,192,49622,1,0,0:0:0:0:
256,192,50073,1,8,0:0:0:0:
256,192,50525,1,8,0:0:0:0:
256,192,50863,1,8,0:0:0:0:
256,192,51427,1,8,0:0:0:0:
256,192,51765,1,8,0:0:0:0:
256,192,52329,1,0,0:0:0:0:
256,192,53231,1,0,0:0:0:0:
256,192,53682,1,0,0:0:0:0:
256,192,53907,1,8,0:0:0:0:
256,192,54133,1,0,0:0:0:0:
256,192,54358,1,8,0:0:0:0:
256,192,54584,1,0,0:0:0:0:
256,192,55035,1,8,0:0:0:0:
256,192,55486,1,8,0:0:0:0:
256,192,55712,1,8,0:0:0:0:
256,192,55937,1,0,0:0:0:0:
256,192,56840,1,0,0:0:0:0:
256,192,57291,1,8,0:0:0:0:
256,192,57516,1,0,0:0:0:0:
256,192,57742,1,8,0:0:0:0:
256,192,57967,1,8,0:0:0:0:
256,192,58193,1,0,0:0:0:0:
256,192,58644,1,0,0:0:0:0:
256,192,59095,1,8,0:0:0:0:
256,192,59321,1,8,0:0:0:0:
256,192,59546,1,0,0:0:0:0:
256,192,59997,1,8,0:0:0:0:
256,192,60223,1,8,0:0:0:0:
256,192,61352,1,4,0:0:0:0:
256,192,61803,1,8,0:0:0:0:
256,192,62141,1,0,0:0:0:0:
256,192,62367,1,0,0:0:0:0:
256,192,62592,1,8,0:0:0:0:
256,192,63156,1,8,0:0:0:0:
256,192,63720,1,0,0:0:0:0:
256,192,64058,1,8,0:0:0:0:
256,192,64284,1,0,0:0:0:0:
256,192,64510,1,8,0:0:0:0:
256,192,64961,1,0,0:0:0:0:
256,192,65299,1,8,0:0:0:0:
256,192,65637,1,0,0:0:0:0:
256,192,65863,1,8,0:0:0:0:
256,192,66201,1,8,0:0:0:0:
256,192,66765,1,0,0:0:0:0:
256,192,67104,1,8,0:0:0:0:
256,192,67442,1,0,0:0:0:0:
256,192,67667,1,8,0:0:0:0:
256,192,68570,1,8,0:0:0:0:
256,192,69021,1,8,0:0:0:0:
256,192,69472,1,0,0:0:0:0:
256,192,69697,1,0,0:0:0:0:
256,192,69923,1,8,0:0:0:0:
256,192,70374,1,0,0:0:0:0:
256,192,70825,1,8,0:0:0:0:
256,192,71276,1,0,0:0:0:0:
256,192,72179,1,8,0:0:0:0:
256,192,72630,1,8,0:0:0:0:
256,192,73081,1,0,0:0:0:0:
256,192,73306,1,8,0:0:0:0:
256,192,73532,1,0,0:0:0:0:
256,192,73983,1,12,0:0:0:0:
256,192,74434,1,12,0:0:0:0:
256,192,74885,1,12,0:0:0:0:
256,192,75337,1,12,0:0:0:0:
256,192,75788,1,4,0:0:0:0:
256,192,76464,1,0,0:0:0:0:
256,192,76690,1,8,0:0:0:0:
256,192,77028,1,8,0:0:0:0:
256,192,77592,1,8,0:0:0:0:
256,192,77931,1,8,0:0:0:0:
256,192,78269,1,8,0:0:0:0:
256,192,78607,1,8,0:0:0:0:
256,192,78946,1,0,0:0:0:0:
256,192,79397,1,8,0:0:0:0:
256,192,79622,1,8,0:0:0:0:
256,192,79848,1,8,0:0:0:0:
256,192,80073,1,8,0:0:0:0:
256,192,80299,1,0,0:0:0:0:
256,192,81201,1,8,0:0:0:0:
256,192,81540,1,0,0:0:0:0:
256,192,81878,1,0,0:0:0:0:
256,192,82216,1,0,0:0:0:0:
256,192,82555,1,8,0:0:0:0:
256,192,83006,1,8,0:0:0:0:
256,192,83344,1,8,0:0:0:0:
256,192,83682,1,0,0:0:0:0:
256,192,84359,1,8,0:0:0:0:
256,192,84810,1,0,0:0:0:0:
256,192,85149,1,8,0:0:0:0:
256,192,85487,1,0,0:0:0:0:
256,192,85825,1,8,0:0:0:0:
256,192,86164,1,0,0:0:0:0:
256,192,86615,1,8,0:0:0:0:
256,192,86953,1,8,0:0:0:0:
256,192,87291,1,0,0:0:0:0:
256,192,87968,1,0,0:0:0:0:
256,192,88419,1,12,0:0:0:0:
256,192,88870,1,12,0:0:0:0:
256,192,89322,1,12,0:0:0:0:
256,192,89773,1,12,0:0:0:0:
256,192,90224,1,4,0:0:0:0:
256,192,90900,1,8,0:0:0:0:
256,192,91126,1,0,0:0:0:0:
256,192,91577,1,8,0:0:0:0:
256,192,92028,1,8,0:0:0:0:
256,192,92367,1,8,0:0:0:0:
256,192,92705,1,8,0:0:0:0:
256,192,93382,1,0,0:0:0:0:
256,192,93833,1,8,0:0:0:0:
256,192,94284,1,0,0:0:0:0:
256,192,94510,1,0,0:0:0:0:
256,192,94735,1,8,0:0:0:0:
256,192,95186,1,8,0:0:0:0:
256,192,95637,1,0,0:0:0:0:
256,192,95863,1,8,0:0:0:0:
256,192,96088,1,0,0:0:0:0:
256,192,96540,1,8,0:0:0:0:
256,192,97442,1,8,0:0:0:0:
256,192,97781,1,0,0:0:0:0:
256,192,98119,1,0,0:0:0:0:
256,192,98457,1,0,0:0:0:0:
256,192,98796,1,8,0:0:0:0:
256,192,99247,1,8,0:0:0:0:
256,192,99585,1,8,0:0:0:0:
256,192,99923,1,0,0:0:0:0:
256,192,100600,1,8,0:0:0:0:
256,192,101051,1,0,0:0:0:0:
256,192,101390,1,8,0:0:0:0:
256,192,101728,1,0,0:0:0:0:
256,192,102066,1,8,0:0:0:0:
256,192,102405,1,0,0:0:0:0:
256,192,102855,1,12,0:0:0:0:
256,192,103307,1,12,0:0:0:0:
256,192,103758,1,12,0:0:0:0:
256,192,104209,1,12,0:0:0:0:
256,192,104660,1,0,0:0:0:0:
256,192,105111,1,0,0:0:0:0:
256,192,105337,1,8,0:0:0:0:
256,192,105562,1,0,0:0:0:0:
256,192,105787,1,8,0:0:0:0:
256,192,106013,1,0,0:0:0:0:
256,192,106464,1,8,0:0:0:0:
256,192,106915,1,8,0:0:0:0:
256,192,107141,1,8,0:0:0:0:
256,192,107366,1,0,0:0:0:0:
256,192,108269,1,0,0:0:0:0:
256,192,108720,1,8,0:0:0:0:
256,192,108945,1,0,0:0:0:0:
256,192,109171,1,8,0:0:0:0:
256,192,109396,1,8,0:0:0:0:
256,192,109622,1,0,0:0:0:0:
256,192,110073,1,0,0:0:0:0:
256,192,110524,1,8,0:0:0:0:
256,192,110750,1,8,0:0:0:0:
256,192,110975,1,0,0:0:0:0:
256,192,111426,1,8,0:0:0:0:
256,192,111652,1,8,0:0:0:0:
256,192,112555,1,12,0:0:0:0:
