osu file format v14

[General]
AudioFilename: audio.mp3
AudioLeadIn: 0
PreviewTime: 8122
Countdown: 0
SampleSet: None
StackLeniency: 0.7
Mode: 3
LetterboxInBreaks: 0
SpecialStyle: 1
WidescreenStoryboard: 0

[Editor]
DistanceSpacing: 0.8
BeatDivisor: 4
GridSize: 32
TimelineZoom: 1.9

[Metadata]
Title:fffff
TitleUnicode:ƒƒƒƒƒ
Artist:Five Hammer
ArtistUnicode:Five Hammer
Creator:stryver12
Version:Mezzo-piano
Source:pop'n music 13 カーニバル
Tags:forte fortississississimo HARD Pf beatmania IIDX
BeatmapID:1081450
BeatmapSetID:508260

[Difficulty]
HPDrainRate:8
CircleSize:8
OverallDifficulty:8.5
ApproachRate:5
SliderMultiplier:1.4
SliderTickRate:1

[Events]
//Background and Video events
0,0,"colorful-piano-art.jpg",0,0
//Break Periods
//Storyboard Layer 0 (Background)
//Storyboard Layer 1 (Fail)
//Storyboard Layer 2 (Pass)
//Storyboard Layer 3 (Foreground)
//Storyboard Sound Samples

[TimingPoints]
1166,434.782608695652,4,2,0,20,1,0
8122,-100,4,2,0,20,0,1
35079,-100,4,2,0,20,0,0

[HitObjects]
96,192,1166,5,0,0:0:0:0:
416,192,1383,1,0,0:0:0:0:
416,192,1818,5,0,0:0:0:0:
416,192,2252,1,0,0:0:0:0:
416,192,2687,1,0,0:0:0:0:
160,192,2905,1,0,0:0:0:0:
352,192,3122,1,0,0:0:0:0:
352,192,3557,1,0,0:0:0:0:
352,192,3992,1,0,0:0:0:0:
160,192,4426,1,0,0:0:0:0:
416,192,4426,1,0,0:0:0:0:
96,192,4644,1,0,0:0:0:0:
224,192,4752,1,0,0:0:0:0:
352,192,4861,1,0,0:0:0:0:
96,192,4970,1,0,0:0:0:0:
480,192,5079,1,0,0:0:0:0:
352,192,5187,1,0,0:0:0:0:
224,192,5296,1,0,0:0:0:0:
480,192,5405,1,0,0:0:0:0:
96,192,5513,1,0,0:0:0:0:
224,192,5622,1,0,0:0:0:0:
352,192,5731,1,0,0:0:0:0:
96,192,5839,1,0,0:0:0:0:
480,192,5948,1,0,0:0:0:0:
352,192,6057,1,0,0:0:0:0:
224,192,6165,1,0,0:0:0:0:
480,192,6274,1,0,0:0:0:0:
96,192,6383,1,0,0:0:0:0:
224,192,6492,1,0,0:0:0:0:
352,192,6600,1,0,0:0:0:0:
160,192,6709,1,0,0:0:0:0:
480,192,6818,1,0,0:0:0:0:
352,192,6926,1,0,0:0:0:0:
224,192,7035,1,0,0:0:0:0:
416,192,7144,1,0,0:0:0:0:
96,192,7252,1,0,0:0:0:0:
32,192,7252,1,0,0:0:0:0:
160,192,7361,1,0,0:0:0:0:
224,192,7470,1,0,0:0:0:0:
96,192,7579,1,0,0:0:0:0:
480,192,7687,1,0,0:0:0:0:
416,192,7796,1,0,0:0:0:0:
352,192,7905,1,0,0:0:0:0:
480,192,8013,1,0,0:0:0:0:
32,192,8122,1,0,0:0:0:0:
224,192,8122,1,0,0:0:0:0:
96,192,8122,1,0,0:0:0:0:
96,192,8339,1,0,0:0:0:0:
352,192,8339,1,0,0:0:0:0:
224,192,8557,1,0,0:0:0:0:
224,192,8774,1,0,0:0:0:0:
480,192,8774,1,0,0:0:0:0:
352,192,8992,1,0,0:0:0:0:
352,192,9209,1,0,0:0:0:0:
224,192,9209,1,0,0:0:0:0:
160,192,9426,1,0,0:0:0:0:
160,192,9644,1,0,0:0:0:0:
416,192,9644,1,0,0:0:0:0:
288,192,9861,1,0,0:0:0:0:
288,192,10079,1,0,0:0:0:0:
160,192,10079,1,0,0:0:0:0:
416,192,10296,1,0,0:0:0:0:
416,192,10513,5,0,0:0:0:0:
160,192,10513,1,0,0:0:0:0:
352,192,10731,1,0,0:0:0:0:
352,192,10948,1,0,0:0:0:0:
480,192,10948,1,0,0:0:0:0:
224,192,11165,1,0,0:0:0:0:
224,192,11383,1,0,0:0:0:0:
352,192,11383,1,0,0:0:0:0:
480,192,11600,1,0,0:0:0:0:
480,192,11818,1,0,0:0:0:0:
96,192,11818,1,0,0:0:0:0:
352,192,12035,1,0,0:0:0:0:
352,192,12252,1,0,0:0:0:0:
224,192,12252,1,0,0:0:0:0:
288,192,12470,1,0,0:0:0:0:
288,192,12687,1,0,0:0:0:0:
416,192,12687,1,0,0:0:0:0:
160,192,12905,1,0,0:0:0:0:
160,192,13122,1,0,0:0:0:0:
288,192,13122,1,0,0:0:0:0:
416,192,13339,1,0,0:0:0:0:
416,192,13557,1,0,0:0:0:0:
160,192,13557,1,0,0:0:0:0:
288,192,13774,1,0,0:0:0:0:
288,192,13992,1,0,0:0:0:0:
416,192,13992,1,0,0:0:0:0:
224,192,14209,1,0,0:0:0:0:
224,192,14426,1,0,0:0:0:0:
352,192,14426,1,0,0:0:0:0:
160,192,14644,1,0,0:0:0:0:
160,192,14861,1,0,0:0:0:0:
288,192,14861,1,0,0:0:0:0:
96,192,15079,1,0,0:0:0:0:
96,192,15296,1,0,0:0:0:0:
352,192,15296,1,0,0:0:0:0:
224,192,15513,1,0,0:0:0:0:
224,192,15731,1,0,0:0:0:0:
480,192,15731,1,0,0:0:0:0:
352,192,15948,1,0,0:0:0:0:
352,192,16165,1,0,0:0:0:0:
224,192,16165,1,0,0:0:0:0:
160,192,16383,1,0,0:0:0:0:
160,192,16600,1,0,0:0:0:0:
416,192,16600,1,0,0:0:0:0:
288,192,16818,1,0,0:0:0:0:
288,192,17035,1,0,0:0:0:0:
160,192,17035,1,0,0:0:0:0:
416,192,17252,1,0,0:0:0:0:
416,192,17470,1,0,0:0:0:0:
160,192,17470,1,0,0:0:0:0:
352,192,17687,1,0,0:0:0:0:
352,192,17905,1,0,0:0:0:0:
480,192,17905,1,0,0:0:0:0:
224,192,18122,1,0,0:0:0:0:
224,192,18339,1,0,0:0:0:0:
352,192,18339,1,0,0:0:0:0:
480,192,18557,1,0,0:0:0:0:
480,192,18774,1,0,0:0:0:0:
96,192,18774,1,0,0:0:0:0:
352,192,18992,1,0,0:0:0:0:
352,192,19209,1,0,0:0:0:0:
224,192,19209,1,0,0:0:0:0:
288,192,19426,1,0,0:0:0:0:
288,192,19644,1,0,0:0:0:0:
416,192,19644,1,0,0:0:0:0:
160,192,19861,1,0,0:0:0:0:
160,192,20079,1,0,0:0:0:0:
288,192,20079,1,0,0:0:0:0:
416,192,20296,1,0,0:0:0:0:
416,192,20513,1,0,0:0:0:0:
160,192,20513,1,0,0:0:0:0:
416,192,20731,1,0,0:0:0:0:
416,192,20948,1,0,0:0:0:0:
160,192,20948,1,0,0:0:0:0:
224,192,21165,1,0,0:0:0:0:
224,192,21383,1,0,0:0:0:0:
352,192,21383,1,0,0:0:0:0:
224,192,21600,1,0,0:0:0:0:
224,192,21818,1,0,0:0:0:0:
352,192,21818,1,0,0:0:0:0:
32,192,22035,1,0,0:0:0:0:
96,192,22035,1,0,0:0:0:0:
96,192,22252,5,0,0:0:0:0:
480,192,22252,1,0,0:0:0:0:
224,192,22470,1,0,0:0:0:0:
352,192,22470,1,0,0:0:0:0:
224,192,22687,1,0,0:0:0:0:
480,192,22687,1,0,0:0:0:0:
352,192,22905,1,0,0:0:0:0:
352,192,23122,1,0,0:0:0:0:
224,192,23122,1,0,0:0:0:0:
160,192,23339,1,0,0:0:0:0:
288,192,23339,1,0,0:0:0:0:
160,192,23557,1,0,0:0:0:0:
416,192,23557,1,0,0:0:0:0:
288,192,23774,1,0,0:0:0:0:
288,192,23992,1,0,0:0:0:0:
96,192,23992,1,0,0:0:0:0:
416,192,24209,1,0,0:0:0:0:
224,192,24209,1,0,0:0:0:0:
416,192,24426,1,0,0:0:0:0:
96,192,24426,1,0,0:0:0:0:
352,192,24644,1,0,0:0:0:0:
352,192,24861,1,0,0:0:0:0:
96,192,24861,1,0,0:0:0:0:
224,192,25079,1,0,0:0:0:0:
480,192,25079,1,0,0:0:0:0:
224,192,25296,1,0,0:0:0:0:
352,192,25296,1,0,0:0:0:0:
480,192,25513,1,0,0:0:0:0:
480,192,25731,1,0,0:0:0:0:
160,192,25731,1,0,0:0:0:0:
288,192,25948,1,0,0:0:0:0:
416,192,25948,1,0,0:0:0:0:
416,192,26165,1,0,0:0:0:0:
160,192,26165,1,0,0:0:0:0:
352,192,26383,1,0,0:0:0:0:
352,192,26600,1,0,0:0:0:0:
480,192,26600,1,0,0:0:0:0:
416,192,26818,1,0,0:0:0:0:
288,192,26818,1,0,0:0:0:0:
288,192,27035,1,0,0:0:0:0:
160,192,27035,1,0,0:0:0:0:
416,192,27252,1,0,0:0:0:0:
416,192,27470,1,0,0:0:0:0:
288,192,27470,1,0,0:0:0:0:
352,192,27687,1,0,0:0:0:0:
224,192,27687,1,0,0:0:0:0:
352,192,27905,1,0,0:0:0:0:
480,192,27905,1,0,0:0:0:0:
288,192,28122,1,0,0:0:0:0:
288,192,28339,1,0,0:0:0:0:
416,192,28339,1,0,0:0:0:0:
224,192,28557,1,0,0:0:0:0:
224,192,28774,1,0,0:0:0:0:
352,192,28774,1,0,0:0:0:0:
96,192,28992,1,0,0:0:0:0:
96,192,29209,1,0,0:0:0:0:
480,192,29209,1,0,0:0:0:0:
224,192,29426,1,0,0:0:0:0:
352,192,29426,1,0,0:0:0:0:
224,192,29644,1,0,0:0:0:0:
480,192,29644,1,0,0:0:0:0:
352,192,29861,1,0,0:0:0:0:
352,192,30079,1,0,0:0:0:0:
224,192,30079,1,0,0:0:0:0:
160,192,30296,1,0,0:0:0:0:
288,192,30296,1,0,0:0:0:0:
160,192,30513,1,0,0:0:0:0:
416,192,30513,1,0,0:0:0:0:
288,192,30731,1,0,0:0:0:0:
288,192,30948,1,0,0:0:0:0:
96,192,30948,1,0,0:0:0:0:
416,192,31165,1,0,0:0:0:0:
224,192,31165,1,0,0:0:0:0:
416,192,31383,1,0,0:0:0:0:
96,192,31383,1,0,0:0:0:0:
352,192,31600,1,0,0:0:0:0:
352,192,31818,1,0,0:0:0:0:
96,192,31818,1,0,0:0:0:0:
224,192,32035,1,0,0:0:0:0:
480,192,32035,1,0,0:0:0:0:
224,192,32252,1,0,0:0:0:0:
352,192,32252,1,0,0:0:0:0:
480,192,32470,1,0,0:0:0:0:
480,192,32687,1,0,0:0:0:0:
160,192,32687,1,0,0:0:0:0:
288,192,32905,1,0,0:0:0:0:
416,192,32905,1,0,0:0:0:0:
416,192,33122,1,0,0:0:0:0:
160,192,33122,1,0,0:0:0:0:
352,192,33339,1,0,0:0:0:0:
352,192,33557,1,0,0:0:0:0:
480,192,33557,1,0,0:0:0:0:
416,192,33774,1,0,0:0:0:0:
288,192,33774,1,0,0:0:0:0:
288,192,33992,1,0,0:0:0:0:
160,192,33992,1,0,0:0:0:0:
352,192,34209,1,0,0:0:0:0:
480,192,34426,1,0,0:0:0:0:
352,192,34426,1,0,0:0:0:0:
224,192,34644,1,0,0:0:0:0:
96,192,34644,1,0,0:0:0:0:
352,192,34861,1,0,0:0:0:0:
224,192,34861,1,0,0:0:0:0:
160,192,35079,1,0,0:0:0:0:
416,192,35079,1,0,0:0:0:0:
160,192,35405,1,0,0:0:0:0:
416,192,35405,1,0,0:0:0:0:
224,192,35731,1,0,0:0:0:0:
352,192,35731,1,0,0:0:0:0:
32,192,35948,1,0,0:0:0:0:
96,192,35948,1,0,0:0:0:0:
480,192,35948,1,0,0:0:0:0:
160,192,36383,1,0,0:0:0:0:
288,192,36818,1,0,0:0:0:0:
416,192,37144,1,0,0:0:0:0:
160,192,37470,1,0,0:0:0:0:
288,192,37687,1,0,0:0:0:0:
288,192,37905,1,0,0:0:0:0:
160,192,38122,1,0,0:0:0:0:
160,192,38339,1,0,0:0:0:0:
288,192,38557,1,0,0:0:0:0:
160,192,38665,1,0,0:0:0:0:
288,192,38774,1,0,0:0:0:0:
416,192,38883,1,0,0:0:0:0:
224,192,39209,1,0,0:0:0:0:
96,192,39426,1,0,0:0:0:0:
160,192,39644,1,0,0:0:0:0:
288,192,39861,1,0,0:0:0:0:
416,192,40079,1,0,0:0:0:0:
480,192,40296,1,0,0:0:0:0:
352,192,40622,1,0,0:0:0:0:
224,192,40948,1,0,0:0:0:0:
416,192,41165,1,0,0:0:0:0:
416,192,41310,1,0,0:0:0:0:
416,192,41455,1,0,0:0:0:0:
160,192,41600,1,0,0:0:0:0:
160,192,41745,1,0,0:0:0:0:
160,192,41890,1,0,0:0:0:0:
352,192,42035,1,0,0:0:0:0:
32,192,42035,1,0,0:0:0:0:
224,192,42361,1,0,0:0:0:0:
96,192,42687,1,0,0:0:0:0:
32,192,42905,1,0,0:0:0:0:
480,192,42905,1,0,0:0:0:0:
288,192,43122,1,0,0:0:0:0:
160,192,43339,1,0,0:0:0:0:
160,192,43557,1,0,0:0:0:0:
288,192,43774,1,0,0:0:0:0:
416,192,44100,1,0,0:0:0:0:
160,192,44426,1,0,0:0:0:0:
288,192,44644,1,0,0:0:0:0:
288,192,44861,1,0,0:0:0:0:
160,192,45079,1,0,0:0:0:0:
160,192,45296,1,0,0:0:0:0:
288,192,45513,1,0,0:0:0:0:
416,192,45839,1,0,0:0:0:0:
224,192,46165,1,0,0:0:0:0:
96,192,46383,1,0,0:0:0:0:
160,192,46600,1,0,0:0:0:0:
288,192,46818,1,0,0:0:0:0:
416,192,47035,1,0,0:0:0:0:
480,192,47252,1,0,0:0:0:0:
352,192,47579,1,0,0:0:0:0:
224,192,47905,1,0,0:0:0:0:
480,192,48122,1,0,0:0:0:0:
480,192,48267,1,0,0:0:0:0:
480,192,48412,1,0,0:0:0:0:
96,192,48557,1,0,0:0:0:0:
288,192,48774,1,0,0:0:0:0:
416,192,48774,1,0,0:0:0:0:
224,192,49209,1,0,0:0:0:0:
352,192,49209,1,0,0:0:0:0:
160,192,49535,1,0,0:0:0:0:
288,192,49535,1,0,0:0:0:0:
96,192,49861,1,0,0:0:0:0:
96,192,50079,1,0,0:0:0:0:
224,192,50296,1,0,0:0:0:0:
224,192,50513,1,0,0:0:0:0:
352,192,50731,1,0,0:0:0:0:
352,192,51057,1,0,0:0:0:0:
352,192,51383,1,0,0:0:0:0:
224,192,51492,1,0,0:0:0:0:
96,192,51600,1,0,0:0:0:0:
480,192,51600,1,0,0:0:0:0:
32,192,51818,1,0,0:0:0:0:
352,192,51926,1,0,0:0:0:0:
352,192,52252,1,0,0:0:0:0:
32,192,52252,1,0,0:0:0:0:
352,192,52470,1,0,0:0:0:0:
32,192,52687,1,0,0:0:0:0:
224,192,52796,1,0,0:0:0:0:
224,192,53122,1,0,0:0:0:0:
32,192,53122,1,0,0:0:0:0:
224,192,53339,1,0,0:0:0:0:
224,192,53557,1,0,0:0:0:0:
352,192,53774,1,0,0:0:0:0:
352,192,53992,1,0,0:0:0:0:
480,192,54209,1,0,0:0:0:0:
480,192,54535,1,0,0:0:0:0:
480,192,54861,1,0,0:0:0:0:
480,192,55079,1,0,0:0:0:0:
96,192,55079,1,0,0:0:0:0:
32,192,55296,1,0,0:0:0:0:
224,192,55405,1,0,0:0:0:0:
224,192,55731,1,0,0:0:0:0:
32,192,55731,1,0,0:0:0:0:
224,192,55948,1,0,0:0:0:0:
32,192,56165,1,0,0:0:0:0:
480,192,56274,1,0,0:0:0:0:
480,192,56600,1,0,0:0:0:0:
32,192,56600,1,0,0:0:0:0:
160,192,56818,1,0,0:0:0:0:
160,192,57035,1,0,0:0:0:0:
288,192,57252,1,0,0:0:0:0:
288,192,57470,1,0,0:0:0:0:
416,192,57687,1,0,0:0:0:0:
416,192,58013,1,0,0:0:0:0:
160,192,58339,1,0,0:0:0:0:
416,192,58412,1,0,0:0:0:0:
416,192,58557,1,0,0:0:0:0:
416,192,58702,1,0,0:0:0:0:
160,192,58847,1,0,0:0:0:0:
160,192,58992,1,0,0:0:0:0:
160,192,59137,1,0,0:0:0:0:
416,192,59281,1,0,0:0:0:0:
416,192,59426,1,0,0:0:0:0:
352,192,59644,1,0,0:0:0:0:
32,192,59644,1,0,0:0:0:0:
224,192,59861,1,0,0:0:0:0:
96,192,60079,1,0,0:0:0:0:
32,192,60079,1,0,0:0:0:0:
160,192,60296,1,0,0:0:0:0:
160,192,60513,1,0,0:0:0:0:
288,192,60731,1,0,0:0:0:0:
288,192,60948,1,0,0:0:0:0:
416,192,61165,1,0,0:0:0:0:
416,192,61492,1,0,0:0:0:0:
416,192,61818,1,0,0:0:0:0:
416,192,62035,1,0,0:0:0:0:
416,192,62361,1,0,0:0:0:0:
416,192,62687,1,0,0:0:0:0:
480,192,62905,1,0,0:0:0:0:
480,192,63231,1,0,0:0:0:0:
32,192,63339,1,0,0:0:0:0:
32,192,63774,1,0,0:0:0:0:
96,192,63774,1,0,0:0:0:0:
224,192,63774,1,0,0:0:0:0:
416,192,63992,1,0,0:0:0:0:
288,192,64209,1,0,0:0:0:0:
416,192,64426,1,0,0:0:0:0:
480,192,64644,1,0,0:0:0:0:
352,192,64752,1,0,0:0:0:0:
224,192,64970,1,0,0:0:0:0:
160,192,65296,1,0,0:0:0:0:
160,192,65731,1,0,0:0:0:0:
288,192,65839,1,0,0:0:0:0:
416,192,65948,1,0,0:0:0:0:
96,192,66057,1,0,0:0:0:0:
224,192,66274,1,0,0:0:0:0:
352,192,66492,1,0,0:0:0:0:
416,192,66709,1,0,0:0:0:0:
480,192,66981,1,0,0:0:0:0:
224,192,67252,1,0,0:0:0:0:
416,192,67470,1,0,0:0:0:0:
160,192,67579,1,0,0:0:0:0:
288,192,67687,1,0,0:0:0:0:
160,192,67796,1,0,0:0:0:0:
416,192,67905,1,0,0:0:0:0:
288,192,68013,1,0,0:0:0:0:
96,192,68231,1,0,0:0:0:0:
224,192,68339,1,0,0:0:0:0:
352,192,68448,1,0,0:0:0:0:
416,192,68665,1,0,0:0:0:0:
288,192,68774,1,0,0:0:0:0:
160,192,68883,1,0,0:0:0:0:
480,192,68992,1,0,0:0:0:0:
352,192,69100,1,0,0:0:0:0:
288,192,69318,1,0,0:0:0:0:
224,192,69535,1,0,0:0:0:0:
160,192,69752,1,0,0:0:0:0:
96,192,70079,1,0,0:0:0:0:
352,192,70513,1,0,0:0:0:0:
480,192,70731,1,0,0:0:0:0:
288,192,70948,1,0,0:0:0:0:
96,192,71383,1,0,0:0:0:0:
480,192,71383,1,0,0:0:0:0:
224,192,71492,1,0,0:0:0:0:
352,192,71600,1,0,0:0:0:0:
416,192,71818,1,0,0:0:0:0:
160,192,71818,1,0,0:0:0:0:
480,192,71981,1,0,0:0:0:0:
224,192,72144,1,0,0:0:0:0:
352,192,72252,1,0,0:0:0:0:
96,192,72252,1,0,0:0:0:0:
416,192,72361,1,0,0:0:0:0:
480,192,72470,1,0,0:0:0:0:
416,192,72687,1,0,0:0:0:0:
160,192,72796,1,0,0:0:0:0:
96,192,73122,1,0,0:0:0:0:
288,192,73285,1,0,0:0:0:0:
416,192,73339,1,0,0:0:0:0:
160,192,73557,1,0,0:0:0:0:
96,192,73992,1,0,0:0:0:0:
224,192,74155,1,0,0:0:0:0:
352,192,74182,1,0,0:0:0:0:
480,192,74209,1,0,0:0:0:0:
96,192,74426,1,0,0:0:0:0:
480,192,74535,1,0,0:0:0:0:
480,192,74861,1,0,0:0:0:0:
96,192,74861,1,0,0:0:0:0:
288,192,75296,1,0,0:0:0:0:
224,192,75513,1,0,0:0:0:0:
352,192,75513,1,0,0:0:0:0:
160,192,75731,1,0,0:0:0:0:
416,192,75731,1,0,0:0:0:0:
96,192,75948,1,0,0:0:0:0:
480,192,75948,1,0,0:0:0:0:
32,192,75948,1,0,0:0:0:0:
288,192,76383,1,0,0:0:0:0:
416,192,76383,1,0,0:0:0:0:
32,192,76383,1,0,0:0:0:0:
224,192,76818,1,0,0:0:0:0:
352,192,76818,1,0,0:0:0:0:
32,192,76818,1,0,0:0:0:0:
160,192,77252,1,0,0:0:0:0:
288,192,77252,1,0,0:0:0:0:
32,192,77252,1,0,0:0:0:0:
96,192,77687,1,0,0:0:0:0:
32,192,77687,1,0,0:0:0:0:
160,192,77905,1,0,0:0:0:0:
288,192,78013,1,0,0:0:0:0:
352,192,78122,1,0,0:0:0:0:
480,192,78231,1,0,0:0:0:0:
96,192,78339,1,0,0:0:0:0:
224,192,78448,1,0,0:0:0:0:
352,192,78665,1,0,0:0:0:0:
480,192,78883,1,0,0:0:0:0:
288,192,79100,1,0,0:0:0:0:
160,192,79318,1,0,0:0:0:0:
416,192,79426,1,0,0:0:0:0:
416,192,79535,1,0,0:0:0:0:
416,192,79861,1,0,0:0:0:0:
480,192,80079,1,0,0:0:0:0:
160,192,80513,1,0,0:0:0:0:
352,192,80731,1,0,0:0:0:0:
480,192,80803,1,0,0:0:0:0:
224,192,80876,1,0,0:0:0:0:
96,192,80948,1,0,0:0:0:0:
288,192,81165,1,0,0:0:0:0:
416,192,81310,1,0,0:0:0:0:
288,192,81455,1,0,0:0:0:0:
160,192,81600,1,0,0:0:0:0:
352,192,81745,1,0,0:0:0:0:
224,192,81890,1,0,0:0:0:0:
96,192,82035,1,0,0:0:0:0:
224,192,82180,1,0,0:0:0:0:
288,192,82325,1,0,0:0:0:0:
416,192,82470,1,0,0:0:0:0:
480,192,82615,1,0,0:0:0:0:
96,192,82760,1,0,0:0:0:0:
224,192,82905,1,0,0:0:0:0:
96,192,83050,1,0,0:0:0:0:
224,192,83194,1,0,0:0:0:0:
96,192,83339,1,0,0:0:0:0:
288,192,83484,1,0,0:0:0:0:
416,192,83629,1,0,0:0:0:0:
480,192,83774,1,0,0:0:0:0:
352,192,83919,1,0,0:0:0:0:
224,192,84064,1,0,0:0:0:0:
160,192,84426,1,0,0:0:0:0:
416,192,84861,1,0,0:0:0:0:
96,192,85296,1,0,0:0:0:0:
160,192,85405,1,0,0:0:0:0:
288,192,85513,1,0,0:0:0:0:
416,192,85622,1,0,0:0:0:0:
480,192,85731,1,0,0:0:0:0:
352,192,85839,1,0,0:0:0:0:
96,192,85948,1,0,0:0:0:0:
224,192,86093,1,0,0:0:0:0:
288,192,86238,1,0,0:0:0:0:
352,192,86383,1,0,0:0:0:0:
480,192,86528,1,0,0:0:0:0:
96,192,86673,1,0,0:0:0:0:
160,192,86818,1,0,0:0:0:0:
288,192,86963,1,0,0:0:0:0:
352,192,87108,1,0,0:0:0:0:
416,192,87252,1,0,0:0:0:0:
480,192,87470,1,0,0:0:0:0:
224,192,87905,1,0,0:0:0:0:
224,192,88339,1,0,0:0:0:0:
352,192,88557,1,0,0:0:0:0:
480,192,88629,1,0,0:0:0:0:
288,192,88702,1,0,0:0:0:0:
160,192,88774,1,0,0:0:0:0:
96,192,89209,1,0,0:0:0:0:
224,192,89426,1,0,0:0:0:0:
352,192,89644,1,0,0:0:0:0:
32,192,89861,1,0,0:0:0:0:
96,192,89861,1,0,0:0:0:0:
480,192,89861,1,0,0:0:0:0:
32,192,90296,1,0,0:0:0:0:
96,192,90296,1,0,0:0:0:0:
480,192,90296,1,0,0:0:0:0:
32,192,90731,5,0,0:0:0:0:
96,192,90731,1,0,0:0:0:0:
352,192,90731,1,0,0:0:0:0:
32,192,91165,1,0,0:0:0:0:
96,192,91165,1,0,0:0:0:0:
224,192,91165,1,0,0:0:0:0:
32,192,91600,5,0,0:0:0:0:
96,192,91600,1,0,0:0:0:0:
480,192,91600,1,0,0:0:0:0:
96,192,92035,1,0,0:0:0:0:
224,192,92035,1,0,0:0:0:0:
96,192,92470,1,0,0:0:0:0:
96,192,92905,1,0,0:0:0:0:
224,192,92905,1,0,0:0:0:0:
96,192,93339,1,0,0:0:0:0:
96,192,93774,1,0,0:0:0:0:
224,192,93774,1,0,0:0:0:0:
96,192,94209,1,0,0:0:0:0:
96,192,94644,1,0,0:0:0:0:
224,192,94644,1,0,0:0:0:0:
96,192,95079,1,0,0:0:0:0:
416,192,95296,1,0,0:0:0:0:
96,192,95513,1,0,0:0:0:0:
224,192,95513,1,0,0:0:0:0:
416,192,95731,1,0,0:0:0:0:
96,192,95948,1,0,0:0:0:0:
416,192,96165,1,0,0:0:0:0:
96,192,96383,1,0,0:0:0:0:
224,192,96383,1,0,0:0:0:0:
416,192,96600,1,0,0:0:0:0:
96,192,96818,1,0,0:0:0:0:
160,192,96926,1,0,0:0:0:0:
224,192,97035,1,0,0:0:0:0:
96,192,97144,1,0,0:0:0:0:
480,192,97252,1,0,0:0:0:0:
416,192,97361,1,0,0:0:0:0:
352,192,97470,1,0,0:0:0:0:
480,192,97579,1,0,0:0:0:0:
96,192,97687,1,0,0:0:0:0:
160,192,97796,1,0,0:0:0:0:
224,192,97905,1,0,0:0:0:0:
96,192,98013,1,0,0:0:0:0:
480,192,98122,1,0,0:0:0:0:
416,192,98231,1,0,0:0:0:0:
352,192,98339,1,0,0:0:0:0:
480,192,98448,1,0,0:0:0:0:
32,192,99209,1,0,0:0:0:0:
160,192,99209,1,0,0:0:0:0:
416,192,99209,1,0,0:0:0:0:
288,192,99861,5,0,0:0:0:0:
