osu file format v14

[General]
AudioFilename: audio.mp3
AudioLeadIn: 0
PreviewTime: -1
Countdown: 1
SampleSet: Normal
StackLeniency: 0.4
Mode: 0
LetterboxInBreaks: 0
WidescreenStoryboard: 1

[Editor]
Bookmarks: 191330
DistanceSpacing: 1.7
BeatDivisor: 2
GridSize: 4
TimelineZoom: 1.100015

[Metadata]
Title:Handclap
TitleUnicode:Handclap
Artist:Fitz And The Tantrums
ArtistUnicode:Fitz And The Tantrums
Creator:killerwolf741
Version:Insane
Source:
Tags:
BeatmapID:1313916
BeatmapSetID:623399

[Difficulty]
HPDrainRate:6
CircleSize:4
OverallDifficulty:6.2
ApproachRate:9.4
SliderMultiplier:3
SliderTickRate:1

[Events]
//Background and Video events
0,0,"party-dance-stage-wallpapers-wallpaper.jpg",0,0
//Break Periods
2,88259,89687
2,117641,120484
2,127712,141470
//Storyboard Layer 0 (Background)
//Storyboard Layer 1 (Fail)
//Storyboard Layer 2 (Pass)
//Storyboard Layer 3 (Foreground)
//Storyboard Sound Samples

[TimingPoints]
7227.90045592705,428.571428571429,4,1,0,45,1,0
13933,-100,4,1,0,45,0,0
32085,-133.333333333333,4,1,0,45,0,0
32513,-100,4,1,0,45,0,0
62085,441.176470588235,4,1,0,45,1,0
62085,-133.333333333333,4,1,0,45,0,0
65283,-200,4,1,0,45,0,0
65835,-133.333333333333,4,1,0,45,0,0
68812,-200,4,1,0,45,0,0
68923,-200,4,1,0,45,0,0
69585,-100,4,1,0,45,0,0
73445,-133.333333333333,4,1,0,45,0,0
75099,-133.333333333333,4,1,0,45,0,0
86800,-100,4,1,0,45,0,0
88442,-100,4,2,1,5,0,0
89513,-100,4,1,0,68,0,0
90227,428.571428571429,4,1,0,100,1,1
102977,-133.333333333333,4,1,0,100,0,1
103673,-100,4,1,0,100,0,1
103977,-100,4,1,0,80,0,0
127942,-100,4,1,0,80,0,0
141959,-200,4,1,0,80,0,0
142070,441.176470588235,4,1,0,80,1,0
151667,-100,4,1,0,80,0,0
151775,428.571428571429,4,1,0,80,1,0
152647,-100,4,1,0,80,0,0
156080,428.571428571429,4,1,0,80,1,1

[Colours]
Combo1 : 123,4,202
Combo2 : 0,255,255
Combo3 : 97,5,250
Combo4 : 255,0,0

[HitObjects]
184,104,7227,5,0,0:0:0:0:
184,104,7442,1,0,0:0:0:0:
184,104,7656,2,0,P|206:149|311:208,1,150,8|0,0:0|0:0,0:0:0:0:
272,120,8085,1,0,0:0:0:0:
272,120,8299,1,0,0:0:0:0:
272,120,8513,2,0,P|316:192|212:260,1,150,8|0,0:0|0:0,0:0:0:0:
152,184,8942,5,0,0:0:0:0:
272,120,9370,1,8,0:0:0:0:
290,245,9799,1,0,0:0:0:0:
208,236,10013,5,0,0:0:0:0:
328,172,10227,1,8,0:0:0:0:
346,297,10442,1,0,0:0:0:0:
272,104,10656,5,0,0:0:0:0:
144,232,10870,1,0,0:0:0:0:
128,224,11085,2,4,P|80:144|136:72,1,150,12|4,0:0|0:0,0:0:0:0:
192,64,11513,1,0,0:0:0:0:
192,64,11727,1,0,0:0:0:0:
288,128,11942,2,0,P|272:232|192:192,1,150,8|0,0:0|0:0,0:0:0:0:
160,192,12370,5,0,0:0:0:0:
288,128,12585,1,0,0:0:0:0:
249,235,12799,1,8,0:0:0:0:
384,224,13227,5,0,0:0:0:0:
160,224,13442,1,0,0:0:0:0:
384,96,13656,1,8,0:0:0:0:
144,136,13870,1,0,0:0:0:0:
336,160,14085,5,0,0:0:0:0:
352,192,14299,2,0,P|352:256|256:304,1,150
192,288,14727,1,0,0:0:0:0:
160,192,14942,1,0,0:0:0:0:
288,192,15156,5,0,0:0:0:0:
192,288,15370,1,0,0:0:0:0:
160,192,15585,1,0,0:0:0:0:
256,256,15799,2,0,L|408:256,1,150
256,128,16227,6,0,L|96:128,1,150
96,192,16656,1,0,0:0:0:0:
384,192,16870,1,0,0:0:0:0:
256,128,17085,1,8,0:0:0:0:
256,256,17299,1,0,0:0:0:0:
96,192,17513,6,0,L|96:32,1,150
320,224,17942,2,0,L|152:224,1,150
96,128,18370,1,0,0:0:0:0:
256,224,18585,1,0,0:0:0:0:
388,156,18799,5,0,0:0:0:0:
176,160,19013,1,0,0:0:0:0:
416,256,19227,2,0,B|368:288|368:288|264:248,1,150
200,200,19656,2,0,L|72:96,1,150
352,272,20085,1,0,0:0:0:0:
272,64,20299,1,0,0:0:0:0:
176,272,20513,1,0,0:0:0:0:
384,176,20727,1,0,0:0:0:0:
160,176,20942,6,0,L|8:176,1,150
256,80,21370,2,0,L|96:80,1,150
272,272,21799,1,0,0:0:0:0:
448,160,22013,1,0,0:0:0:0:
184,160,22227,1,0,0:0:0:0:
360,160,22442,1,0,0:0:0:0:
256,64,22656,2,0,L|256:224,1,150
256,320,23085,6,0,L|256:160,1,150
352,64,23513,1,0,0:0:0:0:
256,224,23727,1,0,0:0:0:0:
256,32,23942,1,0,0:0:0:0:
256,144,24156,1,0,0:0:0:0:
160,192,24370,6,0,L|216:344,1,150
352,192,24799,2,0,L|296:344,1,150
224,64,25227,2,0,L|112:176,1,150
288,64,25656,2,0,L|392:176,1,150,8|0,0:0|0:0,0:0:0:0:
320,256,26085,5,0,0:0:0:0:
160,192,26299,1,0,0:0:0:0:
372,116,26513,1,0,0:0:0:0:
192,288,26727,1,0,0:0:0:0:
292,84,26942,1,0,0:0:0:0:
192,288,27156,1,0,0:0:0:0:
212,64,27370,1,8,0:0:0:0:
192,288,27585,1,0,0:0:0:0:
292,140,27799,5,0,0:0:0:0:
356,308,28013,1,0,0:0:0:0:
184,260,28227,1,0,0:0:0:0:
356,208,28442,1,0,0:0:0:0:
180,176,28656,5,0,0:0:0:0:
276,328,28870,1,0,0:0:0:0:
232,152,29085,1,0,0:0:0:0:
148,312,29299,5,0,0:0:0:0:
308,228,29513,1,0,0:0:0:0:
148,144,29727,1,0,0:0:0:0:
328,160,29942,1,0,0:0:0:0:
200,288,30156,1,0,0:0:0:0:
156,112,30370,1,0,0:0:0:0:
256,264,30585,1,0,0:0:0:0:
248,84,30799,1,0,0:0:0:0:
144,268,31013,1,0,0:0:0:0:
352,196,31227,6,0,P|192:268|184:268,1,150
160,192,31656,2,0,P|192:128|312:64,1,150
384,128,32085,2,0,B|416:176|416:176|400:272|400:272|304:312,1,225.000008583069
184,296,32727,1,0,0:0:0:0:
256,96,32942,5,8,0:0:0:0:
352,256,33156,1,8,0:0:0:0:
160,160,33370,1,8,0:0:0:0:
352,160,33585,1,8,0:0:0:0:
192,288,33799,1,8,0:0:0:0:
256,96,34013,1,0,0:0:0:0:
256,192,34227,5,12,0:0:0:0:
160,96,34442,6,0,P|96:160|80:248,1,150
144,232,34870,1,0,0:0:0:0:
256,96,35085,1,0,0:0:0:0:
248,312,35299,2,0,B|320:256|320:256|352:176,1,150
160,96,35942,1,0,0:0:0:0:
256,288,36370,5,8,0:0:0:0:
352,128,36584,1,8,0:0:0:0:
160,224,36798,1,8,0:0:0:0:
352,224,37013,1,8,0:0:0:0:
192,96,37227,1,8,0:0:0:0:
256,280,37442,1,0,0:0:0:0:
256,192,37656,5,12,0:0:0:0:
400,144,37870,5,0,0:0:0:0:
352,336,38085,1,0,0:0:0:0:
400,144,38299,2,0,L|256:80,1,150
160,264,38727,1,0,0:0:0:0:
262,83,38942,6,0,P|310:115|286:219,1,150
256,152,39370,2,0,P|200:80|232:32,1,150
384,192,39799,1,0,0:0:0:0:
272,336,40013,1,0,0:0:0:0:
272,336,40120,1,0,0:0:0:0:
272,336,40227,1,0,0:0:0:0:
192,192,40442,1,0,0:0:0:0:
112,344,40656,1,0,0:0:0:0:
192,192,40870,6,0,P|224:112|296:64,1,150,0|8,0:0|0:0,0:0:0:0:
304,272,41299,1,0,0:0:0:0:
144,272,41513,1,0,0:0:0:0:
256,176,41727,2,0,P|224:96|128:96,1,150
128,144,42156,1,0,0:0:0:0:
212,236,42370,2,0,P|276:268|368:256,1,150
392,112,42799,6,0,L|248:152,1,150
400,336,43227,1,0,0:0:0:0:
256,192,43442,1,0,0:0:0:0:
256,192,43549,1,0,0:0:0:0:
256,192,43656,1,0,0:0:0:0:
160,288,43870,1,0,0:0:0:0:
368,288,44085,1,0,0:0:0:0:
256,176,44299,5,0,0:0:0:0:
448,176,44513,1,8,0:0:0:0:
332,56,44727,1,0,0:0:0:0:
160,288,44942,2,0,P|80:320|16:296,1,150
48,208,45370,6,0,P|112:176|200:200,1,150
464,208,45799,2,0,P|400:176|312:192,1,150
208,64,46227,2,0,P|272:64|352:112,1,150,8|0,0:0|0:0,0:0:0:0:
304,320,46656,2,0,P|240:320|160:280,1,150
112,176,46977,1,0,0:0:0:0:
112,176,47085,1,0,0:0:0:0:
304,320,47299,1,0,0:0:0:0:
112,176,47513,1,0,0:0:0:0:
400,176,47727,1,0,0:0:0:0:
128,128,47942,6,0,L|240:16,1,150,8|0,0:0|0:0,0:0:0:0:
384,256,48370,2,0,L|272:360,1,150
384,128,48799,2,0,L|272:24,1,150
128,256,49227,2,0,L|232:368,1,150
256,264,49656,5,0,0:0:0:0:
256,72,49870,1,0,0:0:0:0:
416,160,50085,2,0,L|256:160,1,150
256,264,50513,5,0,0:0:0:0:
104,176,50727,1,0,0:0:0:0:
123,178,50835,1,0,0:0:0:0:
143,181,50942,1,0,0:0:0:0:
433,172,51156,1,0,0:0:0:0:
424,192,51370,2,0,L|360:328,1,150
112,184,51799,5,0,0:0:0:0:
252,240,52013,1,0,0:0:0:0:
164,120,52227,1,0,0:0:0:0:
304,176,52442,1,0,0:0:0:0:
288,28,52656,1,0,0:0:0:0:
176,208,52870,1,0,0:0:0:0:
376,144,53085,1,0,0:0:0:0:
168,120,53299,5,0,0:0:0:0:
372,72,53513,1,0,0:0:0:0:
244,236,53727,1,0,0:0:0:0:
388,276,53942,1,0,0:0:0:0:
244,312,54156,1,0,0:0:0:0:
304,176,54370,1,0,0:0:0:0:
272,64,55227,6,0,L|112:64,1,150
128,272,55656,1,8,0:0:0:0:
272,64,55870,1,0,0:0:0:0:
128,272,56085,1,0,0:0:0:0:
336,80,56299,1,0,0:0:0:0:
336,304,56513,1,0,0:0:0:0:
120,64,56727,1,8,0:0:0:0:
208,288,56942,5,8,0:0:0:0:
368,80,57156,1,8,0:0:0:0:
128,192,57370,1,8,0:0:0:0:
432,192,57585,1,8,0:0:0:0:
128,96,57799,1,8,0:0:0:0:
384,288,58013,1,0,0:0:0:0:
128,160,58227,1,8,0:0:0:0:
400,144,58442,2,0,P|416:240|384:296,1,150
188,188,58870,5,0,0:0:0:0:
368,76,59085,1,0,0:0:0:0:
244,316,59299,1,0,0:0:0:0:
212,64,59513,1,0,0:0:0:0:
352,288,59942,1,0,0:0:0:0:
176,272,60370,5,8,0:0:0:0:
416,176,60585,1,8,0:0:0:0:
112,112,60799,1,8,0:0:0:0:
336,320,61013,1,8,0:0:0:0:
208,96,61227,2,0,L|296:224,1,150
352,288,61656,1,0,0:0:0:0:
352,288,62085,6,0,L|224:340,1,112.500004291535
96,192,62526,2,0,L|192:312,1,112.500004291535
256,216,62967,1,0,0:0:0:0:
224,324,63187,1,0,0:0:0:0:
156,220,63408,1,0,0:0:0:0:
272,268,63629,1,0,0:0:0:0:
341,181,63849,2,0,P|269:269|233:285,1,112.500004291535
168,124,64290,2,0,P|232:188|288:188,1,112.500004291535
376,52,64732,5,0,0:0:0:0:
229,159,64952,1,0,0:0:0:0:
408,124,65173,1,0,0:0:0:0:
174,234,65393,6,0,B|358:234,1,150
176,132,66055,2,0,P|160:228|188:256,1,112.500004291535
268,184,66496,2,0,P|316:120|320:48,1,112.500004291535
144,104,66937,2,0,P|208:200|248:228,1,112.500004291535
352,128,67379,5,0,0:0:0:0:
358,153,67599,1,0,0:0:0:0:
354,179,67820,1,0,0:0:0:0:
341,202,68040,1,0,0:0:0:0:
192,296,68261,1,0,0:0:0:0:
104,240,68482,2,0,L|108:96,1,112.500004291535
371,156,68923,2,0,P|355:252|227:300,1,225
248,304,69805,5,0,0:0:0:0:
400,288,70026,2,0,P|432:208|408:144,1,150
176,112,70467,2,0,B|224:192|296:208,1,150
288,96,70908,1,0,0:0:0:0:
310,109,71129,1,0,0:0:0:0:
333,123,71349,1,0,0:0:0:0:
356,137,71570,1,0,0:0:0:0:
260,232,71790,1,0,0:0:0:0:
176,208,72011,1,0,0:0:0:0:
176,208,72232,6,0,L|320:296,1,150
304,144,72673,2,0,L|160:64,1,150
256,288,73114,2,0,L|352:160,1,150
120,104,73555,6,0,B|48:192|48:192|136:312,1,225.000008583069
392,104,74437,2,0,B|464:192|464:192|376:312,1,225.000008583069
192,144,75320,5,0,0:0:0:0:
328,192,75541,2,0,P|240:272|208:272,2,112.500004291535
240,184,76202,1,0,0:0:0:0:
384,120,76643,1,0,0:0:0:0:
240,192,76864,1,0,0:0:0:0:
344,208,77084,1,0,0:0:0:0:
153,128,77526,6,0,P|201:200|353:160,1,225.000008583069
208,128,78408,1,0,0:0:0:0:
320,128,78849,1,0,0:0:0:0:
184,216,79290,1,0,0:0:0:0:
288,176,79732,1,0,0:0:0:0:
400,128,80173,1,0,0:0:0:0:
208,128,80393,1,0,0:0:0:0:
320,272,80614,1,0,0:0:0:0:
208,128,81055,1,0,0:0:0:0:
368,160,81496,6,0,L|344:272,1,112.500004291535
144,80,81937,1,0,0:0:0:0:
176,272,82379,1,0,0:0:0:0:
320,96,82820,1,0,0:0:0:0:
128,192,83261,1,0,0:0:0:0:
368,304,83702,5,0,0:0:0:0:
160,128,83923,1,0,0:0:0:0:
400,192,84143,1,0,0:0:0:0:
160,304,84585,1,0,0:0:0:0:
256,80,85026,5,0,0:0:0:0:
112,192,85246,1,0,0:0:0:0:
384,192,85467,1,0,0:0:0:0:
256,320,85687,1,0,0:0:0:0:
256,80,85908,1,0,0:0:0:0:
256,320,86129,1,0,0:0:0:0:
96,192,86349,1,0,0:0:0:0:
384,192,86570,1,0,0:0:0:0:
256,192,86790,12,0,88059,0:0:0:0:
352,80,90227,6,0,L|176:80,1,150
176,224,90655,1,8,0:0:0:0:
328,384,90869,2,0,L|400:240,1,150
256,80,91298,1,0,0:0:0:0:
256,240,91512,1,8,0:0:0:0:
448,192,91727,1,0,0:0:0:0:
144,240,91941,2,0,P|176:304|248:352,1,150
360,112,92369,2,0,P|160:72|96:128,1,300
416,352,93012,5,0,0:0:0:0:
225,127,93227,1,8,0:0:0:0:
384,224,93441,1,0,0:0:0:0:
112,224,93655,1,0,0:0:0:0:
384,144,93869,1,0,0:0:0:0:
112,224,94084,6,0,P|144:288|208:352,1,150,8|0,0:0|0:0,0:0:0:0:
256,96,94512,1,0,0:0:0:0:
144,288,94727,1,0,0:0:0:0:
332,92,94941,1,8,0:0:0:0:
128,248,95155,1,0,0:0:0:0:
376,168,95369,5,0,0:0:0:0:
110,167,95584,1,0,0:0:0:0:
368,244,95798,1,0,0:0:0:0:
134,108,96012,1,0,0:0:0:0:
324,300,96226,5,0,0:0:0:0:
180,65,96441,1,0,0:0:0:0:
236,312,96655,1,0,0:0:0:0:
241,45,96869,1,0,0:0:0:0:
308,304,97083,1,0,0:0:0:0:
126,80,97298,1,0,0:0:0:0:
64,208,97512,6,0,P|80:128|128:80,1,150,8|0,0:0|0:0,0:0:0:0:
208,288,97941,1,0,0:0:0:0:
126,80,98155,1,0,0:0:0:0:
64,208,98369,2,0,P|80:128|128:80,1,150,8|0,0:0|0:0,0:0:0:0:
256,80,98798,1,0,0:0:0:0:
64,208,99012,1,0,0:0:0:0:
256,240,99227,6,0,P|240:304|160:344,1,150,8|0,0:0|0:0,0:0:0:0:
48,144,99655,1,0,0:0:0:0:
256,240,99869,1,0,0:0:0:0:
48,144,100084,1,8,0:0:0:0:
256,80,100298,1,0,0:0:0:0:
48,144,100512,6,0,B|79:199|192:224|192:224,1,150
256,80,100941,1,8,0:0:0:0:
106,196,101155,1,0,0:0:0:0:
440,281,101369,6,0,B|409:226|312:193|312:193,1,150
440,281,101798,1,8,0:0:0:0:
256,304,102013,1,0,0:0:0:0:
320,164,102227,2,0,L|164:164,1,150
288,40,102655,1,8,0:0:0:0:
384,144,102869,1,0,0:0:0:0:
384,144,103084,2,0,B|368:192|344:264|344:264|232:264,1,225.000008583069
288,136,103727,1,0,0:0:0:0:
128,80,103941,6,0,P|80:144|80:224,1,150
384,80,104369,2,0,P|432:144|424:224,1,150,8|0,0:0|0:0,0:0:0:0:
308,120,104798,5,0,0:0:0:0:
336,268,105012,1,0,0:0:0:0:
196,212,105227,1,8,0:0:0:0:
336,208,105441,5,0,0:0:0:0:
364,356,105655,1,0,0:0:0:0:
224,300,105870,1,0,0:0:0:0:
184,112,106084,1,8,0:0:0:0:
224,300,106298,1,0,0:0:0:0:
48,192,106512,5,0,0:0:0:0:
256,192,106727,2,0,L|368:80,1,150,0|8,0:0|0:0,0:0:0:0:
48,192,107155,1,0,0:0:0:0:
256,192,107369,2,0,L|360:312,1,150
112,64,107798,6,0,L|256:192,1,150
400,320,108227,2,0,L|256:192,1,150
224,112,108655,2,0,P|160:160|136:240,1,150
416,192,109084,2,0,P|368:128|296:88,1,150
304,336,109512,2,0,P|368:288|408:224,1,150
136,223,109941,2,0,P|184:303|296:335,1,150
368,128,110369,5,0,0:0:0:0:
136,223,110584,1,0,0:0:0:0:
368,304,110798,1,0,0:0:0:0:
224,112,111012,1,0,0:0:0:0:
136,224,111227,1,8,0:0:0:0:
304,336,111441,5,0,0:0:0:0:
405,229,111655,1,0,0:0:0:0:
136,223,111869,1,0,0:0:0:0:
231,329,112084,1,8,0:0:0:0:
416,192,112298,1,0,0:0:0:0:
308,92,112512,1,0,0:0:0:0:
128,224,112727,6,0,P|176:288|248:312,2,150,0|8|0,0:0|0:0|0:0,0:0:0:0:
256,80,113369,1,0,0:0:0:0:
368,192,113584,1,0,0:0:0:0:
144,192,113798,1,8,0:0:0:0:
256,64,114012,1,0,0:0:0:0:
256,192,114227,1,0,0:0:0:0:
256,64,114441,5,0,0:0:0:0:
400,192,114655,1,8,0:0:0:0:
144,192,114869,1,0,0:0:0:0:
256,64,115084,1,0,0:0:0:0:
256,304,115298,1,0,0:0:0:0:
160,96,115512,6,0,L|64:216,1,150,8|0,0:0|0:0,0:0:0:0:
352,96,115941,2,0,L|440:232,1,150
144,96,116369,1,8,0:0:0:0:
352,96,116584,1,0,0:0:0:0:
112,160,116798,1,0,0:0:0:0:
400,160,117012,1,0,0:0:0:0:
256,64,117227,5,8,0:0:0:0:
256,304,117441,1,0,0:0:0:0:
152,96,121084,5,0,0:0:0:0:
304,272,121298,1,0,0:0:0:0:
268,64,121512,1,0,0:0:0:0:
152,264,121727,1,0,0:0:0:0:
376,144,121941,1,0,0:0:0:0:
112,192,122369,1,0,0:0:0:0:
248,56,122798,2,0,P|120:144|96:184,1,150
264,328,123227,2,0,P|392:240|416:200,1,150,0|0,3:0|0:0,0:0:0:0:
304,140,123655,1,8,0:0:0:0:
125,137,124084,1,8,0:0:0:0:
352,96,124513,5,0,0:0:0:0:
248,272,124727,1,0,0:0:0:0:
248,136,124941,1,0,0:0:0:0:
376,320,125155,1,0,0:0:0:0:
200,192,125370,1,0,0:0:0:0:
368,192,125798,1,0,0:0:0:0:
72,212,126227,6,0,L|224:164,1,150
440,212,126655,2,0,L|288:164,1,150
152,188,127084,1,8,0:0:0:0:
360,188,127512,1,8,0:0:0:0:
128,144,142070,6,0,P|88:200|128:152,1,300
384,240,142952,2,0,P|424:184|384:232,1,300
272,128,143834,2,0,P|216:88|264:128,1,300
208,240,144717,2,0,P|264:280|216:240,1,300
304,112,145599,6,0,B|456:112|456:112|304:176,1,300
208,272,146481,2,0,B|56:272|56:272|208:208,1,300
176,144,147364,2,0,B|176:-8|176:-8|240:144,1,300
336,240,148246,2,0,B|336:392|336:392|272:240,1,300
144,296,149128,2,0,P|304:336|424:264,1,300
368,88,150011,2,0,P|208:48|88:120,1,300
416,192,150893,2,0,L|88:192,1,300
140,140,151775,6,0,L|308:108,1,150
266,304,152203,1,0,0:0:0:0:
288,112,152417,1,0,0:0:0:0:
416,304,152632,2,0,L|240:304,1,150
288,112,153060,1,0,0:0:0:0:
184,296,153275,1,0,0:0:0:0:
152,104,153489,2,0,P|80:224|194:296,1,300
128,176,155203,5,0,0:0:0:0:
416,192,155632,1,0,0:0:0:0:
128,176,156080,6,0,L|80:328,1,150
256,176,156508,2,0,L|280:336,1,150
416,192,156937,2,0,L|352:328,1,150
160,176,157365,1,0,0:0:0:0:
336,176,157580,1,0,0:0:0:0:
160,176,157794,1,0,0:0:0:0:
192,304,158222,5,0,0:0:0:0:
112,208,158651,2,0,P|80:128|128:64,1,150
336,176,159080,1,0,0:0:0:0:
208,64,159294,1,0,0:0:0:0:
192,304,159508,1,0,0:0:0:0:
392,144,159937,1,0,0:0:0:0:
176,192,160151,6,0,L|272:320,1,150
368,80,160794,1,0,0:0:0:0:
176,192,161008,1,0,0:0:0:0:
432,160,161222,1,0,0:0:0:0:
144,128,161436,1,0,0:0:0:0:
384,176,161651,5,0,0:0:0:0:
264,304,161865,2,0,L|96:368,1,150
264,104,162294,1,0,0:0:0:0:
120,352,162508,1,0,0:0:0:0:
256,104,162722,1,0,0:0:0:0:
352,256,162937,2,0,L|472:376,1,150
200,176,163365,5,0,0:0:0:0:
96,272,163580,1,0,0:0:0:0:
328,64,163794,2,0,B|400:64|400:64|320:144,1,150
256,192,164222,1,0,0:0:0:0:
112,288,164437,1,0,0:0:0:0:
368,288,164651,1,0,0:0:0:0:
256,80,165080,1,0,0:0:0:0:
168,72,165508,5,0,0:0:0:0:
272,200,165722,1,0,0:0:0:0:
328,64,165937,1,0,0:0:0:0:
176,224,166151,1,0,0:0:0:0:
344,224,166365,1,0,0:0:0:0:
256,192,166794,5,0,0:0:0:0:
256,288,167008,1,0,0:0:0:0:
256,192,167222,2,0,B|256:160|256:160|256:16,1,150
256,32,167651,1,0,0:0:0:0:
400,192,167865,1,0,0:0:0:0:
128,192,168080,1,0,0:0:0:0:
256,192,168294,1,0,0:0:0:0:
400,336,168508,5,0,0:0:0:0:
256,240,168722,1,0,0:0:0:0:
416,112,168937,2,0,L|424:280,1,150
224,112,169365,1,0,0:0:0:0:
384,32,169580,1,0,0:0:0:0:
256,192,169794,1,0,0:0:0:0:
312,64,170008,5,0,0:0:0:0:
368,248,170222,1,0,0:0:0:0:
424,96,170437,1,0,0:0:0:0:
256,224,170651,1,0,0:0:0:0:
392,168,170865,5,0,0:0:0:0:
296,48,171080,1,0,0:0:0:0:
312,224,171294,1,0,0:0:0:0:
208,56,171508,1,0,0:0:0:0:
408,264,171722,1,0,0:0:0:0:
144,128,171937,5,0,0:0:0:0:
256,48,172151,1,0,0:0:0:0:
120,144,172365,2,0,P|120:192|208:296,1,150
256,320,172794,1,0,0:0:0:0:
416,192,173008,1,0,0:0:0:0:
104,208,173222,6,0,L|216:368,1,150
408,176,173651,2,0,L|296:16,1,150
159,310,174080,2,0,L|352:344,1,150
352,73,174509,2,0,L|159:39,1,150
272,344,174937,2,0,L|432:231,1,150
240,40,175366,2,0,L|80:151,1,150
408,176,175794,2,0,L|295:16,1,150
104,208,176223,2,0,L|215:368,1,150
256,192,176651,6,0,B|240:240|240:240|288:288|288:288|256:352,1,160
256,120,177080,1,0,0:0:0:0:
112,192,177294,1,0,0:0:0:0:
384,192,177509,1,0,0:0:0:0:
256,192,177723,1,0,0:0:0:0:
256,352,177937,1,0,0:0:0:0:
256,80,178151,1,0,0:0:0:0:
256,240,178366,2,0,L|256:72,2,150
256,320,179008,5,0,0:0:0:0:
144,136,179223,1,0,0:0:0:0:
256,320,179437,1,0,0:0:0:0:
80,168,179651,1,0,0:0:0:0:
336,256,179866,1,0,0:0:0:0:
88,312,180080,1,0,0:0:0:0:
256,120,180294,5,0,0:0:0:0:
256,320,180509,1,0,0:0:0:0:
384,240,180723,1,0,0:0:0:0:
128,264,180937,1,0,0:0:0:0:
252,332,181152,1,0,0:0:0:0:
172,204,181366,1,0,0:0:0:0:
88,316,181580,1,0,0:0:0:0:
256,336,181794,2,0,P|352:272|384:192,1,150
416,96,182223,1,0,0:0:0:0:
256,192,182437,1,0,0:0:0:0:
144,336,182651,6,0,L|320:336,1,150
256,192,183080,2,0,L|96:192,1,150
256,96,183508,5,0,0:0:0:0:
336,304,183722,1,0,0:0:0:0:
128,192,183937,1,0,0:0:0:0:
352,192,184151,1,0,0:0:0:0:
176,304,184365,1,0,0:0:0:0:
256,96,184580,1,0,0:0:0:0:
336,304,184794,1,0,0:0:0:0:
128,192,185008,1,0,0:0:0:0:
352,192,185222,1,0,0:0:0:0:
176,304,185437,1,0,0:0:0:0:
256,96,185651,1,0,0:0:0:0:
336,304,185865,5,0,0:0:0:0:
128,192,186080,1,0,0:0:0:0:
352,192,186294,1,0,0:0:0:0:
176,304,186508,1,0,0:0:0:0:
352,192,186722,1,0,0:0:0:0:
160,192,186937,1,0,0:0:0:0:
336,304,187151,1,0,0:0:0:0:
256,96,187365,1,0,0:0:0:0:
176,304,187580,1,0,0:0:0:0:
352,192,187794,1,0,0:0:0:0:
301,56,188008,5,0,0:0:0:0:
141,108,188222,1,0,0:0:0:0:
141,276,188436,1,0,0:0:0:0:
301,327,188651,1,0,0:0:0:0:
399,191,188865,1,0,0:0:0:0:
256,96,189080,5,0,0:0:0:0:
176,304,189294,1,0,0:0:0:0:
384,192,189508,1,0,0:0:0:0:
160,192,189722,1,8,0:0:0:0:
336,304,189936,5,8,0:0:0:0:
160,192,190151,1,8,0:0:0:0:
