osu file format v14

[General]
AudioFilename: audio.mp3
AudioLeadIn: 0
PreviewTime: 83319
Countdown: 1
SampleSet: Soft
StackLeniency: 0.7
Mode: 0
LetterboxInBreaks: 0
WidescreenStoryboard: 1

[Editor]
DistanceSpacing: 1
BeatDivisor: 4
GridSize: 8
TimelineZoom: 1.8

[Metadata]
Title:Umysl Bogacza
TitleUnicode:Umysł Bogacza
Artist:Firma
ArtistUnicode:Firma
Creator:fartownik
Version:Jebatz Politzye
Source:
Tags:malpa polak nosacz
BeatmapID:1586754
BeatmapSetID:753110

[Difficulty]
HPDrainRate:4
CircleSize:4
OverallDifficulty:8.5
ApproachRate:10
SliderMultiplier:1.6
SliderTickRate:1

[Events]
//Background and Video events
0,0,"comment_AdXDn1ZeV8XK8eq1EN6UD7oZdjdqNYop.jpg",0,0
//Break Periods
//Storyboard Layer 0 (Background)
//Storyboard Layer 1 (Fail)
//Storyboard Layer 2 (Pass)
//Storyboard Layer 3 (Foreground)
//Storyboard Sound Samples

[TimingPoints]
170,236.220472440945,4,2,1,70,1,0
77414,-50,4,2,1,70,0,0
77591,-133.333333333333,4,2,1,70,0,0
79067,-80,4,2,1,70,0,0
81370,-133.333333333333,4,2,1,70,0,0
82788,-80,4,2,1,70,0,0
98378,-100,4,2,1,70,0,0
105958,236.220472440945,4,2,1,70,1,0
106076,-133.333333333333,4,2,1,70,0,0
109265,-80,4,2,1,70,0,0
109855,-133.333333333333,4,2,1,70,0,0
113044,-80,4,2,1,70,0,0
113576,-133.333333333333,4,2,1,70,0,0
116824,-80,4,2,1,70,0,0
117473,-133.333333333333,4,2,1,70,0,0
120485,-80,4,2,1,70,0,0
121076,-133.333333333333,4,2,1,70,0,0
128694,-100,4,2,1,70,0,0
166430,-80,4,2,1,70,0,0
180072,-100,4,2,1,70,0,0
194481,-50,4,2,1,70,0,0
194717,-133.333333333333,4,2,1,70,0,0

[HitObjects]
256,96,170,5,0,0:0:0:0:
256,104,406,1,0,0:0:0:0:
256,112,642,1,0,0:0:0:0:
256,120,878,1,0,0:0:0:0:
352,160,1114,5,0,0:0:0:0:
352,168,1351,1,0,0:0:0:0:
352,176,1587,1,0,0:0:0:0:
352,184,1823,1,0,0:0:0:0:
176,232,2059,5,0,0:0:0:0:
176,240,2295,1,0,0:0:0:0:
176,248,2532,1,0,0:0:0:0:
176,256,2768,1,0,0:0:0:0:
328,304,3004,5,0,0:0:0:0:
328,312,3240,1,0,0:0:0:0:
328,320,3477,1,0,0:0:0:0:
328,328,3713,1,0,0:0:0:0:
408,120,3949,5,0,0:0:0:0:
400,120,4185,1,0,0:0:0:0:
392,120,4421,1,0,0:0:0:0:
384,120,4658,1,0,0:0:0:0:
288,192,4894,5,0,0:0:0:0:
112,88,5130,5,0,1:0:0:0:
112,88,5248,1,0,1:0:0:0:
112,88,5366,1,0,1:0:0:0:
112,88,5484,1,0,1:0:0:0:
112,88,5603,1,0,1:0:0:0:
112,88,5721,1,0,1:0:0:0:
112,88,5839,1,0,1:0:0:0:
112,88,5957,1,0,1:0:0:0:
112,88,6075,1,0,1:0:0:0:
112,88,6193,1,0,1:0:0:0:
112,88,6311,1,0,1:0:0:0:
112,88,6429,1,0,1:0:0:0:
112,88,6547,1,0,1:0:0:0:
112,88,6666,1,0,1:0:0:0:
112,88,6784,1,0,1:0:0:0:
112,88,6902,1,0,1:0:0:0:
232,64,7020,5,0,1:0:0:0:
232,64,7138,1,0,1:0:0:0:
232,64,7256,1,0,1:0:0:0:
232,64,7374,1,0,1:0:0:0:
232,64,7493,1,0,1:0:0:0:
168,312,7729,6,0,P|216:320|272:320,1,80,0|0,1:0|0:0,0:0:0:0:
344,320,8083,1,2,0:0:0:0:
272,168,8201,1,8,1:0:0:0:
128,176,8437,1,2,0:0:0:0:
64,128,8673,5,0,1:0:0:0:
92,52,8792,1,0,0:0:0:0:
162,13,8910,1,2,0:0:0:0:
241,14,9028,1,0,0:0:0:0:
312,48,9146,2,0,L|296:224,1,160,8|2,1:0|0:0,0:0:0:0:
288,296,9618,5,0,1:0:0:0:
209,279,9736,1,0,0:0:0:0:
155,218,9855,1,2,0:0:0:0:
138,139,9973,1,0,0:0:0:0:
160,64,10091,2,0,P|213:70|346:75,1,160,8|2,1:0|0:0,0:0:0:0:
400,200,10563,5,0,1:0:0:0:
322,180,10681,1,0,0:0:0:0:
245,202,10799,1,2,0:0:0:0:
201,269,10918,1,0,0:0:0:0:
203,348,11036,1,8,1:0:0:0:
336,328,11272,1,2,0:0:0:0:
400,200,11508,6,0,P|392:160|392:120,1,80,0|0,1:0|0:0,0:0:0:0:
408,32,11862,1,2,0:0:0:0:
256,48,11981,1,8,1:0:0:0:
216,200,12217,2,0,P|224:240|248:288,1,80,0|2,0:0|0:0,0:0:0:0:
280,352,12453,5,0,1:0:0:0:
200,354,12571,1,2,0:0:0:0:
138,302,12689,1,0,0:0:0:0:
106,228,12807,1,2,0:0:0:0:
120,152,12925,2,0,P|125:107|133:67,1,80,8|0,1:0|0:0,0:0:0:0:
211,65,13162,1,2,0:0:0:0:
267,130,13280,1,0,0:0:0:0:
240,264,13398,6,0,P|280:272|328:272,1,80,2|2,1:1|0:0,0:0:0:0:
400,264,13634,1,0,0:0:0:0:
384,176,13752,2,0,P|344:184|296:184,1,80,2|10,0:1|1:0,0:0:0:0:
120,128,14107,2,0,P|128:176|128:240,1,80,2|2,0:1|0:0,0:0:0:0:
104,336,14343,5,0,1:0:0:0:
180,358,14461,1,0,0:0:0:0:
255,331,14579,1,2,0:1:0:0:
290,259,14697,1,0,0:0:0:0:
291,179,14815,2,0,P|290:136|284:98,1,80,8|2,1:0|0:0,0:0:0:0:
160,56,15288,5,0,1:0:0:0:
352,48,15406,1,2,0:0:0:0:
160,56,15642,1,2,0:0:0:0:
160,56,15760,2,0,L|176:224,1,160,8|2,1:1|0:0,0:0:0:0:
328,240,16232,1,0,1:0:0:0:
56,224,16469,1,2,0:0:0:0:
88,112,16705,2,0,L|96:32,1,80,8|0,1:0|0:0,0:0:0:0:
176,72,17177,5,0,1:0:0:0:
144,296,17295,1,2,0:0:0:0:
176,72,17532,1,2,0:0:0:0:
176,72,17650,2,0,L|336:64,1,160,8|2,1:0|0:0,0:0:0:0:
376,272,18122,1,2,1:2:0:0:
328,16,18358,1,0,0:0:0:0:
376,272,18595,2,0,L|384:192,1,80,8|0,1:0|0:0,0:0:0:0:
296,96,19067,5,0,1:0:0:0:
376,272,19185,1,2,0:0:0:0:
296,96,19421,1,2,0:0:0:0:
296,96,19540,2,0,L|288:264,1,160,8|2,1:1|0:0,0:0:0:0:
184,360,20012,5,2,1:2:0:0:
200,112,20248,1,0,0:0:0:0:
184,360,20484,2,0,L|176:280,1,80,8|0,1:0|0:0,0:0:0:0:
88,240,20957,5,0,1:0:0:0:
336,224,21075,1,2,0:0:0:0:
88,240,21311,1,2,0:0:0:0:
88,240,21429,2,0,L|96:72,1,160,8|2,1:0|0:0,0:0:0:0:
360,80,21902,1,2,1:2:0:0:
16,136,22138,1,0,0:0:0:0:
160,280,22374,2,0,L|168:368,1,80,8|0,1:0|0:0,0:0:0:0:
376,112,22847,5,0,1:0:0:0:
168,128,22965,1,2,0:0:0:0:
376,112,23201,1,2,0:0:0:0:
376,112,23319,2,0,L|368:280,1,160,8|2,1:0|0:0,0:0:0:0:
176,328,23792,5,2,1:2:0:0:
216,40,24028,1,0,0:0:0:0:
376,112,24264,2,0,P|416:128|464:128,1,80,8|0,1:0|0:0,0:0:0:0:
112,272,24736,5,0,1:0:0:0:
216,160,25209,1,0,1:0:0:0:
336,272,25681,1,0,1:0:0:0:
448,136,26154,1,0,1:0:0:0:
320,40,26626,1,0,1:0:0:0:
120,104,26862,5,0,1:0:0:0:
432,200,26981,1,0,1:0:0:0:
120,280,27099,1,0,1:0:0:0:
424,200,27217,1,0,1:0:0:0:
120,104,27335,1,0,1:0:0:0:
416,200,27453,1,0,1:0:0:0:
120,280,27571,5,0,1:0:0:0:
240,336,27807,2,0,L|224:168,1,160,0|8,0:0|1:0,0:0:0:0:
224,64,28398,1,0,0:0:0:0:
299,38,28516,5,2,1:2:0:0:
359,88,28634,1,0,0:0:0:0:
343,166,28752,1,0,0:0:0:0:
271,201,28870,1,0,0:0:0:0:
238,273,28988,1,8,1:0:0:0:
277,343,29107,1,0,0:0:0:0:
356,352,29225,1,0,0:0:0:0:
393,281,29343,1,0,0:0:0:0:
192,192,29461,5,2,1:2:0:0:
114,211,29579,1,0,0:0:0:0:
79,139,29697,1,0,0:0:0:0:
122,71,29815,1,0,0:0:0:0:
201,73,29933,1,8,1:0:0:0:
254,132,30051,1,0,0:0:0:0:
330,157,30170,1,0,0:0:0:0:
400,118,30288,1,0,0:0:0:0:
272,16,30406,5,2,1:2:0:0:
192,18,30524,1,0,0:0:0:0:
146,84,30642,1,0,0:0:0:0:
190,150,30760,1,0,0:0:0:0:
269,146,30878,1,8,1:0:0:0:
321,205,30996,1,0,0:0:0:0:
314,284,31114,1,0,0:0:0:0:
246,326,31232,1,0,0:0:0:0:
88,184,31351,5,2,1:2:0:0:
130,116,31469,1,0,0:0:0:0:
209,124,31587,1,0,0:0:0:0:
225,202,31705,1,0,0:0:0:0:
278,261,31823,1,8,1:0:0:0:
357,271,31941,1,0,0:0:0:0:
416,217,32059,1,0,0:0:0:0:
406,137,32177,1,0,0:0:0:0:
200,304,32295,5,2,1:2:0:0:
130,264,32414,1,0,0:0:0:0:
117,185,32532,1,0,0:0:0:0:
184,142,32650,1,0,0:0:0:0:
260,164,32768,1,8,1:0:0:0:
324,116,32886,1,0,0:0:0:0:
317,36,33004,1,0,0:0:0:0:
239,17,33122,1,0,0:0:0:0:
200,232,33240,5,2,1:2:0:0:
279,239,33358,1,0,0:0:0:0:
337,183,33477,1,0,0:0:0:0:
415,198,33595,1,0,0:0:0:0:
451,269,33713,1,8,1:0:0:0:
433,347,33831,1,0,0:0:0:0:
354,361,33949,1,0,0:0:0:0:
283,323,34067,1,0,0:0:0:0:
312,56,34185,5,2,1:2:0:0:
246,10,34303,1,0,0:0:0:0:
169,31,34421,1,0,0:0:0:0:
141,106,34540,1,0,0:0:0:0:
188,170,34658,1,8,1:0:0:0:
267,179,34776,1,0,0:0:0:0:
326,232,34894,1,0,0:0:0:0:
316,311,35012,1,0,0:0:0:0:
96,336,35130,5,2,1:2:0:0:
77,258,35248,1,0,0:2:0:0:
92,179,35366,1,0,0:2:0:0:
167,152,35484,1,0,0:2:0:0:
245,169,35603,1,8,1:0:0:0:
323,181,35721,1,0,0:2:0:0:
386,132,35839,1,0,0:2:0:0:
368,54,35957,1,0,0:0:0:0:
88,32,36075,5,2,1:2:0:0:
92,111,36193,1,0,0:0:0:0:
115,187,36311,1,0,0:0:0:0:
163,250,36429,1,0,0:0:0:0:
234,285,36547,1,8,1:0:0:0:
313,297,36666,1,0,0:0:0:0:
392,292,36784,1,0,0:0:0:0:
461,252,36902,1,0,0:0:0:0:
344,72,37020,5,2,1:2:0:0:
269,100,37138,1,0,0:0:0:0:
184,80,37256,1,0,0:0:0:0:
112,116,37374,1,0,0:0:0:0:
101,195,37492,1,8,1:0:0:0:
163,245,37610,1,0,0:0:0:0:
243,249,37729,1,0,0:0:0:0:
302,302,37847,1,0,0:0:0:0:
152,376,37965,5,2,1:2:0:0:
117,304,38083,1,0,0:0:0:0:
126,224,38201,1,0,0:0:0:0:
199,192,38319,1,0,0:0:0:0:
278,182,38437,5,0,1:0:0:0:
144,16,38555,1,0,1:0:0:0:
272,168,38673,1,0,1:0:0:0:
72,192,38792,1,0,1:0:0:0:
264,184,38910,1,0,1:0:0:0:
176,344,39028,1,0,1:0:0:0:
280,200,39146,1,0,1:0:0:0:
376,352,39264,1,0,1:0:0:0:
424,264,39382,6,0,B|408:144|408:144|472:152|480:192|416:208,1,240
336,96,39855,6,0,P|368:64|400:48,1,80,0|2,1:0|0:0,0:0:0:0:
398,48,40209,1,2,0:0:0:0:
264,160,40327,2,0,P|224:160|112:120,1,160,0|2,1:0|0:0,0:0:0:0:
56,48,40799,1,2,1:2:0:0:
264,160,41036,1,0,0:0:0:0:
88,288,41272,2,0,P|104:336|112:256,1,240,0|0,1:0|0:0,0:0:0:0:
80,192,41744,6,0,P|72:152|80:112,1,80,0|2,1:0|0:0,0:0:0:0:
79,113,42099,1,2,0:0:0:0:
208,48,42217,2,0,B|256:64|312:32|368:48,1,160,0|2,1:0|0:0,0:0:0:0:
456,120,42689,1,0,1:0:0:0:
360,328,42925,1,0,0:0:0:0:
176,144,43162,2,0,P|152:176|248:160,1,240,0|0,1:0|0:0,0:0:0:0:
352,184,43634,6,0,P|344:144|352:96,1,80,0|2,1:0|0:0,0:0:0:0:
348,105,43988,1,2,0:0:0:0:
256,32,44107,2,0,P|208:56|88:48,1,160,0|2,1:0|0:0,0:0:0:0:
40,160,44579,1,0,1:0:0:0:
136,312,44815,1,0,0:0:0:0:
344,200,45051,2,0,P|384:216|288:256,1,240,0|0,1:0|0:0,0:0:0:0:
208,280,45524,6,0,L|216:200,1,80,0|0,1:0|0:0,0:0:0:0:
199,122,45760,1,2,0:0:0:0:
125,91,45878,1,0,0:0:0:0:
16,144,45996,2,0,P|16:184|24:232,1,80,8|2,1:0|0:0,0:0:0:0:
54,296,46232,1,0,0:0:0:0:
128,326,46351,1,0,0:0:0:0:
207,329,46469,5,0,1:0:0:0:
278,293,46587,1,2,0:0:0:0:
239,223,46705,1,0,0:0:0:0:
315,199,46823,1,2,0:0:0:0:
281,126,46941,1,8,1:0:0:0:
350,86,47059,1,2,0:0:0:0:
305,19,47177,1,0,0:0:0:0:
388,0,47295,2,0,P|424:23|463:27,1,80,2|0,0:0|1:0,0:0:0:0:
216,56,47532,5,2,0:0:0:0:
139,80,47650,1,0,0:0:0:0:
104,152,47768,1,0,0:0:0:0:
111,231,47886,2,0,P|117:281|113:315,1,80,8|2,1:0|0:0,0:0:0:0:
320,320,48122,1,0,0:0:0:0:
283,249,48240,1,0,0:0:0:0:
287,169,48358,5,0,1:0:0:0:
347,116,48477,1,0,0:0:0:0:
424,98,48595,1,2,0:0:0:0:
424,98,48713,1,0,0:0:0:0:
368,40,48831,5,8,1:0:0:0:
288,45,48949,1,0,0:0:0:0:
214,12,49067,1,2,0:0:0:0:
138,37,49185,1,0,0:0:0:0:
48,176,49303,5,0,1:0:0:0:
101,235,49421,1,0,0:0:0:0:
181,234,49540,1,2,0:0:0:0:
253,200,49658,1,0,0:0:0:0:
328,227,49776,2,0,P|337:272|330:309,1,80,8|0,1:0|0:0,0:0:0:0:
176,144,50012,5,2,0:0:0:0:
148,69,50130,1,0,0:0:0:0:
209,18,50248,1,0,1:0:0:0:
263,76,50366,1,2,0:0:0:0:
333,39,50484,1,0,1:0:0:0:
377,106,50603,1,2,0:0:0:0:
447,68,50721,5,8,1:0:0:0:
455,147,50839,1,0,0:0:0:0:
422,219,50957,1,2,0:0:0:0:
349,252,51075,1,0,0:0:0:0:
270,235,51193,6,0,L|280:152,1,80,0|0,1:0|0:0,0:0:0:0:
193,60,51429,1,2,0:0:0:0:
112,64,51547,1,0,0:0:0:0:
32,80,51666,2,0,L|48:168,1,80,8|0,1:0|0:0,0:0:0:0:
64,312,51902,5,2,0:0:0:0:
119,254,52020,1,0,0:0:0:0:
193,282,52138,1,0,1:0:0:0:
260,324,52256,1,0,0:0:0:0:
334,296,52374,1,2,0:0:0:0:
363,222,52492,1,0,0:0:0:0:
307,164,52610,2,0,P|293:109|329:13,1,160,8|2,1:0|0:0,0:0:0:0:
397,54,52965,1,0,0:0:0:0:
192,80,53083,6,0,P|128:88|96:88,1,80,0|0,1:0|0:0,0:0:0:0:
32,91,53319,1,2,0:0:0:0:
18,169,53437,1,0,0:0:0:0:
64,233,53555,1,8,1:0:0:0:
143,227,53673,1,0,0:0:0:0:
218,253,53792,1,2,0:0:0:0:
251,325,53910,1,0,0:0:0:0:
408,336,54028,6,0,L|368:266,1,80,0|0,1:0|0:0,0:0:0:0:
323,200,54264,1,2,0:0:0:0:
308,121,54382,1,0,0:0:0:0:
336,46,54500,2,0,P|370:50|419:51,2,80,8|0|2,1:0|0:0|0:0,0:0:0:0:
255,43,54855,1,0,0:0:0:0:
104,112,54973,5,0,1:0:0:0:
112,192,55091,1,0,0:0:0:0:
192,208,55209,1,2,0:0:0:0:
232,136,55327,1,0,0:0:0:0:
176,72,55445,1,8,1:0:0:0:
233,16,55563,1,0,0:0:0:0:
312,19,55681,1,2,0:0:0:0:
366,77,55799,1,0,0:0:0:0:
344,152,55918,6,0,P|336:200|336:240,1,80,0|0,1:0|0:0,0:0:0:0:
184,256,56154,2,0,P|192:304|192:344,1,80,2|0,0:0|0:0,0:0:0:0:
96,184,56390,1,8,1:0:0:0:
175,174,56508,1,2,0:0:0:0:
245,136,56626,1,0,0:0:0:0:
284,66,56744,1,2,0:0:0:0:
432,48,56862,6,0,P|424:104|424:128,1,80,0|2,1:0|0:0,0:0:0:0:
128,48,57099,1,0,0:0:0:0:
128,48,57217,1,0,0:0:0:0:
184,120,57335,2,0,P|192:176|192:200,1,80,8|2,1:0|0:0,0:0:0:0:
168,312,57571,1,0,0:0:0:0:
247,312,57689,1,2,0:0:0:0:
384,344,57807,5,0,1:0:0:0:
410,268,57925,1,2,0:0:0:0:
356,207,58044,1,0,0:0:0:0:
339,128,58162,1,2,0:0:0:0:
379,59,58280,1,8,1:0:0:0:
306,26,58398,1,2,0:0:0:0:
228,45,58516,1,0,0:0:0:0:
197,119,58634,1,2,0:0:0:0:
256,232,58752,6,0,P|208:256|176:256,1,80,0|2,1:0|0:0,0:0:0:0:
80,120,58988,1,0,0:0:0:0:
137,63,59107,1,2,0:0:0:0:
216,62,59225,2,0,L|204:150,2,80,8|2|0,1:0|0:0|0:0,0:0:0:0:
136,216,59579,1,2,0:0:0:0:
304,288,59697,5,0,1:0:0:0:
298,208,59815,1,2,0:0:0:0:
333,136,59933,1,0,0:0:0:0:
406,105,60051,1,2,0:0:0:0:
464,232,60170,2,0,L|472:312,1,80,8|0,1:0|0:0,0:0:0:0:
471,311,60406,1,2,0:0:0:0:
471,311,60524,1,2,0:0:0:0:
368,288,60642,6,0,P|328:288|288:296,1,80,0|0,1:0|0:0,0:0:0:0:
215,327,60878,1,2,0:0:0:0:
135,325,60996,1,0,0:0:0:0:
72,192,61114,1,8,1:0:0:0:
128,135,61232,1,2,0:0:0:0:
199,172,61351,1,0,0:0:0:0:
271,138,61469,1,2,0:0:0:0:
348,157,61587,5,0,1:0:0:0:
346,77,61705,1,2,0:0:0:0:
279,32,61823,1,0,0:0:0:0:
199,32,61941,1,2,0:0:0:0:
133,78,62059,2,0,P|112:131|115:172,1,80,8|0,1:0|0:0,0:0:0:0:
208,304,62295,1,0,0:0:0:0:
256,239,62414,1,2,0:0:0:0:
368,296,62532,6,0,P|384:256|384:216,1,80,0|2,1:0|0:0,0:0:0:0:
450,126,62768,1,0,0:0:0:0:
376,96,62886,1,2,0:0:0:0:
304,136,63004,1,8,1:0:0:0:
307,215,63122,1,2,0:0:0:0:
254,275,63240,1,0,0:0:0:0:
174,283,63358,1,2,0:0:0:0:
105,241,63477,5,0,1:0:0:0:
130,165,63595,1,2,0:0:0:0:
208,152,63713,1,0,0:0:0:0:
215,72,63831,1,2,0:0:0:0:
293,55,63949,2,0,P|336:59|373:58,1,80,8|2,1:0|0:0,0:0:0:0:
448,216,64185,1,0,0:0:0:0:
448,216,64303,2,0,P|408:224|368:224,1,80,0|0,0:0|1:0,0:0:0:0:
256,184,64540,5,2,0:0:0:0:
104,256,64658,2,0,P|96:296|208:328,1,160,0|8,0:0|1:0,0:0:0:0:
256,184,65012,1,2,0:0:0:0:
200,80,65130,2,0,L|176:0,1,80,0|2,0:0|0:0,0:0:0:0:
80,168,65366,5,0,1:0:0:0:
133,227,65484,1,2,0:0:0:0:
212,242,65603,1,0,0:0:0:0:
288,218,65721,1,2,0:0:0:0:
365,236,65839,2,0,P|416:248|448:264,1,80,8|0,1:0|0:0,0:0:0:0:
456,72,66075,1,2,0:0:0:0:
378,90,66193,1,0,0:0:0:0:
298,93,66311,6,0,P|241:94|204:91,1,80,2|0,1:2|0:0,0:0:0:0:
64,56,66547,1,2,0:0:0:0:
47,134,66666,1,0,0:0:0:0:
102,191,66784,1,8,1:0:0:0:
92,270,66902,1,0,0:0:0:0:
164,304,67020,1,2,0:0:0:0:
223,251,67138,1,0,0:0:0:0:
368,312,67256,6,0,L|376:232,1,80,2|0,1:2|0:0,0:0:0:0:
240,48,67492,1,2,0:0:0:0:
273,120,67610,1,0,0:0:0:0:
352,133,67729,2,0,P|394:137|434:148,1,80,8|0,1:0|0:0,0:0:0:0:
256,264,67965,1,2,0:0:0:0:
256,264,68083,2,0,P|214:260|174:249,1,80,2|0,0:0|1:1,0:0:0:0:
72,88,68319,5,2,0:0:0:0:
25,225,68437,2,0,P|39:281|127:335,1,160,0|8,0:0|1:0,0:0:0:0:
256,264,68792,1,2,0:0:0:0:
248,160,68910,2,0,P|240:104|232:80,1,80,2|2,0:0|0:0,0:0:0:0:
328,216,69146,1,2,1:2:0:0:
391,166,69264,1,0,0:0:0:0:
418,91,69382,1,2,0:0:0:0:
464,152,69500,1,0,0:0:0:0:
448,280,69618,6,0,L|440:360,1,80,8|0,1:0|0:0,0:0:0:0:
200,304,69855,1,2,0:0:0:0:
200,304,69973,1,0,0:0:0:0:
288,336,70091,6,0,L|280:240,1,80,2|0,1:2|0:0,0:0:0:0:
281,256,70327,1,0,0:0:0:0:
312,112,70445,2,0,P|264:120|232:112,2,80,2|8|2,0:0|1:0|0:0,0:0:0:0:
384,56,70799,1,2,0:0:0:0:
144,56,70918,1,0,0:0:0:0:
136,152,71036,6,0,L|128:232,1,80,2|0,1:2|0:0,0:0:0:0:
376,208,71272,1,2,0:0:0:0:
383,210,71390,1,0,0:0:0:0:
391,212,71508,2,0,L|399:292,1,80,8|0,1:0|0:0,0:0:0:0:
216,336,71744,1,2,0:0:0:0:
238,259,71862,1,0,0:0:0:0:
297,204,71981,6,0,P|307:154|305:118,1,80,2|0,1:2|0:0,0:0:0:0:
142,39,72217,1,2,0:0:0:0:
71,75,72335,1,0,0:0:0:0:
60,154,72453,1,8,1:0:0:0:
116,210,72571,1,0,0:0:0:0:
195,199,72689,1,2,0:0:0:0:
274,207,72807,1,0,0:0:0:0:
324,268,72925,1,2,1:2:0:0:
316,348,73044,1,2,0:0:0:0:
168,344,73162,2,0,P|112:352|80:360,2,80,2|2|8,0:0|0:0|1:0,0:0:0:0:
312,352,73516,1,2,0:0:0:0:
376,144,73634,2,0,L|384:56,1,80,2|2,0:0|0:0,0:0:0:0:
136,168,73870,5,2,1:2:0:0:
136,168,73988,1,2,0:2:0:0:
376,216,74107,1,2,0:2:0:0:
376,216,74225,1,2,0:2:0:0:
112,248,74343,1,10,1:2:0:0:
112,248,74461,1,2,0:2:0:0:
400,136,74579,1,2,0:2:0:0:
400,136,74697,1,2,0:2:0:0:
56,192,74815,1,2,1:2:0:0:
56,192,74933,1,2,0:0:0:0:
456,192,75051,1,2,0:2:0:0:
456,192,75169,1,2,0:0:0:0:
208,240,75288,2,0,L|200:152,1,80,8|2,1:0|0:0,0:0:0:0:
256,48,75524,5,8,1:0:0:0:
344,328,75642,1,8,1:0:0:0:
256,56,75760,1,8,1:0:0:0:
168,328,75878,1,8,1:0:0:0:
256,64,75996,1,8,1:0:0:0:
344,328,76114,1,8,1:0:0:0:
256,72,76232,1,8,1:0:0:0:
168,328,76351,1,8,1:0:0:0:
256,80,76469,1,8,1:0:0:0:
344,328,76587,1,8,1:0:0:0:
256,88,76705,1,8,1:0:0:0:
168,328,76823,1,8,1:0:0:0:
256,96,76941,1,8,1:0:0:0:
344,328,77059,1,8,1:0:0:0:
256,104,77177,1,8,1:0:0:0:
168,328,77295,1,8,1:0:0:0:
256,112,77414,6,0,B|246:87|265:62|256:32,1,80,8|0,1:0|0:0,0:0:0:0:
64,216,77650,6,0,B|103:214|136:204|136:204|184:211|184:211|214:198|273:197,1,210.000008010865,2|0,1:0|0:0,0:0:0:0:
436,333,78122,2,0,B|399:337|364:321|364:321|316:328|316:328|271:314|227:314,1,210.000008010865,2|0,1:0|0:0,0:0:0:0:
386,227,78595,2,0,P|409:164|326:46,1,210.000008010865,2|0,1:0|0:0,0:0:0:0:
128,65,79067,6,0,B|124:106|145:128|145:128|125:172|86:152|86:152|123:152|192:187|134:236|134:236|128:294|189:323|220:295|217:274|217:274|206:274,1,400,2|0,1:0|1:0,0:0:0:0:
296,256,79658,1,0,0:0:0:0:
288,248,79776,1,10,1:0:0:0:
392,88,80012,5,8,1:0:0:0:
88,192,80130,1,8,1:0:0:0:
392,296,80248,1,8,1:0:0:0:
96,192,80366,1,8,1:0:0:0:
392,88,80484,1,8,1:0:0:0:
104,192,80603,1,8,1:0:0:0:
392,296,80721,1,8,1:0:0:0:
112,192,80839,1,8,1:0:0:0:
392,88,80957,1,8,1:0:0:0:
120,192,81075,1,8,1:0:0:0:
392,296,81193,1,8,1:0:0:0:
128,192,81311,1,8,1:0:0:0:
392,88,81429,6,0,B|440:104|472:80|472:80|512:152|448:192,1,210.000008010865,2|0,1:0|0:0,0:0:0:0:
294,107,81902,2,0,P|246:99|126:195,1,210.000008010865,2|0,1:0|0:0,0:0:0:0:
240,368,82374,2,0,B|232:312|232:312|240:256|232:200|232:200|216:240,1,210.000008010865,2|0,1:0|0:0,0:0:0:0:
64,288,82847,6,0,B|105:292|127:271|127:271|171:291|151:330|151:330|151:293|186:224|235:282|235:282|293:288|322:227|294:196|273:199|273:199|273:210,1,400,2|2,1:0|1:2,0:0:0:0:
243,115,83438,5,2,0:0:0:0:
143,103,83556,1,2,0:0:0:0:
73,175,83674,1,2,0:0:0:0:
72,272,83793,2,0,B|81:307|81:307|94:323|112:336|120:358,1,100,8|0,1:0|0:0,0:0:0:0:
416,192,84029,2,0,B|392:232|394:243|376:264|376:264|368:288,1,100,2|0,0:0|0:0,0:0:0:0:
232,32,84265,5,2,1:2:0:0:
330,14,84383,1,2,0:0:0:0:
419,57,84501,1,2,0:0:0:0:
449,161,84619,1,2,0:0:0:0:
443,260,84737,2,0,B|422:318|405:306|344:328|344:328|328:368|296:384,1,200,8|2,1:0|0:0,0:0:0:0:
256,40,85210,5,2,1:2:0:0:
157,25,85328,1,0,0:0:0:0:
62,57,85446,1,2,0:0:0:0:
32,152,85564,1,2,0:0:0:0:
56,256,85682,2,0,B|88:296|83:321|184:328|184:328|216:384,1,200,8|2,1:0|0:0,0:0:0:0:
224,56,86155,5,2,1:2:0:0:
322,42,86273,1,0,0:0:0:0:
409,90,86391,1,2,0:0:0:0:
447,182,86509,1,0,0:0:0:0:
435,281,86627,2,0,B|416:320|416:320|426:337|403:378,1,100,8|0,1:0|0:0,0:0:0:0:
72,176,86863,2,0,B|92:216|88:232|88:232|81:232|104:273,1,100,2|0,0:0|0:0,0:0:0:0:
216,352,87100,5,2,1:2:0:0:
226,253,87218,1,0,0:0:0:0:
212,155,87336,1,2,0:0:0:0:
226,57,87454,1,0,0:0:0:0:
305,117,87572,2,0,P|360:124|412:119,1,100,8|0,1:0|0:0,0:0:0:0:
128,296,87808,2,0,P|73:303|21:298,1,100,2|0,0:0|0:0,0:0:0:0:
296,352,88045,5,2,1:2:0:0:
286,253,88163,1,0,0:0:0:0:
300,155,88281,1,2,0:0:0:0:
286,57,88399,1,0,0:0:0:0:
208,120,88517,2,0,P|152:144|24:104,1,200,8|2,1:0|0:0,0:0:0:0:
216,352,88989,5,2,1:2:0:0:
224,256,89108,1,0,0:0:0:0:
210,158,89226,1,2,0:0:0:0:
224,60,89344,1,2,0:0:0:0:
296,120,89462,2,0,P|352:144|480:104,1,200,8|2,1:0|0:0,0:0:0:0:
296,352,89934,5,2,1:2:0:0:
286,253,90052,1,0,0:0:0:0:
300,155,90170,1,2,0:0:0:0:
286,57,90288,1,0,0:0:0:0:
208,120,90405,2,0,P|152:144|24:104,1,200,8|2,1:0|0:0,0:0:0:0:
384,16,90878,6,0,B|392:72|400:77|400:77|408:128,1,100,2|0,1:2|0:0,0:0:0:0:
448,208,91114,1,2,0:0:0:0:
448,208,91232,1,0,0:0:0:0:
352,200,91351,2,0,B|336:216|336:216|344:256|328:312,1,100,8|0,1:0|0:0,0:0:0:0:
160,256,91587,2,0,B|183:285|183:285|168:312|168:312|184:368,1,100,2|0,0:0|0:0,0:0:0:0:
128,16,91823,6,0,B|128:64|128:64|168:72|120:72|112:104,2,100,2|2|2,1:2|0:0|0:0,0:0:0:0:
224,96,92177,1,2,0:0:0:0:
168,224,92295,2,0,B|192:248|192:248|176:280|232:360|232:360|240:336|240:336|248:320,1,200,8|2,1:0|0:0,0:0:0:0:
384,16,92768,6,0,B|392:56|392:56|392:72|392:72|400:88|408:128,1,100,2|2,1:2|0:0,0:0:0:0:
448,208,93004,1,2,0:0:0:0:
448,208,93122,1,0,0:0:0:0:
344,224,93240,2,0,B|320:240|320:240|336:280|369:293|240:384,1,200,8|2,1:0|0:0,0:0:0:0:
128,16,93713,6,0,B|121:46|121:46|120:72|120:104|104:128,2,100,2|2|2,1:2|0:0|0:0,0:0:0:0:
224,96,94067,1,2,0:0:0:0:
168,224,94185,2,0,B|186:246|176:280|192:280|192:280|256:336|240:400,1,200,8|2,1:0|0:0,0:0:0:0:
400,360,94658,5,2,1:2:0:0:
449,273,94776,1,0,0:0:0:0:
368,216,94894,1,2,0:0:0:0:
393,119,95012,1,0,0:0:0:0:
293,132,95130,2,0,P|272:93|280:40,1,100,8|0,1:0|0:0,0:0:0:0:
192,296,95366,2,0,P|213:256|205:203,1,100,2|0,0:0|0:0,0:0:0:0:
112,360,95603,5,2,1:2:0:0:
63,273,95721,1,0,0:0:0:0:
144,216,95839,1,2,0:0:0:0:
119,119,95957,1,0,0:0:0:0:
224,144,96075,2,0,P|240:80|144:-16,1,200,8|2,1:0|0:0,0:0:0:0:
400,360,96547,5,2,1:2:0:0:
449,273,96665,1,0,0:0:0:0:
368,216,96783,1,2,0:0:0:0:
393,119,96901,1,0,0:0:0:0:
293,132,97019,2,0,P|272:93|280:40,2,100,8|0|2,1:0|0:0|0:0,0:0:0:0:
112,360,97374,1,2,0:0:0:0:
112,360,97492,5,2,1:2:0:0:
63,273,97610,1,0,0:0:0:0:
144,216,97728,1,2,0:0:0:0:
119,119,97846,1,0,0:0:0:0:
224,144,97965,2,0,P|240:80|144:-16,1,200,8|2,1:0|0:0,0:0:0:0:
416,272,98437,6,0,P|376:280|336:296,1,80,0|2,0:0|0:0,0:0:0:0:
339,294,98792,1,2,0:0:0:0:
304,160,98910,1,8,0:0:0:0:
424,64,99146,1,2,0:0:0:0:
336,24,99382,5,2,0:0:0:0:
256,12,99500,1,0,0:0:0:0:
178,29,99618,1,2,0:0:0:0:
125,89,99736,1,0,0:0:0:0:
105,167,99855,5,8,0:0:0:0:
176,309,100091,1,2,0:0:0:0:
333,282,100327,5,2,0:0:0:0:
320,203,100445,1,0,0:0:0:0:
305,124,100563,1,2,0:0:0:0:
291,45,100681,1,0,0:0:0:0:
230,96,100799,2,0,P|179:118|72:100,1,160,8|2,0:0|0:0,0:0:0:0:
32,208,101272,5,2,0:0:0:0:
107,235,101390,1,0,0:0:0:0:
186,228,101508,1,2,0:0:0:0:
260,256,101626,1,0,0:0:0:0:
306,321,101744,2,0,P|333:277|267:178,1,160,8|2,0:0|0:0,0:0:0:0:
376,50,102217,6,0,P|384:101|393:134,1,80,2|2,0:0|0:0,0:0:0:0:
391,128,102571,1,0,0:0:0:0:
192,112,102689,1,8,0:0:0:0:
144,296,102925,1,2,0:0:0:0:
240,336,103162,5,2,0:0:0:0:
235,256,103280,1,0,0:0:0:0:
176,208,103398,1,2,0:0:0:0:
94,221,103516,1,0,0:0:0:0:
49,287,103634,1,10,0:0:0:0:
49,287,103752,1,2,0:0:0:0:
16,214,103870,1,2,0:0:0:0:
30,135,103988,1,0,0:0:0:0:
16,56,104107,5,2,0:0:0:0:
264,24,104343,1,2,0:0:0:0:
264,24,104461,1,0,0:0:0:0:
320,104,104579,2,0,P|272:112|160:144,1,160,8|2,0:0|0:0,0:0:0:0:
128,264,104933,1,0,0:0:0:0:
128,264,105051,6,0,P|168:256|208:248,1,80,2|0,0:0|0:0,0:0:0:0:
287,250,105288,1,2,0:0:0:0:
360,280,105406,1,0,0:0:0:0:
401,348,105524,1,8,0:0:0:0:
401,348,105642,1,2,0:0:0:0:
456,72,105958,5,2,0:0:0:0:
128,120,106194,2,0,B|192:128|248:96,1,120.000004577637,2|0,1:0|0:0,0:0:0:0:
88,128,106666,2,0,B|127:178|189:195,1,120.000004577637,2|0,1:0|0:0,0:0:0:0:
56,104,107139,2,0,B|47:168|80:224,1,120.000004577637,2|10,1:0|0:0,0:0:0:0:
200,344,107493,5,8,0:0:0:0:
368,240,107611,1,8,0:0:0:0:
368,240,107847,6,0,P|352:192|432:64,1,210.000008010865,2|0,1:0|0:0,0:0:0:0:
496,192,108320,2,0,B|456:184|432:168|432:168|360:168|360:168|336:152|288:152,1,210.000008010865,2|0,1:0|0:0,0:0:0:0:
152,72,108792,2,0,B|192:64|216:48|216:48|288:48|288:48|312:32|360:32,1,210.000008010865,2|0,1:0|0:0,0:0:0:0:
200,168,109265,6,0,B|208:232|240:248|240:248|232:296|224:280|264:264|264:264|296:312|352:288|352:288|368:272|400:272|400:272|432:312|408:360,1,400,2|0,1:0|0:0,0:0:0:0:
88,272,109973,6,0,L|72:136,1,120.000004577637,2|0,1:0|0:0,0:0:0:0:
112,328,110446,2,0,L|144:208,1,120.000004577637,2|0,1:0|0:0,0:0:0:0:
128,376,110918,2,0,L|232:304,1,120.000004577637,2|8,1:0|0:0,0:0:0:0:
384,200,111272,5,8,0:0:0:0:
272,40,111391,1,8,0:0:0:0:
272,40,111627,6,0,B|200:56|152:16|152:16|104:48|120:96,1,210.000008010865,2|0,1:0|0:0,0:0:0:0:
216,192,112099,2,0,P|232:240|136:344,1,210.000008010865,2|0,1:0|0:0,0:0:0:0:
0,280,112572,2,0,P|-16:232|80:128,1,210.000008010865,2|0,1:0|0:0,0:0:0:0:
224,112,113044,6,0,B|288:120|304:152|304:152|352:144|336:136|320:176|320:176|368:208|344:264|344:264|328:280|328:312|328:312|368:344|416:320,1,400,2|0,1:0|0:0,0:0:0:0:
168,56,113753,2,0,P|112:72|48:64,1,120.000004577637,2|0,1:0|0:0,0:0:0:0:
224,64,114225,2,0,P|208:112|160:168,1,120.000004577637,2|0,1:0|0:0,0:0:0:0:
272,40,114698,2,0,P|296:80|304:160,1,120.000004577637,2|8,1:0|0:0,0:0:0:0:
208,344,115052,5,8,0:0:0:0:
16,272,115170,1,8,0:0:0:0:
16,272,115406,6,0,B|32:192|120:168|120:168|96:224,1,210.000008010865,2|0,1:0|0:0,0:0:0:0:
184,288,115879,2,0,L|264:80,1,210.000008010865,2|0,1:0|0:0,0:0:0:0:
386,248,116351,2,0,B|346:256|322:272|322:272|250:272|250:272|226:288|178:288,1,210.000008010865,2|0,1:0|0:0,0:0:0:0:
400,112,116824,6,0,B|440:160|496:152|496:152|488:208|456:280|504:312|504:312|528:272|472:248|464:208|464:208|472:176,1,400,2|0,1:0|0:0,0:0:0:0:
112,232,117532,6,0,L|232:256,1,120.000004577637,2|0,1:0|0:0,0:0:0:0:
72,200,118005,2,0,L|176:136,1,120.000004577637,2|0,1:0|0:0,0:0:0:0:
24,200,118477,2,0,L|40:72,1,120.000004577637,2|8,1:0|0:0,0:0:0:0:
216,8,118832,5,8,0:0:0:0:
328,152,118950,1,8,0:0:0:0:
328,152,119186,6,0,P|240:152|168:256,1,210.000008010865,2|0,1:0|0:0,0:0:0:0:
364,282,119658,2,0,B|356:234|356:194|356:194|348:138|340:114|340:114|324:162,1,210.000008010865,2|0,1:0|0:0,0:0:0:0:
240,64,120131,2,0,B|200:64|160:48|160:48|112:56|112:56|80:40|32:56,1,210.000008010865,2|0,1:0|0:0,0:0:0:0:
136,264,120603,6,0,B|176:216|232:224|232:224|224:168|192:96|240:64|240:64|264:104|208:128|200:168|200:168|208:200,1,400,2|0,1:0|0:0,0:0:0:0:
96,160,121194,5,0,0:0:0:0:
96,160,121312,2,0,P|55:153|3:94,1,120.000004577637,0|8,0:0|0:0,0:0:0:0:
160,72,121666,1,0,0:0:0:0:
160,72,121784,2,0,L|240:64,1,60.0000022888184
344,32,122020,5,0,0:0:0:0:
373,84,122139,1,0,0:0:0:0:
372,143,122257,1,0,0:0:0:0:
335,190,122375,1,0,0:0:0:0:
232,200,122493,5,8,0:0:0:0:
220,258,122611,1,0,0:0:0:0:
242,313,122729,1,0,0:0:0:0:
293,344,122847,1,0,0:0:0:0:
408,320,122965,6,0,L|416:256,2,60.0000022888184
293,344,123320,1,0,0:0:0:0:
256,152,123438,2,0,L|248:80,2,60.0000022888184,8|0|0,0:0|0:0|0:0,0:0:0:0:
376,184,123792,1,0,0:0:0:0:
456,40,123910,2,0,P|400:8|336:24,1,120.000004577637
390,94,124265,1,0,0:0:0:0:
320,248,124383,6,0,P|288:256|256:256,1,60.0000022888184,8|0,0:0|0:0,0:0:0:0:
200,72,124619,2,0,P|168:64|136:64,1,60.0000022888184
32,200,124855,5,0,0:0:0:0:
55,255,124973,1,0,0:0:0:0:
107,284,125091,1,0,0:0:0:0:
166,286,125209,1,0,0:0:0:0:
264,216,125328,5,8,0:0:0:0:
323,218,125446,1,0,0:0:0:0:
378,241,125564,1,0,0:0:0:0:
416,288,125682,2,0,P|426:328|426:368,1,60.0000022888184
472,104,125918,5,0,0:0:0:0:
472,104,126036,2,0,P|432:112|400:112,1,60.0000022888184
224,32,126272,1,8,0:0:0:0:
235,91,126391,1,0,0:0:0:0:
304,184,126509,5,0,0:0:0:0:
314,242,126627,1,0,0:0:0:0:
232,336,126745,5,0,0:0:0:0:
182,302,126863,1,0,0:0:0:0:
122,309,126981,1,0,0:0:0:0:
81,352,127099,1,0,0:0:0:0:
40,232,127217,6,0,L|44:170,1,60.0000022888184,8|0,0:0|0:0,0:0:0:0:
40,72,127454,1,0,0:0:0:0:
40,72,127572,2,0,P|80:72|104:64,2,60.0000022888184
144,176,127926,1,0,0:0:0:0:
224,80,128044,1,0,0:0:0:0:
224,80,128162,6,0,P|264:104|344:96,1,120.000004577637,8|0,0:0|0:0,0:0:0:0:
424,32,128517,1,0,0:0:0:0:
448,240,128635,5,2,1:2:0:0:
428,317,128753,1,0,0:0:0:0:
351,341,128871,1,2,0:0:0:0:
282,303,128989,1,0,0:0:0:0:
269,224,129107,2,0,P|265:186|281:143,2,80,10|0|2,1:2|0:0|0:0,0:0:0:0:
360,240,129461,1,0,0:0:0:0:
208,80,129580,6,0,P|160:80|72:152,1,160,2|2,1:2|0:0,0:0:0:0:
72,248,129934,1,0,0:0:0:0:
200,352,130052,2,0,L|192:264,1,80,10|0,1:2|0:0,0:0:0:0:
278,147,130288,1,2,0:0:0:0:
357,143,130406,1,0,0:0:0:0:
401,209,130524,5,2,1:2:0:0:
473,174,130643,1,0,0:0:0:0:
492,96,130761,1,2,0:0:0:0:
455,24,130879,1,0,0:0:0:0:
376,8,130997,1,10,1:2:0:0:
335,77,131115,1,0,0:0:0:0:
260,106,131233,1,2,0:0:0:0:
182,86,131351,1,0,0:0:0:0:
128,27,131469,5,0,1:2:0:0:
63,73,131587,1,0,0:0:0:0:
40,150,131706,1,2,0:0:0:0:
87,215,131824,1,0,0:0:0:0:
165,228,131942,2,0,L|168:137,1,80,10|0,1:2|0:0,0:0:0:0:
344,112,132178,1,2,0:0:0:0:
415,147,132296,1,0,0:0:0:0:
431,225,132414,5,2,1:2:0:0:
397,297,132532,1,0,0:0:0:0:
320,321,132650,2,0,P|268:322|228:319,1,80,2|0,0:0|0:0,0:0:0:0:
120,136,132887,2,0,L|112:240,1,80,8|0,1:0|0:2,0:0:0:0:
296,104,133123,1,2,0:0:0:0:
328,184,133241,2,0,P|360:224|384:240,1,80,0|2,0:0|1:2,0:0:0:0:
440,112,133477,5,0,0:0:0:0:
240,24,133595,2,0,P|176:24|96:72,1,160,2|8,0:0|1:2,0:0:0:0:
88,208,133950,1,0,0:0:0:0:
144,320,134068,2,0,P|184:328|224:344,2,80,2|0|2,0:0|0:0|1:2,0:0:0:0:
328,320,134422,5,0,0:0:0:0:
328,320,134540,2,0,L|320:224,1,80,2|0,0:2|0:0,0:0:0:0:
448,168,134776,2,0,P|464:120|408:24,1,160,8|2,1:2|0:0,0:0:0:0:
277,48,135131,1,0,0:0:0:0:
277,48,135249,2,0,P|234:59|187:59,1,80,2|0,1:2|0:0,0:0:0:0:
80,96,135485,5,2,0:0:0:0:
84,175,135603,1,0,0:0:0:0:
136,235,135721,1,10,1:2:0:0:
215,241,135839,1,0,0:0:0:0:
279,192,135958,2,0,P|340:193|419:289,1,160,2|2,0:0|1:2,0:0:0:0:
296,352,136312,5,0,0:0:0:0:
296,352,136430,2,0,P|248:344|200:352,1,80,2|0,0:0|0:0,0:0:0:0:
64,360,136666,2,0,L|48:200,1,160,8|2,1:0|0:0,0:0:0:0:
144,48,137020,1,0,0:0:0:0:
160,176,137139,2,0,L|168:256,1,80,2|0,1:2|0:0,0:0:0:0:
328,312,137375,5,2,0:0:0:0:
401,280,137493,1,0,0:0:0:0:
446,214,137611,1,10,1:2:0:0:
441,134,137729,1,0,0:0:0:0:
401,64,137847,1,2,0:0:0:0:
326,35,137965,1,0,0:0:0:0:
246,42,138083,6,0,P|190:52|163:62,1,80,2|0,1:2|0:0,0:0:0:0:
96,224,138320,2,0,P|144:232|248:288,1,160,2|10,0:0|1:2,0:0:0:0:
376,344,138674,1,0,0:0:0:0:
376,344,138792,2,0,P|368:288|384:152,1,160,2|2,0:0|1:2,0:0:0:0:
246,42,139146,5,0,0:0:0:0:
319,74,139265,1,2,0:0:0:0:
398,81,139383,1,0,0:0:0:0:
477,70,139501,1,10,1:2:0:0:
504,144,139619,1,0,0:0:0:0:
467,214,139737,1,2,0:0:0:0:
391,240,139855,1,0,0:0:0:0:
316,210,139973,5,2,1:2:0:0:
238,227,140091,2,0,P|171:246|145:259,2,80,0|2|0,0:0|0:0|0:0,0:0:0:0:
261,132,140446,2,0,P|256:91|243:49,1,80,10|0,1:2|0:0,0:0:0:0:
80,72,140682,1,2,0:0:0:0:
74,151,140800,1,0,0:0:0:0:
76,230,140918,6,0,P|81:271|98:309,1,80,2|0,1:2|0:0,0:0:0:0:
232,344,141154,1,2,0:0:0:0:
232,344,141272,1,0,0:0:0:0:
336,272,141391,2,0,P|384:264|424:264,2,80,10|0|2,1:2|0:0|0:0,0:0:0:0:
256,160,141745,1,0,0:0:0:0:
424,32,141863,6,0,L|416:112,1,80,2|0,1:2|0:0,0:0:0:0:
240,32,142099,1,2,0:0:0:0:
160,48,142217,1,0,0:0:0:0:
136,128,142335,2,0,P|152:168|184:207,1,80,8|0,1:2|0:0,0:0:0:0:
336,232,142572,1,2,0:0:0:0:
325,311,142690,1,0,0:0:0:0:
252,343,142808,6,0,P|173:346|107:279,1,160,2|2,1:2|0:0,0:0:0:0:
64,112,143162,2,0,L|224:104,1,160
384,48,143517,2,0,L|368:136,1,80,2|0,0:0|0:0,0:0:0:0:
216,264,143753,6,0,P|272:256|312:256,1,80,2|0,1:2|0:0,0:0:0:0:
392,344,143989,2,0,P|448:352|488:352,1,80,2|0,0:2|0:0,0:0:0:0:
488,120,144225,2,0,P|432:128|360:216,1,160,8|2,1:0|0:0,0:0:0:0:
432,264,144580,1,0,0:0:0:0:
256,176,144698,6,0,L|248:96,1,80,2|0,0:0|0:0,0:0:0:0:
144,32,144934,1,2,0:0:0:0:
69,61,145052,1,0,0:0:0:0:
38,135,145170,2,0,P|35:184|87:286,1,160,8|2,1:2|0:0,0:0:0:0:
232,320,145524,1,0,0:0:0:0:
312,296,145643,6,0,L|304:208,2,80,2|0|2,1:2|0:0|0:0,0:0:0:0:
416,344,145997,1,0,0:0:0:0:
216,160,146115,2,0,L|224:80,1,80,10|0,1:2|0:0,0:0:0:0:
464,72,146351,2,0,P|400:48|312:88,1,160,2|2,0:0|1:2,0:0:0:0:
392,208,146706,5,0,0:0:0:0:
176,232,146824,2,0,P|136:232|96:240,1,80
336,336,147060,1,8,1:2:0:0:
336,336,147178,2,0,P|400:336|496:288,1,160
336,72,147532,6,0,L|320:232,1,160,2|2,1:2|0:0,0:0:0:0:
160,320,147887,1,0,0:0:0:0:
160,320,148005,2,0,L|144:232,1,80,10|0,1:2|0:0,0:0:0:0:
80,96,148241,2,0,P|128:96|160:80,1,80,2|0,0:0|0:0,0:0:0:0:
288,40,148477,5,2,1:2:0:0:
366,54,148595,1,0,0:0:0:0:
407,122,148713,1,2,0:0:0:0:
391,201,148832,1,0,0:0:0:0:
325,247,148950,1,8,1:0:0:0:
246,241,149068,2,0,P|221:156|226:82,1,160
48,176,149422,6,0,L|144:184,1,80,2|0,1:2|0:0,0:0:0:0:
192,328,149658,1,2,0:0:0:0:
271,326,149776,1,0,0:0:0:0:
345,294,149895,1,10,1:2:0:0:
386,225,150013,2,0,P|396:164|381:62,1,160,2|0,0:0|0:0,0:0:0:0:
176,16,150367,5,2,1:2:0:0:
142,88,150485,1,0,0:0:0:0:
135,167,150603,1,2,0:0:0:0:
168,239,150721,1,0,0:0:0:0:
225,295,150839,1,10,1:2:0:0:
301,319,150958,2,0,P|390:328|478:309,1,160,2|0,0:0|0:0,0:0:0:0:
456,112,151312,5,2,1:2:0:0:
385,74,151430,1,0,0:0:0:0:
330,132,151548,1,2,0:0:0:0:
254,105,151666,1,0,0:0:0:0:
211,172,151784,1,10,1:2:0:0:
270,225,151902,1,0,0:0:0:0:
244,300,152020,2,0,P|180:349|80:346,1,160,2|2,0:0|1:2,0:0:0:0:
24,216,152375,5,0,0:0:0:0:
32,120,152493,2,0,L|40:40,1,80,2|0,0:0|0:0,0:0:0:0:
304,40,152729,1,8,1:2:0:0:
352,152,152847,2,0,P|344:200|256:280,1,160,2|0,0:0|0:0,0:0:0:0:
48,176,153202,6,0,L|144:184,1,80,2|0,1:2|0:0,0:0:0:0:
192,328,153438,1,2,0:0:0:0:
271,326,153556,1,0,0:0:0:0:
345,294,153675,1,10,1:2:0:0:
386,225,153793,2,0,P|396:164|381:62,1,160,2|0,0:0|0:0,0:0:0:0:
176,16,154147,5,2,1:2:0:0:
142,88,154265,1,0,0:0:0:0:
135,167,154383,1,2,0:0:0:0:
168,239,154501,1,0,0:0:0:0:
225,295,154619,1,10,1:2:0:0:
304,320,154738,2,0,P|368:328|416:320,1,80,2|0,0:0|0:0,0:0:0:0:
456,112,154973,1,2,0:0:0:0:
456,112,155091,6,0,P|408:88|384:64,1,80,2|0,1:2|0:0,0:0:0:0:
330,132,155328,1,2,0:0:0:0:
254,105,155446,1,0,0:0:0:0:
211,172,155564,1,10,1:2:0:0:
270,225,155682,1,0,0:0:0:0:
244,300,155800,2,0,P|180:349|160:352,1,80,2|0,0:0|0:2,0:0:0:0:
24,216,156036,5,2,1:2:0:0:
24,216,156155,1,0,0:0:0:0:
32,120,156273,2,0,L|40:40,1,80,2|0,0:0|0:0,0:0:0:0:
304,40,156509,1,8,1:2:0:0:
352,152,156627,2,0,P|344:200|256:280,1,160,2|0,0:0|0:0,0:0:0:0:
48,176,156981,6,0,L|144:184,1,80,2|0,1:2|0:0,0:0:0:0:
192,328,157217,1,2,0:0:0:0:
271,326,157335,1,0,0:0:0:0:
345,294,157454,1,10,1:2:0:0:
386,225,157572,2,0,P|396:164|381:62,1,160,2|0,0:0|0:0,0:0:0:0:
176,16,157926,5,2,1:2:0:0:
142,88,158044,1,0,0:0:0:0:
135,167,158162,1,2,0:0:0:0:
168,239,158280,1,0,0:0:0:0:
225,295,158398,1,10,1:2:0:0:
301,319,158517,2,0,P|390:328|478:309,1,160,2|0,0:0|0:0,0:0:0:0:
456,112,158871,5,2,1:2:0:0:
385,74,158989,1,0,0:0:0:0:
330,132,159107,1,2,0:0:0:0:
254,105,159225,1,0,0:0:0:0:
211,172,159343,1,10,1:2:0:0:
270,225,159461,1,0,0:0:0:0:
244,300,159579,2,0,P|180:349|80:346,1,160,2|2,0:0|1:2,0:0:0:0:
24,216,159934,5,0,0:0:0:0:
32,120,160052,2,0,L|40:40,1,80,2|0,0:0|0:0,0:0:0:0:
304,40,160288,1,8,1:2:0:0:
352,152,160406,2,0,P|344:200|256:280,1,160,2|0,0:0|0:0,0:0:0:0:
80,192,160761,5,8,1:0:0:0:
384,72,160879,1,8,1:0:0:0:
88,192,160997,1,8,1:0:0:0:
384,312,161115,1,8,1:0:0:0:
96,192,161233,1,8,1:0:0:0:
384,72,161351,1,8,1:0:0:0:
104,192,161469,1,8,1:0:0:0:
384,312,161587,1,8,1:0:0:0:
112,192,161706,1,8,1:0:0:0:
384,72,161824,1,8,1:0:0:0:
120,192,161942,1,8,1:0:0:0:
384,312,162060,1,8,1:0:0:0:
128,192,162178,1,8,1:0:0:0:
384,72,162296,1,8,1:0:0:0:
136,192,162414,1,8,1:0:0:0:
384,312,162532,1,8,1:0:0:0:
144,192,162650,1,8,1:0:0:0:
384,72,162769,1,8,1:0:0:0:
152,192,162887,1,8,1:0:0:0:
384,312,163005,1,8,1:0:0:0:
160,192,163123,1,8,1:0:0:0:
384,72,163241,1,8,1:0:0:0:
168,192,163359,1,8,1:0:0:0:
384,312,163477,1,8,1:0:0:0:
176,192,163595,1,8,1:0:0:0:
384,72,163713,1,8,1:0:0:0:
184,192,163832,1,8,1:0:0:0:
384,312,163950,1,8,1:0:0:0:
192,192,164068,1,8,1:0:0:0:
384,72,164186,1,8,1:0:0:0:
200,192,164304,1,8,1:0:0:0:
384,312,164422,1,8,1:0:0:0:
208,192,164540,1,8,1:0:0:0:
384,72,164658,1,8,1:0:0:0:
216,192,164776,1,8,1:0:0:0:
384,312,164895,1,8,1:0:0:0:
224,192,165013,1,8,1:0:0:0:
384,72,165131,1,8,1:0:0:0:
232,192,165249,1,8,1:0:0:0:
384,312,165367,1,8,1:0:0:0:
240,192,165485,1,8,1:0:0:0:
384,72,165603,1,8,1:0:0:0:
248,192,165721,1,8,1:0:0:0:
384,312,165839,1,8,1:0:0:0:
256,192,165958,1,8,1:0:0:0:
384,72,166076,1,8,1:0:0:0:
264,192,166194,1,8,1:0:0:0:
384,312,166312,6,0,L|376:224,1,80,2|2,1:2|1:2,0:0:0:0:
240,88,166548,1,2,0:0:0:0:
140,92,166666,1,2,0:0:0:0:
70,164,166784,1,2,0:0:0:0:
69,261,166903,2,0,B|78:296|78:296|91:312|109:325|117:347,1,100,8|0,1:0|0:0,0:0:0:0:
413,181,167139,2,0,B|389:221|391:232|373:253|373:253|365:277,1,100,2|0,0:0|0:0,0:0:0:0:
229,21,167375,5,2,1:2:0:0:
327,3,167493,1,2,0:0:0:0:
416,46,167611,1,2,0:0:0:0:
446,150,167729,1,2,0:0:0:0:
440,249,167847,2,0,B|419:307|402:295|341:317|341:317|325:357|293:373,1,200,8|2,1:0|0:0,0:0:0:0:
304,120,168202,5,0,0:0:0:0:
253,29,168320,1,2,1:2:0:0:
154,14,168438,1,0,0:0:0:0:
59,46,168556,1,2,0:0:0:0:
29,141,168674,1,2,0:0:0:0:
53,245,168792,2,0,B|85:285|80:310|181:317|181:317|213:373,1,200,8|2,1:0|0:0,0:0:0:0:
221,45,169265,5,2,1:2:0:0:
319,31,169383,1,0,0:0:0:0:
406,79,169501,1,2,0:0:0:0:
444,171,169619,1,0,0:0:0:0:
432,270,169737,2,0,B|413:309|413:309|423:326|400:367,1,100,8|0,1:0|0:0,0:0:0:0:
69,165,169973,2,0,B|89:205|85:221|85:221|78:221|101:262,1,100,2|0,0:0|0:0,0:0:0:0:
213,341,170210,5,2,1:2:0:0:
223,242,170328,1,0,0:0:0:0:
209,144,170446,1,2,0:0:0:0:
223,46,170564,1,0,0:0:0:0:
302,106,170682,2,0,P|357:113|409:108,1,100,8|0,1:0|0:0,0:0:0:0:
125,285,170918,1,2,0:0:0:0:
293,341,171036,1,0,0:0:0:0:
293,341,171155,5,2,1:2:0:0:
283,242,171273,1,0,0:0:0:0:
297,144,171391,1,2,0:0:0:0:
283,46,171509,1,0,0:0:0:0:
205,109,171627,2,0,P|160:128|80:112,2,100,10|2|2,1:2|0:0|0:2,0:0:0:0:
213,341,171981,1,2,0:0:0:0:
213,341,172099,5,2,1:2:0:0:
221,245,172218,1,0,0:0:0:0:
207,147,172336,1,2,0:0:0:0:
221,49,172454,1,2,0:0:0:0:
296,112,172572,2,0,P|352:136|480:96,1,200,8|2,1:0|0:0,0:0:0:0:
424,16,172926,1,2,0:0:0:0:
293,341,173044,5,2,1:2:0:0:
283,242,173162,1,0,0:0:0:0:
297,144,173280,1,2,0:0:0:0:
283,46,173398,1,0,0:0:0:0:
208,112,173515,2,0,P|160:136|104:128,1,100,8|2,1:0|0:0,0:0:0:0:
115,132,174107,5,2,0:0:0:0:
232,216,174343,1,2,0:0:0:0:
352,112,174698,1,2,0:0:0:0:
448,256,174934,1,2,0:0:0:0:
328,360,175170,1,2,0:0:0:0:
115,132,175997,5,2,0:0:0:0:
232,216,176233,1,2,0:0:0:0:
352,112,176588,1,2,0:0:0:0:
448,256,176824,1,2,0:0:0:0:
328,360,177060,1,2,0:0:0:0:
115,132,177887,5,2,0:0:0:0:
232,216,178123,1,2,0:0:0:0:
352,112,178478,1,2,0:0:0:0:
456,256,178714,1,2,0:0:0:0:
328,360,178950,1,2,0:0:0:0:
256,48,179068,5,8,1:0:0:0:
160,320,179186,1,8,1:0:0:0:
256,56,179304,1,8,1:0:0:0:
352,320,179422,1,8,1:0:0:0:
256,64,179540,1,8,1:0:0:0:
160,320,179658,1,8,1:0:0:0:
256,72,179776,1,8,1:0:0:0:
352,320,179895,1,8,1:0:0:0:
256,80,180013,1,8,1:0:0:0:
160,320,180131,6,0,L|153:226,1,80,8|0,1:0|0:0,0:0:0:0:
344,32,180367,1,0,0:0:0:0:
420,56,180485,1,0,0:0:0:0:
464,240,180603,5,2,1:2:0:0:
423,308,180721,1,0,0:0:0:0:
343,317,180839,1,0,0:0:0:0:
275,272,180958,1,0,0:0:0:0:
248,196,181076,1,10,1:2:0:0:
170,177,181194,1,0,0:0:0:0:
103,221,181312,1,0,0:0:0:0:
98,300,181430,1,0,0:0:0:0:
384,224,181548,5,2,1:2:0:0:
367,145,181666,1,0,0:0:0:0:
304,95,181784,1,0,0:0:0:0:
224,86,181902,1,0,0:0:0:0:
163,138,182020,1,10,1:2:0:0:
83,148,182139,1,0,0:0:0:0:
21,96,182257,1,0,0:0:0:0:
24,16,182375,1,0,0:0:0:0:
256,168,182493,5,2,1:2:0:0:
279,244,182611,1,0,0:0:0:0:
252,319,182729,1,0,0:0:0:0:
175,340,182847,1,0,0:0:0:0:
99,314,182965,1,10,1:2:0:0:
79,236,183083,1,0,0:0:0:0:
103,159,183202,1,0,0:0:0:0:
174,122,183320,1,0,0:0:0:0:
376,320,183438,5,2,1:2:0:0:
418,252,183556,1,0,0:0:0:0:
378,182,183674,1,0,0:0:0:0:
412,110,183792,1,0,0:0:0:0:
355,53,183910,1,10,1:2:0:0:
282,86,184028,1,0,0:0:0:0:
289,165,184146,1,0,0:0:0:0:
323,237,184265,1,0,0:0:0:0:
104,336,184383,5,2,1:2:0:0:
70,263,184501,1,0,0:0:0:0:
100,189,184619,1,0,0:0:0:0:
172,154,184737,1,0,0:0:0:0:
227,213,184855,1,10,1:2:0:0:
292,258,184973,1,0,0:0:0:0:
368,235,185091,1,0,0:0:0:0:
381,157,185209,1,0,0:0:0:0:
232,32,185328,5,2,1:2:0:0:
163,72,185446,1,0,0:0:0:0:
142,149,185564,1,0,0:0:0:0:
173,222,185682,1,0,0:0:0:0:
244,256,185800,1,10,1:2:0:0:
323,254,185918,1,0,0:0:0:0:
384,305,186036,1,0,0:0:0:0:
405,381,186154,1,0,0:0:0:0:
480,152,186272,6,0,L|469:58,3,80,2|0|0|0,1:2|0:0|0:0|0:0,0:0:0:0:
360,128,186745,2,0,P|312:136|272:136,3,80,10|0|0|0,1:2|0:0|0:0|0:0,0:0:0:0:
384,240,187217,6,0,L|376:320,3,80,2|0|0|0,1:2|0:0|0:0|0:0,0:0:0:0:
176,264,187690,2,0,P|224:272|264:272,3,80,10|0|0|0,1:2|0:0|0:0|0:0,0:0:0:0:
296,160,188162,6,0,L|288:80,3,80,2|0|0|0,1:2|0:0|0:0|0:0,0:0:0:0:
120,128,188635,2,0,P|160:136|208:136,3,80,10|0|0|0,1:2|0:0|0:0|0:0,0:0:0:0:
160,240,189107,6,0,L|152:320,3,80,2|0|0|0,1:2|0:0|0:0|0:0,0:0:0:0:
336,288,189580,2,0,P|296:296|248:296,3,80,10|0|0|0,1:2|0:0|0:0|0:0,0:0:0:0:
440,328,190052,5,2,1:2:0:0:
456,304,190170,1,0,0:0:0:0:
432,288,190288,1,0,0:0:0:0:
416,312,190406,1,0,0:0:0:0:
328,240,190524,5,10,1:2:0:0:
312,216,190642,1,0,0:0:0:0:
336,200,190760,1,0,0:0:0:0:
352,224,190878,1,0,0:0:0:0:
448,144,190997,5,2,1:2:0:0:
464,120,191115,1,0,0:0:0:0:
440,104,191233,1,0,0:0:0:0:
424,128,191351,1,0,0:0:0:0:
320,64,191469,5,10,1:2:0:0:
304,40,191587,1,0,0:0:0:0:
328,24,191705,1,0,0:0:0:0:
344,48,191823,1,0,0:0:0:0:
224,192,191942,5,2,1:2:0:0:
184,200,192060,1,0,0:0:0:0:
144,184,192178,1,0,0:0:0:0:
120,144,192296,1,0,0:0:0:0:
200,24,192414,6,0,P|208:64|224:104,1,80,10|0,1:2|0:0,0:0:0:0:
432,192,192650,5,8,1:0:0:0:
112,56,192769,1,8,1:0:0:0:
424,192,192887,1,8,1:0:0:0:
112,328,193005,1,8,1:0:0:0:
416,192,193123,1,8,1:0:0:0:
112,56,193241,1,8,1:0:0:0:
408,192,193359,1,8,1:0:0:0:
112,328,193477,1,8,1:0:0:0:
400,192,193595,1,8,1:0:0:0:
112,56,193713,1,8,1:0:0:0:
392,192,193832,1,8,1:0:0:0:
112,328,193950,1,8,1:0:0:0:
384,192,194068,1,8,1:0:0:0:
112,56,194186,1,8,1:0:0:0:
376,192,194304,1,8,1:0:0:0:
368,192,194540,6,0,B|352:192|328:184|328:184|280:184|240:200|240:200|200:184|168:192,1,180.000006866455,8|0,1:0|0:0,0:0:0:0:
48,296,194776,6,0,P|32:248|88:128,1,180.000006866455,2|0,1:0|0:0,0:0:0:0:
