osu file format v14

[General]
AudioFilename: audio.mp3
AudioLeadIn: 0
PreviewTime: -1
Countdown: 1
SampleSet: None
StackLeniency: 0.7
Mode: 0
LetterboxInBreaks: 0
WidescreenStoryboard: 0

[Editor]
DistanceSpacing: 0.5
BeatDivisor: 4
GridSize: 4
TimelineZoom: 2.999999

[Metadata]
Title:Hillzeez
TitleUnicode:Hillzeez
Artist:Firey Productions
ArtistUnicode:Firey Productions
Creator:sp00kem
Version:DOWN SOUTH! SURF SHOP!
Source:
Tags:
BeatmapID:1655894
BeatmapSetID:788988

[Difficulty]
HPDrainRate:6
CircleSize:4.4
OverallDifficulty:8
ApproachRate:9.2
SliderMultiplier:2.1
SliderTickRate:1

[Events]
//Background and Video events
0,0,"r82_0_1194_720_w1200_h678_fmax.jpg",0,0
//Break Periods
//Storyboard Layer 0 (Background)
//Storyboard Layer 1 (Fail)
//Storyboard Layer 2 (Pass)
//Storyboard Layer 3 (Foreground)
//Storyboard Sound Samples

[TimingPoints]
414,375,4,1,0,33,1,0
1549,375,4,1,0,33,1,0
12075,375,4,1,0,33,1,0
23326,375,4,1,0,33,1,0

[HitObjects]
409,218,601,6,0,B|398:147|398:147|465:136|465:136|454:52,1,210
318,165,1164,1,0,0:0:0:0:
182,226,1351,6,0,P|184:253|192:294,1,52.5
201,352,1548,1,0,0:0:0:0:
218,369,1642,1,0,0:0:0:0:
243,378,1736,1,0,0:0:0:0:
270,376,1830,1,0,0:0:0:0:
292,364,1924,1,0,0:0:0:0:
96,215,2111,6,0,B|84:145|84:145|151:134|151:134|138:51,1,210
5,165,2674,1,0,0:0:0:0:
176,229,2861,6,0,P|178:256|186:297,1,52.5
201,352,3048,1,0,0:0:0:0:
218,369,3142,1,0,0:0:0:0:
243,378,3236,1,0,0:0:0:0:
270,376,3330,1,0,0:0:0:0:
292,364,3424,1,0,0:0:0:0:
150,112,3611,6,0,P|227:63|337:104,1,210
244,157,4174,1,0,0:0:0:0:
282,268,4361,6,0,P|293:307|287:340,1,52.5
241,373,4549,1,0,0:0:0:0:
220,373,4642,1,0,0:0:0:0:
199,374,4736,1,0,0:0:0:0:
178,375,4830,1,0,0:0:0:0:
157,376,4924,1,0,0:0:0:0:
58,178,5111,6,0,P|46:217|52:250,1,52.5
99,281,5299,1,0,0:0:0:0:
119,281,5392,1,0,0:0:0:0:
140,282,5486,1,0,0:0:0:0:
161,283,5580,1,0,0:0:0:0:
182,284,5674,1,0,0:0:0:0:
295,77,5861,6,0,P|306:116|300:149,1,52.5
256,180,6049,1,0,0:0:0:0:
235,180,6142,1,0,0:0:0:0:
214,181,6236,1,0,0:0:0:0:
193,182,6330,1,0,0:0:0:0:
172,183,6424,1,0,0:0:0:0:
3,84,6611,6,0,B|91:146|118:49|210:99,1,210
156,164,7174,1,0,0:0:0:0:
5,172,7361,6,0,L|5:237,1,52.5
5,294,7549,1,0,0:0:0:0:
5,313,7642,1,0,0:0:0:0:
6,334,7736,1,0,0:0:0:0:
5,355,7830,1,0,0:0:0:0:
6,376,7924,1,0,0:0:0:0:
124,292,8111,6,0,B|212:354|239:257|331:307,1,210
276,372,8674,1,0,0:0:0:0:
456,384,8861,6,0,L|456:319,1,52.5
456,262,9049,1,0,0:0:0:0:
456,243,9142,1,0,0:0:0:0:
455,222,9236,1,0,0:0:0:0:
456,201,9330,1,0,0:0:0:0:
455,180,9424,1,0,0:0:0:0:
263,69,9611,5,0,0:0:0:0:
273,192,9799,1,0,0:0:0:0:
176,143,9986,5,0,0:0:0:0:
186,266,10174,1,0,0:0:0:0:
97,264,10361,6,0,P|100:296|110:325,1,52.5
171,351,10549,1,0,0:0:0:0:
208,340,10642,1,0,0:0:0:0:
237,355,10736,1,0,0:0:0:0:
275,344,10830,1,0,0:0:0:0:
303,366,10924,1,0,0:0:0:0:
392,309,11111,6,0,P|387:277|376:248,1,52.5
314,224,11299,1,0,0:0:0:0:
277,236,11392,1,0,0:0:0:0:
248,223,11486,1,0,0:0:0:0:
210,236,11580,1,0,0:0:0:0:
182,214,11674,1,0,0:0:0:0:
181,122,11861,1,0,0:0:0:0:
124,275,12075,5,0,0:0:0:0:
49,196,12262,1,0,0:0:0:0:
245,226,12450,1,0,0:0:0:0:
181,318,12637,1,0,0:0:0:0:
176,133,12825,1,0,0:0:0:0:
282,175,13012,1,0,0:0:0:0:
108,224,13200,1,0,0:0:0:0:
148,68,13387,1,0,0:0:0:0:
215,255,13575,1,0,0:0:0:0:
44,183,13762,1,0,0:0:0:0:
264,132,13950,1,0,0:0:0:0:
106,302,14137,1,0,0:0:0:0:
147,114,14325,5,0,0:0:0:0:
240,302,14512,1,0,0:0:0:0:
317,228,14700,1,0,0:0:0:0:
311,346,14887,1,0,0:0:0:0:
396,138,15075,1,0,0:0:0:0:
422,280,15262,1,0,0:0:0:0:
286,92,15450,1,0,0:0:0:0:
272,256,15637,1,0,0:0:0:0:
186,199,15825,1,0,0:0:0:0:
179,285,16012,1,0,0:0:0:0:
104,262,16200,1,0,0:0:0:0:
78,330,16387,1,0,0:0:0:0:
31,184,16575,5,0,0:0:0:0:
168,213,16762,1,0,0:0:0:0:
145,68,16950,1,0,0:0:0:0:
247,194,17137,1,0,0:0:0:0:
292,45,17325,1,0,0:0:0:0:
325,216,17512,1,0,0:0:0:0:
506,158,17700,1,0,0:0:0:0:
372,290,17887,1,0,0:0:0:0:
495,290,18075,1,0,0:0:0:0:
408,371,18262,1,0,0:0:0:0:
460,376,18450,1,0,0:0:0:0:
258,340,18637,1,0,0:0:0:0:
297,111,18825,5,0,0:0:0:0:
114,253,19012,1,0,0:0:0:0:
413,250,19200,1,0,0:0:0:0:
180,130,19387,1,0,0:0:0:0:
323,340,19575,6,0,B|278:295|229:302|180:325|180:325|150:303|107:316|107:316|80:339|80:339|48:320|48:320|-2:320|-2:320|-49:252|2:158|102:152|149:218,1,630
68,68,21075,5,0,0:0:0:0:
152,337,21450,1,0,0:0:0:0:
236,151,21637,1,0,0:0:0:0:
432,82,22200,5,0,0:0:0:0:
348,351,22575,1,0,0:0:0:0:
264,165,22762,1,0,0:0:0:0:
240,257,23326,5,0,0:0:0:0:
277,245,23419,1,0,0:0:0:0:
310,223,23513,1,0,0:0:0:0:
335,193,23607,1,0,0:0:0:0:
350,157,23701,1,0,0:0:0:0:
177,44,23888,6,0,L|397:57,1,210
487,104,24451,1,0,0:0:0:0:
265,126,24638,6,0,L|199:134,1,52.5
138,145,24826,1,0,0:0:0:0:
100,156,24919,1,0,0:0:0:0:
67,178,25013,1,0,0:0:0:0:
42,208,25107,1,0,0:0:0:0:
27,244,25201,1,0,0:0:0:0:
150,303,25388,6,0,L|370:290,1,210
460,243,25951,1,0,0:0:0:0:
238,221,26138,6,0,L|172:213,1,52.5
111,202,26326,1,0,0:0:0:0:
73,191,26419,1,0,0:0:0:0:
40,169,26513,1,0,0:0:0:0:
15,139,26607,1,0,0:0:0:0:
0,103,26701,1,0,0:0:0:0:
195,115,26888,6,0,B|266:67|334:165|431:74,1,210
342,29,27451,1,0,0:0:0:0:
413,177,27638,6,0,P|416:207|404:241,1,52.5
341,263,27826,1,0,0:0:0:0:
288,265,27919,1,0,0:0:0:0:
236,267,28013,1,0,0:0:0:0:
183,269,28107,1,0,0:0:0:0:
131,272,28201,1,0,0:0:0:0:
0,183,28388,5,0,0:0:0:0:
512,288,28951,1,0,0:0:0:0:
