osu file format v14

[General]
AudioFilename: Nightcore - Unbreakable_v2.mp3
AudioLeadIn: 0
PreviewTime: 107973
Countdown: 0
SampleSet: Normal
StackLeniency: 0.7
Mode: 0
LetterboxInBreaks: 1
WidescreenStoryboard: 1

[Editor]
Bookmarks: 8299,19136,29773,31900,127966,153549
DistanceSpacing: 0.6
BeatDivisor: 4
GridSize: 4
TimelineZoom: 1.3

[Metadata]
Title:Unbreakable (Nightcore Mix)
TitleUnicode:Unbreakable (Nightcore Mix)
Artist:Fireflight
ArtistUnicode:Fireflight
Creator:Smokeman
Version:Unbreakable_Old (AR10)
Source:
Tags:nightcore Fireflight jump training challenge
BeatmapID:495665
BeatmapSetID:210679

[Difficulty]
HPDrainRate:6.5
CircleSize:4
OverallDifficulty:8
ApproachRate:10
SliderMultiplier:1.8
SliderTickRate:1

[Events]
//Background and Video events
0,0,"background.jpg",0,0
//Break Periods
2,13447,17106
2,52225,55885
//Storyboard Layer 0 (Background)
//Storyboard Layer 1 (Fail)
//Storyboard Layer 2 (Pass)
//Storyboard Layer 3 (Foreground)
//Storyboard Sound Samples

[TimingPoints]
321,269.299820466786,4,1,0,50,1,0
4091,-133.333333333333,4,1,0,50,0,0
4360,-80,4,1,0,50,0,0
4629,-90.9090909090909,4,1,0,50,0,0
13247,-125,4,2,0,50,0,0
21864,-111.111111111111,4,1,0,50,0,0
28327,-125,4,1,0,50,0,0
30482,-74.074074074074,4,1,0,50,0,1
34790,-100,4,1,0,50,0,1
39099,-74.074074074074,4,1,0,50,0,1
43408,-100,4,1,0,50,0,0
52025,-125,4,2,0,50,0,0
60644,-100,4,1,0,50,0,0
67107,-125,4,1,0,50,0,0
68723,-58.8235294117647,4,1,0,50,0,0
69261,-74.074074074074,4,1,0,50,0,1
73570,-100,4,1,0,50,0,1
77879,-74.074074074074,4,1,0,50,0,1
82188,-100,4,1,0,50,0,0
89728,-66.6666666666667,4,1,0,50,0,0
89997,-100,4,1,0,50,0,0
92960,-133.333333333333,4,1,0,50,0,0
98615,-200,4,1,0,50,0,0
99423,-83.3333333333333,4,1,0,50,0,0
102520,-100,4,1,0,45,0,0
102789,-111.111111111111,4,1,0,40,0,0
103058,-125,4,1,0,35,0,0
103328,-142.857142857143,4,1,0,30,0,0
103597,-83.3333333333333,4,1,0,50,0,0
108040,-74.074074074074,4,1,0,50,0,1
112349,-100,4,1,0,50,0,1
116658,-74.074074074074,4,1,0,50,0,1
120967,-100,4,1,0,50,0,0
125276,-74.074074074074,4,1,0,50,0,1
127430,-68.9655172413793,4,1,0,50,0,1
128507,-64.5161290322581,4,1,0,50,0,1
129584,-100,4,1,0,50,0,1
133893,-74.074074074074,4,1,0,50,0,1
138202,-100,4,1,0,50,0,0
145877,-66.6666666666667,4,1,0,50,0,0
146146,-100,4,1,0,50,0,0
154360,-74.074074074074,4,1,0,40,0,0
155437,-74.074074074074,4,1,0,30,0,0
156514,-74.074074074074,4,1,0,20,0,0
157592,-74.074074074074,4,1,0,10,0,0

[Colours]
Combo1 : 104,239,247
Combo2 : 150,222,206
Combo3 : 243,253,130
Combo4 : 250,118,80
Combo5 : 255,233,202

[HitObjects]
64,48,321,6,0,P|96:112|148:128,1,90,8|0,0:0|0:0,0:0:0:0:
244,120,590,2,0,P|268:80|312:60,1,90
404,156,859,2,0,L|384:64,2,90,0|0|0,0:0|0:0|0:0,0:0:0:0:
376,264,1263,5,0,0:0:0:0:
200,328,1398,2,0,P|128:300|104:264,1,90,8|0,0:0|0:0,0:0:0:0:
248,244,1667,1,0,0:0:0:0:
100,116,1802,2,0,P|164:108|216:128,1,90
376,264,2071,1,0,0:0:0:0:
308,100,2206,1,0,0:0:0:0:
248,244,2340,1,0,0:0:0:0:
160,152,2475,6,0,P|128:88|80:72,1,90,8|0,0:0|0:0,0:0:0:0:
44,196,2744,2,0,P|60:248|112:276,1,90
248,244,3013,1,0,0:0:0:0:
380,264,3148,1,0,0:0:0:0:
292,164,3283,1,0,0:0:0:0:
313,324,3417,1,0,0:0:0:0:
448,312,3552,6,0,L|464:216,1,90,8|0,0:0|0:0,0:0:0:0:
424,92,3821,1,0,0:0:0:0:
376,264,3956,1,0,0:0:0:0:
368,52,4091,2,0,B|368:72|360:84|360:84|348:104|344:136,1,67.5000025749208,0|0,0:0|0:0,0:0:0:0:
204,204,4360,2,0,B|212:176|208:160|208:160|232:140|232:140|244:104|260:96,1,112.5
168,336,4629,6,0,B|152:304|152:304|160:288|160:288|136:272|112:232,1,99.0000030212403,8|0,0:0|0:0,0:0:0:0:
172,100,4899,2,0,P|180:164|228:204,1,99.0000030212403
344,236,5168,1,0,0:0:0:0:
240,68,5303,1,0,0:0:0:0:
260,264,5437,6,0,B|285:288|285:288|283:306|283:306|311:313|348:342,1,99.0000030212403,8|0,0:0|0:0,0:0:0:0:
488,328,5706,2,0,P|444:288|384:280,1,99.0000030212403
396,132,5976,1,0,0:0:0:0:
436,40,6110,1,0,0:0:0:0:
336,52,6245,2,0,P|248:80|248:104,1,99.0000030212403,0|0,0:0|0:0,0:0:0:0:
116,132,6514,1,0,0:0:0:0:
264,76,6649,1,0,0:0:0:0:
52,248,6784,6,0,B|80:260|88:272|88:272|112:264|112:264|140:288,1,99.0000030212403,8|0,0:0|0:0,0:0:0:0:
292,312,7053,2,0,P|260:244|212:224,1,99.0000030212403,8|0,0:0|0:0,0:0:0:0:
144,108,7322,2,0,P|216:128|243:173,1,99.0000030212403,8|0,0:0|0:0,0:0:0:0:
368,228,7592,2,0,P|336:160|288:140,1,99.0000030212403,8|0,0:0|0:0,0:0:0:0:
444,232,7861,2,0,L|476:132,1,99.0000030212403,8|0,0:0|0:0,0:0:0:0:
392,12,8130,2,0,L|336:112,1,99.0000030212403,8|0,0:0|0:0,0:0:0:0:
200,136,8399,2,0,L|270:65,1,99.0000030212403,8|0,0:0|0:0,0:0:0:0:
120,84,8669,1,0,0:0:0:0:
276,56,8803,1,0,0:0:0:0:
192,328,8938,6,0,B|184:288|192:272|192:272|180:268|180:268|196:208,1,99.0000030212403,8|0,0:0|0:0,0:0:0:0:
248,92,9207,2,0,P|260:160|288:200,1,99.0000030212403
412,248,9477,1,0,0:0:0:0:
324,68,9611,1,0,0:0:0:0:
456,132,9746,1,8,0:0:0:0:
324,68,9881,6,0,B|292:48|292:32|292:32|272:28|272:28|256:-12,1,99.0000030212403,0|0,0:0|0:0,0:0:0:0:
144,80,10150,2,0,P|152:128|184:165,1,99.0000030212403
36,164,10419,1,0,0:0:0:0:
76,308,10554,2,0,P|160:332|192:304,1,99.0000030212403
288,248,10823,1,0,0:0:0:0:
160,344,10958,1,0,0:0:0:0:
432,72,11092,6,0,L|312:156,1,99.0000030212403,8|0,0:0|0:0,0:0:0:0:
80,312,11362,2,0,L|200:228,1,99.0000030212403,8|0,0:0|0:0,0:0:0:0:
466,224,11631,2,0,L|321:203,1,99.0000030212403,8|0,0:0|0:0,0:0:0:0:
45,159,11900,2,0,L|190:180,1,99.0000030212403,8|0,0:0|0:0,0:0:0:0:
260,80,12170,1,8,0:0:0:0:
144,188,12304,1,0,0:0:0:0:
361,6,12439,2,0,L|313:93,1,99.0000030212403,8|0,0:0|0:0,0:0:0:0:
348,248,12708,1,8,0:0:0:0:
200,116,12843,1,0,0:0:0:0:
432,136,12978,1,8,0:0:0:0:
176,272,13112,1,0,0:0:0:0:
432,40,13247,1,4,0:0:0:0:
84,96,17556,5,0,0:0:0:0:
228,116,17825,2,0,P|260:152|304:160,2,72,0|0|0,0:0|0:0|0:0,0:0:0:0:
296,88,18229,1,0,0:0:0:0:
88,328,18498,2,0,L|160:256,1,72,0|0,0:0|0:0,0:0:0:0:
196,232,18768,1,0,0:0:0:0:
264,208,18902,1,0,0:0:0:0:
328,244,19037,2,0,P|365:211|404:116,1,144
364,52,19441,2,0,P|327:55|280:84,1,72
448,252,19710,2,0,B|348:316|324:232|280:176|176:268,1,288,2|0,0:0|0:0,0:0:0:0:
48,112,20787,2,0,B|148:176|172:92|216:36|320:128,1,288,2|0,0:0|0:0,0:0:0:0:
436,48,21864,6,0,B|428:96|448:144|448:144|416:164|400:212,1,161.999995056153,8|0,0:0|0:0,0:0:0:0:
352,112,22268,1,0,0:0:0:0:
260,144,22403,2,0,P|252:88|280:48,2,80.9999975280763,0|0|0,0:0|0:0|0:0,0:0:0:0:
340,204,22807,1,0,0:0:0:0:
248,236,22942,1,0,0:0:0:0:
168,184,23076,1,0,0:0:0:0:
148,280,23211,2,0,P|60:252|12:200,2,161.999995056153,0|0|0,0:0|0:0|0:0,0:0:0:0:
416,316,24019,6,0,B|372:272|384:236|384:236|352:204|300:204,1,161.999995056153,8|0,0:0|0:0,0:0:0:0:
396,140,24423,1,0,0:0:0:0:
472,80,24557,2,0,P|400:48|380:52,1,80.9999975280763
256,80,24827,2,0,P|328:48|348:52,1,80.9999975280763
164,52,25096,1,0,0:0:0:0:
256,188,25231,1,0,0:0:0:0:
144,304,25365,2,0,P|108:252|136:152,2,161.999995056153,0|0|0,0:0|0:0|0:0,0:0:0:0:
424,60,26173,6,0,B|388:72|392:132|360:144|360:144|359:166|336:192,1,161.999995056153,8|0,0:0|0:0,0:0:0:0:
240,204,26577,2,0,P|224:132|252:104,1,80.9999975280763
140,80,26847,2,0,P|124:152|136:184,1,80.9999975280763
192,304,27116,2,0,P|120:288|96:264,1,80.9999975280763
40,140,27385,1,0,0:0:0:0:
196,100,27520,1,0,0:0:0:0:
352,60,27654,1,0,0:0:0:0:
308,216,27789,1,0,0:0:0:0:
284,292,27856,1,0,0:0:0:0:
208,316,27991,1,0,0:0:0:0:
132,292,28058,1,0,0:0:0:0:
348,332,28328,6,0,B|408:296|368:248|308:256|280:256|256:200|256:200|224:216|224:216|248:176|248:176|184:204|184:204|232:120|232:120|140:192|140:192|200:68|200:68|80:180|80:180|136:40,1,1008,2|0,0:0|0:0,0:0:0:0:
444,48,30482,6,0,P|384:100|320:116,1,121.500000463486,8|0,0:0|0:0,0:0:0:0:
68,160,30751,2,0,P|128:212|192:228,1,121.500000463486
443,335,31021,2,0,P|387:312|344:269,1,121.500000463486,8|0,0:0|0:0,0:0:0:0:
167,114,31290,1,0,0:0:0:0:
356,264,31425,1,0,0:0:0:0:
260,40,31559,2,0,P|316:104|332:152,1,121.500000463486,8|0,0:0|0:0,0:0:0:0:
103,188,31829,1,0,0:0:0:0:
201,119,31963,1,0,0:0:0:0:
252,344,32098,2,0,P|196:280|180:232,1,121.500000463486,8|0,0:0|0:0,0:0:0:0:
100,84,32367,1,0,0:0:0:0:
174,178,32502,1,0,0:0:0:0:
416,192,32636,5,8,0:0:0:0:
180,252,32771,1,0,0:0:0:0:
359,89,32906,1,8,0:0:0:0:
82,320,33040,1,0,0:0:0:0:
82,63,33175,1,8,0:0:0:0:
272,220,33310,1,0,0:0:0:0:
500,140,33444,2,0,P|480:76|408:20,1,121.500000463486,8|0,0:0|0:0,0:0:0:0:
12,244,33714,2,0,P|32:308|104:364,1,121.500000463486,8|0,0:0|0:0,0:0:0:0:
160,120,33983,1,0,0:0:0:0:
344,280,34118,1,0,0:0:0:0:
304,40,34252,1,8,0:0:0:0:
192,256,34387,1,0,0:0:0:0:
408,140,34522,1,4,0:0:0:0:
60,44,34791,6,0,P|84:104|64:148,1,90
128,252,35060,2,0,P|180:196|192:156,1,90
320,192,35329,2,0,P|304:136|276:116,1,90
144,108,35599,2,0,P|184:60|304:44,2,180,0|0|0,0:0|0:0|0:0,0:0:0:0:
372,256,36407,2,0,P|408:192|372:88,1,180
244,84,36811,1,0,0:0:0:0:
368,28,36945,1,0,0:0:0:0:
340,160,37080,1,0,0:0:0:0:
212,196,37215,6,0,L|144:264,1,90
164,124,37484,2,0,L|164:28,1,90
100,60,37686,1,0,0:0:0:0:
92,68,37753,2,0,L|92:168,1,90
156,280,38022,2,0,P|256:268|308:184,1,180
396,176,38426,2,0,L|432:128,2,45,0|0|0,0:0|0:0|0:0,0:0:0:0:
276,116,38696,1,0,0:0:0:0:
320,328,38830,1,0,0:0:0:0:
204,192,38965,1,0,0:0:0:0:
464,116,39100,5,8,0:0:0:0:
416,292,39234,1,0,0:0:0:0:
268,96,39369,1,0,0:0:0:0:
180,324,39504,1,0,0:0:0:0:
36,212,39638,1,8,0:0:0:0:
408,128,39773,1,0,0:0:0:0:
168,92,39908,2,0,P|108:60|40:56,1,121.500000463486
220,236,40177,2,0,P|280:280|332:280,1,121.500000463486,8|0,0:0|0:0,0:0:0:0:
420,56,40446,2,0,P|360:136|352:172,1,121.500000463486
116,216,40715,2,0,B|176:164|224:164|224:164|280:112|324:84,1,243.000000926971,8|0,0:0|0:0,0:0:0:0:
152,52,41254,6,0,B|196:76|232:124|232:124|276:160|356:188,1,243.000000926971,8|0,0:0|0:0,0:0:0:0:
140,316,41658,2,0,P|88:244|88:188,1,121.500000463486,0|8,0:0|0:0,0:0:0:0:
304,320,41927,2,0,P|268:248|208:224,1,121.500000463486
420,68,42197,2,0,P|336:72|272:116,1,121.500000463486,0|8,0:0|0:0,0:0:0:0:
492,244,42466,2,0,P|404:200|376:148,1,121.500000463486
156,120,42735,1,0,0:0:0:0:
312,212,42870,1,0,0:0:0:0:
68,216,43005,1,8,0:0:0:0:
380,108,43139,1,8,0:0:0:0:
164,304,43274,1,0,0:0:0:0:
256,64,43408,6,0,B|248:136|248:136|260:160|272:196|240:244,1,180
120,184,43812,1,0,0:0:0:0:
188,300,43947,2,0,B|256:332|308:292|308:292|392:280,1,180
360,148,44351,1,0,0:0:0:0:
464,236,44486,2,0,B|476:196|456:140|456:140|432:120|408:40,1,180,0|0,0:0|0:0,0:0:0:0:
280,76,44890,2,0,L|328:64,1,45,0|0,0:0|0:0,0:0:0:0:
256,76,45024,2,0,B|220:80|176:72|176:72|124:48|72:76,1,180
268,264,45563,6,0,B|224:248|192:208|192:208|152:176|92:192,1,180
244,156,45967,1,0,0:0:0:0:
344,68,46101,1,0,0:0:0:0:
372,200,46236,2,0,L|332:160,1,45
396,204,46371,2,0,B|440:236|460:272|460:272|436:304|472:352,2,180,0|0|0,0:0|0:0|0:0,0:0:0:0:
116,132,47179,1,0,0:0:0:0:
396,132,47313,1,0,0:0:0:0:
176,292,47448,1,0,0:0:0:0:
256,48,47583,1,0,0:0:0:0:
336,292,47717,6,0,L|296:248,1,45
92,300,47987,2,0,L|120:334,1,45
272,208,48256,2,0,L|232:160,1,45
28,211,48525,2,0,L|56:245,1,45
208,116,48794,2,0,L|168:68,1,45
206,258,49064,6,0,L|176:292,1,45
380,315,49333,2,0,L|408:280,1,45
268,173,49602,2,0,L|240:208,1,45
400,204,49872,2,0,P|430:168|432:96,1,90
360,51,50141,2,0,P|323:75|304:116,1,90
151,51,50410,2,0,P|188:75|208:116,1,90
112,204,50680,2,0,P|81:168|80:96,1,90
200,256,50949,6,0,L|168:312,1,45
244,232,51084,2,0,P|284:204|288:64,1,180,0|0,0:0|0:0,0:0:0:0:
472,40,51487,2,0,P|416:88|400:144,1,90
404,284,51757,2,0,L|428:336,1,45
384,244,51891,2,0,P|344:200|312:200,1,90,0|4,0:0|0:0,0:0:0:0:
192,320,56335,6,0,P|216:288|208:184,1,144
152,144,56739,2,0,P|108:200|152:240,1,144
210,188,57143,1,0,0:0:0:0:
260,132,57277,2,0,L|312:80,2,72,0|0|0,0:0|0:0|0:0,0:0:0:0:
324,164,57681,1,0,0:0:0:0:
412,280,57951,1,0,0:0:0:0:
268,300,58220,1,0,0:0:0:0:
324,332,58489,6,0,B|416:296|376:212|352:132|428:84,1,288,2|0,0:0|0:0,0:0:0:0:
188,52,59566,1,0,0:0:0:0:
112,256,59701,1,8,0:0:0:0:
248,212,59836,1,8,0:0:0:0:
264,296,59970,1,0,0:0:0:0:
354,185,60105,1,8,0:0:0:0:
416,240,60240,1,0,0:0:0:0:
408,97,60374,1,8,0:0:0:0:
328,80,60509,1,0,0:0:0:0:
192,80,60644,6,0,B|136:120|136:120|56:132,1,135
116,180,60913,1,0,0:0:0:0:
236,240,61048,1,0,0:0:0:0:
356,304,61182,2,0,L|312:272,2,45,0|0|0,0:0|0:0|0:0,0:0:0:0:
416,180,61452,2,0,L|456:224,1,45
388,176,61586,2,0,B|344:168|344:168|280:132,1,90
260,132,61788,6,0,L|304:96,1,45
88,240,62125,6,0,L|48:208,1,45
212,324,62394,6,0,L|152:340,2,45
256,148,62663,1,0,0:0:0:0:
364,292,62798,6,0,B|392:252|392:252|412:180,1,90
368,128,63067,1,0,0:0:0:0:
300,68,63202,1,0,0:0:0:0:
212,64,63337,1,0,0:0:0:0:
124,88,63471,1,0,0:0:0:0:
52,144,63606,2,0,L|112:184|148:208,1,90
152,328,63875,6,0,L|184:284,1,45
220,236,64010,1,8,0:0:0:0:
228,100,64145,1,0,0:0:0:0:
444,88,64279,6,0,L|408:148,1,45
388,188,64414,1,8,0:0:0:0:
420,320,64549,1,0,0:0:0:0:
328,156,64683,6,0,L|268:120,1,45
228,100,64818,1,8,0:0:0:0:
96,132,64952,6,0,P|64:216|80:244,1,90
128,144,65222,2,0,P|96:228|112:256,1,90
228,244,65491,2,0,L|260:196,1,45
280,172,65626,1,0,0:0:0:0:
400,232,65760,2,0,P|432:148|416:120,1,90
348,48,66030,6,0,L|380:96,1,45
400,124,66164,1,0,0:0:0:0:
224,100,66299,6,0,L|176:76,1,45
144,60,66434,1,0,0:0:0:0:
252,204,66568,5,8,0:0:0:0:
124,80,66703,1,0,0:0:0:0:
92,212,66838,2,0,B|116:252|116:252|176:288,1,90
356,300,67107,5,0,0:0:0:0:
344,228,67376,1,0,0:0:0:0:
328,156,67645,1,0,0:0:0:0:
204,80,67780,1,0,0:0:0:0:
200,224,67915,1,0,0:0:0:0:
444,72,68184,1,0,0:0:0:0:
68,312,68453,1,0,0:0:0:0:
260,192,68723,2,0,B|384:232|192:64|344:248|304:64|136:80|20:332|448:348|328:104,1,459.00000875473
52,52,69261,6,0,B|64:100|64:100|80:128|80:128|104:212,1,121.500000463486,8|0,0:0|0:0,0:0:0:0:
260,344,69531,2,0,B|265:294|265:294|261:263|261:263|268:175,1,121.500000463486
428,40,69800,2,0,B|404:83|404:83|397:115|397:115|359:193,1,121.500000463486,8|0,0:0|0:0,0:0:0:0:
156,248,70069,1,0,0:0:0:0:
396,208,70204,1,0,0:0:0:0:
168,128,70338,2,0,B|204:92|204:92|220:64|220:64|260:20,1,121.500000463486,8|0,0:0|0:0,0:0:0:0:
192,292,70608,1,0,0:0:0:0:
92,224,70742,1,0,0:0:0:0:
332,264,70877,2,0,B|296:300|296:300|280:328|280:328|240:372,1,121.500000463486,8|0,0:0|0:0,0:0:0:0:
308,180,71146,1,0,0:0:0:0:
340,64,71281,1,0,0:0:0:0:
100,100,71416,5,8,0:0:0:0:
308,220,71550,1,0,0:0:0:0:
64,220,71685,1,8,0:0:0:0:
444,56,71820,1,0,0:0:0:0:
440,296,71954,1,8,0:0:0:0:
244,160,72089,1,0,0:0:0:0:
4,140,72224,2,0,P|20:76|60:28,1,121.500000463486,8|0,0:0|0:0,0:0:0:0:
508,244,72493,2,0,P|492:308|452:356,1,121.500000463486,8|0,0:0|0:0,0:0:0:0:
220,304,72762,1,0,0:0:0:0:
186,61,72897,1,0,0:0:0:0:
365,225,73031,1,8,0:0:0:0:
123,202,73166,1,0,0:0:0:0:
338,84,73301,1,8,0:0:0:0:
68,320,73570,6,0,B|164:228|164:228|224:220,1,180
324,148,73974,2,0,L|364:180,1,45
336,112,74109,2,0,P|272:56|240:68,1,90
164,132,74378,2,0,P|168:80|140:32,1,90
60,144,74647,2,0,B|68:184|96:192|96:192|140:232,1,90
308,248,74917,2,0,L|288:288,1,45
296,84,75186,2,0,P|368:112|432:208,1,180
292,200,75590,1,0,0:0:0:0:
304,336,75724,2,0,B|260:336|252:304|252:304|216:280,1,90
96,300,75994,6,0,P|84:232|100:184,1,90
180,112,76263,2,0,L|164:172,1,45
152,88,76398,2,0,P|184:44|244:44,1,90
340,96,76667,1,0,0:0:0:0:
240,188,76802,2,0,P|240:272|176:336,1,180
88,232,77206,2,0,L|48:264,1,45
120,244,77340,2,0,P|136:184|116:140,1,90
244,228,77610,1,0,0:0:0:0:
192,56,77744,1,0,0:0:0:0:
428,108,77879,6,0,B|392:164|392:164|332:200,1,121.500000463486,8|0,0:0|0:0,0:0:0:0:
152,344,78148,1,0,0:0:0:0:
36,212,78283,1,0,0:0:0:0:
423,284,78417,2,0,B|356:287|356:287|293:258,1,121.500000463486,8|0,0:0|0:0,0:0:0:0:
68,212,78687,1,0,0:0:0:0:
113,23,78821,1,0,0:0:0:0:
420,56,78956,2,0,P|360:136|352:172,1,121.500000463486,8|0,0:0|0:0,0:0:0:0:
192,340,79225,1,0,0:0:0:0:
140,136,79360,1,0,0:0:0:0:
320,236,79495,2,0,B|261:182|255:135|255:135|196:85|163:45,1,243.000000926971,8|0,0:0|0:0,0:0:0:0:
324,28,80033,6,0,B|293:67|240:95|240:95|197:133|157:208,1,243.000000926971,8|0,0:0|0:0,0:0:0:0:
388,292,80437,2,0,P|336:220|336:164,1,121.500000463486,0|8,0:0|0:0,0:0:0:0:
124,316,80706,2,0,P|88:244|28:220,1,121.500000463486
236,64,80976,2,0,P|152:68|88:112,1,121.500000463486,0|8,0:0|0:0,0:0:0:0:
248,292,81245,2,0,P|291:334|348:352,1,121.500000463486
432,124,81514,1,0,0:0:0:0:
192,156,81649,2,0,L|264:48,1,121.500000463486,8|0,0:0|0:0,0:0:0:0:
208,352,81918,1,0,0:0:0:0:
64,48,82053,1,8,0:0:0:0:
64,228,82188,6,0,P|132:248|176:248,1,90
252,156,82457,2,0,P|200:156|156:164,2,90,0|0|0,0:0|0:0|0:0,0:0:0:0:
360,76,82861,2,0,L|316:48,1,45
392,104,82996,2,0,B|420:152|460:168|460:168|480:200|476:264,1,180
348,212,83399,2,0,P|288:168|268:140,1,90
248,300,83669,2,0,L|304:324,1,45
208,280,83803,2,0,B|168:232|128:212|128:212|100:168|88:132,1,180
208,76,84207,2,0,L|144:72,1,45
208,124,84342,6,0,B|264:112|308:132|308:132|348:120|384:68,1,180
324,216,84881,2,0,L|364:280,1,45
144,240,85150,2,0,L|88:188,1,45
320,36,85419,2,0,L|264:72,1,45
184,312,85689,1,0,0:0:0:0:
304,176,85823,1,0,0:0:0:0:
128,144,85958,1,0,0:0:0:0:
272,252,86092,1,0,0:0:0:0:
216,84,86227,1,0,0:0:0:0:
384,148,86362,1,0,0:0:0:0:
208,180,86496,2,0,P|152:176|56:132,1,135
108,232,86766,6,0,P|112:268|108:304,1,45
188,324,86900,6,0,P|184:288|188:252,1,45
256,224,87035,2,0,P|279:275|400:296,1,180
64,148,87574,2,0,P|132:88|216:108,1,180
464,108,88112,2,0,L|396:64,1,45
464,164,88247,2,0,P|416:164|380:216,1,90
268,312,88651,2,0,L|132:312,1,135
192,244,88920,2,0,L|344:244,1,135
264,176,89189,2,0,L|128:176,1,135
192,108,89459,2,0,L|360:108,1,135
392,172,89728,2,0,B|452:96|452:96|368:108,1,135.000005149842
276,100,89930,2,0,P|220:56|248:128,1,202.500007724762
300,252,90267,2,0,L|356:276,1,45
252,272,90401,2,0,P|204:308|144:308,1,90
268,156,90671,1,0,0:0:0:0:
100,220,90805,1,4,0:0:0:0:
256,192,90940,12,0,92690,0:0:0:0:
124,60,92825,5,0,0:0:0:0:
128,68,92960,2,0,P|120:124|136:144,1,67.5000025749208
256,184,93229,1,0,0:0:0:0:
248,180,93364,2,0,P|276:144|280:112,1,67.5000025749208
132,212,93633,1,0,0:0:0:0:
140,208,93768,2,0,P|168:276|176:280,1,67.5000025749208
356,56,94037,1,0,0:0:0:0:
352,64,94171,2,0,P|316:52|268:60,1,67.5000025749208
100,340,94441,1,0,0:0:0:0:
104,336,94575,6,0,P|164:344|188:328,1,67.5000025749208
432,40,94845,1,0,0:0:0:0:
424,48,94979,2,0,P|440:104|432:124,1,67.5000025749208
36,244,95249,1,0,0:0:0:0:
28,244,95383,2,0,P|28:296|48:320,1,67.5000025749208
480,116,95653,1,0,0:0:0:0:
488,116,95787,6,0,P|491:82|476:53,1,67.5000025749208
40,88,96057,1,0,0:0:0:0:
28,80,96191,2,0,P|24:40|44:16,1,67.5000025749208
476,292,96461,1,0,0:0:0:0:
484,304,96595,2,0,P|488:344|468:368,1,67.5000025749208
212,360,97268,5,8,0:0:0:0:
180,292,97403,2,0,P|168:236|180:204,1,67.5000025749208
92,148,97672,1,0,0:0:0:0:
156,116,97807,2,0,P|212:104|244:116,1,67.5000025749208
296,28,98076,1,0,0:0:0:0:
332,92,98211,2,0,P|344:148|332:180,1,67.5000025749208
420,236,98480,1,0,0:0:0:0:
356,268,98615,2,0,P|300:280|256:268,1,90
56,60,99423,6,0,B|80:116|92:164|92:164|136:200|148:256,1,215.999993408203,8|0,0:0|0:0,0:0:0:0:
396,44,99961,1,0,0:0:0:0:
312,112,100096,1,0,0:0:0:0:
204,128,100231,1,0,0:0:0:0:
420,152,100365,2,0,B|356:216|324:240|324:240|308:304|268:328,1,215.999993408203,8|0,0:0|0:0,0:0:0:0:
112,184,100769,1,0,0:0:0:0:
432,240,101039,5,0,0:0:0:0:
476,340,101173,1,0,0:0:0:0:
368,320,101308,1,0,0:0:0:0:
248,116,101443,5,8,0:0:0:0:
152,312,101577,1,0,0:0:0:0:
248,116,101712,1,0,0:0:0:0:
152,312,101847,1,0,0:0:0:0:
368,72,102116,5,0,0:0:0:0:
360,180,102250,1,0,0:0:0:0:
260,216,102385,1,0,0:0:0:0:
148,316,102520,6,0,L|276:368,1,135,8|0,0:0|0:0,0:0:0:0:
116,232,102789,6,0,L|232:280,1,121.499996292114,8|0,0:0|0:0,0:0:0:0:
96,152,103058,6,0,L|200:196,1,108,8|0,0:0|0:0,0:0:0:0:
80,84,103328,6,0,L|168:120,1,94.499997116089,8|0,0:0|0:0,0:0:0:0:
68,24,103597,6,0,L|200:80,1,107.999996704102,8|0,0:0|0:0,0:0:0:0:
336,52,103866,1,0,0:0:0:0:
200,220,104001,1,0,0:0:0:0:
372,328,104270,5,0,0:0:0:0:
460,268,104405,1,0,0:0:0:0:
364,220,104540,1,0,0:0:0:0:
280,288,104674,2,0,P|204:308|168:292,1,107.999996704102,8|0,0:0|0:0,0:0:0:0:
312,124,104943,1,0,0:0:0:0:
128,236,105078,1,0,0:0:0:0:
140,56,105347,5,0,0:0:0:0:
52,116,105482,1,0,0:0:0:0:
148,164,105617,1,0,0:0:0:0:
232,96,105751,2,0,P|308:76|344:92,1,107.999996704102,8|0,0:0|0:0,0:0:0:0:
428,176,106021,1,0,0:0:0:0:
360,260,106155,1,0,0:0:0:0:
244,316,106559,1,4,0:0:0:0:
256,192,106829,12,0,107906,0:0:0:0:
384,300,108040,6,0,P|428:256|432:180,1,121.500000463486,8|0,0:0|0:0,0:0:0:0:
124,64,108310,2,0,L|232:148,1,121.500000463486
456,80,108579,2,0,P|388:60|328:80,1,121.500000463486,8|0,0:0|0:0,0:0:0:0:
288,308,108848,1,0,0:0:0:0:
64,212,108983,1,0,0:0:0:0:
292,132,109118,2,0,L|400:200,1,121.500000463486,8|0,0:0|0:0,0:0:0:0:
152,176,109387,2,0,P|104:132|96:56,1,121.500000463486
188,300,109656,1,8,0:0:0:0:
228,188,109791,1,0,0:0:0:0:
448,84,109926,1,0,0:0:0:0:
332,120,110060,1,0,0:0:0:0:
100,48,110195,6,0,L|200:116,1,121.500000463486,8|0,0:0|0:0,0:0:0:0:
324,328,110464,1,8,0:0:0:0:
312,88,110599,1,0,0:0:0:0:
32,340,110733,2,0,B|100:280|104:216,1,121.500000463486,8|0,0:0|0:0,0:0:0:0:
312,88,111003,1,8,0:0:0:0:
440,296,111137,1,0,0:0:0:0:
188,56,111272,2,0,P|100:60|60:100,1,121.500000463486,8|0,0:0|0:0,0:0:0:0:
324,328,111541,1,0,0:0:0:0:
460,124,111676,2,0,P|413:85|354:80,1,121.500000463486,0|8,0:0|0:0,0:0:0:0:
256,324,111945,1,0,0:0:0:0:
188,56,112080,1,8,0:0:0:0:
432,172,112349,6,0,B|384:188|368:232|368:232|408:264|392:328,1,180
256,324,112753,1,0,0:0:0:0:
140,256,112888,2,0,B|160:208|136:168|136:168|100:184|48:156,1,180
112,36,113292,1,0,0:0:0:0:
236,92,113426,2,0,B|296:104|328:140|328:140|376:152|400:200,1,180
416,312,113830,1,0,0:0:0:0:
300,244,113965,2,0,B|240:232|208:196|208:196|160:184|136:136,1,180
304,48,114369,6,0,L|260:76,1,45
356,56,114504,2,0,B|308:84|304:132|304:132|364:152|356:220,1,180
276,252,114908,1,0,0:0:0:0:
232,124,115042,1,0,0:0:0:0:
140,224,115177,2,0,L|192:264,1,45
116,216,115312,2,0,P|116:136|40:48,1,180
224,272,115850,2,0,L|252:320,1,45
284,228,115985,2,0,L|324:266,1,45
324,168,116119,2,0,P|376:120|372:76,1,90
204,48,116389,1,0,0:0:0:0:
204,228,116523,1,0,0:0:0:0:
80,40,116658,6,0,L|160:172,1,121.500000463486,8|0,0:0|0:0,0:0:0:0:
316,320,116927,1,0,0:0:0:0:
404,96,117062,1,0,0:0:0:0:
256,0,117197,2,0,L|211:147,1,121.500000463486,8|0,0:0|0:0,0:0:0:0:
205,362,117466,1,0,0:0:0:0:
431,278,117601,1,0,0:0:0:0:
444,36,117735,2,0,L|303:99,1,121.500000463486,8|0,0:0|0:0,0:0:0:0:
137,236,118005,1,0,0:0:0:0:
348,350,118139,1,0,0:0:0:0:
184,32,118274,2,0,B|208:104|152:168|76:208|52:96,1,243.000000926971,8|0,0:0|0:0,0:0:0:0:
328,352,118812,6,0,B|304:280|360:216|436:176|460:288,1,243.000000926971,8|0,0:0|0:0,0:0:0:0:
216,320,119216,2,0,P|148:296|88:240,1,121.500000463486,0|8,0:0|0:0,0:0:0:0:
352,284,119486,1,0,0:0:0:0:
140,160,119620,2,0,P|92:112|68:44,1,121.500000463486
460,236,119890,2,0,P|392:200|348:156,1,121.500000463486,8|0,0:0|0:0,0:0:0:0:
156,36,120159,1,8,0:0:0:0:
460,144,120294,1,0,0:0:0:0:
240,248,120428,1,0,0:0:0:0:
360,40,120563,1,8,0:0:0:0:
324,348,120698,1,0,0:0:0:0:
244,116,120832,1,8,0:0:0:0:
68,88,120967,6,0,B|96:120|124:140|124:140|128:204|196:216,1,180
52,192,121371,1,0,0:0:0:0:
140,292,121505,2,0,L|112:344,1,45
208,316,121640,2,0,L|200:364,1,45
284,324,121775,2,0,P|344:296|368:240,1,90
304,152,122044,2,0,P|272:216|280:264,1,90
200,116,122313,2,0,L|160:168,1,45
216,100,122448,2,0,P|272:64|296:32,1,90
400,124,122717,2,0,P|436:188|392:292,1,180
268,288,123121,6,0,B|228:299|188:267|188:267|156:227|113:212,1,180
248,204,123525,1,0,0:0:0:0:
196,80,123660,1,0,0:0:0:0:
316,144,123794,2,0,L|276:104,1,45
344,144,123929,2,0,B|388:176|408:212|408:212|384:244|420:292,1,180,0|0,0:0|0:0,0:0:0:0:
148,284,124468,2,0,L|72:304,1,45
132,208,124602,2,0,L|68:212,1,45
116,132,124737,1,0,0:0:0:0:
396,132,124872,1,0,0:0:0:0:
256,248,125006,1,0,0:0:0:0:
256,48,125141,1,0,0:0:0:0:
80,340,125276,6,0,P|136:248|120:212,1,121.500000463486,8|0,0:0|0:0,0:0:0:0:
28,24,125545,1,0,0:0:0:0:
224,168,125680,2,0,P|304:184|344:144,1,121.500000463486,0|8,0:0|0:0,0:0:0:0:
488,352,125949,1,0,0:0:0:0:
452,112,126084,2,0,P|416:56|356:32,1,121.500000463486,8|0,0:0|0:0,0:0:0:0:
284,260,126353,2,0,P|220:268|184:312,1,121.500000463486,8|0,0:0|0:0,0:0:0:0:
48,108,126622,1,0,0:0:0:0:
216,40,126757,1,0,0:0:0:0:
416,180,126891,2,0,P|400:256|344:300,1,121.500000463486,8|0,0:0|0:0,0:0:0:0:
136,344,127161,2,0,P|164:256|200:220,1,121.500000463486
408,36,127430,6,0,B|368:88|368:88|316:128,1,130.500003982544,8|0,0:0|0:0,0:0:0:0:
208,368,127699,1,8,0:0:0:0:
300,48,127834,1,0,0:0:0:0:
408,348,127969,2,0,B|368:296|368:296|316:256,1,130.500003982544,8|0,0:0|0:0,0:0:0:0:
64,128,128238,1,8,0:0:0:0:
312,348,128373,1,0,0:0:0:0:
84,40,128507,6,0,P|168:56|220:120,1,139.500001064301,8|0,0:0|0:0,0:0:0:0:
408,288,128777,1,8,0:0:0:0:
136,340,128911,2,0,P|184:276|180:212,1,139.500001064301,0|8,0:0|0:0,0:0:0:0:
420,68,129180,1,0,0:0:0:0:
276,348,129315,1,8,0:0:0:0:
64,96,129450,1,4,0:0:0:0:
232,32,129584,6,0,B|260:76|260:76|248:112|248:112|272:144|272:144|256:196,1,180
80,196,129988,2,0,P|116:272|156:288,1,90
292,324,130258,1,0,0:0:0:0:
156,208,130392,1,0,0:0:0:0:
280,100,130527,1,0,0:0:0:0:
336,228,130662,2,0,P|396:196|420:88,1,180
236,84,131066,2,0,L|288:104,1,45
188,112,131200,2,0,P|128:120|92:80,1,90
408,304,131604,5,0,0:0:0:0:
228,328,131739,2,0,B|288:296|280:248|280:248|240:216|268:164,1,180
436,140,132277,2,0,L|428:200,1,45
368,120,132412,1,0,0:0:0:0:
284,280,132547,2,0,P|232:252|208:204,1,90
160,56,132816,2,0,P|260:88|304:156,1,180
120,140,133220,1,0,0:0:0:0:
152,316,133355,2,0,P|212:332|272:304,1,90
300,240,133624,1,0,0:0:0:0:
332,164,133759,1,0,0:0:0:0:
136,20,133893,6,0,B|105:73|105:73|44:115,1,121.500000463486,8|0,0:0|0:0,0:0:0:0:
2,348,134163,1,0,0:0:0:0:
231,277,134297,1,0,0:0:0:0:
213,36,134432,2,0,B|234:94|234:94|227:167,1,121.500000463486,8|0,0:0|0:0,0:0:0:0:
379,349,134701,1,0,0:0:0:0:
473,127,134836,1,0,0:0:0:0:
268,0,134970,2,0,B|327:15|327:15|383:63,1,121.500000463486,8|0,0:0|0:0,0:0:0:0:
240,260,135240,1,0,0:0:0:0:
480,284,135374,1,0,0:0:0:0:
300,120,135509,2,0,B|260:64|196:56|196:56|144:120|80:56,1,243.000000926971,8|0,0:0|0:0,0:0:0:0:
212,264,136048,6,0,B|252:320|316:328|316:328|368:264|432:328,1,243.000000926971,8|0,0:0|0:0,0:0:0:0:
260,128,136452,1,0,0:0:0:0:
480,228,136586,2,0,P|452:140|416:116,1,121.500000463486,8|0,0:0|0:0,0:0:0:0:
188,144,136856,2,0,P|116:64|68:60,1,121.500000463486
296,220,137125,2,0,P|328:156|324:88,1,121.500000463486,8|0,0:0|0:0,0:0:0:0:
124,244,137394,2,0,P|92:308|96:376,1,121.500000463486
332,328,137663,2,0,P|392:300|428:256,1,121.500000463486,8|0,0:0|0:0,0:0:0:0:
120,96,137933,1,0,0:0:0:0:
216,316,138067,1,0,0:0:0:0:
324,172,138202,6,0,B|368:132|380:80|380:80|440:40,1,180
408,220,138606,1,0,0:0:0:0:
284,88,138741,2,0,B|224:112|176:92|176:92|136:100|104:160,1,180
428,320,139279,2,0,P|368:328|320:300,1,90
172,260,139549,2,0,L|104:256,1,45
184,188,139683,2,0,L|112:168,1,45
212,116,139818,2,0,P|272:104|308:56,1,90
304,280,140222,6,0,L|272:320,1,45
352,264,140356,2,0,P|412:264|440:228,1,90
268,168,140626,2,0,P|192:136|160:152,1,90
88,284,140895,2,0,P|176:248|188:228,1,90
112,84,141164,2,0,P|100:160|112:192,1,90
232,296,141434,2,0,P|216:216|188:192,1,90
396,220,141703,1,8,0:0:0:0:
292,76,141838,1,8,0:0:0:0:
396,220,141972,1,8,0:0:0:0:
232,296,142107,1,8,0:0:0:0:
76,212,142242,1,8,0:0:0:0:
176,64,142376,1,8,0:0:0:0:
260,168,142511,6,0,P|328:148|352:96,1,90,8|0,0:0|0:0,0:0:0:0:
252,240,142780,2,0,P|192:272|152:260,1,90
172,132,143049,2,0,P|136:92|20:148,1,180,8|0,0:0|0:0,0:0:0:0:
80,296,143453,1,0,0:0:0:0:
100,164,143588,1,8,0:0:0:0:
296,348,143857,6,0,L|308:232,1,90
388,152,144127,1,8,0:0:0:0:
252,136,144261,1,0,0:0:0:0:
172,332,144531,5,0,0:0:0:0:
200,200,144665,2,0,P|176:124|104:96,1,135,8|0,0:0|0:0,0:0:0:0:
104,160,144935,2,0,P|67:210|92:288,1,135,8|0,0:0|0:0,0:0:0:0:
148,260,145204,2,0,P|208:308|308:280,1,180,8|0,0:0|0:0,0:0:0:0:
180,44,145742,6,0,L|264:32,1,45,8|0,0:0|0:0,0:0:0:0:
128,72,145877,2,0,P|76:108|168:96,1,270.000010299683,4|0,0:0|0:0,0:0:0:0:
296,144,146281,2,0,B|332:148|360:168|360:168|360:200|384:220|384:220|416:216|448:240,1,180
300,220,146685,1,0,0:0:0:0:
428,152,146820,6,0,L|468:48,1,90,8|0,0:0|0:0,0:0:0:0:
84,232,147089,2,0,L|44:336,1,90,8|0,0:0|0:0,0:0:0:0:
180,276,147358,2,0,L|232:256,2,45,0|0|0,0:0|0:0|0:0,0:0:0:0:
136,88,147628,2,0,P|80:100|48:52,1,90,8|0,0:0|0:0,0:0:0:0:
376,276,147897,2,0,P|432:264|360:312,1,270,4|0,0:0|0:0,0:0:0:0:
296,220,148435,2,0,L|244:168,2,45,0|0|0,0:0|0:0|0:0,0:0:0:0:
256,96,148839,6,0,L|208:112,1,45
304,124,148974,2,0,P|348:100|360:40,1,90,8|0,0:0|0:0,0:0:0:0:
208,260,149243,2,0,P|164:284|152:344,1,90,8|0,0:0|0:0,0:0:0:0:
156,140,149513,1,0,0:0:0:0:
312,228,149647,1,0,0:0:0:0:
176,72,149782,2,0,P|104:56|52:60,1,90,8|0,0:0|0:0,0:0:0:0:
336,312,150051,2,0,P|408:328|332:264,1,270,4|0,0:0|0:0,0:0:0:0:
204,296,150590,2,0,L|120:320,2,45,0|0|0,0:0|0:0|0:0,0:0:0:0:
124,136,150994,6,0,L|80:96,1,45
176,140,151128,2,0,P|220:100|236:64,1,90,8|0,0:0|0:0,0:0:0:0:
336,244,151398,2,0,P|292:284|276:320,1,90,8|0,0:0|0:0,0:0:0:0:
396,152,151667,1,0,0:0:0:0:
116,232,151802,1,0,0:0:0:0:
304,88,151936,2,0,L|404:24,1,90,8|0,0:0|0:0,0:0:0:0:
208,296,152206,2,0,P|124:336|184:248,1,270,4|0,0:0|0:0,0:0:0:0:
356,216,152744,5,0,0:0:0:0:
240,148,153013,5,0,0:0:0:0:
316,104,153283,5,0,0:0:0:0:
272,56,153552,5,4,0:0:0:0:
256,192,153821,12,4,158669,0:0:0:0:
