osu file format v14

[General]
AudioFilename: Nightcore - Unbreakable_v2.mp3
AudioLeadIn: 0
PreviewTime: 107971
Countdown: 0
SampleSet: Normal
StackLeniency: 0.7
Mode: 0
LetterboxInBreaks: 1
WidescreenStoryboard: 1

[Editor]
Bookmarks: 8299,19136,29773,31900,43273,43542,47043,47110,47582,54179,90803,97266,106826,127966,152609,153549,161899
DistanceSpacing: 0.6
BeatDivisor: 4
GridSize: 4
TimelineZoom: 1.7

[Metadata]
Title:Unbreakable (Nightcore Mix)
TitleUnicode:Unbreakable (Nightcore Mix)
Artist:Fireflight
ArtistUnicode:Fireflight
Creator:Smokeman
Version:Unbreakable (AR10)
Source:
Tags:nightcore Fireflight jump training challenge
BeatmapID:758578
BeatmapSetID:210679

[Difficulty]
HPDrainRate:6.5
CircleSize:4
OverallDifficulty:8
ApproachRate:10
SliderMultiplier:1.8
SliderTickRate:1

[Events]
//Background and Video events
0,0,"background.jpg",0,0
//Break Periods
2,13447,17106
2,52226,53730
//Storyboard Layer 0 (Background)
//Storyboard Layer 1 (Fail)
//Storyboard Layer 2 (Pass)
//Storyboard Layer 3 (Foreground)
//Storyboard Sound Samples

[TimingPoints]
321,269.299820466786,4,2,1,30,1,0
4091,-133.333333333333,4,1,1,40,0,0
4360,-80,4,1,1,40,0,0
4629,-90.9090909090909,4,1,1,60,0,0
13247,-125,4,2,0,50,0,0
15401,-142.857142857143,4,2,0,50,0,0
19710,-166.666666666667,4,2,0,50,0,0
21864,-125,4,1,1,50,0,0
28328,-250,4,2,1,50,0,0
28395,-250,4,2,1,40,0,0
29001,-250,4,2,1,5,0,0
29136,-333.333333333333,4,2,1,50,0,0
29405,-333.333333333333,4,2,1,15,0,0
29674,-333.333333333333,4,2,1,20,0,0
29943,-333.333333333333,4,2,1,25,0,0
30213,-333.333333333333,4,2,1,30,0,0
30415,-333.333333333333,4,2,1,5,0,0
30482,-76.9230769230769,4,1,1,70,0,1
34791,-100,4,1,1,60,0,1
36204,-100,4,1,1,10,0,1
36271,-100,4,1,1,60,0,1
36339,-100,4,1,1,10,0,1
36406,-100,4,1,1,60,0,1
38358,-100,4,1,1,10,0,1
38426,-100,4,1,1,60,0,1
38493,-100,4,1,1,10,0,1
38560,-100,4,1,1,60,0,1
38696,-100,4,1,1,40,0,1
38830,-100,4,1,1,60,0,1
39100,-76.9230769230769,4,1,1,70,0,1
43408,-100,4,1,1,60,0,0
44821,-100,4,1,1,10,0,0
44889,-100,4,1,1,60,0,0
44956,-100,4,1,1,10,0,0
45023,-100,4,1,1,60,0,0
46976,-100,4,1,1,10,0,0
47043,-100,4,1,1,60,0,0
47110,-100,4,1,1,10,0,0
47178,-100,4,1,1,60,0,0
50074,-100,4,1,1,10,0,0
50141,-100,4,1,1,60,0,0
50343,-100,4,1,1,10,0,0
50410,-100,4,1,1,60,0,0
50680,-100,4,1,1,60,0,0
51016,-100,4,1,1,10,0,0
51084,-100,4,1,1,60,0,0
52026,-125,4,2,0,50,0,0
54179,-142.857142857143,4,2,0,50,0,0
59566,-125,4,2,0,40,0,0
60644,-100,4,1,1,50,0,0
65153,-100,4,1,1,10,0,0
65220,-100,4,1,1,50,0,0
65422,-100,4,1,1,10,0,0
65490,-100,4,1,1,50,0,0
65961,-100,4,1,1,10,0,0
66028,-100,4,1,1,50,0,0
66230,-100,4,1,1,10,0,0
66297,-100,4,1,1,50,0,0
66769,-100,4,1,1,10,0,0
66836,-100,4,1,1,50,0,0
67105,-125,4,1,1,50,0,0
68723,-74.0740740740741,4,1,1,50,0,0
69194,-74.0740740740741,4,1,1,5,0,0
69261,-76.9230769230769,4,1,1,70,0,1
73570,-100,4,1,1,60,0,1
74984,-100,4,1,1,10,0,1
75051,-100,4,1,1,60,0,1
75119,-100,4,1,1,10,0,1
75186,-100,4,1,1,60,0,1
77137,-100,4,1,1,10,0,1
77204,-100,4,1,1,60,0,1
77271,-100,4,1,1,10,0,1
77339,-100,4,1,1,60,0,1
77610,-100,4,1,1,50,0,1
77744,-100,4,1,1,40,0,1
77877,-76.9230769230769,4,1,1,70,0,1
82188,-100,4,1,1,60,0,0
83600,-100,4,1,1,10,0,0
83667,-100,4,1,1,60,0,0
83734,-100,4,1,1,10,0,0
83802,-100,4,1,1,60,0,0
86227,-100,4,1,1,40,0,0
86496,-100,4,1,1,60,0,0
86698,-100,4,1,1,10,0,0
86766,-100,4,1,1,60,0,0
86968,-100,4,1,1,10,0,0
87035,-100,4,1,1,60,0,0
87237,-100,4,1,1,10,0,0
87304,-100,4,1,1,60,0,0
88045,-100,4,1,1,10,0,0
88112,-100,4,1,1,60,0,0
88853,-100,4,1,1,10,0,0
88920,-100,4,1,1,60,0,0
89728,-66.6666666666667,4,1,1,60,0,0
89795,-66.6666666666667,4,1,1,10,0,0
89863,-125,4,1,1,60,0,0
90199,-125,4,1,1,10,0,0
90267,-100,4,1,1,60,0,0
90469,-100,4,1,1,10,0,0
90536,-100,4,1,1,60,0,0
90803,-250,4,1,1,50,0,0
90873,-250,4,1,1,30,0,0
92690,-125,4,2,0,5,0,0
92825,-125,4,2,0,50,0,0
92892,-125,4,2,0,5,0,0
92960,-125,4,2,0,50,0,0
93162,-125,4,2,0,5,0,0
93229,-125,4,2,0,50,0,0
93296,-125,4,2,0,5,0,0
93364,-125,4,2,0,50,0,0
93566,-125,4,2,0,5,0,0
93633,-125,4,2,0,50,0,0
93700,-125,4,2,0,5,0,0
93768,-125,4,2,0,50,0,0
93970,-125,4,2,0,5,0,0
94037,-125,4,2,0,50,0,0
94104,-125,4,2,0,5,0,0
94171,-125,4,2,0,50,0,0
94373,-125,4,2,0,5,0,0
94441,-125,4,2,0,50,0,0
94508,-125,4,2,0,5,0,0
94575,-125,4,2,0,50,0,0
94777,-125,4,2,0,5,0,0
94845,-125,4,2,0,50,0,0
94912,-125,4,2,0,5,0,0
94979,-125,4,2,0,50,0,0
95179,-125,4,2,0,5,0,0
95247,-125,4,2,0,50,0,0
95314,-125,4,2,0,5,0,0
95381,-125,4,2,0,50,0,0
95583,-125,4,2,0,5,0,0
95651,-125,4,2,0,50,0,0
95718,-125,4,2,0,5,0,0
95785,-125,4,2,0,50,0,0
95987,-125,4,2,0,5,0,0
96054,-125,4,2,0,50,0,0
96122,-125,4,2,0,5,0,0
96189,-125,4,2,0,50,0,0
96391,-125,4,2,0,5,0,0
96458,-125,4,2,0,50,0,0
96526,-125,4,2,0,5,0,0
96593,-125,4,2,0,50,0,0
96728,-125,4,2,0,5,0,0
97268,-250,4,1,1,50,0,0
98346,-250,4,1,1,20,0,0
98615,-200,4,1,1,30,0,0
98884,-200,4,1,1,40,0,0
99154,-200,4,1,1,50,0,0
99356,-200,4,1,1,5,0,0
99423,-125,4,1,1,50,0,0
99625,-125,4,1,1,10,0,0
99692,-83.3333333333333,4,1,1,60,0,0
99827,-83.3333333333333,4,1,1,30,0,0
99961,-100,4,1,1,60,0,0
100365,-125,4,1,1,50,0,0
100567,-125,4,1,1,10,0,0
100635,-100,4,1,1,50,0,0
100769,-83.3333333333333,4,1,1,60,0,0
100904,-83.3333333333333,4,1,1,30,0,0
101039,-100,4,1,1,50,0,0
101443,-125,4,1,1,50,0,0
101645,-125,4,1,1,10,0,0
101712,-100,4,1,1,50,0,0
101847,-83.3333333333333,4,1,1,50,0,0
101981,-100,4,1,1,50,0,0
102520,-111.111111111111,4,1,1,45,0,0
102722,-111.111111111111,4,1,1,10,0,0
102789,-125,4,1,1,40,0,0
102991,-125,4,1,1,10,0,0
103058,-142.857142857143,4,1,1,35,0,0
103260,-142.857142857143,4,1,1,10,0,0
103328,-166.666666666667,4,1,1,30,0,0
103530,-166.666666666667,4,1,1,10,0,0
103597,-125,4,1,1,50,0,0
103799,-125,4,1,1,10,0,0
103866,-100,4,1,1,50,0,0
104001,-83.3333333333333,4,1,1,60,0,0
104136,-83.3333333333333,4,1,1,30,0,0
104270,-100,4,1,1,50,0,0
104674,-125,4,1,1,50,0,0
104876,-125,4,1,1,10,0,0
104943,-100,4,1,1,50,0,0
105078,-83.3333333333333,4,1,1,60,0,0
105213,-83.3333333333333,4,1,1,30,0,0
105347,-100,4,1,1,50,0,0
105751,-100,4,1,1,40,0,0
107098,-400,4,2,0,10,0,0
107233,-400,4,2,0,14,0,0
107367,-400,4,2,0,18,0,0
107502,-400,4,2,0,22,0,0
107636,-400,4,2,0,26,0,0
107771,-400,4,2,0,30,0,0
107906,-400,4,2,0,35,0,0
107973,-400,4,2,0,10,0,0
108040,-76.9230769230769,4,1,1,70,0,1
109589,-76.9230769230769,4,1,1,20,0,1
109656,-76.9230769230769,4,1,1,70,0,1
112349,-100,4,1,1,60,0,1
113763,-100,4,1,1,10,0,1
113830,-100,4,1,1,60,0,1
113898,-100,4,1,1,10,0,1
113965,-100,4,1,1,60,0,1
115917,-100,4,1,1,10,0,1
115985,-100,4,1,1,60,0,1
116052,-100,4,1,1,10,0,1
116119,-100,4,1,1,60,0,1
116658,-76.9230769230769,4,1,1,70,0,1
120967,-100,4,1,1,60,0,0
122381,-100,4,1,1,10,0,0
122448,-100,4,1,1,60,0,0
122515,-100,4,1,1,10,0,0
122583,-100,4,1,1,60,0,0
124535,-100,4,1,1,10,0,0
124602,-100,4,1,1,60,0,0
124670,-100,4,1,1,10,0,0
124737,-100,4,1,1,45,0,0
124872,-100,4,1,1,50,0,0
125006,-100,4,1,1,55,0,0
125141,-100,4,1,1,60,0,0
125276,-76.9230769230769,4,1,1,70,0,1
127430,-71.4285714285714,4,1,1,75,0,1
128507,-66.6666666666667,4,1,1,80,0,1
129584,-100,4,1,1,60,0,1
130998,-100,4,1,1,10,0,1
131066,-100,4,1,1,60,0,1
131133,-100,4,1,1,10,0,1
131200,-100,4,1,1,60,0,1
133489,-100,4,1,1,55,0,1
133624,-100,4,1,1,50,0,1
133759,-100,4,1,1,45,0,1
133893,-76.9230769230769,4,1,1,70,0,1
137596,-76.9230769230769,4,1,1,35,0,1
137663,-76.9230769230769,4,1,1,70,0,1
138202,-100,4,1,1,60,0,0
139616,-100,4,1,1,10,0,0
139683,-100,4,1,1,60,0,0
139750,-100,4,1,1,10,0,0
139818,-100,4,1,1,60,0,0
142713,-100,4,1,1,10,0,0
142780,-100,4,1,1,60,0,0
142982,-100,4,1,1,10,0,0
143049,-100,4,1,1,60,0,0
143251,-100,4,1,1,10,0,0
143319,-100,4,1,1,60,0,0
144867,-100,4,1,1,10,0,0
144935,-100,4,1,1,60,0,0
145137,-100,4,1,1,10,0,0
145204,-100,4,1,1,60,0,0
145742,-66.6666666666667,4,1,1,60,0,0
145810,-66.6666666666667,4,1,1,10,0,0
145877,-125,4,1,1,60,0,0
146214,-125,4,1,1,10,0,0
146281,-100,4,1,1,60,0,0
146483,-100,4,1,1,10,0,0
146550,-100,4,1,1,60,0,0
146820,-125,4,1,1,60,0,0
147022,-125,4,1,1,10,0,0
147089,-100,4,1,1,60,0,0
147291,-100,4,1,1,10,0,0
147358,-100,4,1,1,60,0,0
147628,-125,4,1,1,60,0,0
147830,-125,4,1,1,10,0,0
147897,-100,4,1,1,60,0,0
148368,-100,4,1,1,10,0,0
148435,-100,4,1,1,60,0,0
148907,-100,4,1,1,10,0,0
148974,-125,4,1,1,60,0,0
149176,-125,4,1,1,10,0,0
149243,-100,4,1,1,60,0,0
149445,-100,4,1,1,10,0,0
149513,-100,4,1,1,60,0,0
149782,-125,4,1,1,60,0,0
149984,-125,4,1,1,10,0,0
150051,-100,4,1,1,60,0,0
150523,-100,4,1,1,10,0,0
150590,-100,4,1,1,60,0,0
151061,-100,4,1,1,10,0,0
151128,-125,4,1,1,60,0,0
151330,-125,4,1,1,10,0,0
151398,-100,4,1,1,60,0,0
151600,-100,4,1,1,10,0,0
151667,-100,4,1,1,60,0,0
151936,-125,4,1,1,60,0,0
152138,-125,4,1,1,10,0,0
152206,-100,4,1,1,50,0,0
154360,-100,4,1,1,40,0,0
155437,-100,4,1,1,30,0,0
156514,-100,4,1,1,20,0,0
157592,-100,4,1,1,10,0,0
158669,-100,4,1,1,5,0,0

[Colours]
Combo1 : 104,239,247
Combo2 : 150,222,206
Combo3 : 243,253,130
Combo4 : 250,118,80
Combo5 : 255,233,202

[HitObjects]
216,196,321,6,0,B|200:260|200:260|172:292,1,90,6|0,0:0|0:0,0:0:0:0:
12,220,590,2,0,B|75:201|75:201|117:210,1,90,2|0,0:0|0:0,0:0:0:0:
292,352,859,2,0,L|272:252,1,90,2|2,0:0|0:0,0:0:0:0:
284,84,1128,1,0,0:0:0:0:
128,172,1263,1,0,0:0:0:0:
352,204,1398,6,0,P|408:196|448:172,1,90,6|0,0:0|0:0,0:0:0:0:
304,60,1667,1,0,0:0:0:0:
256,232,1802,2,0,L|273:320,1,90,2|0,0:0|0:0,0:0:0:0:
152,184,2071,1,2,0:0:0:0:
332,156,2206,1,2,0:0:0:0:
456,232,2340,1,2,0:0:0:0:
252,200,2475,6,0,P|244:132|260:88,1,90,6|0,0:0|0:0,0:0:0:0:
424,104,2744,2,0,B|388:132|388:132|323:153,1,90,2|0,0:0|0:0,0:0:0:0:
168,116,3013,1,2,0:0:0:0:
336,64,3148,1,0,0:0:0:0:
268,212,3283,1,2,0:0:0:0:
348,32,3417,1,0,0:0:0:0:
152,104,3552,6,0,L|248:124,1,90,2|0,0:0|0:0,0:0:0:0:
376,244,3821,2,0,P|304:228|276:236,1,90,2|0,0:0|0:0,0:0:0:0:
176,308,4091,2,0,P|188:244|184:216,1,67.5000025749208,10|0,0:2|2:0,0:0:0:0:
40,72,4360,2,0,P|40:144|64:184,1,112.5,4|0,0:2|2:0,0:0:0:0:
288,192,4629,6,0,L|348:84,1,99.0000030212403,8|0,0:0|0:0,0:0:0:0:
184,232,4899,2,0,L|247:337,1,99.0000030212403,8|0,0:0|0:0,0:0:0:0:
404,212,5168,1,2,0:0:0:0:
228,120,5303,1,0,0:0:0:0:
368,320,5437,2,0,P|432:324|472:308,1,99.0000030212403,8|0,0:0|0:0,0:0:0:0:
272,224,5706,6,0,L|256:332,1,99.0000030212403,8|0,0:0|0:0,0:0:0:0:
120,176,5976,1,2,0:0:0:0:
260,100,6110,1,0,0:0:0:0:
152,300,6245,2,0,P|92:300|44:276,1,99.0000030212403,8|0,0:0|0:0,0:0:0:0:
255,213,6514,1,2,0:0:0:0:
264,332,6649,1,2,0:0:0:0:
120,208,6784,6,0,L|124:96,1,99.0000030212403,8|0,0:0|0:0,0:0:0:0:
304,28,7053,2,0,L|310:136,1,99.0000030212403,8|0,0:0|0:0,0:0:0:0:
356,320,7322,1,2,0:0:0:0:
208,188,7457,1,0,0:0:0:0:
396,136,7592,1,8,0:0:0:0:
260,280,7726,1,0,0:0:0:0:
456,244,7861,6,0,P|496:208|512:156,1,99.0000030212403,8|0,0:0|0:0,0:0:0:0:
340,64,8130,1,2,0:0:0:0:
404,324,8265,1,0,0:0:0:0:
488,128,8399,2,0,L|412:48,1,99.0000030212403,8|0,0:0|0:0,0:0:0:0:
260,176,8669,1,2,0:0:0:0:
376,196,8803,1,2,0:0:0:0:
196,76,8938,6,0,P|148:136|144:184,1,99.0000030212403,12|0,0:0|0:0,0:0:0:0:
264,348,9207,2,0,P|256:296|228:256,1,99.0000030212403,8|0,0:0|0:0,0:0:0:0:
48,212,9477,1,2,0:0:0:0:
240,160,9611,1,0,0:0:0:0:
412,256,9746,2,0,L|436:356,1,99.0000030212403,8|0,0:0|0:0,0:0:0:0:
252,272,10015,6,0,P|228:204|240:168,1,99.0000030212403,8|0,0:0|0:0,0:0:0:0:
420,108,10285,1,2,0:0:0:0:
352,292,10419,1,0,0:0:0:0:
300,60,10554,2,0,L|392:12,1,99.0000030212403,8|0,0:0|0:0,0:0:0:0:
448,204,10823,1,2,0:0:0:0:
356,132,10958,1,2,0:0:0:0:
388,340,11092,6,0,P|448:304|472:268,1,99.0000030212403,8|0,0:0|0:0,0:0:0:0:
276,140,11362,2,0,L|284:252,1,99.0000030212403,8|0,0:0|0:0,0:0:0:0:
208,56,11631,1,2,0:0:0:0:
184,252,11766,1,0,0:0:0:0:
360,160,11900,1,8,0:0:0:0:
172,32,12035,1,0,0:0:0:0:
156,284,12170,6,0,P|228:304|268:304,1,99.0000030212403,8|0,0:0|0:0,0:0:0:0:
408,180,12439,1,0,0:0:0:0:
212,160,12574,2,0,B|136:172|136:172|104:192,1,99.0000030212403,2|0,0:0|0:0,0:0:0:0:
292,280,12843,1,8,0:0:0:0:
376,100,12978,1,2,0:0:0:0:
220,120,13112,1,2,0:0:0:0:
324,212,13247,5,4,1:2:0:0:
184,140,17556,6,0,B|176:224|176:224|156:288,1,125.999996154785,10|0,0:0|0:0,0:0:0:0:
100,116,18094,2,0,P|136:64|212:56,1,125.999996154785,8|0,0:2|0:0,0:0:0:0:
284,96,18498,1,0,0:0:0:0:
232,260,18768,1,0,0:0:0:0:
188,136,19037,1,0,0:0:0:0:
260,340,19441,1,0,0:0:0:0:
324,228,19710,6,0,P|324:144|304:104,2,107.999996704102,2|0|0,0:0|0:0|0:0,0:0:0:0:
136,48,20787,6,0,L|260:28,2,107.999996704102,2|0|0,0:0|0:0|0:0,0:0:0:0:
124,180,21864,6,0,B|128:212|148:232|172:244|172:244|176:272|176:272|196:300,1,144,8|0,0:0|0:0,0:0:0:0:
216,156,22403,1,4,0:0:0:0:
352,292,22942,6,0,B|332:252|320:232|296:212|296:212|344:200,1,144,8|0,0:0|0:0,0:0:0:0:
464,208,23480,2,0,P|460:104|292:24,1,288,4|8,0:0|0:0,0:0:0:0:
216,128,24288,5,0,0:0:0:0:
324,224,24557,2,0,P|344:176|312:88,1,144,4|0,0:0|0:0,0:0:0:0:
252,48,24961,1,0,0:0:0:0:
184,104,25096,1,8,0:0:0:0:
192,192,25231,1,0,0:0:0:0:
396,112,25635,6,0,B|351:68|288:48|288:48|258:72|220:80|220:80|168:56|128:80,1,288,4|8,0:0|0:0,0:0:0:0:
204,204,26443,1,0,0:0:0:0:
344,228,26712,1,4,0:0:0:0:
208,124,27250,5,8,0:0:0:0:
192,180,27520,1,0,0:0:0:0:
332,208,27789,2,0,P|360:140|352:60,1,144,4|0,0:0|0:0,0:0:0:0:
208,152,28328,6,0,B|192:200|192:200|200:240|200:240|188:268|184:304|200:336,1,180,8|0,0:1|0:0,0:0:0:0:
280,348,29136,6,2,B|296:308|340:292|388:304|388:304|372:252|368:220|384:176,1,256.499992172241,2|2,2:2|0:0,0:1:0:0:
464,216,30482,6,0,P|472:160|424:92,1,116.999994644165,12|0,0:0|0:0,0:0:0:0:
228,44,30751,2,0,L|308:140,1,116.999994644165,8|0,0:0|0:0,0:0:0:0:
236,344,31021,2,0,P|240:264|224:216,1,116.999994644165,8|8,0:0|0:0,0:0:0:0:
80,64,31290,1,2,0:0:0:0:
332,168,31425,1,0,0:0:0:0:
108,296,31559,6,0,L|88:176,1,116.999994644165,8|0,0:0|0:0,0:0:0:0:
228,8,31829,2,0,P|240:88|224:144,1,116.999994644165,8|0,0:0|0:0,0:0:0:0:
12,124,32098,2,0,P|88:96|144:100,1,116.999994644165,8|8,0:0|0:0,0:0:0:0:
320,196,32367,1,2,0:0:0:0:
104,252,32502,1,0,0:0:0:0:
328,92,32636,6,0,L|432:156,1,116.999994644165,12|0,0:0|0:0,0:0:0:0:
324,352,32906,2,0,P|304:288|316:224,1,116.999994644165,8|0,0:0|0:0,0:0:0:0:
408,40,33175,1,8,0:0:0:0:
500,264,33310,1,0,0:0:0:0:
228,192,33444,1,0,0:0:0:0:
440,8,33579,1,8,0:0:0:0:
360,288,33714,6,0,L|232:340,1,116.999994644165,12|0,0:0|0:0,0:0:0:0:
68,152,33983,1,8,0:0:0:0:
324,128,34118,1,0,0:0:0:0:
120,288,34252,1,8,0:0:0:0:
20,52,34387,1,0,0:0:0:0:
396,148,34522,1,8,0:0:0:0:
148,200,34656,1,8,0:0:0:0:
200,36,34791,6,0,L|304:12,1,90,12|0,0:0|0:0,0:0:0:0:
304,196,35060,2,0,L|408:172,1,90,8|0,0:0|0:0,0:0:0:0:
296,320,35329,1,0,0:0:0:0:
152,228,35464,1,0,0:0:0:0:
188,60,35599,6,0,P|220:108|236:168,1,90,8|0,0:0|0:0,0:0:0:0:
288,300,35868,2,0,L|304:188,1,90,10|0,0:0|0:0,0:0:0:0:
416,84,36137,2,0,L|408:150,1,45
448,256,36272,2,0,L|456:190,1,45
304,136,36407,2,0,L|192:156,1,90,8|2,0:0|0:0,0:0:0:0:
128,312,36811,5,0,0:0:0:0:
112,280,36945,2,0,P|104:216|112:172,1,90,12|0,0:0|0:0,0:0:0:0:
280,216,37215,2,0,P|305:156|334:122,1,90,8|0,0:0|0:0,0:0:0:0:
404,284,37484,1,0,0:0:0:0:
424,112,37619,1,0,0:0:0:0:
276,32,37753,6,0,P|252:80|248:128,1,90,8|0,0:0|0:0,0:0:0:0:
72,288,38022,2,0,P|112:216|120:176,1,90,10|0,0:0|0:0,0:0:0:0:
108,36,38292,2,0,L|136:100,1,45
240,164,38426,2,0,L|170:156,1,45
48,144,38561,1,8,0:0:0:0:
180,292,38696,1,0,0:0:0:0:
204,56,38830,1,8,0:0:0:0:
240,232,38965,1,8,0:0:0:0:
360,72,39100,6,0,P|424:44|480:44,1,116.999994644165,12|0,0:0|0:0,0:0:0:0:
272,252,39369,2,0,L|248:116,1,116.999994644165,8|0,0:0|0:0,0:0:0:0:
452,260,39638,2,0,P|392:324|344:332,1,116.999994644165,8|8,0:0|0:0,0:0:0:0:
152,232,39908,1,2,0:0:0:0:
376,164,40042,1,0,0:0:0:0:
96,312,40177,6,0,P|64:252|68:188,1,116.999994644165,8|0,0:0|0:0,0:0:0:0:
248,60,40446,2,0,L|108:96,1,116.999994644165,8|0,0:0|0:0,0:0:0:0:
376,200,40715,2,0,P|416:120|412:56,1,116.999994644165,8|0,0:0|0:0,0:0:0:0:
196,168,40985,1,2,0:0:0:0:
288,332,41119,1,0,0:0:0:0:
216,72,41254,6,0,P|152:88|104:120,1,116.999994644165,12|0,0:0|0:0,0:0:0:0:
192,336,41523,2,0,P|210:272|206:215,1,116.999994644165,8|0,0:0|0:0,0:0:0:0:
104,24,41793,1,8,0:0:0:0:
104,256,41927,1,0,0:0:0:0:
320,160,42062,1,8,0:0:0:0:
24,192,42197,1,8,0:0:0:0:
192,336,42331,6,0,L|308:304,1,116.999994644165,12|0,0:0|0:0,0:0:0:0:
452,120,42601,1,0,0:0:0:0:
232,196,42735,1,0,0:0:0:0:
452,280,42870,1,8,0:0:0:0:
320,28,43005,1,0,0:0:0:0:
184,280,43139,1,8,0:0:0:0:
492,92,43274,1,8,0:0:0:0:
316,16,43408,6,0,L|292:116,1,90,12|0,0:0|0:0,0:0:0:0:
116,76,43678,2,0,L|92:176,1,90,8|0,0:0|0:0,0:0:0:0:
128,340,43947,1,0,0:0:0:0:
232,196,44082,1,0,0:0:0:0:
204,20,44216,6,0,P|256:72|288:80,1,90,8|0,0:0|0:0,0:0:0:0:
448,40,44486,2,0,L|368:112,1,90,10|0,0:0|0:0,0:0:0:0:
324,272,44755,2,0,L|328:216,1,45
256,120,44890,2,0,L|252:164,1,45
160,252,45024,2,0,P|163:187|140:136,1,90,8|2,0:0|0:0,0:0:0:0:
272,40,45428,5,0,0:0:0:0:
260,64,45563,2,0,P|257:129|280:180,1,90,12|0,0:0|0:0,0:0:0:0:
108,244,45832,2,0,P|137:301|183:334,1,90,8|0,0:0|0:0,0:0:0:0:
336,344,46101,1,0,0:0:0:0:
472,228,46236,1,0,0:0:0:0:
416,56,46371,6,0,P|384:124|376:176,1,90,8|0,0:0|0:0,0:0:0:0:
308,304,46640,2,0,L|296:196,1,90,10|0,0:0|0:0,0:0:0:0:
196,68,46909,2,0,L|248:112,1,45
176,200,47044,2,0,L|132:244,1,45
64,192,47179,1,8,0:0:0:0:
264,216,47313,1,8,0:0:0:0:
100,336,47448,1,8,0:0:0:0:
172,156,47583,1,8,0:0:0:0:
276,296,47717,6,0,P|236:332|172:340,1,90,12|0,0:0|0:0,0:0:0:0:
288,180,47987,2,0,P|339:196|378:248,1,90,8|0,0:0|0:0,0:0:0:0:
184,224,48256,2,0,L|168:104,1,90,8|0,0:0|0:0,0:0:0:0:
212,36,48525,1,8,0:0:0:0:
92,172,48660,1,8,0:0:0:0:
268,196,48794,6,0,P|328:184|384:152,1,90,8|0,0:0|0:0,0:0:0:0:
196,36,49064,2,0,P|176:93|176:158,1,90,8|0,0:0|0:0,0:0:0:0:
228,296,49333,2,0,P|187:250|131:217,1,90,8|0,0:0|0:0,0:0:0:0:
64,212,49602,1,8,0:0:0:0:
172,356,49737,1,8,0:0:0:0:
284,216,49872,6,0,L|296:72,1,135,8|0,0:0|0:0,0:0:0:0:
248,4,50141,2,0,P|208:56|228:140,1,135,8|0,0:0|0:0,0:0:0:0:
260,200,50410,2,0,P|196:220|140:332,1,180,8|0,0:0|0:0,0:0:0:0:
132,132,50814,1,0,0:0:0:0:
128,104,50882,1,0,0:0:0:0:
124,80,50949,2,0,L|72:68,1,45,8|0,0:0|0:0,0:0:0:0:
16,136,51084,6,0,B|40:176|52:212|52:268|52:268|96:236|156:224|212:240,1,270,12|0,0:0|0:0,0:0:0:0:
408,292,51757,5,8,0:0:0:0:
352,124,51891,1,8,0:0:0:0:
304,352,52026,1,6,0:2:0:0:
136,96,54180,6,0,P|128:152|140:244,1,125.999996154785,2|0,0:0|0:0,0:0:0:0:
184,336,54719,1,4,0:0:0:0:
396,196,55258,6,0,P|352:168|328:160,1,62.9999980773926,2|0,0:0|0:0,0:0:0:0:
248,160,55527,1,0,0:0:0:0:
448,264,55796,1,8,0:0:0:0:
164,328,56335,6,0,P|200:252|208:204,1,125.999996154785,2|0,0:0|0:0,0:0:0:0:
192,88,56873,1,8,0:0:0:0:
332,236,57412,6,0,P|362:261|389:271,1,62.9999980773926,2|0,0:0|0:0,0:0:0:0:
476,288,57681,1,0,0:0:0:0:
284,168,57951,1,8,0:0:0:0:
64,320,58489,6,0,P|108:252|152:224,1,125.999996154785,2|0,0:0|0:0,0:0:0:0:
264,272,59028,1,4,0:0:0:0:
184,40,59566,6,0,L|192:128,1,72,2|8,0:0|0:0,0:0:0:0:
180,256,59836,1,8,0:0:0:0:
176,268,59970,1,0,0:0:0:0:
300,128,60105,2,0,P|356:108|396:112,1,72,8|0,0:0|0:0,0:0:0:0:
276,292,60374,1,8,0:0:0:0:
248,196,60509,1,8,0:0:0:0:
412,120,60644,6,0,P|408:180|392:228,1,90,12|0,0:0|0:0,0:0:0:0:
292,356,60913,2,0,L|272:260,1,90
284,88,61182,2,0,P|320:124|312:184,1,90,8|0,0:0|0:0,0:0:0:0:
188,280,61452,1,0,0:0:0:0:
368,264,61586,1,0,0:0:0:0:
144,200,61721,6,0,L|52:256,1,90,8|0,0:0|0:0,0:0:0:0:
152,168,61990,1,2,0:0:0:0:
324,120,62125,6,0,L|240:87,1,90,8|0,0:0|0:0,0:0:0:0:
336,152,62394,1,2,0:0:0:0:
264,316,62529,6,0,B|260:284|260:284|268:252|268:252|256:192,1,90,8|0,0:0|0:0,0:0:0:0:
244,48,62798,2,0,L|232:168,1,90,12|0,0:0|0:0,0:0:0:0:
352,352,63067,6,0,P|356:300|336:256,1,90
164,236,63337,1,8,0:0:0:0:
252,300,63471,1,0,0:0:0:0:
420,232,63606,2,0,P|356:184|336:180,1,90
144,256,63875,6,0,L|160:144,1,90,8|0,0:0|0:0,0:0:0:0:
152,288,64145,1,2,0:0:0:0:
276,156,64279,6,0,L|260:44,1,90,8|0,0:0|0:0,0:0:0:0:
268,188,64549,1,2,0:0:0:0:
400,280,64683,6,0,P|416:229|412:164,1,90,8|0,0:0|0:0,0:0:0:0:
268,292,64952,2,8,P|336:344|400:352,1,135,12|8,0:0|0:0,0:0:0:0:
328,236,65222,2,0,P|258:209|200:248,1,135,8|0,0:0|0:0,0:0:0:0:
136,324,65491,2,0,L|112:232,1,90,8|8,0:0|0:0,0:0:0:0:
204,40,65760,6,0,P|204:96|140:156,1,135,12|0,0:0|0:0,0:0:0:0:
248,192,66030,2,0,L|368:124,1,135,8|0,0:0|0:0,0:0:0:0:
452,148,66299,1,8,0:0:0:0:
460,152,66434,1,0,0:0:0:0:
264,100,66568,2,0,P|204:108|156:184,1,135,8|0,0:0|0:0,0:0:0:0:
184,252,66838,1,0,0:0:0:0:
348,344,67107,6,0,P|356:272|348:192,1,144,2|0,0:0|0:0,0:0:0:0:
128,108,67645,1,8,0:0:0:0:
228,212,67780,1,0,0:0:0:0:
252,16,67915,1,0,0:0:0:0:
168,292,68184,6,0,P|260:312|336:284,1,144,10|0,0:0|0:0,0:0:0:0:
160,148,68723,6,0,P|180:184|224:28,1,425.2500016222,6|0,0:0|0:0,0:0:0:0:
251,121,69261,6,0,B|247:169|247:169|255:209|255:209|247:265,1,116.999994644165,12|0,0:0|0:0,0:0:0:0:
28,312,69531,2,0,B|38:285|38:285|57:268|57:268|59:242|80:213|104:194,1,116.999994644165,8|0,0:0|0:0,0:0:0:0:
316,304,69800,2,0,P|228:324|188:304,1,116.999994644165,8|8,0:0|0:0,0:0:0:0:
72,120,70069,1,8,0:0:0:0:
116,348,70204,1,0,0:0:0:0:
272,172,70338,6,0,P|284:104|276:52,1,116.999994644165,12|0,0:0|0:0,0:0:0:0:
104,216,70608,1,8,0:0:0:0:
328,288,70742,1,0,0:0:0:0:
120,104,70877,2,0,P|52:120|4:152,1,116.999994644165,8|8,0:0|0:0,0:0:0:0:
236,224,71146,1,8,0:0:0:0:
304,28,71281,1,0,0:0:0:0:
352,312,71416,6,0,P|416:328|484:308,1,116.999994644165,12|0,0:0|0:0,0:0:0:0:
212,200,71685,2,0,L|236:320,1,116.999994644165,8|0,0:0|0:0,0:0:0:0:
368,120,71954,1,8,0:0:0:0:
136,132,72089,1,0,0:0:0:0:
336,280,72224,1,0,0:0:0:0:
388,20,72358,1,8,0:0:0:0:
184,280,72493,6,0,L|256:384,1,116.999994644165,12|0,0:0|0:0,0:0:0:0:
228,116,72762,1,0,0:0:0:0:
84,300,72897,1,0,0:0:0:0:
320,304,73031,1,8,0:0:0:0:
184,48,73166,1,0,0:0:0:0:
428,188,73301,1,8,0:0:0:0:
220,296,73435,1,8,0:0:0:0:
80,184,73570,6,0,L|92:80,1,90,12|0,0:0|0:0,0:0:0:0:
260,156,73839,2,0,L|272:52,1,90,8|0,0:0|0:0,0:0:0:0:
400,220,74109,1,0,0:0:0:0:
248,320,74243,1,0,0:0:0:0:
92,228,74378,6,0,P|144:200|208:208,1,90,8|0,0:0|0:0,0:0:0:0:
333,290,74647,2,0,L|241:322,1,90,10|0,0:0|0:0,0:0:0:0:
80,144,74917,2,0,L|36:84,1,45
224,128,75051,2,0,L|250:164,1,45
164,248,75186,1,8,0:0:0:0:
152,68,75320,2,0,P|220:32|324:108,1,180,2|0,0:0|0:0,0:0:0:0:
92,172,75724,6,0,L|72:72,1,90,12|0,0:0|0:0,0:0:0:0:
200,244,75994,2,0,L|220:144,1,90,8|0,0:0|0:0,0:0:0:0:
336,292,76263,1,0,0:0:0:0:
160,336,76398,1,0,0:0:0:0:
288,204,76532,6,0,P|356:192|408:220,1,90,8|0,0:0|0:0,0:0:0:0:
208,132,76802,2,0,L|92:96,1,90,10|0,0:0|0:0,0:0:0:0:
88,284,77071,2,0,L|104:336,1,45
200,220,77206,2,0,L|146:207,1,45
248,336,77340,1,4,0:0:0:0:
364,228,77475,1,8,0:0:0:0:
200,220,77610,1,8,0:0:0:0:
336,308,77744,1,8,0:0:0:0:
472,220,77879,6,0,P|480:168|468:104,1,116.999994644165,12|0,0:0|0:0,0:0:0:0:
244,172,78148,2,0,P|285:204|346:226,1,116.999994644165,8|0,0:0|0:0,0:0:0:0:
208,32,78417,2,0,P|158:51|109:93,1,116.999994644165,8|8,0:0|0:0,0:0:0:0:
136,324,78687,1,8,0:0:0:0:
272,132,78821,1,0,0:0:0:0:
52,208,78956,6,0,B|96:220|96:220|120:216|120:216|168:232,1,116.999994644165,8|0,0:0|0:0,0:0:0:0:
388,312,79225,1,8,0:0:0:0:
300,92,79360,1,0,0:0:0:0:
248,336,79495,6,0,B|280:276|280:276|296:216,1,116.999994644165,8|8,0:0|0:0,0:0:0:0:
220,4,79764,1,8,0:0:0:0:
72,188,79899,1,0,0:0:0:0:
296,124,80033,6,0,P|364:132|424:172,1,116.999994644165,12|0,0:0|0:0,0:0:0:0:
188,244,80303,2,0,L|160:108,1,116.999994644165,8|0,0:0|0:0,0:0:0:0:
80,348,80572,1,8,0:0:0:0:
304,284,80706,1,0,0:0:0:0:
92,184,80841,1,0,0:0:0:0:
316,116,80976,1,8,0:0:0:0:
224,348,81110,6,0,L|152:256,1,116.999994644165,12|0,0:0|0:0,0:0:0:0:
184,24,81380,1,0,0:0:0:0:
216,208,81514,1,0,0:0:0:0:
76,332,81649,1,8,0:0:0:0:
124,104,81784,1,0,0:0:0:0:
228,360,81918,1,8,0:0:0:0:
8,76,82053,1,8,0:0:0:0:
276,132,82188,6,0,L|256:260,1,90,8|0,0:0|0:0,0:0:0:0:
436,268,82457,2,0,L|315:314,1,90,8|0,0:0|0:0,0:0:0:0:
176,256,82726,1,0,0:0:0:0:
348,208,82861,1,0,0:0:0:0:
220,336,82996,6,0,P|164:344|100:320,1,90,8|0,0:0|0:0,0:0:0:0:
304,132,83265,2,0,P|360:124|424:148,1,90,10|0,0:0|0:0,0:0:0:0:
188,212,83534,6,0,L|196:168,1,45
128,76,83669,2,0,L|120:120,1,45
92,232,83803,1,8,0:0:0:0:
220,52,83938,1,2,0:0:0:0:
312,296,84207,5,0,0:0:0:0:
348,208,84342,2,0,L|384:104,1,90,12|0,0:0|0:0,0:0:0:0:
216,44,84611,2,0,L|252:148,1,90,8|0,0:0|0:0,0:0:0:0:
312,296,84881,1,0,0:0:0:0:
168,188,85015,1,0,0:0:0:0:
337,119,85150,6,0,P|349:171|345:223,1,90,8|0,0:0|0:0,0:0:0:0:
180,277,85419,2,0,L|164:165,1,90,10|0,0:0|0:0,0:0:0:0:
280,44,85689,1,0,0:0:0:0:
256,220,85823,1,0,0:0:0:0:
196,96,85958,1,8,0:0:0:0:
184,72,86092,1,0,0:0:0:0:
320,148,86227,1,8,0:0:0:0:
332,172,86362,1,0,0:0:0:0:
84,144,86496,6,0,P|140:64|188:48,1,135,10|0,0:0|0:0,0:0:0:0:
224,68,86766,6,0,P|244:212|244:216,1,135,10|0,0:0|0:0,0:0:0:0:
236,256,87035,6,0,P|311:268|360:224,1,135,10|0,0:0|0:0,0:0:0:0:
380,180,87304,5,10,0:0:0:0:
340,356,87439,1,0,0:0:0:0:
284,184,87574,1,10,0:0:0:0:
264,156,87843,6,0,P|252:236|220:296,1,135,10|0,0:0|0:0,0:0:0:0:
256,124,88112,1,12,0:0:0:0:
328,336,88247,1,0,0:0:0:0:
340,356,88516,5,0,0:0:0:0:
380,180,88651,2,0,P|380:128|320:52,1,135,10|0,0:0|0:0,0:0:0:0:
252,96,88920,2,0,L|276:248,1,135,10|0,0:0|0:0,0:0:0:0:
220,76,89189,1,10,0:0:0:0:
192,56,89459,5,0,0:0:0:0:
232,184,89593,1,0,0:0:0:0:
160,300,89728,2,0,L|132:204,1,67.5000025749208,12|0,0:0|0:0,0:0:0:0:
144,144,89863,6,0,P|224:88|304:120,1,180,10|0,0:0|0:0,0:0:0:0:
336,192,90267,2,0,B|320:236|320:236|320:268|308:296|284:312,1,135,12|0,0:0|0:0,0:0:0:0:
216,324,90536,1,8,0:0:0:0:
84,288,90671,1,0,0:0:0:0:
16,172,90805,6,0,B|48:124|100:116|140:140|140:140|176:76|176:76|192:108|220:120|256:116|256:116|304:136|312:184|284:232|216:232|200:180,1,504,4|0,0:2|0:0,0:0:0:0:
164,276,92825,6,0,L|148:316,1,36
68,312,92960,2,0,P|68:268|100:192,1,108,6|0,0:0|0:0,0:0:0:0:
156,160,93229,6,0,L|164:220,1,36
232,252,93364,2,0,P|252:204|224:136,1,108,2|0,0:0|0:0,0:0:0:0:
184,84,93633,6,0,L|244:72,1,36
312,80,93768,2,0,P|344:124|360:204,1,108,6|0,0:0|0:0,0:0:0:0:
356,260,94037,6,0,L|344:320,1,36
276,352,94171,2,0,P|260:304|276:236,1,108,2|0,0:0|0:0,0:0:0:0:
328,184,94441,6,0,L|276:164,1,36
200,168,94575,2,4,P|136:196|96:232,1,108,6|4,0:0|0:0,0:0:0:0:
16,200,94845,6,0,L|52:156,1,36
108,112,94979,2,0,P|160:88|236:80,1,108,2|0,0:0|0:0,0:0:0:0:
300,88,95249,6,0,L|300:148,1,36
348,200,95383,2,0,P|400:204|456:168,1,108,6|0,0:0|0:0,0:0:0:0:
436,96,95653,6,0,L|400:60,1,36
324,16,95787,2,0,P|276:24|220:72,1,108,2|0,0:0|0:0,0:0:0:0:
196,144,96057,6,0,L|192:188,1,36
216,272,96191,2,0,P|256:304|320:308,1,108,6|0,0:0|0:0,0:0:0:0:
372,236,96461,6,0,L|384:176,1,36
276,148,96595,2,0,L|292:240,1,72,6|0,0:0|0:0,0:0:0:0:
244,60,97268,6,0,B|252:88|276:108|304:112|304:112|308:148|308:148|352:188|344:272|284:296,1,288,4|0,0:0|0:0,0:0:0:0:
120,272,98615,6,0,B|72:284|52:228|92:188|140:176|208:188|252:224,1,247.5
164,264,99423,6,0,P|154:244|192:140,1,108,6|0,0:0|0:0,0:0:0:0:
268,104,99692,2,0,L|152:68,1,107.999996704102,12|0,0:0|0:0,0:0:0:0:
308,84,99961,1,0,0:0:0:0:
364,208,100096,1,0,0:0:0:0:
296,324,100231,1,0,0:0:0:0:
192,168,100365,6,0,P|176:88|192:32,1,108,6|0,0:0|0:0,0:0:0:0:
160,200,100635,1,0,0:0:0:0:
308,96,100769,2,0,L|424:80,1,107.999996704102,12|0,0:0|0:0,0:0:0:0:
280,120,101039,1,0,0:0:0:0:
444,200,101173,1,0,0:0:0:0:
316,240,101308,1,0,0:0:0:0:
420,324,101443,6,0,P|360:352|296:344,1,108,6|0,0:0|0:0,0:0:0:0:
440,288,101712,1,0,0:0:0:0:
232,304,101847,2,0,P|208:244|208:200,1,107.999996704102,12|0,0:0|0:0,0:0:0:0:
224,336,102116,1,0,0:0:0:0:
300,224,102250,1,0,0:0:0:0:
256,96,102385,1,0,0:0:0:0:
144,208,102520,6,0,L|160:344,1,121.499996292114,6|0,0:0|0:0,0:0:0:0:
112,160,102789,6,0,L|104:292,1,108,6|0,0:0|0:0,0:0:0:0:
84,108,103058,6,0,L|55:224,1,94.499997116089,6|0,0:0|0:0,0:0:0:0:
56,56,103328,6,0,L|15:146,1,80.9999975280763,6|0,0:0|0:0,0:0:0:0:
112,160,103597,6,0,P|168:140|236:152,1,108,6|0,0:0|0:0,0:0:0:0:
88,184,103866,1,0,0:0:0:0:
256,48,104001,2,0,L|348:128,1,107.999996704102,12|0,0:0|0:0,0:0:0:0:
220,48,104270,1,0,0:0:0:0:
228,212,104405,1,0,0:0:0:0:
372,136,104540,1,0,0:0:0:0:
196,60,104674,6,0,P|168:108|164:164,1,108,6|0,0:0|0:0,0:0:0:0:
128,12,104943,1,0,0:0:0:0:
256,128,105078,2,0,L|364:112,1,107.999996704102,12|0,0:0|0:0,0:0:0:0:
228,160,105347,1,0,0:0:0:0:
180,288,105482,1,0,0:0:0:0:
292,364,105617,1,0,0:0:0:0:
348,240,105751,5,4,0:0:0:0:
380,156,106021,5,0,0:0:0:0:
384,132,106155,1,4,0:0:0:0:
396,320,106559,5,4,0:0:0:0:
364,148,107098,6,0,P|411:203|404:276,1,146.25,2|0,0:0|0:0,0:0:0:0:
288,348,108040,6,0,L|320:224,1,116.999994644165,8|0,0:0|0:0,0:0:0:0:
212,24,108310,2,0,P|204:92|212:148,1,116.999994644165
420,244,108579,2,0,L|388:120,1,116.999994644165,8|8,0:0|0:0,0:0:0:0:
184,24,108848,1,0,0:0:0:0:
296,228,108983,1,0,0:0:0:0:
484,88,109118,6,0,L|394:-3,1,116.999994644165,8|0,0:0|0:0,0:0:0:0:
160,32,109387,2,0,P|204:88|304:88,1,175.499991966248,8|0,0:0|0:0,0:0:0:0:
352,160,109656,6,0,L|344:284,1,116.999994644165,8|8,0:0|0:0,0:0:0:0:
484,88,109926,1,8,0:0:0:0:
272,180,110060,1,0,0:0:0:0:
460,320,110195,6,0,P|468:244|460:192,1,116.999994644165,12|0,0:0|0:0,0:0:0:0:
340,4,110464,2,0,L|328:136,1,116.999994644165,8|0,0:0|0:0,0:0:0:0:
264,344,110733,1,8,0:0:0:0:
180,124,110868,1,0,0:0:0:0:
400,204,111003,1,0,0:0:0:0:
180,276,111137,1,8,0:0:0:0:
400,360,111272,6,0,L|420:232,1,116.999994644165,12|0,0:0|0:0,0:0:0:0:
328,28,111541,1,8,0:0:0:0:
132,160,111676,1,0,0:0:0:0:
252,360,111811,1,8,0:0:0:0:
424,204,111945,1,0,0:0:0:0:
120,128,112080,1,8,0:0:0:0:
472,48,112215,1,8,0:0:0:0:
188,0,112349,6,0,L|212:108,1,90,12|0,0:0|0:0,0:0:0:0:
324,228,112619,2,0,L|348:336,1,90,8|0,0:0|0:0,0:0:0:0:
188,224,112888,1,0,0:0:0:0:
316,96,113022,1,0,0:0:0:0:
248,296,113157,6,0,P|188:320|144:312,1,90,8|0,0:0|0:0,0:0:0:0:
252,144,113426,2,0,L|316:224,1,90,10|0,0:0|0:0,0:0:0:0:
136,296,113696,2,0,L|128:240,1,45
176,120,113830,2,0,L|240:136,1,45
272,256,113965,1,8,0:0:0:0:
76,148,114100,2,0,P|88:60|172:12,1,180,2|0,0:0|0:0,0:0:0:0:
328,84,114504,6,0,L|292:192,1,90,12|0,0:0|0:0,0:0:0:0:
132,240,114773,2,0,L|168:348,1,90,8|0,0:0|0:0,0:0:0:0:
336,364,115042,1,0,0:0:0:0:
396,192,115177,1,0,0:0:0:0:
276,56,115312,6,0,P|260:140|264:180,1,90,8|0,0:0|0:0,0:0:0:0:
340,344,115581,2,0,L|316:236,1,90,10|0,0:0|0:0,0:0:0:0:
176,148,115850,2,0,L|204:212,1,45
332,180,115985,2,0,L|373:123,1,45
276,56,116119,1,8,0:0:0:0:
140,172,116254,1,8,0:0:0:0:
320,196,116389,1,8,0:0:0:0:
152,72,116523,1,8,0:0:0:0:
360,8,116658,6,0,P|380:80|356:152,1,116.999994644165,12|0,0:0|0:0,0:0:0:0:
180,256,116927,2,0,P|232:202|306:187,1,116.999994644165,8|0,0:0|0:0,0:0:0:0:
464,328,117197,2,0,L|400:224,1,116.999994644165,8|8,0:0|0:0,0:0:0:0:
232,64,117466,1,8,0:0:0:0:
284,292,117601,1,0,0:0:0:0:
448,124,117735,6,0,P|460:56|452:4,1,116.999994644165,12|0,0:0|0:0,0:0:0:0:
289,177,118005,2,0,P|277:245|285:297,1,116.999994644165,8|0,0:0|0:0,0:0:0:0:
128,117,118274,2,0,L|252:53,1,116.999994644165,8|8,0:0|0:0,0:0:0:0:
460,120,118543,1,8,0:0:0:0:
296,288,118678,1,0,0:0:0:0:
72,228,118812,6,0,L|120:100,1,116.999994644165,8|0,0:0|0:0,0:0:0:0:
340,56,119082,2,0,P|322:113|288:184,1,116.999994644165,8|0,0:0|0:0,0:0:0:0:
72,228,119351,1,8,0:0:0:0:
236,60,119486,1,0,0:0:0:0:
308,280,119620,1,0,0:0:0:0:
76,256,119755,1,8,0:0:0:0:
304,132,119890,2,0,L|428:160,1,116.999994644165,12|0,0:0|0:0,0:0:0:0:
236,304,120159,5,8,0:0:0:0:
116,104,120294,1,0,0:0:0:0:
340,56,120428,1,8,0:0:0:0:
116,240,120563,1,8,0:0:0:0:
436,280,120698,1,8,0:0:0:0:
304,132,120832,1,8,0:0:0:0:
136,248,120967,6,0,L|252:284,1,90,12|0,0:0|0:0,0:0:0:0:
144,112,121236,2,0,L|28:76,1,90,8|0,0:0|0:0,0:0:0:0:
136,248,121505,1,0,0:0:0:0:
248,108,121640,1,0,0:0:0:0:
68,84,121775,6,0,P|76:152|96:180,1,90,8|0,0:0|0:0,0:0:0:0:
228,276,122044,2,0,P|220:208|200:180,1,90,10|0,0:0|0:0,0:0:0:0:
88,80,122313,2,0,L|96:136,1,45
136,248,122448,2,0,L|144:192,1,45
224,88,122583,2,0,L|240:188,2,90,8|2|0,0:0|0:0|0:0,0:0:0:0:
228,276,122987,5,0,0:0:0:0:
312,236,123121,2,0,P|364:236|428:264,1,90,12|0,0:0|0:0,0:0:0:0:
136,248,123391,2,0,P|84:248|20:220,1,90,8|0,0:0|0:0,0:0:0:0:
224,116,123660,1,0,0:0:0:0:
252,296,123794,1,0,0:0:0:0:
104,148,123929,6,0,L|124:52,1,90,8|0,0:0|0:0,0:0:0:0:
316,188,124198,2,0,P|304:240|264:292,1,90,10|0,0:0|0:0,0:0:0:0:
224,100,124468,2,0,L|232:24,1,45
328,128,124602,2,0,L|320:204,1,45
428,104,124737,1,8,0:0:0:0:
504,192,124872,1,0,0:0:0:0:
328,128,125006,1,8,0:0:0:0:
367,19,125141,1,0,0:0:0:0:
400,216,125276,6,0,L|304:288,1,116.999994644165,12|0,0:0|0:0,0:0:0:0:
72,280,125545,2,0,L|168:352,1,116.999994644165,8|0,0:0|0:0,0:0:0:0:
288,152,125814,2,0,P|288:88|276:36,1,116.999994644165,8|8,0:0|0:0,0:0:0:0:
168,248,126084,1,8,0:0:0:0:
400,216,126218,1,0,0:0:0:0:
188,112,126353,6,0,P|140:112|72:148,1,116.999994644165,12|0,0:0|0:0,0:0:0:0:
288,248,126622,1,8,0:0:0:0:
200,32,126757,1,0,0:0:0:0:
84,232,126891,2,0,P|135:259|193:261,1,116.999994644165,8|8,0:0|0:0,0:0:0:0:
404,152,127161,1,8,0:0:0:0:
200,32,127295,1,0,0:0:0:0:
316,256,127430,6,0,B|372:284|372:284|456:292,1,125.999996154785,12|0,0:0|0:0,0:0:0:0:
252,96,127699,2,0,B|199:130|199:130|150:199,1,125.999996154785,12|0,0:0|0:0,0:0:0:0:
416,144,127969,1,8,0:0:0:0:
184,36,128103,1,0,0:0:0:0:
300,260,128238,1,0,0:0:0:0:
364,16,128373,1,8,0:0:0:0:
204,284,128507,6,0,B|256:332|256:332|356:368,1,135.000005149842,12|0,0:0|0:0,0:0:0:0:
448,116,128777,1,8,0:0:0:0:
152,212,128911,1,0,0:0:0:0:
240,48,129046,1,8,0:0:0:0:
340,344,129180,1,8,0:0:0:0:
52,144,129315,1,8,0:0:0:0:
480,88,129450,1,8,0:0:0:0:
144,224,129584,6,0,L|168:332,1,90,12|0,0:0|0:0,0:0:0:0:
248,148,129854,2,0,P|252:92|232:32,1,90,8|0,0:0|0:0,0:0:0:0:
284,236,130123,1,0,0:0:0:0:
164,100,130258,1,0,0:0:0:0:
340,152,130392,6,0,P|380:204|376:264,1,90,8|0,0:0|0:0,0:0:0:0:
248,352,130662,2,0,P|208:300|212:240,1,90,10|0,0:0|0:0,0:0:0:0:
264,108,130931,2,0,L|268:168,1,45
140,208,131066,2,0,L|144:148,1,45
272,232,131200,1,8,0:0:0:0:
168,64,131335,2,0,P|208:20|328:24,1,180,2|0,0:0|0:0,0:0:0:0:
432,164,131739,6,0,L|332:204,1,90,12|0,0:0|0:0,0:0:0:0:
172,168,132008,2,0,L|88:201,1,90,8|0,0:0|0:0,0:0:0:0:
284,288,132277,1,0,0:0:0:0:
264,108,132412,1,0,0:0:0:0:
180,296,132547,6,0,P|192:340|224:372,1,90,8|0,0:0|0:0,0:0:0:0:
275,197,132816,2,0,L|264:108,1,90,10|0,0:0|0:0,0:0:0:0:
108,240,133085,1,0,0:0:0:0:
284,288,133220,1,0,0:0:0:0:
232,164,133355,1,8,0:0:0:0:
188,292,133489,1,0,0:0:0:0:
368,284,133624,1,0,0:0:0:0:
232,164,133759,1,0,0:0:0:0:
440,148,133893,6,0,L|484:268,1,116.999994644165,12|0,0:0|0:0,0:0:0:0:
268,360,134163,2,0,P|244:304|264:216,1,116.999994644165,8|0,0:0|0:0,0:0:0:0:
376,52,134432,2,0,L|353:177,1,116.999994644165,8|8,0:0|0:0,0:0:0:0:
164,304,134701,1,8,0:0:0:0:
44,100,134836,1,0,0:0:0:0:
256,4,134970,6,0,P|276:76|260:136,1,116.999994644165,12|0,0:0|0:0,0:0:0:0:
136,312,135240,1,8,0:0:0:0:
368,284,135374,1,0,0:0:0:0:
132,164,135509,2,0,L|4:200,1,116.999994644165,8|8,0:0|0:0,0:0:0:0:
244,312,135778,1,8,0:0:0:0:
272,80,135913,1,0,0:0:0:0:
108,248,136048,6,0,L|56:376,1,116.999994644165,12|0,0:0|0:0,0:0:0:0:
272,248,136317,2,0,L|324:120,1,116.999994644165,8|0,0:0|0:0,0:0:0:0:
108,248,136586,1,8,0:0:0:0:
328,324,136721,1,0,0:0:0:0:
180,140,136856,1,0,0:0:0:0:
56,340,136990,1,8,0:0:0:0:
292,332,137125,2,0,P|316:276|312:192,1,116.999994644165,12|0,0:0|0:0,0:0:0:0:
196,20,137394,6,0,B|172:116|176:160|176:160|204:152|232:136,1,175.499991966248,8|0,0:0|0:0,0:0:0:0:
108,84,137663,1,8,0:0:0:0:
172,308,137798,1,0,0:0:0:0:
308,116,137933,1,8,0:0:0:0:
40,264,138067,1,8,0:0:0:0:
368,212,138202,6,0,L|480:264,1,90,12|0,0:0|0:0,0:0:0:0:
408,72,138471,2,0,L|296:124,1,90,8|0,0:0|0:0,0:0:0:0:
164,192,138741,1,0,0:0:0:0:
336,244,138875,1,0,0:0:0:0:
216,108,139010,6,0,P|172:96|104:108,1,90,8|0,0:0|0:0,0:0:0:0:
40,256,139279,2,0,L|121:218,1,90,10|0,0:0|0:0,0:0:0:0:
284,140,139549,2,0,L|272:192,1,45
380,96,139683,2,0,L|390:52,1,45
448,172,139818,1,8,0:0:0:0:
308,284,139952,2,0,P|220:276|168:192,1,180,2|0,0:0|0:0,0:0:0:0:
240,40,140356,6,0,P|268:80|288:152,1,90,12|0,0:0|0:0,0:0:0:0:
68,192,140626,2,0,P|88:147|140:94,1,90,8|0,0:0|0:0,0:0:0:0:
228,252,140895,1,0,0:0:0:0:
240,40,141030,1,0,0:0:0:0:
325,195,141164,6,0,L|304:304,1,90,8|0,0:0|0:0,0:0:0:0:
172,160,141434,2,0,L|276:124,1,90,10|0,0:0|0:0,0:0:0:0:
220,308,141703,5,0,0:0:0:0:
84,192,141838,1,0,0:0:0:0:
200,56,141972,1,0,0:0:0:0:
332,180,142107,1,0,0:0:0:0:
164,240,142242,5,0,0:0:0:0:
280,104,142376,1,0,0:0:0:0:
328,280,142511,2,0,P|260:316|184:304,1,135,10|0,0:0|0:0,0:0:0:0:
168,272,142780,6,0,B|192:204|192:204|236:152,1,135,10|0,0:0|0:0,0:0:0:0:
220,104,143049,6,0,P|153:102|95:136,1,135,10|0,0:0|0:0,0:0:0:0:
84,192,143319,1,10,0:0:0:0:
124,16,143453,1,0,0:0:0:0:
188,224,143588,1,10,0:0:0:0:
192,240,143857,6,0,B|208:344|208:344|168:320,1,135,10|0,0:0|0:0,0:0:0:0:
104,196,144127,1,12,0:0:0:0:
280,232,144261,1,0,0:0:0:0:
308,240,144531,6,0,L|364:216,1,45
432,132,144665,2,0,P|400:112|296:120,1,135,10|0,0:0|0:0,0:0:0:0:
240,180,144935,2,0,L|220:44,1,135,10|0,0:0|0:0,0:0:0:0:
216,208,145204,1,8,0:0:0:0:
196,232,145473,5,0,0:0:0:0:
332,152,145608,1,0,0:0:0:0:
340,128,145675,1,0,0:0:0:0:
340,100,145742,2,0,P|332:68|300:24,1,67.5000025749208,12|0,0:0|0:0,0:0:0:0:
212,24,145877,6,0,P|181:106|217:186,1,180,10|0,0:0|0:0,0:0:0:0:
300,220,146281,6,0,P|304:280|228:348,1,135,12|0,0:0|0:0,0:0:0:0:
208,344,146550,1,8,0:0:0:0:
384,304,146685,1,0,0:0:0:0:
196,232,146820,6,0,L|76:264,1,108,10|0,0:0|0:0,0:0:0:0:
148,296,147089,2,0,L|278:330,1,135,10|0,0:0|0:0,0:0:0:0:
312,336,147358,1,0,0:0:0:0:
244,168,147493,1,0,0:0:0:0:
72,108,147628,6,0,P|132:88|168:48,1,108,10|0,0:0|0:0,0:0:0:0:
180,120,147897,2,0,B|184:176|272:216|320:204|320:204|356:220|356:220|380:192|408:176|460:184,1,315,10|0,0:0|0:0,0:0:0:0:
476,192,148435,1,0,0:0:0:0:
320,104,148570,1,0,0:0:0:0:
292,88,148839,6,0,L|236:120,1,45
232,208,148974,2,0,P|296:200|336:160,1,108,10|0,0:0|0:0,0:0:0:0:
380,100,149243,2,0,L|452:240,1,135,10|0,0:0|0:0,0:0:0:0:
436,264,149513,1,0,0:0:0:0:
476,88,149647,1,0,0:0:0:0:
356,220,149782,6,0,P|348:288|384:340,1,108,10|0,0:0|0:0,0:0:0:0:
308,272,150051,2,0,B|280:224|232:196|176:200|176:200|152:180|152:180|116:188|116:188|100:172|80:152|40:140,1,315,10|0,0:0|0:0,0:0:0:0:
8,128,150590,1,0,0:0:0:0:
184,88,150724,1,0,0:0:0:0:
208,100,150994,6,0,L|256:124,1,45
288,208,151128,2,0,P|232:216|176:184,1,108,10|0,0:0|0:0,0:0:0:0:
112,224,151398,2,10,B|136:264|192:296|264:292,1,135
272,288,151667,1,0,0:0:0:0:
436,208,151802,1,0,0:0:0:0:
288,104,151936,6,0,P|232:120|184:176,1,108,10|0,0:0|0:0,0:0:0:0:
108,168,152206,2,0,P|180:64|320:32,1,270,10|0,0:0|0:0,0:0:0:0:
372,100,152677,1,0,0:0:0:0:
380,120,152744,1,8,0:0:0:0:
476,228,153013,5,0,0:0:0:0:
356,268,153283,5,0,0:0:0:0:
288,352,153552,5,4,0:2:0:0:
256,192,153619,12,0,158669,2:2:0:0:
