osu file format v14

[General]
AudioFilename: audio.mp3
AudioLeadIn: 0
PreviewTime: 136696
Countdown: 0
SampleSet: Drum
StackLeniency: 0.5
Mode: 0
LetterboxInBreaks: 0
WidescreenStoryboard: 1

[Editor]
Bookmarks: 32,25766,34493,51947,60674,78129,93402,119584,137038,154493,167584,185038,201811
DistanceSpacing: 1
BeatDivisor: 4
GridSize: 32
TimelineZoom: 2.1

[Metadata]
Title:Ett Folk Forbannat
TitleUnicode:Ett Folk Förbannat
Artist:Finntroll
ArtistUnicode:Finntroll
Creator:pw384
Version:Normal
Source:
Tags:foerbannat A People Accursed blodsvept Shrouded in Blood Finland Fenno Swedish finlandssvenska svenska black folk metal
BeatmapID:4497381
BeatmapSetID:2112430

[Difficulty]
HPDrainRate:3
CircleSize:3
OverallDifficulty:4.7
ApproachRate:6
SliderMultiplier:1.08
SliderTickRate:1

[Events]
//Background and Video events
0,0,"finntroll-5.jpg",0,0
//Break Periods
2,25966,26897
2,56511,57462
2,93600,100805
2,163433,164383
2,198328,199260
//Storyboard Layer 0 (Background)
//Storyboard Layer 1 (Fail)
//Storyboard Layer 2 (Pass)
//Storyboard Layer 3 (Foreground)
//Storyboard Layer 4 (Overlay)
//Storyboard Sound Samples

[TimingPoints]
48,400,4,3,1,60,1,0
182,400,4,3,1,60,1,0
182,-66.6666666666667,4,3,1,60,0,0
11382,-66.6666666666667,4,3,1,80,0,0
12982,-66.6666666666667,4,3,1,90,0,0
17782,382.165605095541,4,3,1,90,1,0
17782,-66.6666666666667,4,3,1,90,0,0
19332,422.535211267606,4,3,1,90,1,0
19332,-66.6666666666667,4,3,1,90,0,0
19754,405.405405405405,4,3,1,90,1,0
19754,-66.6666666666667,4,3,1,90,0,0
20968,402.684563758389,4,3,1,90,1,0
20968,-66.6666666666667,4,3,1,90,0,0
21773,397.350993377483,4,3,1,90,1,0
21773,-66.6666666666667,4,3,1,90,0,0
22567,394.736842105263,4,3,1,90,1,0
22567,-66.6666666666667,4,3,1,90,0,0
23356,389.61038961039,4,3,1,90,1,0
23356,-66.6666666666667,4,3,1,90,0,0
24932,425.531914893617,4,3,1,90,1,0
24932,-66.6666666666667,4,3,1,90,0,0
25357,409.556313993174,4,3,1,90,1,0
25766,272.727272727273,4,3,1,90,1,0
27947,-100,4,3,1,30,0,0
28220,-100,4,3,1,40,0,0
28493,-100,4,3,1,50,0,0
28766,-100,4,3,1,60,0,0
29038,-100,4,3,1,70,0,0
29311,-100,4,3,1,80,0,0
29584,-100,4,3,1,90,0,0
30129,-100,4,3,1,95,0,0
34493,-100,4,3,1,75,0,0
36675,-100,4,3,1,85,0,0
38856,-100,4,3,1,75,0,0
41038,-100,4,3,1,85,0,0
43220,-100,4,3,1,95,0,0
51947,-100,4,3,1,95,0,0
54129,-100,4,3,1,95,0,0
56311,275.229357798165,4,3,1,95,1,0
58512,270.27027027027,4,3,1,95,1,0
60674,272.727272727273,4,3,1,75,1,0
60674,-100,4,3,1,75,0,0
62855,-100,4,3,1,85,0,0
65037,-100,4,3,1,75,0,0
67219,-100,4,3,1,85,0,0
69401,-100,4,3,1,95,0,0
86855,-100,4,3,1,75,0,0
90128,-100,4,3,1,85,0,0
91219,-100,4,3,1,95,0,0
101855,-100,4,3,1,65,0,0
102128,-111.111111111111,4,3,1,65,0,0
117401,-100,4,3,1,95,0,0
119583,-100,4,3,1,95,0,0
136219,-100,4,3,1,95,0,0
136764,300,4,3,1,95,1,0
137064,275.229357798165,4,3,1,95,1,0
137064,-100,4,3,1,95,0,0
138164,272.479564032698,4,3,1,95,1,0
138164,-100,4,3,1,95,0,0
139253,270.27027027027,4,3,1,95,1,0
139253,-100,4,3,1,95,0,0
140334,266.785237883504,4,3,1,95,1,0
140334,-100,4,3,1,95,0,0
141413,272.727272727273,4,3,1,95,1,0
143582,272.727272727273,4,3,1,95,1,0
145764,273.972602739726,4,3,1,95,1,0
150147,272.727272727273,4,3,1,95,1,0
152328,269.058295964126,4,3,1,95,1,0
153942,283.687943262411,4,3,1,95,1,0
154492,-100,4,3,1,80,0,0
154509,272.727272727273,4,3,1,80,1,0
158872,270.27027027027,4,3,1,95,1,1
158872,-100,4,3,1,95,0,1
159953,272.727272727273,4,3,1,95,1,1
161043,273.972602739726,4,3,1,95,1,1
163234,-100,4,3,1,95,0,0
165433,275.229357798165,4,3,1,95,1,0
165983,266.666666666667,4,3,1,95,1,0
167048,284.36018957346,4,3,1,95,1,0
167617,264.31718061674,4,3,1,95,1,0
168674,278.228611175516,4,3,1,95,1,0
169786,270.124257158293,4,3,1,95,1,0
171946,272.727272727273,4,3,1,95,1,0
185036,-100,4,3,1,100,0,1
198127,-100,4,3,1,100,0,0
200310,276.497695852535,4,3,1,100,1,1
200310,-100,4,3,1,100,0,1
201830,-100,4,3,1,100,0,0

[Colours]
Combo1 : 207,187,118
Combo2 : 170,105,74
Combo3 : 120,89,54

[HitObjects]
256,32,11382,6,0,B|208:192|304:192|256:352,2,324.00001235962,4|0|4,0:3|1:0|1:2,0:0:0:0:
435,1,13382,5,10,1:1:0:0:
511,77,13648,2,0,L|503:136,1,54.0000020599366,0|0,1:0|1:0,0:0:0:0:
354,235,14182,1,10,1:1:0:0:
349,53,14582,5,0,1:0:0:0:
425,129,14848,2,0,L|417:188,1,54.0000020599366,0|10,1:0|1:1,0:0:0:0:
506,245,15248,2,0,L|498:304,1,54.0000020599366,0|0,1:0|1:0,0:0:0:0:
347,372,15782,1,10,1:1:0:0:
231,258,16182,6,0,P|227:206|231:93,1,162.00000617981,4|10,1:2|1:1,0:0:0:0:
320,36,16848,2,0,L|378:30,1,54.0000020599366,0|0,1:0|1:0,0:0:0:0:
506,124,17382,1,10,1:1:0:0:
404,252,17782,6,0,B|359:263|329:236|333:233|303:202|251:213,1,162.00000617981,4|10,1:3|1:1,0:0:0:0:
249,217,18546,2,0,B|204:228|174:201|178:198|148:167|96:178,1,162.00000617981,0|10,1:0|1:1,0:0:0:0:
94,182,19332,1,4,1:2:0:0:
77,1,19754,5,10,1:1:0:0:
1,77,20024,2,0,L|9:136,1,54.0000020599366,0|0,1:0|1:0,0:0:0:0:
158,235,20564,1,10,1:1:0:0:
163,53,20968,5,0,1:0:0:0:
87,129,21236,2,0,L|95:188,1,54.0000020599366,0|10,1:0|1:1,0:0:0:0:
6,245,21639,2,0,L|14:304,1,54.0000020599366,0|0,1:0|1:0,0:0:0:0:
165,372,22170,1,10,1:1:0:0:
281,258,22567,6,0,P|285:206|281:93,1,162.00000617981,4|10,1:2|1:1,0:0:0:0:
192,36,23224,2,0,L|134:30,1,54.0000020599366,0|0,1:0|1:0,0:0:0:0:
6,124,23745,1,10,1:1:0:0:
108,252,24135,6,0,B|153:263|183:236|179:233|209:202|261:213,1,162.00000617981,4|10,1:3|1:1,0:0:0:0:
263,217,24932,2,0,B|308:228|338:201|334:198|364:167|416:178,1,162.00000617981,0|10,1:0|1:1,0:0:0:0:
494,310,25766,5,4,1:2:0:0:
0,192,27947,6,0,B|24:167|24:167|97:167|97:167|122:192|122:192|195:192|195:192|220:167|220:167|293:167|293:167|317:192|317:192|391:192|391:192|415:167|415:167|488:167,1,540,2|2,0:3|0:3,0:0:0:0:
465,273,29584,2,0,P|432:334|330:328,1,162,2|0,0:3|0:3,0:0:0:0:
317,307,30129,5,4,1:2:0:0:
210,325,30402,2,0,L|203:384,2,54,10|0|0,1:0|1:0|1:0,0:0:0:0:
133,249,30947,2,0,L|126:190,1,54,10|0,1:0|1:0,0:0:0:0:
151,159,31220,6,0,P|175:129|148:12,1,162,0|0,1:0|1:0,0:0:0:0:
73,88,31902,2,0,L|7:97,1,54,0|12,1:0|1:1,0:0:0:0:
0,201,32311,5,4,1:2:0:0:
96,250,32584,2,0,L|103:309,2,54,10|0|0,1:0|1:0|1:0,0:0:0:0:
182,184,33129,2,0,L|189:125,1,54,10|0,1:0|1:0,0:0:0:0:
218,99,33402,6,0,P|248:75|365:102,1,162,0|0,1:0|1:0,0:0:0:0:
424,184,34084,2,0,L|490:175,2,54,8|8|8,1:0|1:0|1:0,0:0:0:0:
306,296,34766,5,10,0:1:0:0:
306,296,35038,1,6,0:0:0:0:
306,296,35311,1,10,0:1:0:0:
206,88,35856,5,10,0:1:0:0:
206,88,36128,1,6,0:0:0:0:
206,88,36401,1,10,0:1:0:0:
296,27,36675,6,0,P|310:78|307:136,1,108,4|10,1:2|1:0,0:0:0:0:
219,195,37220,2,0,L|226:253,2,54,4|0|10,1:3|0:0|1:0,0:0:0:0:
206,88,37766,2,0,P|171:67|62:128,1,162,4|4,1:2|1:3,0:0:0:0:
53,150,38311,2,0,L|67:266,1,108,4|10,1:2|1:0,0:0:0:0:
303,353,39129,5,10,0:1:0:0:
303,353,39402,1,6,0:0:0:0:
209,31,40220,5,10,0:1:0:0:
209,31,40493,1,6,0:0:0:0:
446,126,41038,6,0,L|459:234,1,108,4|10,1:2|1:0,0:0:0:0:
393,320,41584,2,0,P|369:348|284:344,1,108,4|10,1:3|1:0,0:0:0:0:
196,379,42129,6,0,P|189:277|173:152,1,216,4|0,1:2|1:0,0:0:0:0:
139,62,42947,1,0,1:0:0:0:
257,7,43220,6,0,P|249:42|256:117,1,108,4|10,1:2|1:0,0:0:0:0:
328,193,43766,1,2,1:3:0:0:
328,193,44038,1,10,1:0:0:0:
430,159,44311,2,0,P|487:192|493:287,1,162,4|8,1:2|1:3,0:0:0:0:
401,333,44993,2,0,L|343:325,1,54,0|10,0:0|1:0,0:0:0:0:
254,381,45402,6,0,L|138:365,1,108,4|10,1:2|1:0,0:0:0:0:
66,294,45947,1,2,1:3:0:0:
66,294,46220,1,10,1:0:0:0:
138,209,46493,2,0,P|136:130|71:86,1,162,4|8,1:2|1:3,0:0:0:0:
5,182,47175,2,0,L|63:174,1,54,0|10,0:0|1:0,0:0:0:0:
149,115,47584,6,0,P|256:103|364:115,1,216,4|2,1:2|1:3,0:0:0:0:
453,174,48402,1,10,1:0:0:0:
453,174,48675,2,0,P|463:135|453:59,1,108,4|10,1:2|1:0,0:0:0:0:
429,34,49084,2,0,L|365:28,1,54,0|2,0:0|1:3,0:0:0:0:
271,60,49493,2,0,L|207:54,1,54,10|0,1:0|0:0,0:0:0:0:
182,80,49766,6,0,P|172:119|182:195,1,108,4|10,1:2|1:0,0:0:0:0:
257,259,50311,1,4,1:2:0:0:
357,218,50584,2,0,L|421:212,1,54,10|0,1:0|0:0,0:0:0:0:
446,238,50857,6,0,P|456:277|446:353,1,108,4|10,1:2|1:0,0:0:0:0:
161,293,51675,2,0,L|47:283,1,108,10|4,1:0|1:2,0:0:0:0:
256,192,54129,12,6,56311,1:2:0:0:
512,96,58512,6,0,B|482:67|482:67|362:67|362:67|332:96|332:96|212:96|212:96|182:67|182:67|63:67,1,486,2|8,1:3|1:3,0:0:0:0:
0,224,60133,2,0,B|106:224|106:224|138:256|138:256|202:256,1,216,2|6,1:2|0:0,0:0:0:0:
290,192,60946,5,10,0:1:0:0:
290,192,61219,1,6,0:0:0:0:
290,192,61492,1,10,0:1:0:0:
486,280,62037,5,10,0:1:0:0:
486,280,62310,1,6,0:0:0:0:
486,280,62583,1,10,0:1:0:0:
393,334,62855,6,0,P|381:286|394:224,1,108,4|10,1:2|1:0,0:0:0:0:
463,148,63401,2,0,L|458:93,2,54,4|0|10,1:3|0:0|1:0,0:0:0:0:
392,229,63946,2,0,L|214:208,1,162,4|4,1:2|1:3,0:0:0:0:
199,180,64492,2,0,P|186:148|204:72,1,108,4|10,1:2|1:0,0:0:0:0:
403,6,65310,5,10,0:1:0:0:
403,6,65583,1,6,0:0:0:0:
403,378,66401,5,10,0:1:0:0:
403,378,66674,1,6,0:0:0:0:
244,227,67219,6,0,P|190:232|136:226,1,108,4|10,1:2|1:0,0:0:0:0:
89,349,67764,2,0,P|143:344|197:350,1,108,4|10,1:3|1:0,0:0:0:0:
316,379,68310,2,0,P|323:277|339:152,1,216,4|0,1:2|1:0,0:0:0:0:
373,62,69128,1,0,1:0:0:0:
255,7,69401,6,0,P|263:42|256:117,1,108,4|10,1:2|1:0,0:0:0:0:
184,193,69947,1,2,1:3:0:0:
184,193,70219,1,10,1:0:0:0:
82,159,70492,2,0,P|25:192|19:287,1,162,4|8,1:2|1:3,0:0:0:0:
111,333,71174,2,0,L|169:325,1,54,0|10,0:0|1:0,0:0:0:0:
258,381,71583,6,0,L|374:365,1,108,4|10,1:2|1:0,0:0:0:0:
446,294,72128,1,2,1:3:0:0:
446,294,72401,1,10,1:0:0:0:
374,209,72674,2,0,P|376:130|441:86,1,162,4|8,1:2|1:3,0:0:0:0:
507,182,73356,2,0,L|449:174,1,54,0|10,0:0|1:0,0:0:0:0:
363,115,73765,6,0,P|256:103|148:115,1,216,4|2,1:2|1:3,0:0:0:0:
59,174,74583,1,10,1:0:0:0:
59,174,74856,2,0,P|49:135|59:59,1,108,4|10,1:2|1:0,0:0:0:0:
83,34,75265,2,0,L|147:28,1,54,0|2,0:0|1:3,0:0:0:0:
241,60,75674,2,0,L|305:54,1,54,10|0,1:0|0:0,0:0:0:0:
330,80,75947,6,0,P|340:119|330:195,1,108,4|10,1:2|1:0,0:0:0:0:
255,259,76492,1,4,1:2:0:0:
155,218,76765,2,0,L|91:212,1,54,10|0,1:0|0:0,0:0:0:0:
66,238,77038,6,0,P|56:277|66:353,1,108,4|10,1:2|1:0,0:0:0:0:
172,361,77583,1,2,1:3:0:0:
176,365,77855,1,10,1:0:0:0:
287,331,78128,6,0,B|339:311|395:347|379:363|435:399|487:379,1,216,4|2,1:2|1:3,0:0:0:0:
459,274,78946,1,10,1:0:0:0:
487,169,79219,2,0,B|435:149|379:185|395:201|339:237|287:217,1,216,4|2,1:2|1:3,0:0:0:0:
315,112,80037,1,10,1:0:0:0:
217,65,80310,6,0,B|165:85|109:49|125:33|69:-3|17:17,1,216,4|2,1:2|1:3,0:0:0:0:
45,122,81128,1,10,1:0:0:0:
17,227,81401,2,0,B|69:247|125:211|109:195|165:159|217:179,1,216,4|2,1:2|1:3,0:0:0:0:
189,284,82219,1,10,1:0:0:0:
268,356,82492,6,0,P|319:346|379:353,1,108,4|10,1:2|1:0,0:0:0:0:
461,287,83037,2,0,P|471:236|464:176,1,108,2|10,1:3|1:0,0:0:0:0:
414,84,83583,2,0,L|307:91,1,108,4|10,1:2|1:0,0:0:0:0:
239,176,84128,2,0,L|131:182,1,108,2|10,1:3|1:0,0:0:0:0:
29,144,84674,5,4,1:2:0:0:
29,144,84946,1,12,1:0:0:0:
33,36,85219,5,4,1:2:0:0:
33,36,85491,1,12,1:0:0:0:
136,9,85764,5,4,1:2:0:0:
136,9,86037,1,10,1:0:0:0:
198,92,86310,5,2,1:3:0:0:
198,92,86583,1,10,1:0:0:0:
465,121,87128,6,0,P|463:80|464:6,2,108,0|4|0,1:0|0:0|1:0,0:0:0:0:
282,267,88219,2,0,P|280:308|281:382,2,108,0|4|0,1:0|0:0|1:0,0:0:0:0:
120,108,89310,1,0,1:0:0:0:
35,175,89583,2,0,P|32:207|35:242,2,54,4|4|0,0:0|0:0|1:0,0:0:0:0:
120,108,90128,2,0,P|175:107|446:107,1,324,4|2,0:2|1:1,0:0:0:0:
488,205,91219,5,12,1:2:0:0:
455,308,91492,1,12,1:2:0:0:
371,239,91764,5,12,1:2:0:0:
338,342,92037,1,12,1:2:0:0:
254,273,92310,5,0,1:0:0:0:
221,376,92583,1,0,1:0:0:0:
137,307,92855,6,0,P|56:308|30:186,1,216,0|4,1:0|1:2,0:0:0:0:
256,192,101855,5,2,1:3:0:0:
256,192,102128,6,0,B|338:184|338:184|363:199|363:199|446:192,1,194.399994067383
473,98,102946,1,0,1:0:0:0:
473,98,103219,6,0,B|391:106|391:106|366:91|366:91|283:98,1,194.399994067383
256,192,104037,1,0,1:0:0:0:
256,192,104310,5,0,0:0:0:0:
312,365,104855,1,0,0:0:0:0:
164,258,105401,1,0,0:0:0:0:
348,258,105946,1,0,0:0:0:0:
200,365,106492,6,0,B|118:357|118:357|93:372|93:372|10:365,1,194.399994067383
1,268,107310,1,0,1:0:0:0:
1,268,107583,6,0,B|83:276|83:276|108:261|108:261|191:268,1,194.399994067383
256,192,108401,1,0,1:0:0:0:
256,192,108674,5,0,0:0:0:0:
200,19,109219,1,0,0:0:0:0:
348,126,109765,1,0,0:0:0:0:
164,126,110310,1,0,0:0:0:0:
312,19,110855,6,0,L|511:19,1,194.399994067383
459,105,111674,1,0,1:0:0:0:
459,105,111946,6,0,L|260:105,1,194.399994067383
216,192,112764,1,0,1:0:0:0:
216,192,113037,6,0,L|410:192,1,194.399994067383
506,365,114128,2,0,L|312:365,1,194.399994067383
200,365,114946,1,0,1:0:0:0:
200,365,115219,6,0,L|1:365,1,194.399994067383
53,279,116038,1,0,1:0:0:0:
53,279,116310,6,0,L|252:279,1,194.399994067383
296,192,117128,1,0,1:0:0:0:
345,105,117401,6,0,L|409:105,1,54,4|0,1:2|1:0,0:0:0:0:
211,21,117946,2,0,L|147:21,1,54,4|0,1:2|1:0,0:0:0:0:
58,165,118492,2,0,L|122:165,1,54,4|0,1:2|0:0,0:0:0:0:
256,88,119037,2,0,P|280:192|256:296,1,216,0|4,1:0|1:2,0:0:0:0:
151,246,119855,6,0,L|146:188,1,54,10|8,1:0|1:3,0:0:0:0:
112,165,120128,2,0,L|117:107,2,54,4|4|10,1:3|1:3|1:0,0:0:0:0:
28,234,120674,5,4,1:3:0:0:
85,325,120946,2,0,L|143:330,1,54,10|4,1:0|1:3,0:0:0:0:
166,363,121219,2,0,P|270:339|374:363,1,216,4|4,1:3|1:2,0:0:0:0:
434,273,122037,6,0,L|492:268,2,54,10|8|4,1:0|1:3|1:3,0:0:0:0:
353,199,122583,2,0,L|358:141,1,54,10|8,1:0|1:3,0:0:0:0:
388,115,122855,2,0,P|374:71|265:44,1,162,4|4,1:2|1:2,0:0:0:0:
178,94,123537,2,0,L|183:152,1,54,4|12,1:3|1:1,0:0:0:0:
265,217,123946,5,4,1:2:0:0:
196,300,124219,2,0,L|138:305,1,54,10|8,1:0|1:3,0:0:0:0:
114,337,124492,2,0,L|56:332,2,54,4|4|10,1:3|1:3|1:0,0:0:0:0:
81,233,125037,5,4,1:3:0:0:
3,157,125310,2,0,L|-2:99,1,54,10|4,1:0|1:3,0:0:0:0:
25,69,125583,2,0,P|77:47|132:168,1,216,4|4,1:3|1:2,0:0:0:0:
237,120,126401,6,0,L|232:62,2,54,10|8|4,1:0|1:3|1:3,0:0:0:0:
282,218,126946,2,0,L|277:276,1,54,10|8,1:0|1:3,0:0:0:0:
254,308,127219,2,0,P|212:300|147:385,2,162,4|4|12,1:2|1:2|1:1,0:0:0:0:
351,353,128310,5,4,1:2:0:0:
361,246,128583,2,0,L|366:188,1,54,10|8,1:0|1:3,0:0:0:0:
400,165,128856,2,0,L|395:107,2,54,4|4|10,1:3|1:3|1:0,0:0:0:0:
484,234,129402,5,4,1:3:0:0:
427,325,129674,2,0,L|369:330,1,54,10|4,1:0|1:3,0:0:0:0:
346,363,129947,2,0,P|242:339|138:363,1,216,4|4,1:3|1:2,0:0:0:0:
78,273,130765,6,0,L|20:268,2,54,10|8|4,1:0|1:3|1:3,0:0:0:0:
159,199,131311,2,0,L|154:141,1,54,10|8,1:0|1:3,0:0:0:0:
124,115,131583,2,0,P|138:71|247:44,1,162,4|4,1:2|1:2,0:0:0:0:
334,94,132265,2,0,L|329:152,1,54,4|12,1:3|1:1,0:0:0:0:
247,217,132674,5,4,1:2:0:0:
316,300,132947,2,0,L|374:305,1,54,10|8,1:0|1:3,0:0:0:0:
398,337,133220,2,0,L|456:332,2,54,4|4|10,1:3|1:3|1:0,0:0:0:0:
431,233,133765,5,4,1:3:0:0:
509,157,134038,2,0,L|514:99,1,54,10|4,1:0|1:3,0:0:0:0:
487,69,134311,2,0,P|435:47|380:168,1,216,4|4,1:3|1:2,0:0:0:0:
275,120,135128,6,0,L|280:62,2,54,10|8|4,1:0|1:3|1:3,0:0:0:0:
186,181,135673,2,0,L|191:239,1,54,10|8,1:0|1:3,0:0:0:0:
152,273,135946,6,0,B|230:243|314:297|290:321|374:375|452:345,1,324,4|0,1:2|1:1,0:0:0:0:
512,248,137064,5,14,1:1:0:0:
512,248,137614,1,8,1:1:0:0:
512,248,138164,1,14,1:1:0:0:
512,248,138708,1,8,1:1:0:0:
311,158,139253,6,0,P|308:104|311:45,1,108,0|8,1:0|1:0,0:0:0:0:
222,137,139793,2,0,P|168:140|109:137,1,108,0|8,1:0|1:0,0:0:0:0:
201,226,140334,2,0,P|204:280|201:339,1,108,0|8,1:0|1:0,0:0:0:0:
290,247,140867,2,0,P|344:244|403:247,1,108,0|8,1:0|1:0,0:0:0:0:
474,319,141413,5,14,1:1:0:0:
474,319,141958,1,8,1:1:0:0:
474,319,142503,1,14,1:1:0:0:
474,319,143049,1,8,1:1:0:0:
310,333,143582,6,0,P|308:279|311:226,1,108,0|8,1:0|1:0,0:0:0:0:
397,137,144128,2,0,P|343:139|290:137,1,108,0|8,1:0|1:0,0:0:0:0:
201,50,144673,2,0,P|203:104|201:158,1,108,0|8,1:0|1:0,0:0:0:0:
114,246,145219,2,0,P|168:244|222:247,2,108,0|8|4,1:0|1:0|1:0,0:0:0:0:
0,136,146311,5,12,1:2:0:0:
0,136,146859,1,14,1:1:0:0:
0,136,147407,1,8,1:1:0:0:
201,226,147955,6,0,P|204:280|201:339,1,108,0|8,1:0|1:0,0:0:0:0:
290,247,148503,2,0,P|344:244|403:247,1,108,0|8,1:0|1:0,0:0:0:0:
311,158,149051,2,0,P|308:104|311:45,1,108,0|8,1:0|1:0,0:0:0:0:
222,137,149599,2,0,P|168:140|109:137,1,108,0|8,1:0|1:0,0:0:0:0:
38,65,150147,5,14,1:1:0:0:
38,65,150692,1,8,1:1:0:0:
38,65,151237,1,14,1:1:0:0:
38,65,151783,1,8,1:1:0:0:
256,8,152328,6,0,P|258:62|253:226,1,216,4|4,1:2|1:2,0:0:0:0:
444,367,153404,2,0,P|442:313|447:149,1,216,4|4,1:2|1:2,0:0:0:0:
256,192,154509,12,0,157781,0:0:0:0:
199,56,158872,5,12,1:2:0:0:
313,56,159142,1,8,1:0:0:0:
392,135,159412,5,8,1:0:0:0:
392,249,159682,1,8,1:0:0:0:
313,328,159953,5,8,1:0:0:0:
199,328,160225,1,8,1:0:0:0:
120,249,160498,5,8,1:0:0:0:
120,135,160771,1,8,1:0:0:0:
202,192,161043,6,0,L|310:192,2,108,0|8|8,1:1|1:1|1:3,0:0:0:0:
48,368,162138,2,0,B|108:336|108:336|404:336|404:336|464:368,1,432,8|4,1:3|1:2,0:0:0:0:
480,160,165433,6,0,B|448:192|448:192|320:192,1,162,4|4,1:2|0:2,0:0:0:0:
160,160,166249,2,0,B|128:128|128:128|0:128,1,162,4|4,0:2|0:2,0:0:0:0:
73,265,167048,2,0,P|120:338|241:309,1,216,10|6,1:2|0:0,0:0:0:0:
314,244,167881,5,10,0:1:0:0:
416,278,168145,1,6,0:0:0:0:
416,278,168409,1,10,0:1:0:0:
165,259,168952,5,10,0:1:0:0:
63,225,169230,1,6,0:0:0:0:
63,225,169508,1,10,0:1:0:0:
165,259,169786,6,0,P|177:211|164:149,1,108,4|10,1:2|1:0,0:0:0:0:
95,73,170326,2,0,L|100:18,2,54,4|0|10,1:3|1:0|1:0,0:0:0:0:
166,154,170866,2,0,L|344:133,1,162,4|4,1:2|1:3,0:0:0:0:
359,105,171406,2,0,P|372:73|354:-3,1,108,4|10,1:2|1:0,0:0:0:0:
148,53,172219,5,10,0:1:0:0:
166,154,172492,1,6,0:0:0:0:
479,236,173310,5,10,0:1:0:0:
461,337,173583,1,6,0:0:0:0:
256,266,174128,6,0,P|248:217|256:159,1,108,4|10,1:2|1:0,0:0:0:0:
354,114,174674,2,0,P|362:65|354:7,1,108,4|10,1:3|1:0,0:0:0:0:
453,50,175219,2,0,L|114:28,1,324,4|0,1:2|1:0,0:0:0:0:
35,82,176310,6,0,P|9:119|22:185,1,108,4|10,1:2|1:0,0:0:0:0:
97,250,176855,1,2,1:3:0:0:
97,250,177128,1,10,1:0:0:0:
123,354,177401,2,0,P|181:304|268:324,1,162,4|8,1:2|1:3,0:0:0:0:
251,209,178083,2,0,L|246:143,1,54,0|10,0:0|1:0,0:0:0:0:
331,88,178492,6,0,P|387:83|433:113,1,108,4|10,1:2|1:0,0:0:0:0:
466,210,179037,1,2,1:3:0:0:
466,210,179310,1,10,1:0:0:0:
360,180,179583,2,0,L|373:342,1,162,4|8,1:2|1:3,0:0:0:0:
271,378,180265,2,0,L|205:373,1,54,0|10,0:0|1:0,0:0:0:0:
255,272,180674,6,0,P|259:209|125:174,1,216,4|2,1:2|1:3,0:0:0:0:
54,238,181492,1,10,1:0:0:0:
3,142,181765,2,0,P|2:94|7:16,1,108,4|10,1:2|1:0,0:0:0:0:
40,9,182174,2,0,L|99:16,1,54,0|2,0:0|1:3,0:0:0:0:
178,93,182583,2,0,L|237:86,1,54,10|0,1:0|0:0,0:0:0:0:
260,54,182855,5,4,1:2:0:0:
363,84,183128,1,10,1:0:0:0:
466,114,183401,1,4,1:2:0:0:
377,175,183673,2,0,L|384:234,1,54,10|0,1:0|0:0,0:0:0:0:
416,257,183946,5,4,1:2:0:0:
335,329,184218,2,0,P|256:318|125:347,1,216,10|10,1:0|1:0,0:0:0:0:
17,342,185036,6,0,B|42:175|42:175|-8:139|-8:139|4:55|4:55|158:15|158:15|195:59|195:59|177:119|177:119|110:144,1,648,4|4,1:2|0:0,0:0:0:0:
191,326,187218,6,0,P|235:344|291:319,1,108,4|10,1:2|1:0,0:0:0:0:
317,276,187627,2,0,L|325:213,1,54,10|6,1:3|1:3,1:3:0:0:
283,120,188036,2,0,L|274:54,1,54,10|10,1:0|1:3,0:0:0:0:
312,27,188309,2,0,P|376:15|429:97,1,162,4|4,1:2|1:2,0:0:0:0:
399,188,188991,2,0,L|464:196,1,54,4|12,1:3|1:1,0:0:0:0:
478,299,189400,5,4,1:2:0:0:
384,316,189673,2,0,P|357:314|329:316,1,54,10|10,1:0|1:3,0:0:0:0:
294,339,189946,2,0,P|291:272|290:223,1,108,4|10,1:3|1:0,0:0:0:0:
336,132,190492,1,4,1:3:0:0:
244,74,190765,2,0,L|246:12,2,54,10|6|4,1:0|1:3|1:3,0:0:0:0:
147,123,191310,1,10,1:0:0:0:
56,64,191583,6,0,P|38:108|46:169,1,108,4|10,1:2|1:0,0:0:0:0:
82,205,191992,2,0,L|74:268,1,54,10|6,1:3|1:3,1:3:0:0:
145,340,192401,2,0,L|211:331,1,54,10|10,1:0|1:3,0:0:0:0:
242,364,192674,2,0,P|234:301|275:211,1,162,4|4,1:2|1:2,0:0:0:0:
206,128,193355,2,0,L|214:63,1,54,4|12,1:3|1:1,0:0:0:0:
297,6,193765,5,4,1:2:0:0:
385,68,194037,2,0,P|412:70|440:68,1,54,10|10,1:0|1:3,0:0:0:0:
475,45,194309,2,0,P|478:112|479:161,1,108,4|10,1:3|1:0,0:0:0:0:
390,217,194856,1,4,1:3:0:0:
292,169,195127,2,0,L|288:109,2,54,10|6|4,1:0|1:3|1:3,0:0:0:0:
208,237,195674,1,10,1:0:0:0:
147,326,195946,6,0,P|191:344|252:336,1,108,4|10,1:2|1:0,0:0:0:0:
288,300,196355,2,0,L|351:308,1,54,10|6,1:3|1:3,1:3:0:0:
412,225,196765,2,0,L|403:159,1,54,10|10,1:0|1:3,0:0:0:0:
439,130,197037,2,0,P|395:66|319:74,1,162,4|4,1:2|1:2,0:0:0:0:
218,112,197719,2,0,L|209:46,1,54,4|12,1:3|1:1,0:0:0:0:
110,17,198128,5,4,1:2:0:0:
256,192,200310,12,4,201830,1:2:0:0:
