osu file format v14

[General]
AudioFilename: audio.mp3
AudioLeadIn: 0
PreviewTime: 136696
Countdown: 0
SampleSet: Drum
StackLeniency: 0.3
Mode: 0
LetterboxInBreaks: 0
WidescreenStoryboard: 1

[Editor]
Bookmarks: 32,25766,34493,51947,60674,78129,93402,119584,137038,154493,167584,185038,201811
DistanceSpacing: 1
BeatDivisor: 6
GridSize: 16
TimelineZoom: 2.1

[Metadata]
Title:Ett Folk Forbannat
TitleUnicode:Ett Folk Förbannat
Artist:Finntroll
ArtistUnicode:Finntroll
Creator:pw384
Version:Hard
Source:
Tags:foerbannat A People Accursed blodsvept Shrouded in Blood Finland Fenno Swedish finlandssvenska svenska black folk metal
BeatmapID:4496881
BeatmapSetID:2112430

[Difficulty]
HPDrainRate:5
CircleSize:3.7
OverallDifficulty:7
ApproachRate:8
SliderMultiplier:1.5
SliderTickRate:1

[Events]
//Background and Video events
0,0,"finntroll-5.jpg",0,0
//Break Periods
2,26311,27197
2,56861,57762
2,93600,101105
2,163433,164683
2,198327,199560
//Storyboard Layer 0 (Background)
//Storyboard Layer 1 (Fail)
//Storyboard Layer 2 (Pass)
//Storyboard Layer 3 (Foreground)
//Storyboard Layer 4 (Overlay)
//Storyboard Sound Samples

[TimingPoints]
48,400,4,3,1,60,1,0
182,400,4,3,1,60,1,0
182,-83.3333333333333,4,3,1,60,0,0
11382,-83.3333333333333,4,3,1,80,0,0
12982,-83.3333333333333,4,3,1,90,0,0
17782,382.165605095541,4,3,1,90,1,0
17782,-83.3333333333333,4,3,1,90,0,0
19332,422.535211267606,4,3,1,90,1,0
19332,-83.3333333333333,4,3,1,90,0,0
19754,405.405405405405,4,3,1,90,1,0
19754,-83.3333333333333,4,3,1,90,0,0
20968,402.684563758389,4,3,1,90,1,0
20968,-83.3333333333333,4,3,1,90,0,0
21773,397.350993377483,4,3,1,90,1,0
21773,-83.3333333333333,4,3,1,90,0,0
22567,394.736842105263,4,3,1,90,1,0
22567,-83.3333333333333,4,3,1,90,0,0
23356,389.61038961039,4,3,1,90,1,0
23356,-83.3333333333333,4,3,1,90,0,0
24932,425.531914893617,4,3,1,90,1,0
24932,-83.3333333333333,4,3,1,90,0,0
25357,409.556313993174,4,3,1,90,1,0
25766,272.727272727273,4,3,1,90,1,0
27947,-125,4,3,1,30,0,0
28220,-125,4,3,1,40,0,0
28493,-125,4,3,1,50,0,0
28766,-125,4,3,1,60,0,0
29038,-125,4,3,1,70,0,0
29311,-125,4,3,1,80,0,0
29584,-100,4,3,1,90,0,0
30129,-100,4,3,1,95,0,0
34493,-100,4,3,1,75,0,0
36675,-100,4,3,1,85,0,0
38856,-100,4,3,1,75,0,0
41038,-100,4,3,1,85,0,0
43220,-100,4,3,1,95,0,0
51947,-100,4,3,1,75,0,0
55220,-100,4,3,1,95,0,0
56311,275.229357798165,4,3,1,95,1,0
58512,270.27027027027,4,3,1,95,1,0
60674,272.727272727273,4,3,1,75,1,0
62855,-100,4,3,1,85,0,0
65037,-100,4,3,1,75,0,0
67219,-100,4,3,1,85,0,0
69401,-100,4,3,1,95,0,0
86855,-100,4,3,1,75,0,0
90128,-100,4,3,1,85,0,0
91219,-100,4,3,1,95,0,0
101855,-100,4,3,1,65,0,0
102128,-125,4,3,1,65,0,0
117401,-100,4,3,1,95,0,0
119583,-83.3333333333333,4,3,1,95,0,0
136219,-100,4,3,1,95,0,0
136764,300,4,3,1,95,1,0
137064,275.229357798165,4,3,1,95,1,0
137064,-125,4,3,1,95,0,0
138164,272.479564032698,4,3,1,95,1,0
138164,-125,4,3,1,95,0,0
139253,270.27027027027,4,3,1,95,1,0
139253,-125,4,3,1,95,0,0
140334,266.785237883504,4,3,1,95,1,0
140334,-125,4,3,1,95,0,0
141413,272.727272727273,4,3,1,95,1,0
141413,-125,4,3,1,95,0,0
143582,272.727272727273,4,3,1,95,1,0
143582,-125,4,3,1,95,0,0
145764,273.972602739726,4,3,1,95,1,0
145764,-125,4,3,1,95,0,0
150147,272.727272727273,4,3,1,95,1,0
152328,269.058295964126,4,3,1,95,1,0
152328,-166.666666666667,4,3,1,95,0,0
153942,283.687943262411,4,3,1,95,1,0
154492,-100,4,3,1,80,0,0
154509,272.727272727273,4,3,1,80,1,0
158872,270.27027027027,4,3,1,95,1,1
158872,-83.3333333333333,4,3,1,95,0,1
159953,272.727272727273,4,3,1,95,1,1
159953,-83.3333333333333,4,3,1,95,0,1
161043,273.972602739726,4,3,1,95,1,1
161043,-83.3333333333333,4,3,1,95,0,1
163234,-100,4,3,1,95,0,0
165433,275.229357798165,4,3,1,95,1,0
165983,266.666666666667,4,3,1,95,1,0
167048,284.36018957346,4,3,1,95,1,0
167617,264.31718061674,4,3,1,95,1,0
168674,278.228611175516,4,3,1,95,1,0
169786,270.124257158293,4,3,1,95,1,0
171946,272.727272727273,4,3,1,95,1,0
185036,-83.3333333333333,4,3,1,100,0,1
198127,-100,4,3,1,100,0,0
200310,276.497695852535,4,3,1,100,1,1
200310,-100,4,3,1,100,0,1
201830,-100,4,3,1,100,0,0

[Colours]
Combo1 : 207,187,118
Combo2 : 170,105,74
Combo3 : 120,89,54

[HitObjects]
103,97,182,6,0,P|149:118|207:77,1,119.999996337891,0|4,1:0|0:0,0:0:0:0:
250,15,582,2,0,B|226:117|277:93|256:192,1,179.999994506836,0|0,1:0|1:0,0:0:0:0:
61,307,1248,1,4,0:0:0:0:
61,307,1382,1,0,1:0:0:0:
290,356,1648,1,0,1:0:0:0:
290,356,1782,6,0,P|337:328|343:255,1,119.999996337891,4|0,0:0|1:0,0:0:0:0:
388,197,2182,2,0,P|440:190|485:246,1,119.999996337891,4|0,0:0|1:0,0:0:0:0:
451,307,2582,2,0,P|373:289|260:281,1,179.999994506836,4|4,0:0|0:0,0:0:0:0:
409,97,3248,1,0,1:0:0:0:
409,97,3382,6,0,P|363:118|305:77,1,119.999996337891,0|4,1:0|0:0,0:0:0:0:
262,15,3782,2,0,B|286:117|235:93|256:192,1,179.999994506836,0|0,1:0|1:0,0:0:0:0:
451,307,4448,1,4,0:0:0:0:
451,307,4582,1,0,1:0:0:0:
222,356,4848,1,0,1:0:0:0:
222,356,4982,6,0,P|175:328|169:255,1,119.999996337891,4|0,0:0|1:0,0:0:0:0:
124,197,5382,2,0,P|72:190|27:246,1,119.999996337891,4|0,0:0|1:0,0:0:0:0:
0,309,5782,6,0,P|38:315|66:329,1,59.9999981689454,4|4,0:0|0:0,0:0:0:0:
114,376,6048,1,0,1:0:0:0:
118,380,6182,1,4,0:0:0:0:
284,305,6448,1,0,1:0:0:0:
342,253,6582,6,0,P|338:211|344:125,1,119.999996337891,0|4,1:0|0:0,0:0:0:0:
405,88,6982,2,0,L|469:78,2,59.9999981689454,0|0|4,1:0|1:0|0:0,0:0:0:0:
405,88,7382,2,0,P|374:60|299:67,1,119.999996337891,0|4,1:0|0:0,0:0:0:0:
236,111,7782,1,0,1:0:0:0:
34,148,8048,6,0,L|29:76,1,59.9999981689454,0|4,1:0|0:0,0:0:0:0:
273,180,8448,2,0,L|268:252,1,59.9999981689454,0|4,1:0|0:0,0:0:0:0:
72,340,8848,5,0,1:0:0:0:
72,340,8982,1,4,0:0:0:0:
107,88,9248,1,0,1:0:0:0:
107,88,9382,1,4,0:0:0:0:
228,305,9648,1,0,1:0:0:0:
170,253,9782,6,0,P|174:211|168:125,1,119.999996337891,0|4,1:0|0:0,0:0:0:0:
107,88,10182,2,0,L|43:78,2,59.9999981689454,0|0|4,1:0|1:0|0:0,0:0:0:0:
107,88,10582,6,0,P|138:60|213:67,1,119.999996337891,0|4,1:0|0:0,0:0:0:0:
276,111,10982,1,0,1:0:0:0:
501,47,11248,1,0,1:0:0:0:
501,47,11382,6,0,B|447:73|447:73|469:193|469:193|357:158|357:158|321:206|321:206|381:376|381:376|432:263,1,659.999979858399,8|4,0:1|0:0,0:0:0:0:
492,314,12982,6,0,L|294:349,1,179.999994506836,4|10,1:2|1:1,0:0:0:0:
198,205,13648,1,0,1:0:0:0:
198,205,13782,2,0,L|65:228,1,119.999996337891,0|0,1:0|0:0,0:0:0:0:
20,314,14182,2,0,L|152:290,1,119.999996337891,10|0,1:1|0:0,0:0:0:0:
197,345,14582,5,0,1:0:0:0:
333,167,14848,1,0,1:0:0:0:
333,167,14982,1,10,1:1:0:0:
256,14,15248,1,0,1:0:0:0:
183,46,15382,2,0,P|158:74|161:157,1,119.999996337891,0|0,1:0|0:0,0:0:0:0:
228,113,15782,1,10,1:1:0:0:
20,314,16182,6,0,L|218:349,1,179.999994506836,4|10,1:2|1:1,0:0:0:0:
314,205,16848,1,0,1:0:0:0:
314,205,16982,2,0,L|446:228,1,119.999996337891,0|0,1:0|0:0,0:0:0:0:
492,314,17382,2,0,L|359:290,1,119.999996337891,10|0,1:1|0:0,0:0:0:0:
315,345,17782,6,0,B|292:317|292:317|212:303|212:303|155:349,1,179.999994506836,4|10,1:3|1:1,0:0:0:0:
0,227,18546,2,0,B|23:255|23:255|103:269|103:269|160:223,1,179.999994506836,0|10,1:0|1:1,0:0:0:0:
64,6,19332,6,0,L|82:196,1,179.999994506836,4|10,1:2|1:1,0:0:0:0:
256,146,20024,1,0,1:0:0:0:
256,146,20159,2,0,L|268:273,1,119.999996337891,0|0,1:0|0:0,0:0:0:0:
341,244,20564,2,0,P|372:252|399:332,1,119.999996337891,10|0,1:1|0:0,0:0:0:0:
346,383,20968,5,0,1:0:0:0:
506,240,21236,2,0,L|513:177,1,59.9999981689454,0|10,1:0|1:1,0:0:0:0:
256,146,21639,1,0,1:0:0:0:
256,146,21773,2,0,P|225:129|214:46,1,119.999996337891,0|0,1:0|0:0,0:0:0:0:
281,20,22170,2,0,B|352:22|321:59|394:58,1,119.999996337891,10|0,1:1|0:0,0:0:0:0:
448,6,22567,6,0,L|430:196,1,179.999994506836,4|10,1:2|1:1,0:0:0:0:
256,146,23224,1,0,1:0:0:0:
256,146,23356,2,0,L|243:273,1,119.999996337891,0|0,1:0|0:0,0:0:0:0:
171,244,23745,2,0,P|140:252|113:332,1,119.999996337891,10|0,1:1|0:0,0:0:0:0:
166,383,24135,5,4,1:3:0:0:
319,277,24394,2,0,L|312:214,1,59.9999981689454,8|10,1:3|1:1,0:0:0:0:
359,151,24654,2,0,L|422:144,1,59.9999981689454,8|8,1:3|1:3,0:0:0:0:
480,196,24932,6,0,L|466:322,1,119.999996337891,0|4,1:0|1:3,0:0:0:0:
406,367,25357,5,10,1:1:0:0:
406,367,25493,1,4,1:3:0:0:
406,367,25630,1,4,1:3:0:0:
406,367,25766,1,4,1:2:0:0:
101,215,27947,6,0,B|54:238|54:238|35:234|35:234|3:196,6,120,2|2|2|2|2|2|2,0:3|0:3|0:3|0:3|0:3|0:3|0:3,0:0:0:0:
175,181,29720,5,4,1:3:0:0:
64,140,29856,2,0,L|59:59,1,75,4|4,1:3|1:3,0:0:0:0:
166,31,30129,6,0,L|175:180,1,150,4|10,1:2|1:0,0:0:0:0:
233,238,30538,1,0,1:0:0:0:
233,238,30675,1,0,1:0:0:0:
431,187,30947,6,0,L|426:261,1,75,10|0,1:0|1:0,0:0:0:0:
369,320,31220,1,0,1:0:0:0:
123,358,31492,1,10,1:0:0:0:
123,358,31629,1,0,1:0:0:0:
437,274,31902,6,0,L|441:199,1,75,0|12,1:0|1:1,0:0:0:0:
346,31,32311,6,0,L|336:180,1,150,4|10,1:2|1:0,0:0:0:0:
279,238,32720,1,0,1:0:0:0:
279,238,32857,1,0,1:0:0:0:
81,187,33129,6,0,L|85:261,1,75,10|0,1:0|1:0,0:0:0:0:
143,320,33402,1,0,1:0:0:0:
389,358,33674,1,10,1:0:0:0:
389,358,33811,1,0,1:0:0:0:
75,274,34084,6,0,L|70:199,1,75,8|8,1:0|1:0,0:0:0:0:
5,160,34356,2,0,L|0:85,1,75,8|6,1:0|0:0,0:0:0:0:
224,123,34766,5,10,0:1:0:0:
368,155,35038,1,6,0:0:0:0:
512,187,35311,1,10,0:1:0:0:
112,160,35856,5,10,0:1:0:0:
256,192,36128,1,6,0:0:0:0:
400,224,36401,1,10,0:1:0:0:
288,261,36675,5,4,1:2:0:0:
144,229,36947,1,10,1:0:0:0:
0,197,37220,2,0,L|6:275,1,75,4|0,1:3|0:0,0:0:0:0:
66,316,37493,1,10,1:0:0:0:
256,192,37766,6,0,P|269:159|259:113,1,75,4|4,1:2|1:3,0:0:0:0:
200,79,38038,1,10,1:0:0:0:
200,79,38175,1,4,1:3:0:0:
133,114,38311,2,0,L|-31:93,2,150,4|10|6,1:2|1:0|0:0,0:0:0:0:
350,68,39129,5,10,0:1:0:0:
305,275,39402,2,0,L|469:254,1,150,6|10,0:0|0:1,0:0:0:0:
211,137,39947,5,6,0:0:0:0:
256,344,40220,2,0,L|92:323,2,150,10|6|10,0:1|0:0|0:1,0:0:0:0:
37,370,41038,5,4,1:2:0:0:
256,210,41311,1,10,1:0:0:0:
475,370,41584,2,0,P|479:327|485:292,1,75,4|0,1:3|0:0,0:0:0:0:
416,263,41856,1,10,1:0:0:0:
180,154,42129,6,0,P|136:147|102:144,1,75,4|4,1:2|1:3,0:0:0:0:
180,154,42402,2,0,P|173:110|170:76,1,75,10|4,1:0|1:3,0:0:0:0:
253,15,42675,6,0,B|229:145|286:112|260:242,1,225,0|0,1:0|0:0,0:0:0:0:
212,294,43220,5,4,1:2:0:0:
93,63,43493,1,10,1:0:0:0:
344,0,43766,2,0,P|331:58|326:91,1,75,2|0,1:3|0:0,0:0:0:0:
387,128,44038,1,10,1:0:0:0:
487,299,44311,5,4,1:2:0:0:
432,349,44447,1,8,1:3:0:0:
364,316,44584,1,10,1:0:0:0:
360,312,44720,1,8,1:3:0:0:
211,383,44993,2,0,P|198:325|193:292,1,75,0|10,0:0|1:0,0:0:0:0:
241,104,45402,5,4,1:2:0:0:
0,203,45675,1,10,1:0:0:0:
160,67,45947,1,2,1:3:0:0:
322,141,46220,1,10,1:0:0:0:
482,5,46493,5,4,1:2:0:0:
432,60,46629,1,8,1:3:0:0:
465,128,46766,1,10,1:0:0:0:
469,132,46902,1,8,1:3:0:0:
260,243,47175,2,0,P|215:234|184:227,1,75,0|10,0:0|1:0,0:0:0:0:
0,376,47584,6,0,P|35:328|127:338,1,150,4|10,1:2|1:0,0:0:0:0:
328,201,48129,1,2,1:3:0:0:
226,0,48402,1,10,1:0:0:0:
134,113,48675,6,0,P|141:168|148:270,1,150,4|10,1:2|1:0,0:0:0:0:
119,331,49084,1,0,0:0:0:0:
181,372,49220,1,2,1:3:0:0:
393,331,49493,6,0,P|397:293|405:257,2,75,10|0|4,1:0|0:0|1:2,0:0:0:0:
256,280,50038,1,10,1:0:0:0:
256,280,50311,1,4,1:2:0:0:
119,331,50584,2,0,P|114:293|106:257,2,75,10|0|4,1:0|0:0|1:2,0:0:0:0:
256,280,51129,2,0,B|249:218|282:167|360:167|324:42|250:37|202:94|218:129|232:148,1,300,10|10,1:0|1:0,0:0:0:0:
364,219,51947,6,0,L|442:213,1,75,4|4,0:0|0:0,0:0:0:0:
405,26,52356,2,0,L|483:20,2,75,4|4|0,0:0|0:0|0:0,0:0:0:0:
292,167,52902,6,0,L|214:161,2,75,4|4|4,0:0|0:0|0:0,0:0:0:0:
108,61,53447,2,0,L|30:55,2,75,4|4|4,0:0|0:0|0:0,0:0:0:0:
145,239,53993,6,0,L|223:245,2,75,4|4|4,0:0|0:0|0:0,0:0:0:0:
0,362,54538,2,0,L|78:368,2,75,4|4|4,0:0|0:0|0:0,0:0:0:0:
284,293,55084,1,4,0:0:0:0:
341,244,55220,6,0,P|334:200|332:163,1,75,0|0,1:0|1:0,0:0:0:0:
402,141,55493,1,8,1:0:0:0:
402,141,55629,1,0,1:0:0:0:
471,112,55766,6,0,P|478:68|480:31,1,75,8|8,1:0|1:0,0:0:0:0:
351,1,56038,2,0,P|358:45|360:82,1,75,8|8,1:0|1:0,0:0:0:0:
256,135,56311,5,6,1:2:0:0:
339,155,58512,6,0,B|320:92|320:92|326:80|326:80|394:60,1,150,2|4,1:3|0:0,0:0:0:0:
460,96,58917,2,0,B|479:159|479:159|473:171|473:171|405:191,1,150,8|4,1:3|0:0,0:0:0:0:
343,241,59322,6,0,B|280:222|280:222|268:228|268:228|248:296,1,150,8|4,1:3|0:0,0:0:0:0:
284,362,59727,2,0,B|347:381|347:381|359:375|359:375|379:307,1,150,8|0,1:3|0:0,0:0:0:0:
378,307,60133,6,0,B|507:342|507:342|528:326|528:326|438:215,1,300,2|6,1:2|0:0,0:0:0:0:
288,123,60946,5,10,0:1:0:0:
144,155,61218,1,6,0:0:0:0:
0,187,61491,1,10,0:1:0:0:
400,160,62036,5,10,0:1:0:0:
256,192,62310,1,6,0:0:0:0:
112,224,62583,1,10,0:1:0:0:
224,261,62855,5,4,1:2:0:0:
368,229,63127,1,10,1:0:0:0:
512,197,63400,2,0,L|506:275,1,75,4|0,1:3|0:0,0:0:0:0:
446,316,63673,1,10,1:0:0:0:
256,192,63946,6,0,P|243:159|253:113,1,75,4|4,1:2|1:3,0:0:0:0:
312,79,64218,1,10,1:0:0:0:
312,79,64355,1,4,1:3:0:0:
379,114,64491,2,0,L|543:93,2,150,4|10|6,1:2|1:0|0:0,0:0:0:0:
162,68,65309,5,10,0:1:0:0:
207,275,65582,2,0,L|43:254,1,150,6|10,0:0|0:1,0:0:0:0:
301,137,66127,5,6,0:0:0:0:
256,344,66400,2,0,L|420:323,2,150,10|6|10,0:1|0:0|0:1,0:0:0:0:
475,370,67218,5,4,1:2:0:0:
256,210,67491,1,10,1:0:0:0:
37,370,67764,2,0,P|33:327|27:292,1,75,4|0,1:3|0:0,0:0:0:0:
96,263,68036,1,10,1:0:0:0:
332,154,68309,6,0,P|376:147|410:144,1,75,4|4,1:2|1:3,0:0:0:0:
332,154,68582,2,0,P|339:110|342:76,1,75,10|4,1:0|1:3,0:0:0:0:
259,15,68855,6,0,B|283:145|226:112|252:242,1,225,0|0,1:0|0:0,0:0:0:0:
300,294,69401,5,4,1:2:0:0:
458,107,69674,1,10,1:0:0:0:
168,0,69946,2,0,P|181:58|186:91,1,75,2|0,1:3|2:0,0:0:0:0:
125,128,70219,1,10,1:0:0:0:
25,299,70492,5,4,1:2:0:0:
80,349,70628,1,8,1:3:0:0:
148,316,70764,1,10,1:0:0:0:
152,312,70901,1,8,1:3:0:0:
301,383,71174,2,0,P|314:325|319:292,1,75,0|10,0:0|1:0,0:0:0:0:
271,104,71583,5,4,1:2:0:0:
512,203,71855,1,10,1:0:0:0:
352,67,72128,1,2,1:3:0:0:
190,141,72401,1,10,1:0:0:0:
30,5,72674,5,4,1:2:0:0:
80,60,72810,1,8,1:3:0:0:
47,128,72946,1,10,1:0:0:0:
43,132,73083,1,8,1:3:0:0:
252,243,73355,2,0,P|297:234|328:227,1,75,0|10,0:0|1:0,0:0:0:0:
512,376,73764,6,0,P|477:328|385:338,1,150,4|10,1:2|1:0,0:0:0:0:
184,201,74310,1,2,1:3:0:0:
286,0,74583,1,10,1:0:0:0:
378,113,74855,6,0,P|371:168|364:270,1,150,4|10,1:2|1:0,0:0:0:0:
393,331,75264,1,0,0:0:0:0:
331,372,75401,1,2,1:3:0:0:
119,331,75674,6,0,P|115:293|107:257,1,75,10|0,1:0|0:0,0:0:0:0:
45,214,75946,1,4,1:2:0:0:
256,280,76219,1,10,1:0:0:0:
467,214,76492,1,4,1:2:0:0:
393,331,76764,6,0,P|398:293|406:257,2,75,10|0|4,1:0|0:0|1:2,0:0:0:0:
256,280,77310,2,0,B|263:218|230:167|152:167|188:42|262:37|310:94|294:129|280:148,1,300,10|10,1:0|1:0,0:0:0:0:
148,219,78128,6,0,L|70:213,1,75,4|0,1:2|0:0,0:0:0:0:
9,253,78401,2,0,P|-3:289|4:335,1,75,10|0,1:0|0:0,0:0:0:0:
61,369,78674,1,2,1:3:0:0:
61,369,78946,1,10,1:0:0:0:
221,290,79219,6,0,P|223:249|228:213,1,75,4|0,1:2|0:0,0:0:0:0:
270,153,79492,2,0,P|281:113|274:67,1,75,10|0,1:0|0:0,0:0:0:0:
221,30,79764,1,2,1:3:0:0:
221,30,80037,1,10,1:0:0:0:
375,0,80310,6,0,L|369:78,1,75,4|0,1:2|0:0,0:0:0:0:
409,139,80583,2,0,P|445:151|491:144,1,75,10|0,1:0|0:0,0:0:0:0:
512,216,80856,1,2,1:3:0:0:
512,216,81128,1,10,1:0:0:0:
325,291,81401,6,0,P|317:329|314:376,1,75,4|0,1:2|0:0,0:0:0:0:
234,352,81674,2,0,P|242:314|245:267,1,75,10|0,1:0|0:0,0:0:0:0:
295,212,81946,1,2,1:3:0:0:
295,212,82219,1,10,1:0:0:0:
360,46,82492,6,0,L|438:40,1,75,4|0,1:2|0:0,0:0:0:0:
499,80,82765,2,0,P|511:116|504:162,1,75,10|0,1:0|0:0,0:0:0:0:
447,196,83038,1,2,1:3:0:0:
447,196,83310,1,10,1:0:0:0:
304,102,83583,6,0,P|302:143|297:179,1,75,4|0,1:2|0:0,0:0:0:0:
255,239,83856,2,0,P|244:279|251:325,1,75,10|0,1:0|0:0,0:0:0:0:
304,362,84128,1,2,1:3:0:0:
304,362,84401,1,10,1:0:0:0:
86,240,84674,5,4,1:2:0:0:
208,22,84946,1,12,1:0:0:0:
426,144,85219,1,4,1:2:0:0:
304,362,85492,1,12,1:0:0:0:
178,148,85764,5,4,1:2:0:0:
212,269,86037,1,10,1:0:0:0:
333,235,86310,1,2,1:3:0:0:
299,114,86582,1,10,1:0:0:0:
256,192,86855,5,4,0:0:0:0:
470,298,87128,2,0,L|482:144,2,150,0|4|0,1:0|0:0|1:0,0:0:0:0:
42,298,88219,2,0,L|30:144,2,150,0|4|0,1:0|0:0|1:0,0:0:0:0:
424,85,89310,5,0,1:0:0:0:
217,105,89583,2,0,P|218:143|216:184,1,75,4|4,0:0|0:0,0:0:0:0:
295,179,89855,2,0,P|293:142|295:105,1,75,0|0,1:0|0:0,0:0:0:0:
256,35,90128,5,4,0:2:0:0:
88,85,90401,2,0,L|12:73,1,75,2|0,1:1|0:0,0:0:0:0:
23,149,90674,2,0,L|35:225,1,75,2|0,1:1|0:0,0:0:0:0:
92,276,90946,2,0,L|80:352,1,75,2|0,1:1|0:0,0:0:0:0:
6,370,91219,5,12,1:2:0:0:
325,299,91492,1,12,1:2:0:0:
166,335,91764,5,12,1:2:0:0:
485,264,92037,1,12,1:2:0:0:
221,276,92310,6,0,L|209:200,1,75,0|0,1:0|0:0,0:0:0:0:
285,211,92583,2,0,L|361:223,1,75,0|0,1:0|0:0,0:0:0:0:
416,169,92855,2,0,B|443:22|443:22|376:1|376:1|344:82,1,300,0|4,1:0|1:2,0:0:0:0:
346,75,101855,6,0,L|406:65,1,37.5,2|0,1:3|2:0,0:0:0:0:
467,190,102128,6,0,P|425:217|299:204,1,180
242,257,102674,2,0,L|261:386,1,120,0|0,0:0|1:0,0:0:0:0:
45,194,103219,6,0,P|87:167|213:180,1,180
270,127,103765,2,0,L|251:-2,1,120,0|0,0:0|1:0,0:0:0:0:
45,194,104310,6,0,P|23:279|60:360,1,180
59,359,104855,2,0,P|144:380|225:343,1,180
225,342,105401,6,0,L|231:272,1,60
291,233,105674,2,0,L|296:162,1,60,0|0,1:0|0:0,0:0:0:0:
240,116,105946,2,0,B|252:-8,1,120,0|0,0:0|1:0,0:0:0:0:
45,190,106492,6,0,P|87:217|213:204,1,180
270,257,107038,2,0,L|251:386,1,120,0|0,0:0|1:0,0:0:0:0:
467,194,107583,6,0,P|425:167|299:180,1,180
242,127,108129,2,0,L|261:-2,1,120,0|0,0:0|1:0,0:0:0:0:
467,194,108674,6,0,P|489:279|452:360,1,180
453,359,109219,2,0,P|368:380|287:343,1,180
286,342,109765,6,0,L|281:272,1,60
221,233,110038,2,0,L|215:162,1,60,0|0,1:0|0:0,0:0:0:0:
272,116,110310,2,0,B|260:-8,1,120,0|0,0:0|1:0,0:0:0:0:
12,87,110855,6,0,B|-7:187|63:159|43:266,1,180
0,324,111401,1,0,0:0:0:0:
0,324,111674,1,0,1:0:0:0:
252,384,111946,6,0,B|233:284|303:312|283:205,1,180
240,147,112492,1,0,0:0:0:0:
240,147,112765,1,0,1:0:0:0:
479,19,113037,6,0,B|460:119|530:91|510:198,1,180
467,256,113583,2,0,B|367:237|395:307|288:287,1,180
234,240,114128,2,0,P|231:210|239:165,1,60
295,129,114401,2,0,P|298:99|290:54,1,60,0|0,1:0|0:0,0:0:0:0:
235,18,114674,5,0,0:0:0:0:
235,18,114946,1,0,1:0:0:0:
500,87,115219,6,0,B|519:187|449:159|469:266,1,180
512,324,115765,1,0,0:0:0:0:
512,324,116038,1,0,1:0:0:0:
260,384,116310,6,0,B|279:284|209:312|229:205,1,180
272,147,116856,1,0,0:0:0:0:
272,147,117129,1,0,1:0:0:0:
64,65,117401,5,4,1:2:0:0:
8,121,117537,2,0,L|16:275,1,150,0|0,1:0|0:0,0:0:0:0:
101,384,117946,5,4,1:2:0:0:
157,328,118082,2,0,L|149:174,1,150,0|0,1:0|0:0,0:0:0:0:
268,72,118492,6,0,L|272:149,1,75,4|0,1:2|0:0,0:0:0:0:
405,125,118764,2,0,L|409:202,1,75,4|0,0:0|0:0,0:0:0:0:
494,216,119037,6,0,L|490:293,1,75,0|0,1:0|0:0,0:0:0:0:
357,269,119309,2,0,L|353:346,1,75,0|0,1:0|0:0,0:0:0:0:
357,269,119583,6,0,B|298:226|244:271|253:280|217:313|173:301,1,179.999994506836,4|10,1:2|1:0,0:0:0:0:
111,265,119992,1,8,1:3:0:0:
111,265,120128,2,0,P|109:319|115:363,1,89.9999972534181,4|4,1:3|1:3,0:0:0:0:
29,320,120401,1,10,1:0:0:0:
0,117,120674,6,0,P|61:125|190:134,1,179.999994506836,4|10,1:3|1:0,0:0:0:0:
239,66,121083,1,4,1:3:0:0:
320,102,121219,2,0,P|329:60|327:11,1,89.9999972534181,4|0,1:3|0:0,0:0:0:0:
415,82,121492,2,0,P|406:124|408:173,1,89.9999972534181,10|0,1:0|0:3,0:0:0:0:
475,229,121764,5,4,1:2:0:0:
206,336,122037,1,10,1:0:0:0:
267,380,122174,1,8,1:3:0:0:
275,305,122310,1,4,1:3:0:0:
35,146,122583,5,10,1:0:0:0:
35,146,122719,1,8,1:3:0:0:
71,224,122855,6,0,P|75:271|74:321,1,89.9999972534181,4|4,1:2|1:3,0:0:0:0:
206,336,123128,1,10,1:0:0:0:
155,269,123264,2,0,P|154:207|159:79,1,179.999994506836,4|4,1:2|1:3,0:0:0:0:
231,35,123674,1,12,1:1:0:0:
155,269,123946,6,0,B|214:226|268:271|259:280|295:313|339:301,1,179.999994506836,4|10,1:2|1:0,0:0:0:0:
401,265,124355,1,8,1:3:0:0:
401,265,124491,2,0,P|403:319|397:363,1,89.9999972534181,4|4,1:3|1:3,0:0:0:0:
483,320,124764,1,10,1:0:0:0:
512,117,125037,6,0,P|451:125|322:134,1,179.999994506836,4|10,1:3|1:0,0:0:0:0:
273,66,125446,1,4,1:3:0:0:
192,102,125582,2,0,P|183:60|185:11,1,89.9999972534181,4|0,1:3|0:0,0:0:0:0:
97,82,125855,2,0,P|106:124|104:173,1,89.9999972534181,10|0,1:0|0:3,0:0:0:0:
37,229,126127,5,4,1:2:0:0:
306,336,126401,1,10,1:0:0:0:
245,380,126538,1,8,1:3:0:0:
237,305,126674,1,4,1:3:0:0:
477,146,126947,5,10,1:0:0:0:
477,146,127083,1,8,1:3:0:0:
441,224,127219,6,0,P|437:271|438:321,1,89.9999972534181,4|4,1:2|1:3,0:0:0:0:
306,336,127492,1,10,1:0:0:0:
357,269,127628,2,0,P|358:207|353:79,1,179.999994506836,4|4,1:2|1:3,0:0:0:0:
281,35,128038,1,12,1:1:0:0:
72,0,128310,6,0,P|15:24|2:136,1,179.999994506836,4|10,1:2|1:0,0:0:0:0:
63,195,128719,1,8,1:3:0:0:
63,195,128855,2,0,P|120:186|162:186,1,89.9999972534181,4|4,1:3|1:3,0:0:0:0:
224,240,129128,1,10,1:0:0:0:
3,351,129401,6,0,P|105:324|204:330,1,179.999994506836,4|10,1:3|1:0,0:0:0:0:
260,363,129810,1,4,1:3:0:0:
315,292,129946,2,0,P|318:245|316:195,1,89.9999972534181,4|0,1:3|2:0,0:0:0:0:
247,143,130219,2,0,P|245:98|248:53,1,89.9999972534181,10|0,1:0|0:3,0:0:0:0:
323,2,130492,5,4,1:2:0:0:
419,222,130764,1,10,1:0:0:0:
505,247,130901,1,8,1:3:0:0:
415,250,131037,1,4,1:3:0:0:
253,329,131310,5,10,1:0:0:0:
253,329,131446,1,8,1:3:0:0:
195,259,131582,6,0,P|148:255|98:256,1,89.9999972534181,4|4,1:2|1:3,0:0:0:0:
47,324,131855,1,10,1:0:0:0:
47,324,131992,1,4,1:2:0:0:
263,203,132264,2,0,P|270:160|264:113,1,89.9999972534181,4|12,1:3|1:1,0:0:0:0:
440,0,132674,6,0,P|497:24|510:136,1,179.999994506836,4|10,1:2|1:0,0:0:0:0:
449,195,133083,1,8,1:3:0:0:
449,195,133219,2,0,P|392:186|350:186,1,89.9999972534181,4|4,1:3|1:3,0:0:0:0:
288,240,133492,1,10,1:0:0:0:
509,351,133765,6,0,P|407:324|308:330,1,179.999994506836,4|10,1:3|1:0,0:0:0:0:
252,363,134174,1,4,1:3:0:0:
197,292,134310,2,0,P|194:245|196:195,1,89.9999972534181,4|0,1:3|2:0,0:0:0:0:
265,143,134583,2,0,P|266:98|263:53,1,89.9999972534181,10|0,1:0|0:3,0:0:0:0:
189,2,134856,5,4,1:2:0:0:
93,222,135128,1,10,1:0:0:0:
7,247,135265,1,8,1:3:0:0:
97,250,135401,1,4,1:3:0:0:
259,329,135674,5,10,1:0:0:0:
259,329,135810,1,8,1:3:0:0:
333,379,135946,2,0,P|380:375|430:376,1,89.9999972534181,4|4,1:2|1:3,0:0:0:0:
491,315,136219,5,10,1:0:0:0:
491,315,136355,1,8,1:2:0:0:
440,244,136492,2,0,L|449:164,1,75,8|8,1:2|1:1,0:0:0:0:
388,108,136764,2,0,P|388:37|450:-1,1,150,0|14,1:1|1:1,0:0:0:0:
440,244,137339,5,0,0:0:0:0:
283,293,137614,2,0,L|290:232,1,60,8|0,1:1|0:0,0:0:0:0:
278,215,137889,2,0,L|285:154,1,60
273,137,138164,1,14,1:1:0:0:
154,251,138436,2,0,L|161:190,1,60
149,173,138708,2,0,P|106:148|42:166,1,120,8|0,1:1|0:0,0:0:0:0:
0,362,139253,6,0,B|58:353|58:353|64:359|64:359|123:350,1,120,0|8,1:0|1:0,0:0:0:0:
206,296,139793,6,0,B|264:287|264:287|270:293|270:293|329:284,1,120,0|8,1:0|1:0,0:0:0:0:
189,377,140334,6,0,B|247:368|247:368|253:374|253:374|312:365,1,120,0|8,1:0|1:0,0:0:0:0:
395,311,140867,6,0,B|453:302|453:302|459:308|459:308|518:299,1,120,0|8,1:0|1:0,0:0:0:0:
447,65,141413,5,14,1:1:0:0:
353,176,141685,1,0,0:0:0:0:
364,31,141958,1,8,1:1:0:0:
440,154,142231,2,0,L|433:220,1,60
450,236,142503,1,14,1:1:0:0:
253,340,142776,2,0,L|246:274,1,60
263,258,143049,2,0,L|249:130,1,120,8|0,1:1|0:0,0:0:0:0:
47,46,143582,5,0,1:0:0:0:
47,46,143855,1,8,1:0:0:0:
167,181,144128,6,0,L|160:247,1,60,0|0,1:0|1:0,0:0:0:0:
132,266,144401,2,0,L|66:273,1,60,8|8,1:0|1:0,0:0:0:0:
203,369,144673,6,0,L|210:303,1,60,0|0,1:0|1:0,0:0:0:0:
238,284,144946,2,0,L|304:277,1,60,8|8,1:0|1:0,0:0:0:0:
348,207,145219,1,0,1:0:0:0:
348,207,145355,1,0,1:0:0:0:
348,207,145491,6,0,L|341:141,1,60,8|8,1:0|1:0,0:0:0:0:
443,109,145764,6,0,L|436:175,1,60,4|0,1:0|1:0,0:0:0:0:
435,183,146037,2,0,L|428:249,1,60,0|0,1:0|1:0,0:0:0:0:
427,257,146311,1,12,1:2:0:0:
260,53,146585,2,0,L|253:119,1,60
252,127,146859,1,14,1:1:0:0:
78,166,147133,2,0,L|64:298,2,120,0|8|0,0:0|1:1|0:0,0:0:0:0:
11,119,147955,5,0,1:0:0:0:
148,208,148229,1,8,1:0:0:0:
10,40,148503,5,0,1:0:0:0:
147,129,148777,1,8,1:0:0:0:
230,282,149051,5,0,1:0:0:0:
367,371,149325,1,8,1:0:0:0:
229,203,149599,5,0,1:0:0:0:
366,292,149873,1,8,1:0:0:0:
126,349,150147,5,14,1:1:0:0:
366,292,150419,1,0,0:0:0:0:
229,203,150692,1,8,1:1:0:0:
291,109,150965,1,0,0:0:0:0:
291,109,151101,1,0,0:0:0:0:
291,109,151237,1,14,1:1:0:0:
260,30,151510,5,0,0:0:0:0:
411,229,151783,1,8,1:1:0:0:
101,155,152056,1,0,0:0:0:0:
28,183,152328,6,0,L|47:371,1,179.999994506836,4|4,1:2|1:2,0:0:0:0:
484,201,153404,2,0,L|465:13,1,179.999994506836,4|4,1:2|1:2,0:0:0:0:
256,192,154509,12,0,157781,0:0:0:0:
156,98,158327,6,0,B|191:81|228:94|213:139|271:149|312:115|277:85|307:51|351:59,1,225,2|0,1:2|0:2,0:0:0:0:
396,126,158872,6,0,P|421:130|474:99,1,89.9999972534181,12|4,1:2|1:3,0:0:0:0:
396,126,159142,2,0,P|380:145|380:207,1,89.9999972534181,8|4,1:0|1:3,0:0:0:0:
433,304,159412,2,0,P|391:295|341:289,1,89.9999972534181,8|4,1:0|1:3,0:0:0:0:
256,240,159682,2,0,L|256:336,1,89.9999972534181,8|4,1:0|1:3,0:0:0:0:
168,290,159953,6,0,P|123:295|79:304,1,89.9999972534181,8|4,1:0|0:3,0:0:0:0:
132,207,160225,2,0,P|139:164|117:126,1,89.9999972534181,8|4,1:0|0:3,0:0:0:0:
38,98,160498,5,8,1:0:0:0:
38,98,160771,1,8,1:0:0:0:
228,9,161043,6,0,L|224:58,4,44.999998626709,0|0|0|0|8,1:1|1:1|1:1|1:1|1:1,0:0:0:0:
301,120,161453,2,0,L|297:169,4,44.999998626709,8|8|8|8|8,1:1|1:1|1:3|1:3|1:3,0:0:0:0:
241,258,161864,6,0,L|237:307,2,44.999998626709,4|4|4,1:3|1:3|1:3,0:0:0:0:
241,258,162138,6,0,L|518:199,1,269.999991760254,8|8,1:3|0:3,0:0:0:0:
222,384,162823,2,0,B|179:370|179:370|120:206|120:206|49:189,1,269.999991760254,4|4,1:3|1:2,0:0:0:0:
128,118,165433,6,0,B|147:55|147:55|141:43|141:43|73:23,1,150,4|4,1:2|0:0,0:0:0:0:
18,74,165845,2,0,L|28:160,1,75,4|0,0:2|0:0,0:0:0:0:
220,242,166249,6,0,B|201:179|201:179|207:167|207:167|275:147,1,150,4|4,0:2|0:0,0:0:0:0:
330,198,166649,2,0,L|320:284,1,75,4|0,0:2|0:0,0:0:0:0:
134,307,167048,6,0,B|5:342|5:342|-16:326|-16:326|74:215,1,300,10|6,1:2|0:0,0:0:0:0:
212,378,167881,5,10,0:1:0:0:
256,192,168145,1,6,0:0:0:0:
300,6,168409,1,10,0:1:0:0:
224,116,168674,5,6,0:0:0:0:
288,268,168952,1,10,0:1:0:0:
442,236,169230,1,6,0:0:0:0:
256,192,169508,1,10,0:1:0:0:
70,148,169786,6,0,B|45:181|45:181|64:290,1,150,4|10,1:2|1:0,0:0:0:0:
242,329,170326,1,4,1:3:0:0:
246,333,170461,1,0,1:0:0:0:
288,268,170596,1,10,1:0:0:0:
367,81,170866,6,0,L|380:165,1,75,4|4,1:2|1:3,0:0:0:0:
438,209,171136,2,0,L|522:222,1,75,10|4,1:0|1:3,0:0:0:0:
512,220,171406,6,0,L|486:388,2,150,4|10|6,1:2|1:0|0:0,0:0:0:0:
300,378,172218,5,10,0:1:0:0:
256,192,172492,1,6,0:0:0:0:
212,6,172765,1,10,0:1:0:0:
288,116,173037,5,6,0:0:0:0:
224,268,173310,1,10,0:1:0:0:
70,236,173583,1,6,0:0:0:0:
256,192,173855,1,10,0:1:0:0:
442,148,174128,6,0,B|467:181|467:181|448:290,1,150,4|10,1:2|1:0,0:0:0:0:
270,329,174674,1,4,1:3:0:0:
266,333,174810,1,0,1:0:0:0:
224,268,174947,1,10,1:0:0:0:
40,284,175219,6,0,L|53:200,1,75,4|4,1:2|1:3,0:0:0:0:
113,162,175492,2,0,L|100:78,1,75,10|4,1:0|1:3,0:0:0:0:
38,43,175765,2,0,L|260:91,1,225,0|0,1:0|0:0,0:0:0:0:
327,52,176310,6,0,B|344:84|344:84|332:131,1,75,4|0,1:2|0:0,0:0:0:0:
236,212,176583,2,0,L|249:296,1,75,10|0,1:0|0:0,0:0:0:0:
314,334,176855,1,2,1:3:0:0:
512,232,177128,1,10,1:0:0:0:
167,173,177401,5,4,1:2:0:0:
167,173,177537,1,8,1:3:0:0:
94,194,177674,1,10,1:0:0:0:
51,131,177810,1,8,1:3:0:0:
322,0,178083,2,0,L|309:84,1,75,0|10,0:0|1:0,0:0:0:0:
261,384,178492,5,4,1:2:0:0:
388,105,178765,1,10,1:0:0:0:
198,334,179037,1,2,1:3:0:0:
0,232,179310,1,10,1:0:0:0:
345,173,179583,5,4,1:2:0:0:
345,173,179719,1,8,1:3:0:0:
418,194,179856,1,10,1:0:0:0:
461,131,179992,1,8,1:3:0:0:
190,0,180265,2,0,L|203:84,1,75,0|10,0:0|1:0,0:0:0:0:
79,327,180674,6,0,P|13:304|3:224,1,150,4|10,1:2|1:0,0:0:0:0:
272,104,181219,1,2,1:3:0:0:
77,251,181492,1,10,1:0:0:0:
233,384,181765,6,0,P|241:311|256:214,1,150,4|10,1:2|1:0,0:0:0:0:
205,176,182174,1,0,0:0:0:0:
205,176,182310,1,2,1:3:0:0:
386,354,182583,2,0,L|468:344,1,75,10|0,1:0|0:0,0:0:0:0:
512,287,182855,5,4,1:2:0:0:
512,287,183128,1,10,1:0:0:0:
512,287,183401,1,4,1:2:0:0:
205,176,183674,2,0,L|123:166,1,75,10|0,1:0|0:0,0:0:0:0:
79,109,183946,5,4,1:2:0:0:
274,0,184219,2,0,B|250:130|307:97|281:227,1,225,10|0,1:0|0:0,0:0:0:0:
233,283,184765,2,0,P|238:326|243:376,1,75,10|0,1:0|0:0,0:0:0:0:
315,307,185036,6,0,B|355:291|410:315|422:375|422:375|502:254|470:125|356:0|194:-24|37:46|10:147|10:147|61:107|107:136|101:141|149:164|189:121|189:121|133:203|122:285|143:384,1,1349.99995880127,4|0,1:2|0:0,0:0:0:0:
60,366,187218,6,0,P|28:321|67:208,1,179.999994506836,4|10,1:2|1:0,0:0:0:0:
136,253,187627,1,10,1:3:0:0:
136,253,187764,2,0,P|202:238|337:225,1,179.999994506836,6|10,1:3|1:0,0:0:0:0:
369,154,188174,1,10,1:3:0:0:
369,154,188310,2,0,P|389:113|379:69,1,89.9999972534181,4|4,1:2|1:3,0:0:0:0:
312,10,188583,5,10,1:0:0:0:
312,10,188719,1,4,1:2:0:0:
136,253,188992,2,0,P|150:306|154:345,1,89.9999972534181,4|12,1:3|1:1,0:0:0:0:
8,140,189401,5,4,1:2:0:0:
222,275,189674,2,0,P|245:245|237:190,1,89.9999972534181,10|10,1:0|1:3,0:0:0:0:
179,129,189946,1,4,1:3:0:0:
179,129,190083,1,6,1:3:0:0:
179,129,190219,1,10,1:0:0:0:
328,1,190492,6,0,P|319:81|330:182,1,179.999994506836,4|10,1:3|1:0,0:0:0:0:
376,253,190901,1,6,1:3:0:0:
376,253,191037,1,4,1:3:0:0:
153,340,191310,1,10,1:0:0:0:
452,366,191582,6,0,P|484:321|445:208,1,179.999994506836,4|10,1:2|1:0,0:0:0:0:
376,253,191991,1,10,1:3:0:0:
376,253,192127,2,0,P|310:238|175:225,1,179.999994506836,6|10,1:3|1:0,0:0:0:0:
143,154,192536,1,10,1:3:0:0:
143,154,192673,2,0,P|123:113|133:69,1,89.9999972534181,4|4,1:2|1:3,0:0:0:0:
200,10,192946,5,10,1:0:0:0:
200,10,193082,1,4,1:2:0:0:
376,253,193356,2,0,P|362:306|358:345,1,89.9999972534181,4|12,1:3|1:1,0:0:0:0:
504,140,193765,5,4,1:2:0:0:
290,275,194036,2,0,P|267:245|275:190,1,89.9999972534181,10|10,1:0|1:3,0:0:0:0:
333,129,194309,1,4,1:3:0:0:
333,129,194446,1,6,1:3:0:0:
333,129,194582,1,10,1:0:0:0:
184,1,194855,6,0,P|193:81|182:182,1,179.999994506836,4|10,1:3|1:0,0:0:0:0:
136,253,195265,1,6,1:3:0:0:
136,253,195401,1,4,1:3:0:0:
359,340,195674,1,10,1:0:0:0:
48,354,195946,6,0,P|54:285|63:173,1,179.999994506836,4|10,1:2|1:0,0:0:0:0:
6,104,196355,1,10,1:3:0:0:
6,104,196492,2,0,P|79:85|149:173,1,179.999994506836,6|10,1:3|1:0,0:0:0:0:
232,121,196901,1,10,1:3:0:0:
316,89,197037,6,0,P|320:41|313:-12,1,89.9999972534181,4|4,1:2|1:3,0:0:0:0:
232,121,197310,2,0,P|228:169|235:222,1,89.9999972534181,10|4,1:0|1:2,0:0:0:0:
472,367,197719,1,4,1:3:0:0:
413,298,197855,2,0,P|413:213|426:90,1,179.999994506836,12|4,1:1|1:2,0:0:0:0:
486,64,200310,5,4,1:2:0:0:
234,0,200586,2,0,L|240:74,1,75,8|8,1:0|1:3,0:0:0:0:
183,124,200862,1,4,1:3:0:0:
306,252,201139,2,0,L|300:326,1,75,8|8,1:0|1:3,0:0:0:0:
357,376,201415,5,4,1:2:0:0:
361,380,201554,1,4,1:3:0:0:
432,355,201692,1,8,1:0:0:0:
503,330,201830,1,4,1:2:0:0:
