osu file format v14

[General]
AudioFilename: audio.mp3
AudioLeadIn: 0
PreviewTime: 136696
Countdown: 0
SampleSet: Drum
StackLeniency: 0
Mode: 0
LetterboxInBreaks: 0
WidescreenStoryboard: 0

[Editor]
Bookmarks: 32,25766,34493,51947,60674,78129,93402,119584,137038,154493,167584,185038,201811
DistanceSpacing: 1
BeatDivisor: 4
GridSize: 32
TimelineZoom: 2.1

[Metadata]
Title:Ett Folk Forbannat
TitleUnicode:Ett Folk Förbannat
Artist:Finntroll
ArtistUnicode:Finntroll
Creator:pw384
Version:De Hungriga Bestarna
Source:
Tags:foerbannat A People Accursed blodsvept Shrouded in Blood Finland Fenno Swedish finlandssvenska svenska black folk metal
BeatmapID:4434866
BeatmapSetID:2112430

[Difficulty]
HPDrainRate:5
CircleSize:4
OverallDifficulty:9
ApproachRate:9
SliderMultiplier:2.4
SliderTickRate:1

[Events]
//Background and Video events
0,0,"finntroll-5.jpg",0,0
//Break Periods
2,26584,27347
2,57136,57912
2,93601,101255
2,163434,164833
2,198327,199710
//Storyboard Layer 0 (Background)
//Storyboard Layer 1 (Fail)
//Storyboard Layer 2 (Pass)
//Storyboard Layer 3 (Foreground)
//Storyboard Layer 4 (Overlay)
//Storyboard Sound Samples

[TimingPoints]
48,400,4,3,1,60,1,0
48,-200,4,3,1,60,0,0
182,400,4,3,1,60,1,0
182,-111.111111111111,4,3,1,60,0,0
3248,-200,4,3,1,60,0,0
3382,-111.111111111111,4,3,1,60,0,0
11382,-100,4,3,1,80,0,0
12982,-83.3333333333333,4,3,1,90,0,0
17782,382.165605095541,4,3,1,90,1,0
17782,-111.111111111111,4,3,1,90,0,0
19332,422.535211267606,4,3,1,90,1,0
19332,-83.3333333333333,4,3,1,90,0,0
19754,405.405405405405,4,3,1,90,1,0
19754,-83.3333333333333,4,3,1,90,0,0
20968,402.684563758389,4,3,1,90,1,0
20968,-83.3333333333333,4,3,1,90,0,0
21773,397.350993377483,4,3,1,90,1,0
21773,-100,4,3,1,90,0,0
22168,-83.3333333333333,4,3,1,90,0,0
22567,394.736842105263,4,3,1,90,1,0
22567,-83.3333333333333,4,3,1,90,0,0
23356,389.61038961039,4,3,1,90,1,0
23356,-83.3333333333333,4,3,1,90,0,0
24135,-111.111111111111,4,3,1,90,0,0
24932,425.531914893617,4,3,1,90,1,0
24932,-111.111111111111,4,3,1,90,0,0
25357,409.556313993174,4,3,1,90,1,0
25357,-111.111111111111,4,3,1,90,0,0
25766,272.727272727273,4,3,1,90,1,0
27947,-200,4,3,1,30,0,0
28220,-200,4,3,1,40,0,0
28493,-200,4,3,1,50,0,0
28766,-200,4,3,1,60,0,0
29038,-200,4,3,1,70,0,0
29311,-200,4,3,1,80,0,0
29584,-200,4,3,1,90,0,0
30129,-100,4,3,1,95,0,0
34493,-200,4,3,1,75,0,0
36675,-125,4,3,1,85,0,0
38856,-200,4,3,1,75,0,0
41038,-125,4,3,1,85,0,0
43220,-100,4,3,1,95,0,0
51675,-125,4,3,1,95,0,0
51947,-166.666666666667,4,3,1,75,0,0
55220,-166.666666666667,4,3,1,95,0,0
56311,275.229357798165,4,3,1,95,1,0
58512,270.27027027027,4,3,1,95,1,0
58512,-200,4,3,1,95,0,0
60674,272.727272727273,4,3,1,75,1,0
60674,-200,4,3,1,75,0,0
62855,-125,4,3,1,85,0,0
65037,-200,4,3,1,75,0,0
67219,-125,4,3,1,85,0,0
69401,-100,4,3,1,95,0,0
77037,-111.111111111111,4,3,1,95,0,0
78128,-125,4,3,1,95,0,0
84674,-100,4,3,1,95,0,0
85764,-133.333333333333,4,3,1,95,0,0
86855,-166.666666666667,4,3,1,75,0,0
90128,-125,4,3,1,85,0,0
91219,-100,4,3,1,95,0,0
92310,-133.333333333333,4,3,1,95,0,0
101855,-166.666666666667,4,3,1,65,0,0
117401,-125,4,3,1,95,0,0
119583,-100,4,3,1,95,0,0
136764,300,4,3,1,95,1,0
136764,-133.333333333333,4,3,1,95,0,0
137064,275.229357798165,4,3,1,95,1,0
137064,-200,4,3,1,95,0,0
138164,272.479564032698,4,3,1,95,1,0
138164,-200,4,3,1,95,0,0
139253,270.27027027027,4,3,1,95,1,0
139253,-250,4,3,1,95,0,0
140334,266.785237883504,4,3,1,95,1,0
140334,-250,4,3,1,95,0,0
141413,272.727272727273,4,3,1,95,1,0
141413,-200,4,3,1,95,0,0
143582,272.727272727273,4,3,1,95,1,0
143582,-250,4,3,1,95,0,0
145764,273.972602739726,4,3,1,95,1,0
145764,-250,4,3,1,95,0,0
146310,-200,4,3,1,95,0,0
147955,-250,4,3,1,95,0,0
150147,272.727272727273,4,3,1,95,1,0
150147,-200,4,3,1,95,0,0
152328,269.058295964126,4,3,1,95,1,0
153942,283.687943262411,4,3,1,95,1,0
154509,272.727272727273,4,3,1,80,1,0
154509,-166.666666666667,4,3,1,80,0,0
158872,270.27027027027,4,3,1,95,1,1
158872,-100,4,3,1,95,0,1
159953,272.727272727273,4,3,1,95,1,1
161043,273.972602739726,4,3,1,95,1,1
163234,-100,4,3,1,95,0,0
165433,275.229357798165,4,3,1,95,1,0
165433,-200,4,3,1,95,0,0
165983,266.666666666667,4,3,1,95,1,0
165983,-200,4,3,1,95,0,0
167048,284.36018957346,4,3,1,95,1,0
167617,264.31718061674,4,3,1,95,1,0
167617,-166.666666666667,4,3,1,95,0,0
168674,278.228611175516,4,3,1,95,1,0
168674,-166.666666666667,4,3,1,95,0,0
169786,270.124257158293,4,3,1,95,1,0
169786,-125,4,3,1,95,0,0
171946,272.727272727273,4,3,1,95,1,0
171946,-166.666666666667,4,3,1,95,0,0
174127,-125,4,3,1,95,0,0
176309,-100,4,3,1,95,0,0
185036,-100,4,3,1,100,0,1
198127,-100,4,3,1,100,0,0
200310,276.497695852535,4,3,1,100,1,1
200310,-100,4,3,1,100,0,1
201830,-100,4,3,1,100,0,0

[Colours]
Combo1 : 207,187,118
Combo2 : 170,105,74
Combo3 : 120,89,54

[HitObjects]
187,327,48,6,0,L|184:348,1,20
187,327,182,6,0,L|35:349,1,143.999995605469,0|4,1:0|0:0,0:0:0:0:
127,112,582,1,0,1:0:0:0:
72,177,715,2,0,L|-4:166,1,71.9999978027344,0|4,1:0|0:0,0:0:0:0:
127,112,982,6,0,P|146:166|139:261,1,143.999995605469,0|4,1:0|0:0,0:0:0:0:
141,251,1382,2,0,L|219:241,1,71.9999978027344,0|0,1:0|0:0,0:0:0:0:
301,289,1648,1,0,1:0:0:0:
305,293,1715,1,0,0:0:0:0:
309,297,1782,6,0,P|293:228|308:152,1,143.999995605469,4|0,0:0|1:0,0:0:0:0:
305,156,2182,2,0,L|457:178,1,143.999995605469,4|0,0:0|1:0,0:0:0:0:
358,381,2582,2,0,P|406:329|481:331,1,143.999995605469,4|0,0:0|1:0,0:0:0:0:
475,328,2982,2,0,P|467:286|472:249,1,71.9999978027344,4|0,0:0|0:0,0:0:0:0:
368,86,3248,6,0,L|371:107,1,20,0|0,1:0|1:0,0:0:0:0:
368,86,3382,6,0,L|520:108,1,143.999995605469,0|4,1:0|0:0,0:0:0:0:
228,0,3782,1,0,1:0:0:0:
295,45,3915,1,0,1:0:0:0:
295,45,4048,1,4,0:0:0:0:
228,0,4182,6,0,P|209:54|216:149,1,143.999995605469,0|4,1:0|0:0,0:0:0:0:
213,139,4582,2,0,L|288:133,1,71.9999978027344,0|0,1:0|0:0,0:0:0:0:
131,178,4848,1,0,1:0:0:0:
135,182,4915,1,0,0:0:0:0:
139,186,4982,6,0,P|155:255|140:331,1,143.999995605469,4|0,0:0|1:0,0:0:0:0:
143,327,5382,2,0,L|-9:305,1,143.999995605469,4|0,0:0|1:0,0:0:0:0:
66,45,5782,5,4,0:0:0:0:
143,27,5915,1,4,0:0:0:0:
161,104,6048,1,0,1:0:0:0:
84,122,6182,2,0,L|8:111,1,71.9999978027344,4|0,0:0|0:0,0:0:0:0:
233,218,6448,1,0,1:0:0:0:
298,168,6582,6,0,P|312:106|298:22,1,143.999995605469,0|4,1:0|0:0,0:0:0:0:
235,71,6982,1,0,1:0:0:0:
388,168,7115,2,0,L|378:246,1,71.9999978027344,0|4,1:0|0:0,0:0:0:0:
483,152,7382,6,0,P|472:207|466:320,1,143.999995605469,0|4,1:0|0:0,0:0:0:0:
465,294,7782,2,0,P|427:304|390:317,1,71.9999978027344,0|0,1:0|0:0,0:0:0:0:
248,376,8048,1,0,1:0:0:0:
252,380,8115,1,0,0:0:0:0:
256,384,8182,6,0,P|297:344|292:261,1,143.999995605469,4|0,0:0|1:0,0:0:0:0:
292,262,8582,2,0,L|214:272,1,71.9999978027344,4|0,0:0|0:0,0:0:0:0:
138,352,8848,1,0,1:0:0:0:
142,356,8915,1,0,0:0:0:0:
146,360,8982,6,0,L|0:338,1,143.999995605469,4|0,0:0|1:0,0:0:0:0:
107,270,9382,2,0,P|92:245|94:201,1,71.9999978027344,4|0,0:0|0:0,0:0:0:0:
206,160,9648,1,0,1:0:0:0:
210,164,9715,1,0,1:0:0:0:
214,168,9782,6,0,P|200:106|214:22,1,143.999995605469,0|4,1:0|0:0,0:0:0:0:
277,71,10182,1,0,1:0:0:0:
124,168,10315,2,0,L|134:246,1,71.9999978027344,0|4,1:0|0:0,0:0:0:0:
29,152,10582,6,0,P|40:207|46:320,1,143.999995605469,0|4,1:0|0:0,0:0:0:0:
47,294,10982,2,0,P|101:344|192:334,1,143.999995605469,0|0,1:0|1:0,0:0:0:0:
202,157,11382,5,8,0:1:0:0:
392,196,11515,1,8,0:1:0:0:
320,239,11648,1,8,0:1:0:0:
510,278,11782,5,8,1:1:0:0:
372,384,11915,2,0,L|365:303,1,80,8|8,1:1|1:1,0:0:0:0:
346,130,12182,5,0,1:0:0:0:
417,69,12315,1,0,1:0:0:0:
272,16,12448,1,0,1:0:0:0:
346,130,12582,2,0,L|340:51,1,80,4|4,0:0|0:0,0:0:0:0:
501,4,12848,1,4,0:0:0:0:
501,4,12982,6,0,P|501:92|509:202,1,191.999994140625,4|0,1:2|0:0,0:0:0:0:
443,264,13382,1,10,1:1:0:0:
443,264,13648,1,0,1:0:0:0:
285,186,13782,6,0,P|227:217|233:338,1,191.999994140625,0|0,1:0|0:0,0:0:0:0:
369,225,14182,2,0,P|361:129|361:33,1,191.999994140625,10|0,1:1|0:0,0:0:0:0:
436,93,14582,5,0,1:0:0:0:
436,93,14848,1,0,1:0:0:0:
285,186,14982,1,10,1:1:0:0:
285,186,15248,1,0,1:0:0:0:
192,35,15382,6,0,P|112:-4|0:9,1,191.999994140625,0|0,1:0|0:0,0:0:0:0:
140,146,15782,2,0,P|226:106|321:116,1,191.999994140625,10|0,1:1|0:0,0:0:0:0:
11,4,16182,6,0,P|11:92|3:202,1,191.999994140625,4|0,1:2|0:0,0:0:0:0:
69,264,16582,1,10,1:1:0:0:
69,264,16848,1,0,1:0:0:0:
227,186,16982,6,0,P|285:217|279:338,1,191.999994140625,0|0,1:0|0:0,0:0:0:0:
143,225,17382,2,0,P|151:129|151:33,1,191.999994140625,10|0,1:1|0:0,0:0:0:0:
243,12,17782,6,0,P|238:49|233:96,1,71.9999978027344,4|8,1:3|1:3,0:0:0:0:
234,83,18036,1,8,1:3:0:0:
58,104,18164,6,0,P|63:141|68:188,1,71.9999978027344,10|8,1:1|1:3,0:0:0:0:
66,175,18418,1,8,1:3:0:0:
29,326,18546,5,0,1:0:0:0:
95,359,18673,1,4,1:3:0:0:
146,306,18801,1,4,1:3:0:0:
260,338,18928,6,0,P|265:301|270:254,1,71.9999978027344,10|4,1:1|1:3,0:0:0:0:
268,267,19183,1,4,1:3:0:0:
211,200,19332,6,0,P|298:189|409:173,1,191.999994140625,4|0,1:2|0:0,0:0:0:0:
512,359,19754,2,0,P|504:305|512:259,2,95.9999970703126,10|0|0,1:1|0:0|1:0,0:0:0:0:
512,359,20159,6,0,P|425:370|314:386,1,191.999994140625,0|0,1:0|0:0,0:0:0:0:
148,251,20564,2,0,P|133:166|155:33,1,191.999994140625,10|0,1:1|0:0,0:0:0:0:
71,24,20968,5,0,1:0:0:0:
71,24,21236,1,0,1:0:0:0:
256,120,21370,1,10,1:1:0:0:
256,120,21639,1,0,1:0:0:0:
441,24,21773,6,0,P|449:71|459:111,1,80,0|0,1:0|0:0,0:0:0:0:
504,169,22037,1,0,0:0:0:0:
364,251,22170,2,0,P|379:166|357:33,1,191.999994140625,10|0,1:1|0:0,0:0:0:0:
301,200,22567,6,0,P|214:189|103:173,1,191.999994140625,4|0,1:2|0:0,0:0:0:0:
53,116,22961,1,10,1:1:0:0:
53,116,23224,1,0,1:0:0:0:
0,359,23356,6,0,P|87:370|198:386,1,191.999994140625,0|0,1:0|0:0,0:0:0:0:
364,251,23745,2,0,P|379:166|357:33,1,191.999994140625,10|0,1:1|0:0,0:0:0:0:
195,23,24135,6,0,L|206:107,1,71.9999978027344,4|8,1:3|1:3,0:0:0:0:
156,151,24394,1,8,1:3:0:0:
293,194,24524,1,10,1:1:0:0:
367,62,24654,1,8,1:3:0:0:
147,160,24784,1,8,1:3:0:0:
283,204,24932,6,0,L|272:288,1,71.9999978027344,0|4,1:0|1:3,0:0:0:0:
322,332,25215,1,4,1:3:0:0:
185,375,25357,1,10,1:1:0:0:
111,243,25493,2,0,L|32:226,1,71.9999978027344,4|4,1:3|1:3,0:0:0:0:
331,341,25766,5,4,1:2:0:0:
0,181,27947,6,0,L|53:188,1,30,2|0,0:3|2:0,0:0:0:0:
38,195,28220,6,0,L|91:188,1,30,2|0,0:3|2:0,0:0:0:0:
104,161,28493,6,0,L|157:168,1,30,2|0,0:3|2:0,0:0:0:0:
183,223,28766,6,0,L|236:216,1,30,2|0,0:3|2:0,0:0:0:0:
294,134,29038,6,0,L|347:141,1,30,2|0,0:3|2:0,0:0:0:0:
387,262,29311,6,0,L|440:255,1,30,2|0,0:3|2:0,0:0:0:0:
476,106,29584,6,0,L|529:113,1,30,2|0,0:3|2:0,0:0:0:0:
385,185,29720,1,4,1:3:0:0:
385,185,29856,1,4,1:3:0:0:
385,185,29993,1,4,1:3:0:0:
292,47,30129,6,0,L|269:233,1,180,4|0,1:2|2:0,0:0:0:0:
257,303,30402,2,0,P|201:288|135:296,1,120,10|0,1:0|1:0,0:0:0:0:
10,71,30675,2,0,P|46:135|161:122,1,180,0|0,1:0|2:0,0:0:0:0:
203,88,30947,1,10,1:0:0:0:
385,185,31084,1,0,1:0:0:0:
512,24,31220,5,0,1:0:0:0:
368,110,31356,1,0,1:0:0:0:
402,260,31493,1,10,1:0:0:0:
258,346,31629,6,0,L|56:318,1,180,0|0,1:0|2:0,0:0:0:0:
24,273,31902,2,0,P|11:231|24:156,1,120,0|12,1:0|1:1,0:0:0:0:
220,47,32175,1,8,1:0:0:0:
220,47,32311,6,0,L|243:233,1,180,4|0,1:2|2:0,0:0:0:0:
255,303,32584,2,0,P|311:288|377:296,1,120,10|0,1:0|1:0,0:0:0:0:
502,71,32857,2,0,P|466:135|351:122,1,180,0|0,1:0|2:0,0:0:0:0:
309,88,33129,1,10,1:0:0:0:
127,185,33266,1,0,1:0:0:0:
0,24,33402,5,0,1:0:0:0:
144,110,33538,1,0,1:0:0:0:
110,260,33675,1,10,1:0:0:0:
254,346,33811,6,0,L|456:318,1,180,0|0,1:0|2:0,0:0:0:0:
488,273,34084,2,0,P|501:231|488:156,1,120,8|8,1:0|1:0,0:0:0:0:
292,47,34356,1,8,1:0:0:0:
225,93,34493,5,6,0:0:0:0:
225,93,34629,1,4,0:0:0:0:
225,93,34766,6,0,L|235:163,1,60,10|0,0:1|0:0,0:0:0:0:
123,261,35038,6,0,L|53:251,1,60,6|0,0:0|0:0,0:0:0:0:
33,165,35311,2,0,L|103:175,1,60,10|0,0:1|0:0,0:0:0:0:
281,213,35584,5,6,0:0:0:0:
281,213,35720,1,4,0:0:0:0:
281,213,35857,6,0,L|271:283,1,60,10|0,0:1|0:0,0:0:0:0:
383,381,36129,6,0,L|453:371,1,60,6|0,0:0|0:0,0:0:0:0:
473,285,36402,2,0,L|403:295,1,60,10|0,0:1|0:0,0:0:0:0:
212,384,36675,6,0,P|194:343|204:282,1,96,4|0,1:2|0:0,0:0:0:0:
300,0,36947,2,0,P|318:41|308:102,1,96,10|0,1:0|0:0,0:0:0:0:
95,173,37220,2,0,L|-5:160,1,96,4|0,1:3|0:0,0:0:0:0:
417,211,37493,2,0,L|517:224,1,96,10|0,1:0|0:0,0:0:0:0:
125,248,37766,5,4,1:2:0:0:
383,132,37902,1,4,1:3:0:0:
129,252,38038,1,10,1:0:0:0:
387,136,38174,1,4,1:3:0:0:
512,223,38311,6,0,L|417:211,1,96,4|0,1:2|0:0,0:0:0:0:
95,173,38584,2,0,L|0:160,1,96,10|0,1:0|0:0,0:0:0:0:
48,33,38856,5,6,0:0:0:0:
48,33,38992,1,4,0:0:0:0:
48,33,39129,6,0,L|58:103,1,60,10|0,0:1|0:0,0:0:0:0:
147,227,39402,6,0,L|217:217,1,60,6|0,0:0|0:0,0:0:0:0:
256,161,39675,2,0,L|326:171,1,60,10|0,0:1|0:0,0:0:0:0:
464,33,39947,5,6,0:0:0:0:
464,33,40083,1,4,0:0:0:0:
464,33,40220,6,0,L|454:103,1,60,10|0,0:1|0:0,0:0:0:0:
365,227,40493,6,0,L|295:217,1,60,6|0,0:0|0:0,0:0:0:0:
256,161,40766,2,0,L|186:171,1,60,10|0,0:1|0:0,0:0:0:0:
300,384,41038,6,0,P|318:343|308:282,1,96,4|0,1:2|0:0,0:0:0:0:
212,0,41310,2,0,P|194:41|204:102,1,96,10|0,1:0|0:0,0:0:0:0:
417,173,41583,2,0,L|517:160,1,96,4|0,1:3|0:0,0:0:0:0:
95,211,41856,2,0,L|-5:224,1,96,10|0,1:0|0:0,0:0:0:0:
210,304,42129,5,4,1:2:0:0:
301,79,42266,1,4,1:3:0:0:
368,237,42402,1,10,1:0:0:0:
143,146,42539,1,4,1:3:0:0:
272,0,42675,5,0,1:0:0:0:
270,24,42743,1,0,1:0:0:0:
268,48,42811,1,0,1:0:0:0:
266,72,42879,1,0,1:0:0:0:
264,96,42947,1,0,1:0:0:0:
262,120,43016,1,0,1:0:0:0:
260,144,43084,1,0,1:0:0:0:
258,168,43152,1,0,1:0:0:0:
256,192,43220,6,0,L|446:167,1,180,4|0,1:2|2:0,0:0:0:0:
482,230,43493,2,0,P|491:280|478:351,1,120,10|0,1:0|0:0,0:0:0:0:
178,143,43766,2,0,P|169:93|182:22,1,120,2|0,1:3|0:0,0:0:0:0:
512,81,44038,2,0,L|384:97,1,120,10|0,1:0|2:0,0:0:0:0:
0,131,44311,5,4,1:2:0:0:
256,192,44447,1,8,1:3:0:0:
38,365,44584,1,10,1:0:0:0:
67,76,44720,2,0,L|95:324,1,240,8|0,1:3|0:0,0:0:0:0:
256,192,45129,2,0,P|278:118|256:20,1,180,10|0,1:0|2:0,0:0:0:0:
180,15,45402,6,0,L|59:2,1,120,4|0,1:2|0:0,0:0:0:0:
256,192,45675,2,0,L|377:205,1,120,10|0,1:0|0:0,0:0:0:0:
451,2,45947,6,0,L|332:15,1,120,2|0,1:3|0:0,0:0:0:0:
136,204,46220,2,0,L|256:192,1,120,10|0,1:0|0:0,0:0:0:0:
512,131,46493,5,4,1:2:0:0:
256,192,46629,1,8,1:3:0:0:
474,365,46766,1,10,1:0:0:0:
445,76,46902,2,0,L|417:324,1,240,8|0,1:3|0:0,0:0:0:0:
256,364,47311,2,0,P|233:278|256:192,1,180,10|0,1:0|2:0,0:0:0:0:
323,152,47584,6,0,L|444:165,1,120,4|0,1:2|0:0,0:0:0:0:
159,7,47856,2,0,P|143:65|148:135,1,120,10|0,1:0|0:0,0:0:0:0:
0,316,48129,2,0,P|36:252|151:265,1,180,2|0,1:3|2:0,0:0:0:0:
193,299,48402,2,0,L|314:286,1,120,10|0,1:0|0:0,0:0:0:0:
256,80,48675,6,0,L|437:60,1,180,4|0,1:2|2:0,0:0:0:0:
493,116,48947,1,10,1:0:0:0:
312,286,49084,1,0,0:0:0:0:
166,166,49220,6,0,L|347:146,1,180,2|0,1:3|2:0,0:0:0:0:
403,202,49492,1,10,1:0:0:0:
222,372,49629,1,0,0:0:0:0:
256,80,49766,6,0,L|75:60,1,180,4|0,1:2|2:0,0:0:0:0:
19,116,50038,1,10,1:0:0:0:
200,286,50175,1,0,0:0:0:0:
346,166,50311,6,0,L|165:146,1,180,4|0,1:2|2:0,0:0:0:0:
109,202,50583,1,10,1:0:0:0:
290,372,50720,1,0,0:0:0:0:
418,124,50856,6,0,P|426:56|419:5,1,120,4|0,1:2|0:0,0:0:0:0:
92,5,51129,2,0,P|85:64|94:124,1,120,10|0,1:0|0:0,0:0:0:0:
256,384,51402,5,2,1:3:0:0:
256,336,51471,1,0,1:0:0:0:
256,288,51539,1,0,1:0:0:0:
256,240,51607,1,0,1:0:0:0:
256,192,51675,2,0,L|256:96,1,96,10|0,1:0|0:0,0:0:0:0:
182,219,51947,5,4,0:0:0:0:
330,219,52084,1,4,0:0:0:0:
0,192,52356,6,0,L|77:204,1,71.9999978027344,4|4,0:0|0:0,0:0:0:0:
116,267,52629,1,0,0:0:0:0:
256,88,52902,6,0,L|333:76,1,71.9999978027344,4|4,0:0|0:0,0:0:0:0:
372,13,53175,1,4,0:0:0:0:
512,192,53447,6,0,L|435:204,1,71.9999978027344,4|4,0:0|0:0,0:0:0:0:
396,267,53720,1,4,0:0:0:0:
256,88,53993,6,0,L|179:76,1,71.9999978027344,4|4,0:0|0:0,0:0:0:0:
140,13,54266,1,4,0:0:0:0:
0,192,54538,6,0,L|12:269,1,71.9999978027344,4|4,0:0|0:0,0:0:0:0:
77,301,54811,1,4,0:0:0:0:
149,274,54947,2,0,L|161:351,1,71.9999978027344,0|4,1:0|0:0,0:0:0:0:
351,345,55220,6,0,L|363:274,1,71.9999978027344,0|0,1:0|1:0,0:0:0:0:
500,263,55493,1,8,1:0:0:0:
435,301,55629,1,0,1:0:0:0:
500,263,55766,6,0,L|512:192,1,71.9999978027344,8|8,1:0|1:0,0:0:0:0:
306,62,56038,5,8,1:0:0:0:
183,174,56175,5,8,1:0:0:0:
256,312,56311,5,6,1:2:0:0:
512,181,58512,6,0,L|459:188,1,30,2|0,1:3|2:0,0:0:0:0:
444,191,58782,6,0,L|474:195,1,30,4|0,0:0|2:0,0:0:0:0:
408,161,58917,2,0,L|378:164,1,30,8|0,1:3|2:0,0:0:0:0:
299,219,59187,6,0,L|329:223,1,30,4|0,0:0|2:0,0:0:0:0:
218,134,59322,2,0,L|165:141,1,30,8|0,1:3|2:0,0:0:0:0:
95,258,59593,6,0,L|125:262,1,30,4|0,0:0|2:0,0:0:0:0:
36,106,59728,2,0,L|-17:113,1,30,8|0,1:3|2:0,0:0:0:0:
6,109,60133,5,2,1:2:0:0:
131,185,60268,1,2,1:2:0:0:
135,189,60336,1,2,1:2:0:0:
139,193,60403,1,2,1:2:0:0:
233,36,60539,1,2,1:2:0:0:
287,93,60674,5,6,0:0:0:0:
339,203,60810,1,4,0:0:0:0:
287,93,60947,6,0,L|277:163,1,60,10|0,0:1|0:0,0:0:0:0:
389,261,61219,6,0,L|459:251,1,60,6|0,0:0|0:0,0:0:0:0:
479,165,61492,2,0,L|409:175,1,60,10|0,0:1|0:0,0:0:0:0:
231,213,61765,5,6,0:0:0:0:
179,323,61901,1,4,0:0:0:0:
231,213,62038,6,0,L|241:283,1,60,10|0,0:1|0:0,0:0:0:0:
129,381,62310,6,0,L|59:371,1,60,6|0,0:0|0:0,0:0:0:0:
39,285,62583,2,0,L|109:295,1,60,10|0,0:1|0:0,0:0:0:0:
307,384,62855,6,0,P|301:338|314:282,1,96,4|0,1:2|0:0,0:0:0:0:
205,0,63128,2,0,P|211:46|198:102,1,96,10|0,1:0|0:0,0:0:0:0:
142,142,63401,6,0,L|36:128,1,96,4|0,1:3|0:0,0:0:0:0:
370,242,63674,2,0,L|476:256,1,96,10|0,1:0|0:0,0:0:0:0:
142,242,63946,5,4,1:2:0:0:
370,142,64083,1,4,1:3:0:0:
142,142,64219,1,10,1:0:0:0:
370,242,64356,1,4,1:3:0:0:
307,384,64492,6,0,P|301:338|314:282,1,96,4|0,1:2|0:0,0:0:0:0:
201,94,64764,2,0,P|210:47|205:0,1,96,10|0,1:0|0:0,0:0:0:0:
67,126,65037,5,6,0:0:0:0:
201,94,65174,1,4,0:0:0:0:
67,126,65310,2,0,L|-7:116,1,60,10|0,0:1|0:0,0:0:0:0:
159,254,65583,6,0,L|233:244,1,60,6|0,0:0|0:0,0:0:0:0:
256,168,65855,2,0,L|330:178,1,60,10|0,0:1|0:0,0:0:0:0:
445,126,66128,5,6,0:0:0:0:
311,94,66265,1,4,0:0:0:0:
445,126,66401,2,0,L|519:116,1,60,10|0,0:1|0:0,0:0:0:0:
353,254,66674,6,0,L|279:244,1,60,6|0,0:0|0:0,0:0:0:0:
256,168,66946,2,0,L|182:178,1,60,10|0,0:1|0:0,0:0:0:0:
205,384,67219,6,0,P|211:338|198:282,1,96,4|0,1:2|0:0,0:0:0:0:
307,0,67492,2,0,P|301:46|314:102,1,96,10|0,1:0|0:0,0:0:0:0:
370,142,67765,6,0,L|476:128,1,96,4|0,1:3|0:0,0:0:0:0:
142,242,68038,2,0,L|36:256,1,96,10|0,1:0|0:0,0:0:0:0:
124,321,68310,5,4,1:2:0:0:
388,321,68446,1,4,1:3:0:0:
165,165,68583,1,10,1:0:0:0:
347,165,68719,1,4,1:3:0:0:
240,0,68856,5,0,1:0:0:0:
242,24,68924,1,0,1:0:0:0:
244,48,68992,1,0,1:0:0:0:
246,72,69060,1,0,1:0:0:0:
248,96,69128,1,0,1:0:0:0:
250,120,69197,1,0,1:0:0:0:
252,144,69265,1,0,1:0:0:0:
254,168,69333,1,0,1:0:0:0:
256,192,69401,6,0,L|66:167,1,180,4|0,1:2|2:0,0:0:0:0:
30,230,69674,2,0,P|21:280|34:351,1,120,10|0,1:0|0:0,0:0:0:0:
119,96,69946,2,0,L|0:82,1,120,2|0,1:3|2:0,0:0:0:0:
331,25,70219,2,0,P|343:83|334:143,1,120,10|0,1:0|0:0,0:0:0:0:
256,192,70492,5,4,1:2:0:0:
512,82,70628,1,8,1:3:0:0:
375,332,70764,1,10,1:0:0:0:
177,238,70901,2,0,L|201:-10,1,240,8|0,1:3|0:0,0:0:0:0:
375,332,71310,2,0,P|346:262|362:159,1,180,10|0,1:0|2:0,0:0:0:0:
393,96,71583,6,0,L|512:82,1,120,4|0,1:2|2:0,0:0:0:0:
375,332,71855,2,0,L|256:318,1,120,10|0,1:0|2:0,0:0:0:0:
119,96,72128,6,0,L|0:82,1,120,2|0,1:3|2:0,0:0:0:0:
137,332,72401,2,0,L|256:318,1,120,10|0,1:0|2:0,0:0:0:0:
256,192,72674,5,4,1:2:0:0:
0,82,72810,1,8,1:3:0:0:
137,332,72946,1,10,1:0:0:0:
335,238,73083,2,0,L|311:-10,1,240,8|0,1:3|0:0,0:0:0:0:
137,332,73492,2,0,P|166:262|150:159,1,180,10|0,1:0|2:0,0:0:0:0:
119,96,73764,6,0,L|238:110,1,120,4|0,1:2|2:0,0:0:0:0:
429,45,74037,2,0,P|448:117|434:167,1,120,10|0,1:0|0:0,0:0:0:0:
256,384,74310,2,0,P|241:309|263:189,1,180,2|0,1:3|2:0,0:0:0:0:
318,173,74583,2,0,L|437:159,1,120,10|0,1:0|2:0,0:0:0:0:
499,319,74855,6,0,L|320:338,1,180,4|0,1:2|2:0,0:0:0:0:
256,384,75128,1,10,1:0:0:0:
318,173,75264,1,0,0:0:0:0:
409,246,75401,6,0,L|230:265,1,180,2|0,1:3|2:0,0:0:0:0:
166,311,75674,1,10,1:0:0:0:
228,100,75810,1,0,0:0:0:0:
318,173,75946,6,0,L|139:192,1,180,4|0,1:2|2:0,0:0:0:0:
86,138,76219,2,0,P|74:84|93:14,1,120,10|0,1:0|0:0,0:0:0:0:
423,22,76492,2,0,P|437:79|426:138,1,120,4|0,1:2|0:0,0:0:0:0:
101,356,76764,5,10,1:0:0:0:
256,272,76901,1,0,0:0:0:0:
411,356,77037,2,0,L|301:331,1,107.999996704102,4|0,1:2|2:0,0:0:0:0:
98,362,77310,5,10,1:0:0:0:
96,338,77378,1,0,1:0:0:0:
94,314,77446,1,0,1:0:0:0:
92,290,77514,1,0,1:0:0:0:
90,266,77582,1,2,1:3:0:0:
88,242,77651,1,0,1:0:0:0:
86,218,77719,1,0,1:0:0:0:
84,194,77787,1,0,1:0:0:0:
82,170,77855,1,10,1:0:0:0:
82,170,78128,5,4,1:2:0:0:
328,94,78264,1,0,0:0:0:0:
256,42,78401,2,0,L|256:141,1,96,10|0,1:0|0:0,0:0:0:0:
188,288,78674,2,0,P|220:272|324:288,1,144,2|0,1:3|2:0,0:0:0:0:
373,349,78946,2,0,L|471:339,1,96,10|0,1:0|0:0,0:0:0:0:
430,170,79219,5,4,1:2:0:0:
184,94,79355,1,0,0:0:0:0:
256,42,79492,2,0,L|256:141,1,96,10|0,1:0|0:0,0:0:0:0:
324,288,79765,2,0,P|292:272|188:288,1,144,2|0,1:3|2:0,0:0:0:0:
139,349,80037,2,0,L|41:339,1,96,10|0,1:0|0:0,0:0:0:0:
0,138,80310,5,4,1:2:0:0:
128,202,80446,1,0,0:0:0:0:
256,138,80583,2,0,L|256:42,1,96,10|0,1:0|0:0,0:0:0:0:
419,0,80855,2,0,P|435:32|419:136,1,144,2|0,1:3|2:0,0:0:0:0:
384,202,81128,2,0,L|384:298,1,96,10|0,1:0|0:0,0:0:0:0:
512,138,81401,5,4,1:2:0:0:
384,202,81537,1,0,0:0:0:0:
256,138,81674,2,0,L|256:42,1,96,10|0,1:0|0:0,0:0:0:0:
93,0,81946,2,0,P|77:32|93:136,1,144,2|0,1:3|2:0,0:0:0:0:
128,202,82219,2,0,L|128:298,1,96,10|0,1:0|0:0,0:0:0:0:
69,355,82492,5,4,1:2:0:0:
256,320,82628,1,0,0:0:0:0:
32,272,82764,2,0,L|32:173,1,96,10|0,1:0|0:0,0:0:0:0:
188,59,83037,2,0,P|220:43|324:59,1,144,2|0,1:3|2:0,0:0:0:0:
380,107,83310,2,0,L|380:206,1,96,10|0,1:0|0:0,0:0:0:0:
443,355,83583,5,4,1:2:0:0:
256,320,83719,1,0,0:0:0:0:
480,272,83855,2,0,L|480:173,1,96,10|0,1:0|0:0,0:0:0:0:
324,59,84128,2,0,P|292:43|188:59,1,144,2|0,1:3|2:0,0:0:0:0:
132,107,84401,2,0,L|132:206,1,96,10|0,1:0|0:0,0:0:0:0:
0,306,84674,6,0,L|209:276,1,180,4|0,1:2|2:0,0:0:0:0:
256,348,84946,2,0,L|78:374,1,180,12|0,1:0|2:0,0:0:0:0:
256,192,85219,6,0,L|465:162,1,180,4|0,1:2|2:0,0:0:0:0:
512,234,85491,2,0,L|334:260,1,180,12|0,1:0|2:0,0:0:0:0:
256,192,85764,5,4,1:2:0:0:
237,153,85833,1,0,1:0:0:0:
219,114,85901,1,0,1:0:0:0:
250,84,85969,1,0,1:0:0:0:
280,55,86037,5,10,1:0:0:0:
302,63,86105,1,0,1:0:0:0:
323,70,86174,1,0,1:0:0:0:
344,77,86242,1,0,1:0:0:0:
365,84,86310,6,0,L|370:141,1,45.0000017166138,2|0,1:3|1:0,1:0:0:0:
440,44,86446,2,0,L|445:101,2,45.0000017166138,0|0|10,1:0|1:0|1:0,1:0:0:0:
137,9,86855,6,0,P|116:58|122:112,1,107.999996704102,4|0,0:0|2:0,0:0:0:0:
121,111,87128,2,0,L|52:128,1,71.9999978027344,0|0,1:0|0:0,0:0:0:0:
16,196,87401,1,4,0:0:0:0:
152,287,87537,1,4,0:0:0:0:
256,139,87674,2,0,L|186:155,1,71.9999978027344,0|0,1:0|0:0,0:0:0:0:
76,273,87946,6,0,P|69:326|74:388,1,107.999996704102,4|0,0:0|2:0,0:0:0:0:
72,380,88219,2,0,L|141:363,1,71.9999978027344,0|0,1:0|0:0,0:0:0:0:
234,247,88492,1,4,0:0:0:0:
360,287,88628,1,4,0:0:0:0:
234,247,88764,2,0,L|303:230,1,71.9999978027344,0|0,1:0|0:0,0:0:0:0:
375,9,89037,6,0,P|396:58|390:112,1,107.999996704102,4|0,0:0|2:0,0:0:0:0:
390,111,89310,2,0,L|460:128,1,71.9999978027344,0|0,1:0|0:0,0:0:0:0:
496,196,89583,1,4,0:0:0:0:
360,287,89719,1,4,0:0:0:0:
253,123,89855,2,0,L|264:36,1,71.9999978027344,0|0,1:0|0:0,0:0:0:0:
150,15,90128,6,0,P|147:84|135:167,1,144,4|0,0:2|2:0,0:0:0:0:
136,158,90401,2,0,L|35:173,1,96,2|0,1:1|2:0,0:0:0:0:
275,301,90674,2,0,L|173:315,1,96,2|0,1:1|2:0,0:0:0:0:
495,233,90946,2,0,L|393:247,1,96,2|0,1:1|2:0,0:0:0:0:
253,123,91219,6,0,L|276:309,1,180,12|0,1:2|2:0,0:0:0:0:
288,379,91492,2,0,P|344:364|410:372,1,120,12|0,1:2|2:0,0:0:0:0:
505,146,91764,2,0,P|417:170|291:151,1,180,12|0,1:2|2:0,0:0:0:0:
253,123,92037,2,0,L|237:-1,1,120,12|0,1:2|2:0,0:0:0:0:
166,229,92310,5,0,1:0:0:0:
127,248,92379,1,0,1:0:0:0:
88,266,92447,1,0,1:0:0:0:
58,235,92515,1,0,1:0:0:0:
29,205,92583,5,0,1:0:0:0:
37,183,92651,1,0,1:0:0:0:
44,162,92720,1,0,1:0:0:0:
51,141,92788,1,0,1:0:0:0:
58,120,92856,6,0,L|115:115,1,45.0000017166138,0|0,1:0|1:0,0:0:0:0:
170,154,92992,2,0,L|227:149,1,45.0000017166138,0|0,1:0|1:0,0:0:0:0:
282,188,93128,2,0,L|339:183,1,45.0000017166138,0|0,1:0|1:0,0:0:0:0:
394,222,93264,2,0,L|451:217,1,45.0000017166138,0|0,1:0|1:0,0:0:0:0:
506,256,93401,1,4,1:2:0:0:
256,35,101855,6,0,L|260:-6,1,35.9999989013672,2|0,1:3|2:0,0:0:0:0:
199,96,102128,5,0,0:0:0:0:
271,138,102264,1,0,0:0:0:0:
329,78,102401,2,0,L|335:6,1,71.9999978027344,0|0,1:0|0:0,0:0:0:0:
471,57,102674,2,0,L|319:79,1,143.999995605469,0|0,0:0|1:0,0:0:0:0:
275,215,103219,5,0,0:0:0:0:
203,257,103355,1,0,0:0:0:0:
145,197,103492,2,0,L|138:125,1,71.9999978027344,0|0,1:0|0:0,0:0:0:0:
3,176,103765,2,0,L|155:198,1,143.999995605469,0|0,0:0|1:0,0:0:0:0:
262,310,104310,5,0,0:0:0:0:
334,352,104446,1,0,0:0:0:0:
392,292,104583,2,0,L|398:220,1,71.9999978027344,0|0,1:0|0:0,0:0:0:0:
251,322,104855,5,0,0:0:0:0:
323,364,104991,1,0,0:0:0:0:
381,304,105128,2,0,L|387:232,1,71.9999978027344,0|0,1:0|0:0,0:0:0:0:
240,333,105401,5,0,0:0:0:0:
312,375,105537,1,0,0:0:0:0:
370,315,105674,2,0,L|376:243,1,71.9999978027344,0|0,1:0|0:0,0:0:0:0:
512,294,105947,2,0,L|360:316,1,143.999995605469,0|0,0:0|1:0,0:0:0:0:
85,239,106492,5,0,0:0:0:0:
1,309,106628,1,0,0:0:0:0:
81,384,106764,2,0,L|73:304,1,71.9999978027344,0|0,1:0|0:0,0:0:0:0:
163,274,107037,2,0,L|147:114,1,143.999995605469,0|0,0:0|1:0,0:0:0:0:
403,189,107583,5,0,0:0:0:0:
487,259,107719,1,0,0:0:0:0:
407,334,107855,2,0,L|415:254,1,71.9999978027344,0|0,1:0|0:0,0:0:0:0:
325,224,108128,2,0,L|341:64,1,143.999995605469,0|0,0:0|1:0,0:0:0:0:
156,122,108674,5,0,0:0:0:0:
60,195,108810,1,0,0:0:0:0:
145,277,108946,2,0,L|137:197,1,71.9999978027344,0|0,1:0|0:0,0:0:0:0:
164,110,109219,5,0,0:0:0:0:
68,183,109355,1,0,0:0:0:0:
153,265,109491,2,0,L|145:185,1,71.9999978027344,0|0,1:0|0:0,0:0:0:0:
172,98,109764,5,0,0:0:0:0:
76,171,109900,1,0,0:0:0:0:
161,253,110036,2,0,L|153:173,1,71.9999978027344,0|0,1:0|0:0,0:0:0:0:
255,143,110309,2,0,L|239:-17,1,143.999995605469,0|0,0:0|1:0,0:0:0:0:
304,228,110855,5,0,0:0:0:0:
373,259,110992,1,0,0:0:0:0:
442,290,111128,2,0,L|519:277,1,71.9999978027344,0|0,1:0|0:0,0:0:0:0:
416,360,111401,2,0,L|275:384,1,143.999995605469,0|0,0:0|1:0,0:0:0:0:
208,117,111946,5,0,0:0:0:0:
139,148,112083,1,0,0:0:0:0:
70,179,112219,2,0,L|-7:166,1,71.9999978027344,0|0,1:0|0:0,0:0:0:0:
95,249,112492,2,0,L|236:272,1,143.999995605469,0|0,0:0|1:0,0:0:0:0:
304,12,113037,5,0,0:0:0:0:
373,43,113174,1,0,0:0:0:0:
442,74,113310,2,0,L|519:61,1,71.9999978027344,0|0,1:0|0:0,0:0:0:0:
300,16,113583,5,0,0:0:0:0:
369,47,113720,1,0,0:0:0:0:
438,78,113856,2,0,L|515:65,1,71.9999978027344,0|0,1:0|0:0,0:0:0:0:
296,20,114128,5,0,0:0:0:0:
365,51,114265,1,0,0:0:0:0:
434,82,114401,2,0,L|511:69,1,71.9999978027344,0|0,1:0|0:0,0:0:0:0:
409,152,114674,2,0,L|268:175,1,143.999995605469,0|0,0:0|1:0,0:0:0:0:
22,299,115219,5,0,0:0:0:0:
91,268,115356,1,0,0:0:0:0:
160,237,115492,2,0,L|237:250,1,71.9999978027344,0|0,1:0|0:0,0:0:0:0:
22,299,115765,2,0,L|163:323,1,143.999995605469,0|0,0:0|1:0,0:0:0:0:
512,201,116310,5,0,0:0:0:0:
443,170,116447,1,0,0:0:0:0:
374,139,116583,2,0,L|297:152,1,71.9999978027344,0|0,1:0|0:0,0:0:0:0:
512,201,116856,2,0,L|371:225,1,143.999995605469,0|0,0:0|1:0,0:0:0:0:
215,19,117401,6,0,L|221:78,1,48,4|0,1:2|2:0,0:0:0:0:
281,127,117537,5,0,1:0:0:0:
285,131,117605,1,0,1:0:0:0:
289,135,117674,1,0,1:0:0:0:
293,139,117742,1,0,1:0:0:0:
297,143,117810,1,0,1:0:0:0:
301,147,117878,1,0,1:0:0:0:
305,151,117946,6,0,L|299:210,1,48,4|0,1:2|2:0,0:0:0:0:
195,242,118083,5,0,1:0:0:0:
191,246,118151,1,0,1:0:0:0:
187,250,118220,1,0,1:0:0:0:
183,254,118288,1,0,1:0:0:0:
179,258,118356,1,0,1:0:0:0:
175,262,118424,1,0,1:0:0:0:
171,266,118492,6,0,L|177:325,3,48,4|0|0|0,1:2|0:0|0:0|0:0,0:0:0:0:
328,384,118764,6,0,L|334:325,3,48,4|0|0|0,0:0|0:0|0:0|0:0,0:0:0:0:
256,192,119037,5,0,1:0:0:0:
254,168,119105,1,0,1:0:0:0:
252,144,119173,1,0,1:0:0:0:
250,120,119241,1,0,1:0:0:0:
248,96,119309,1,0,1:0:0:0:
246,72,119378,1,0,1:0:0:0:
244,48,119446,1,0,1:0:0:0:
242,24,119514,1,0,1:0:0:0:
240,0,119583,6,0,P|323:64|438:30,1,180,4|0,1:2|2:0,0:0:0:0:
471,30,119855,2,0,L|454:162,1,120,10|8,1:0|1:3,0:0:0:0:
294,348,120128,1,4,1:3:0:0:
497,219,120264,1,4,1:3:0:0:
328,99,120401,2,0,L|302:297,1,180,10|0,1:0|2:0,0:0:0:0:
294,348,120674,6,0,P|238:333|172:341,1,120,4|0,1:3|0:0,0:0:0:0:
0,171,120946,1,10,1:0:0:0:
185,129,121083,1,4,1:3:0:0:
0,171,121219,2,0,P|56:186|122:178,1,120,4|0,1:3|0:0,0:0:0:0:
512,213,121492,2,0,P|456:198|390:206,1,120,10|8,1:0|1:3,0:0:0:0:
117,179,121764,6,0,P|102:104|124:-16,1,180,4|0,1:2|2:0,0:0:0:0:
180,45,122037,2,0,L|302:33,1,120,10|8,1:0|1:3,0:0:0:0:
59,263,122310,2,0,L|242:245,1,180,4|0,1:3|2:0,0:0:0:0:
299,294,122583,1,10,1:0:0:0:
299,294,122719,1,8,1:3:0:0:
453,121,122855,6,0,P|466:61|454:-1,1,120,4|4,1:2|1:3,0:0:0:0:
59,263,123128,2,0,P|46:323|58:385,1,120,10|4,1:0|1:2,0:0:0:0:
56,379,123537,5,4,1:3:0:0:
299,294,123674,2,0,L|282:170,1,120,12|0,1:1|0:0,0:0:0:0:
272,0,123946,6,0,P|189:64|74:30,1,180,4|0,1:2|2:0,0:0:0:0:
41,30,124218,2,0,L|58:162,1,120,10|8,1:0|1:3,0:0:0:0:
218,348,124491,1,4,1:3:0:0:
15,219,124627,1,4,1:3:0:0:
184,99,124764,2,0,L|210:297,1,180,10|0,1:0|2:0,0:0:0:0:
218,348,125037,6,0,P|274:333|340:341,1,120,4|0,1:3|0:0,0:0:0:0:
512,171,125309,1,10,1:0:0:0:
327,129,125446,1,4,1:3:0:0:
512,171,125582,2,0,P|456:186|390:178,1,120,4|0,1:3|0:0,0:0:0:0:
0,213,125855,2,0,P|56:198|122:206,1,120,10|8,1:0|1:3,0:0:0:0:
395,179,126128,6,0,P|410:104|388:-16,1,180,4|0,1:2|2:0,0:0:0:0:
332,45,126401,2,0,L|210:33,1,120,10|8,1:0|1:3,0:0:0:0:
453,263,126674,2,0,L|270:245,1,180,4|0,1:3|2:0,0:0:0:0:
213,294,126947,1,10,1:0:0:0:
213,294,127083,1,8,1:3:0:0:
59,121,127219,6,0,P|46:61|58:-1,1,120,4|4,1:2|1:3,0:0:0:0:
453,263,127492,2,0,P|466:323|454:385,1,120,10|4,1:0|1:2,0:0:0:0:
456,379,127901,5,4,1:3:0:0:
213,294,128037,2,0,L|230:170,1,120,12|0,1:1|0:0,0:0:0:0:
487,14,128310,6,0,L|461:212,1,180,4|0,1:2|2:0,0:0:0:0:
453,263,128583,2,0,P|397:248|331:256,1,120,10|8,1:0|1:3,0:0:0:0:
41,365,128855,1,4,1:3:0:0:
213,294,128992,1,4,1:3:0:0:
148,29,129128,2,0,L|122:227,1,180,10|0,1:0|2:0,0:0:0:0:
114,278,129401,6,0,P|49:284|-5:257,1,120,4|0,1:3|0:0,0:0:0:0:
234,0,129674,1,10,1:0:0:0:
256,192,129810,1,4,1:3:0:0:
234,0,129946,2,0,L|216:132,1,120,4|0,1:3|2:0,0:0:0:0:
278,384,130218,2,0,L|295:251,1,120,10|8,1:0|1:3,0:0:0:0:
37,299,130492,6,0,L|223:276,1,180,4|0,1:2|2:0,0:0:0:0:
293,264,130765,2,0,P|278:208|286:142,1,120,10|8,1:0|1:3,0:0:0:0:
61,17,131038,2,0,P|125:53|112:168,1,180,4|0,1:3|2:0,0:0:0:0:
78,210,131310,1,10,1:0:0:0:
264,337,131446,1,8,1:3:0:0:
391,151,131583,6,0,P|397:91|382:33,1,120,4|4,1:2|1:3,0:0:0:0:
323,84,131855,1,10,1:0:0:0:
127,151,131992,1,4,1:2:0:0:
127,151,132264,5,4,1:3:0:0:
127,151,132333,1,0,1:0:0:0:
127,151,132401,2,0,P|186:157|244:142,1,120,12|0,1:1|0:0,0:0:0:0:
25,14,132674,6,0,L|51:212,1,180,4|0,1:2|2:0,0:0:0:0:
59,263,132947,2,0,P|115:248|181:256,1,120,10|8,1:0|1:3,0:0:0:0:
471,365,133219,1,4,1:3:0:0:
299,294,133356,1,4,1:3:0:0:
364,29,133492,2,0,L|390:227,1,180,10|0,1:0|2:0,0:0:0:0:
398,278,133765,6,0,P|463:284|517:257,1,120,4|0,1:3|0:0,0:0:0:0:
278,0,134038,1,10,1:0:0:0:
256,192,134174,1,4,1:3:0:0:
278,0,134310,2,0,L|296:132,1,120,4|0,1:3|2:0,0:0:0:0:
234,384,134582,2,0,L|217:251,1,120,10|8,1:0|1:3,0:0:0:0:
475,299,134855,6,0,L|289:276,1,180,4|0,1:2|2:0,0:0:0:0:
219,264,135128,2,0,P|234:208|226:142,1,120,10|8,1:0|1:3,0:0:0:0:
451,17,135401,2,0,P|387:53|400:168,1,180,4|0,1:3|2:0,0:0:0:0:
434,210,135673,1,10,1:0:0:0:
248,337,135809,1,8,1:3:0:0:
121,151,135946,5,4,1:2:0:0:
115,121,136014,1,0,0:0:0:0:
115,91,136082,1,4,1:3:0:0:
119,62,136150,1,0,0:0:0:0:
129,33,136218,1,10,1:0:0:0:
189,84,136355,1,8,1:2:0:0:
43,155,136492,5,8,1:2:0:0:
153,222,136628,1,8,1:1:0:0:
81,271,136764,2,0,L|90:367,1,90.0000034332277,0|0,1:1|0:0,0:0:0:0:
334,278,137064,6,0,P|329:219|327:156,2,120,14|0|8,1:1|0:0|1:1,0:0:0:0:
413,299,137752,2,0,L|478:313,1,60
257,368,138027,1,0,0:0:0:0:
257,368,138164,6,0,P|255:308|250:248,1,120,14|0,1:1|0:0,0:0:0:0:
170,297,138572,1,0,0:0:0:0:
170,297,138708,2,0,P|94:284|50:279,1,120,8|0,1:1|0:0,0:0:0:0:
8,96,139253,6,0,L|8:32,1,48,0|0,1:0|2:0,0:0:0:0:
80,120,139523,6,0,L|80:56,1,48,8|0,1:0|2:0,0:0:0:0:
152,48,139793,6,0,L|152:-16,1,48,0|0,1:0|2:0,0:0:0:0:
224,72,140063,6,0,L|224:8,1,48,8|0,1:0|2:0,0:0:0:0:
288,160,140334,6,0,L|288:96,1,48,0|0,1:0|2:0,0:0:0:0:
360,184,140600,6,0,L|360:120,1,48,8|0,1:0|2:0,0:0:0:0:
432,112,140867,6,0,L|432:48,1,48,0|0,1:0|2:0,0:0:0:0:
504,136,141134,6,0,L|504:72,1,48,8|0,1:0|2:0,0:0:0:0:
288,112,141413,6,0,P|283:171|281:234,2,120,14|0|8,1:1|0:0|1:1,0:0:0:0:
367,91,142094,2,0,L|432:77,1,60
211,22,142367,1,0,0:0:0:0:
211,22,142503,6,0,P|209:81|204:141,1,120,14|0,1:1|0:0,0:0:0:0:
124,93,142913,1,0,0:0:0:0:
124,93,143049,2,0,P|48:106|4:111,1,120,8|0,1:1|0:0,0:0:0:0:
64,288,143582,6,0,L|128:288,1,48,0|0,1:0|2:0,0:0:0:0:
160,352,143855,2,0,L|224:352,1,48,8|0,1:0|2:0,0:0:0:0:
272,280,144128,5,0,1:0:0:0:
304,376,144264,1,0,1:0:0:0:
368,248,144401,1,8,1:0:0:0:
400,344,144537,1,8,1:0:0:0:
480,160,144673,5,0,1:0:0:0:
416,192,144810,1,0,1:0:0:0:
352,160,144946,1,8,1:0:0:0:
288,192,145082,1,8,1:0:0:0:
256,128,145219,5,0,1:0:0:0:
192,160,145355,1,0,1:0:0:0:
128,128,145491,1,8,1:0:0:0:
64,160,145628,1,8,1:0:0:0:
32,96,145764,6,0,L|32:32,3,48,4|0|0|0,1:0|1:0|1:0|1:0,0:0:0:0:
0,228,146312,6,0,P|58:238|123:252,1,120,12|0,1:2|0:0,0:0:0:0:
117,250,146723,1,0,0:0:0:0:
173,311,146859,2,0,P|231:299|291:289,3,120,14|0|8|0,1:1|0:0|1:1|0:0,0:0:0:0:
8,48,147955,6,0,L|8:96,1,48,0|0,1:0|2:0,0:0:0:0:
80,72,148229,6,0,L|80:120,1,48,8|0,1:0|2:0,0:0:0:0:
152,0,148503,6,0,L|152:48,1,48,0|0,1:0|2:0,0:0:0:0:
224,24,148777,6,0,L|224:72,1,48,8|0,1:0|2:0,0:0:0:0:
288,112,149051,6,0,L|288:160,1,48,0|0,1:0|2:0,0:0:0:0:
360,136,149325,6,0,L|360:184,1,48,8|0,1:0|2:0,0:0:0:0:
432,64,149599,6,0,L|432:112,1,48,0|0,1:0|2:0,0:0:0:0:
504,88,149873,6,0,L|504:136,1,48,8|0,1:0|2:0,0:0:0:0:
304,241,150147,6,0,P|245:236|182:234,2,120,14|0|8,1:1|0:0|1:1,0:0:0:0:
325,320,150828,2,0,L|339:385,1,60
337,378,151101,1,0,0:0:0:0:
387,252,151237,6,0,L|373:187,1,60,14|0,1:1|0:0,0:0:0:0:
304,145,151510,2,0,P|307:88|317:15,2,120,0|8|0,0:0|1:1|0:0,0:0:0:0:
28,230,152328,5,4,1:2:0:0:
484,154,152866,1,4,1:2:0:0:
232,0,153404,1,4,1:2:0:0:
280,384,153942,1,4,1:2:0:0:
0,244,154509,6,0,L|76:258,1,71.9999978027344,0|0,0:0|2:0,0:0:0:0:
71,257,154781,2,0,L|81:333,1,71.9999978027344,0|0,0:0|2:0,0:0:0:0:
177,160,155054,6,0,L|253:174,1,71.9999978027344,0|0,0:0|2:0,0:0:0:0:
248,173,155327,2,0,L|258:249,1,71.9999978027344,0|0,0:0|2:0,0:0:0:0:
194,276,155599,6,0,L|140:220,1,71.9999978027344,0|0,0:0|2:0,0:0:0:0:
144,224,155872,2,0,L|180:156,1,71.9999978027344,0|0,0:0|2:0,0:0:0:0:
353,89,156145,6,0,L|420:125,1,71.9999978027344,0|0,0:0|2:0,0:0:0:0:
417,123,156418,2,0,L|403:199,1,71.9999978027344,0|0,0:0|2:0,0:0:0:0:
512,244,156690,6,0,L|436:258,1,71.9999978027344,0|0,0:0|2:0,0:0:0:0:
441,257,156963,2,0,L|431:333,1,71.9999978027344,0|0,0:0|2:0,0:0:0:0:
335,160,157236,6,0,L|259:174,1,71.9999978027344,0|0,0:0|2:0,0:0:0:0:
264,173,157509,2,0,L|254:249,1,71.9999978027344,0|0,0:0|2:0,0:0:0:0:
319,276,157781,6,0,L|373:220,1,71.9999978027344,0|0,0:0|2:0,0:0:0:0:
369,224,158054,2,0,L|333:156,1,71.9999978027344,0|0,0:0|2:0,0:0:0:0:
256,56,158327,5,2,1:2:0:0:
130,212,158463,1,2,1:2:0:0:
134,216,158531,1,2,1:2:0:0:
138,220,158599,1,2,1:2:0:0:
56,192,158736,1,2,1:2:0:0:
56,192,158872,5,12,1:2:0:0:
300,148,159007,1,4,1:3:0:0:
256,328,159142,1,8,1:0:0:0:
212,148,159277,1,4,1:3:0:0:
456,192,159412,1,8,1:0:0:0:
212,236,159547,1,4,1:3:0:0:
256,56,159682,1,8,1:0:0:0:
300,236,159817,1,4,1:3:0:0:
112,252,159953,6,0,P|104:192|112:132,1,120,8|4,1:0|0:3,0:0:0:0:
400,132,160225,2,0,P|408:192|400:252,1,120,8|4,1:0|0:3,0:0:0:0:
196,48,160498,2,0,P|256:40|316:48,1,120,8|4,1:0|0:3,0:0:0:0:
316,336,160771,2,0,P|256:344|196:336,1,120,8|4,1:0|0:3,0:0:0:0:
0,188,161043,5,0,1:1:0:0:
32,196,161111,1,0,1:1:0:0:
64,188,161179,1,0,1:1:0:0:
96,196,161248,1,0,1:1:0:0:
128,188,161316,1,8,1:1:0:0:
160,196,161385,1,8,1:1:0:0:
192,188,161453,1,8,1:1:0:0:
224,196,161522,1,8,1:1:0:0:
256,188,161590,6,0,L|252:128,1,60,8|8,1:3|1:3,0:0:0:0:
309,76,161727,2,0,L|313:16,1,60,8|8,1:3|1:3,0:0:0:0:
152,56,161864,2,0,L|156:116,3,60,4|4|4|4,1:3|1:3|1:3|1:3,0:0:0:0:
256,188,162138,5,8,0:3:0:0:
288,196,162207,1,8,0:3:0:0:
320,188,162275,1,8,0:3:0:0:
352,196,162344,1,8,0:3:0:0:
384,188,162412,1,8,0:3:0:0:
416,196,162481,1,8,0:3:0:0:
448,188,162549,1,8,0:3:0:0:
480,196,162618,1,8,0:3:0:0:
512,188,162686,6,0,L|508:128,6,60,4|4|4|4|4|4|4,0:3|0:3|0:3|0:3|0:3|0:3|0:3,0:0:0:0:
339,265,163234,5,4,1:2:0:0:
0,181,165433,6,0,L|53:188,2,30,4|0|0,1:2|2:0|0:0,0:0:0:0:
104,161,165708,6,0,L|157:168,1,30,4|0,0:0|2:0,0:0:0:0:
38,195,165845,2,0,L|91:188,2,30,4|0|0,0:2|2:0|0:0,0:0:0:0:
294,134,166116,6,0,L|347:141,1,30,4|0,0:0|2:0,0:0:0:0:
183,223,166249,2,0,L|236:216,2,30,4|0|0,0:2|2:0|0:0,0:0:0:0:
476,106,166516,6,0,L|529:113,1,30,4|0,0:0|2:0,0:0:0:0:
387,262,166649,2,0,L|440:255,2,30,4|0|0,0:2|2:0|0:0,0:0:0:0:
472,206,167048,5,10,1:2:0:0:
312,299,167190,1,10,1:2:0:0:
316,303,167261,1,10,1:2:0:0:
320,307,167332,1,10,1:2:0:0:
201,146,167474,1,10,1:2:0:0:
268,30,167617,5,6,0:0:0:0:
130,94,167749,1,4,0:0:0:0:
201,146,167881,2,0,L|208:71,1,71.9999978027344,10|0,0:1|0:0,0:0:0:0:
48,0,168145,6,0,L|55:75,1,71.9999978027344,6|0,0:0|0:0,0:0:0:0:
194,217,168409,2,0,L|201:146,1,71.9999978027344,10|0,0:1|0:0,0:0:0:0:
271,195,168674,5,6,0:0:0:0:
409,259,168813,1,4,0:0:0:0:
338,311,168952,2,0,L|331:236,1,71.9999978027344,10|0,0:1|0:0,0:0:0:0:
491,165,169230,6,0,L|484:240,1,71.9999978027344,6|0,0:0|0:0,0:0:0:0:
344,382,169508,2,0,L|338:311,1,71.9999978027344,10|0,0:1|0:0,0:0:0:0:
160,0,169786,6,0,P|151:48|160:96,1,96,4|0,1:2|0:0,0:0:0:0:
352,93,170056,2,0,P|360:46|352:0,1,96,10|0,1:0|0:0,0:0:0:0:
89,128,170326,5,4,1:3:0:0:
256,49,170461,1,0,1:0:0:0:
423,128,170596,2,0,L|315:113,1,96,10|0,1:0|0:0,0:0:0:0:
135,192,170866,5,4,1:2:0:0:
256,335,171001,1,4,1:3:0:0:
377,192,171136,5,10,1:0:0:0:
89,256,171271,1,4,1:3:0:0:
160,384,171406,6,0,P|151:336|160:288,1,96,4|0,1:2|0:0,0:0:0:0:
352,290,171676,2,0,P|360:337|352:384,1,96,10|0,1:0|0:0,0:0:0:0:
256,251,171946,5,6,0:0:0:0:
320,113,172082,1,4,0:0:0:0:
372,184,172218,2,0,L|297:191,1,71.9999978027344,10|0,0:1|0:0,0:0:0:0:
226,31,172491,6,0,L|301:38,1,71.9999978027344,6|0,0:0|0:0,0:0:0:0:
443,177,172764,2,0,L|372:184,1,71.9999978027344,10|0,0:1|0:0,0:0:0:0:
256,251,173037,5,6,0:0:0:0:
192,113,173173,1,4,0:0:0:0:
140,184,173309,2,0,L|215:191,1,71.9999978027344,10|0,0:1|0:0,0:0:0:0:
286,31,173582,6,0,L|211:38,1,71.9999978027344,6|0,0:0|0:0,0:0:0:0:
69,177,173855,2,0,L|140:184,1,71.9999978027344,10|0,0:1|0:0,0:0:0:0:
352,384,174127,6,0,P|361:336|352:288,1,96,4|0,1:2|0:0,0:0:0:0:
160,291,174401,2,0,P|152:338|160:384,1,96,10|0,1:0|0:0,0:0:0:0:
423,256,174674,5,4,1:3:0:0:
256,335,174810,1,0,1:0:0:0:
89,256,174947,2,0,L|197:271,1,96,10|0,1:0|0:0,0:0:0:0:
377,192,175219,5,4,1:2:0:0:
256,49,175356,1,4,1:3:0:0:
135,192,175492,5,10,1:0:0:0:
423,128,175628,1,4,1:3:0:0:
240,384,175764,5,0,1:0:0:0:
242,360,175833,1,0,1:0:0:0:
244,336,175901,1,0,1:0:0:0:
246,312,175969,1,0,1:0:0:0:
248,288,176037,1,0,1:0:0:0:
250,264,176105,1,0,1:0:0:0:
252,240,176174,1,0,1:0:0:0:
254,216,176242,1,0,1:0:0:0:
256,192,176310,6,0,L|66:217,1,180,4|0,1:2|2:0,0:0:0:0:
6,181,176583,2,0,P|-3:138|8:59,1,120,10|0,1:0|0:0,0:0:0:0:
334,254,176855,2,0,P|405:272|456:153,1,180,2|0,1:3|2:0,0:0:0:0:
416,141,177128,2,0,L|295:125,1,120,10|0,1:0|0:0,0:0:0:0:
6,63,177401,5,4,1:2:0:0:
256,192,177537,1,8,1:3:0:0:
83,356,177674,1,10,1:0:0:0:
58,118,177810,2,0,L|86:380,1,240,8|0,1:3|0:0,0:0:0:0:
393,255,178219,2,0,P|414:190|403:62,1,180,10|0,1:0|2:0,0:0:0:0:
374,12,178492,6,0,L|495:-1,1,120,4|0,1:2|0:0,0:0:0:0:
256,192,178765,2,0,L|135:205,1,120,10|0,1:0|0:0,0:0:0:0:
138,12,179037,6,0,L|18:0,1,120,2|0,1:3|0:0,0:0:0:0:
256,192,179310,2,0,L|376:204,1,120,10|0,1:0|0:0,0:0:0:0:
506,63,179583,5,4,1:2:0:0:
256,192,179719,1,8,1:3:0:0:
429,356,179856,1,10,1:0:0:0:
454,118,179992,2,0,L|426:380,1,240,8|0,1:3|0:0,0:0:0:0:
256,192,180401,2,0,P|177:169|73:189,1,180,10|0,1:0|2:0,0:0:0:0:
1,231,180674,6,0,L|12:109,1,120,4|0,1:2|0:0,0:0:0:0:
323,0,180946,2,0,P|337:54|327:119,1,120,10|0,1:0|0:0,0:0:0:0:
199,350,181219,2,0,P|235:286|350:299,1,180,2|0,1:3|2:0,0:0:0:0:
392,333,181492,2,0,L|513:320,1,120,10|0,1:0|0:0,0:0:0:0:
223,17,181764,6,0,L|203:198,1,180,4|0,1:2|2:0,0:0:0:0:
260,252,182037,1,10,1:0:0:0:
381,103,182174,1,0,0:0:0:0:
131,60,182309,6,0,L|111:241,1,180,2|0,1:3|2:0,0:0:0:0:
168,295,182582,1,10,1:0:0:0:
289,146,182718,1,0,0:0:0:0:
48,0,182855,6,0,L|34:121,1,120,4|0,1:2|2:0,0:0:0:0:
217,77,183127,2,0,L|203:198,1,120,10|0,1:0|2:0,0:0:0:0:
303,26,183401,2,0,L|289:147,1,120,4|0,1:2|2:0,0:0:0:0:
472,103,183674,1,10,1:0:0:0:
204,196,183810,1,0,0:0:0:0:
472,103,183946,6,0,L|458:224,1,120,4|0,1:2|2:0,0:0:0:0:
363,343,184219,5,10,1:0:0:0:
334,353,184287,1,0,1:0:0:0:
305,352,184355,1,0,1:0:0:0:
277,340,184423,1,0,1:0:0:0:
256,320,184491,1,2,1:3:0:0:
234,340,184560,1,0,1:0:0:0:
206,352,184628,1,0,1:0:0:0:
177,353,184696,1,0,1:0:0:0:
148,343,184764,2,0,P|100:329|33:344,1,120,10|0,1:0|0:0,0:0:0:0:
10,71,185036,6,0,P|46:135|161:122,1,180,4|0,1:2|2:0,1:0:0:0:
203,88,185309,1,10,1:0:0:0:
385,185,185446,1,10,1:3:0:0:
512,24,185582,5,4,1:3:0:0:
368,110,185718,1,6,1:3:0:0:
402,260,185855,2,0,P|450:229|458:162,1,120,10|0,1:0|0:0,0:0:0:0:
272,15,186128,6,0,L|295:201,1,180,4|0,1:3|2:0,1:0:0:0:
233,243,186401,1,10,1:0:0:0:
434,331,186537,1,6,1:3:0:0:
174,365,186674,6,0,L|151:179,1,180,4|0,1:3|2:0,1:0:0:0:
213,137,186947,1,10,1:0:0:0:
12,49,187083,1,10,1:3:0:0:
0,384,187219,6,2,P|81:358|181:367,1,180,4|0,1:2|2:0,0:0:0:0:
247,338,187492,2,0,P|266:302|246:215,1,120,10|10,1:0|1:3,0:0:0:0:
183,0,187764,6,2,P|264:26|364:17,1,180,6|0,1:3|2:0,0:0:0:0:
430,46,188037,1,10,1:0:0:0:
193,183,188174,1,10,1:3:0:0:
316,384,188310,5,4,1:2:0:0:
254,226,188446,1,4,1:3:0:0:
502,71,188583,5,10,1:0:0:0:
440,229,188719,1,4,1:2:0:0:
440,229,188992,5,4,1:3:0:0:
444,233,189060,1,4,1:3:0:0:
448,237,189128,2,0,P|444:295|448:367,1,120,12|0,1:1|0:0,0:0:0:0:
502,71,189401,6,0,P|466:135|351:122,1,180,4|0,1:2|2:0,1:0:0:0:
309,88,189673,1,10,1:0:0:0:
127,185,189810,1,10,1:3:0:0:
0,24,189946,5,4,1:3:0:0:
144,110,190082,1,6,1:3:0:0:
110,260,190219,2,0,P|62:229|54:162,1,120,10|0,1:0|0:0,0:0:0:0:
240,15,190492,6,0,L|217:201,1,180,4|0,1:3|2:0,1:0:0:0:
279,243,190765,1,10,1:0:0:0:
78,331,190901,1,6,1:3:0:0:
338,365,191036,6,0,L|361:179,1,180,4|0,1:3|2:0,1:0:0:0:
299,137,191309,1,10,1:0:0:0:
500,49,191446,1,10,1:3:0:0:
512,384,191582,6,2,P|431:358|331:367,1,180,4|0,1:2|2:0,0:0:0:0:
265,338,191855,2,0,P|246:302|266:215,1,120,10|10,1:0|1:3,0:0:0:0:
329,0,192127,6,2,P|248:26|148:17,1,180,6|0,1:3|2:0,0:0:0:0:
82,46,192400,1,10,1:0:0:0:
319,183,192536,1,10,1:3:0:0:
196,384,192673,5,4,1:2:0:0:
258,226,192809,1,4,1:3:0:0:
10,71,192946,5,10,1:0:0:0:
72,229,193082,1,4,1:2:0:0:
72,229,193355,5,4,1:3:0:0:
68,233,193423,1,4,1:3:0:0:
64,237,193491,2,0,P|68:295|64:367,1,120,12|0,1:1|0:0,0:0:0:0:
199,0,193764,6,0,P|190:69|195:209,1,180,4|0,1:2|2:0,1:0:0:0:
142,245,194036,1,10,1:0:0:0:
269,84,194173,1,10,1:3:0:0:
451,181,194309,5,4,1:3:0:0:
284,158,194446,1,6,1:3:0:0:
474,14,194583,2,0,P|428:53|430:122,1,120,10|0,1:0|0:0,0:0:0:0:
512,325,194855,6,0,L|326:302,1,180,4|0,1:3|2:0,1:0:0:0:
284,364,195128,1,10,1:0:0:0:
196,163,195264,1,6,1:3:0:0:
0,59,195401,6,0,L|186:82,1,180,4|0,1:3|2:0,1:0:0:0:
228,20,195674,1,10,1:0:0:0:
316,221,195810,1,10,1:3:0:0:
30,384,195946,6,2,P|21:315|26:175,1,180,4|0,1:2|2:0,0:0:0:0:
83,161,196219,1,10,1:0:0:0:
210,322,196355,1,10,1:3:0:0:
392,225,196491,6,2,P|401:156|396:16,1,180,6|0,1:3|2:0,0:0:0:0:
339,2,196764,1,10,1:0:0:0:
212,163,196900,1,10,1:3:0:0:
492,120,197037,6,2,P|484:63|483:-2,1,120,4|4,1:2|1:3,0:0:0:0:
20,264,197310,2,2,P|28:321|29:386,1,120,10|4,1:0|1:2,0:0:0:0:
20,264,197718,5,4,1:3:0:0:
24,268,197786,1,4,1:3:0:0:
28,272,197855,2,0,P|125:279|267:304,1,240,12|4,1:1|1:2,0:0:0:0:
298,18,200310,6,0,P|380:7|363:107,1,180,4|0,1:2|2:0,1:0:0:0:
240,112,200586,5,8,1:0:0:0:
236,108,200655,1,8,1:0:0:0:
232,104,200724,1,8,1:3:0:0:
228,100,200793,1,8,1:3:0:0:
224,96,200862,6,0,P|142:85|159:185,1,180,4|0,1:3|2:0,1:0:0:0:
288,188,201139,5,8,1:0:0:0:
292,184,201208,1,8,1:0:0:0:
296,180,201277,1,8,1:3:0:0:
300,176,201346,1,8,1:3:0:0:
304,172,201415,6,0,P|301:201|297:243,1,60,4|0,1:2|2:0,0:0:0:0:
227,323,201554,2,0,P|225:293|222:264,1,60,4|0,1:3|2:0,0:0:0:0:
224,6,201692,5,8,1:0:0:0:
288,378,201830,1,4,1:2:0:0:
