osu file format v14

[General]
AudioFilename: speedcore.mp3
AudioLeadIn: 0
PreviewTime: 136067
Countdown: 0
SampleSet: Normal
StackLeniency: 0.7
Mode: 1
LetterboxInBreaks: 0
WidescreenStoryboard: 0

[Editor]
DistanceSpacing: 1.1
BeatDivisor: 1
GridSize: 32
TimelineZoom: 1.1

[Metadata]
Title:Comfort BLAST
TitleUnicode:Comfort BLAST
Artist:Filthy
ArtistUnicode:Filthy
Creator:Nishizumi
Version:Kantan
Source:
Tags:THE PSYCHO BLAST Vol.1 DJ Myosuke speedcore
BeatmapID:1148541
BeatmapSetID:448463

[Difficulty]
HPDrainRate:8
CircleSize:5
OverallDifficulty:3
ApproachRate:5
SliderMultiplier:1.4
SliderTickRate:1

[Events]
//Background and Video events
0,0,"b.jpg",0,0
//Break Periods
//Storyboard Layer 0 (Background)
//Storyboard Layer 1 (Fail)
//Storyboard Layer 2 (Pass)
//Storyboard Layer 3 (Foreground)
//Storyboard Sound Samples

[TimingPoints]
260,416.666666666667,4,1,0,80,1,0
260,-117.64705882353,4,1,0,80,0,0
2760,405.405405405405,4,1,0,80,1,8
2760,-121.951219512195,4,1,0,80,0,8
3570,405.405405405405,4,1,0,80,1,0
3570,-121.951219512195,4,1,0,80,0,0
6002,375,4,1,0,80,1,8
6002,-131.578947368421,4,1,0,80,0,8
6752,400,4,1,0,80,1,0
6752,-125,4,1,0,80,0,0
9152,405.405405405405,4,1,0,80,1,8
9152,-121.951219512195,4,1,0,80,0,8
9962,408.163265306122,4,1,0,80,1,0
9962,-120.481927710843,4,1,0,80,0,0
12410,312.174817898023,4,1,0,80,1,8
12410,-161.290322580645,4,1,0,80,0,8
13034,400,4,1,0,90,1,0
13034,-125,4,1,0,90,0,0
38634,358.315915198567,4,1,0,90,1,0
38634,-142.857142857143,4,1,0,90,0,0
38813,-142.857142857143,4,1,0,80,0,0
41500,179.10447761194,4,1,0,100,1,0
41500,-200,4,1,0,100,0,0
90216,-200,4,1,0,100,0,1
101679,-200,4,1,0,100,0,0
124694,-200,4,1,0,95,0,0
126037,-200,4,1,0,90,0,0
127470,-200,4,1,0,85,0,0
128902,-200,4,1,0,80,0,0
130335,-200,4,1,0,100,0,0
136067,-200,4,1,0,100,0,1
158992,-200,4,1,0,100,0,0

[HitObjects]
256,192,260,5,0,0:0:0:0:
256,192,3570,1,8,0:0:0:0:
256,192,6752,1,0,0:0:0:0:
256,192,9962,1,8,0:0:0:0:
256,192,13034,1,4,0:0:0:0:
256,192,14634,1,8,0:0:0:0:
256,192,16234,1,0,0:0:0:0:
256,192,17034,1,8,0:0:0:0:
256,192,17834,1,8,0:0:0:0:
256,192,19434,1,0,0:0:0:0:
256,192,21034,1,8,0:0:0:0:
256,192,22634,1,0,0:0:0:0:
256,192,23434,1,8,0:0:0:0:
256,192,24234,1,8,0:0:0:0:
256,192,25834,1,4,0:0:0:0:
256,192,26634,1,8,0:0:0:0:
256,192,27434,1,8,0:0:0:0:
256,192,29034,1,0,0:0:0:0:
256,192,29834,1,8,0:0:0:0:
256,192,30234,1,0,0:0:0:0:
256,192,30634,1,8,0:0:0:0:
256,192,32234,1,0,0:0:0:0:
256,192,33034,1,8,0:0:0:0:
256,192,33834,1,8,0:0:0:0:
256,192,35434,1,0,0:0:0:0:
256,192,36234,1,8,0:0:0:0:
256,192,36634,1,0,0:0:0:0:
256,192,37034,1,8,0:0:0:0:
256,192,38634,1,4,0:0:0:0:
256,192,38813,12,0,41142,0:0:0:0:
256,192,41500,5,8,0:0:0:0:
256,192,42216,1,0,0:0:0:0:
256,192,42932,1,0,0:0:0:0:
256,192,43291,1,0,0:0:0:0:
256,192,43649,1,8,0:0:0:0:
256,192,44365,1,4,0:0:0:0:
256,128,44723,1,0,0:0:0:0:
256,192,45082,1,0,0:0:0:0:
256,192,45798,1,0,0:0:0:0:
256,192,47231,1,0,0:0:0:0:
320,192,47589,1,0,0:0:0:0:
256,192,47947,1,0,0:0:0:0:
256,192,48664,1,0,0:0:0:0:
256,192,49380,1,8,0:0:0:0:
256,192,50097,1,0,0:0:0:0:
256,256,50455,1,0,0:0:0:0:
256,192,50813,1,0,0:0:0:0:
256,192,51529,1,0,0:0:0:0:
256,192,52962,1,0,0:0:0:0:
256,192,53679,1,0,0:0:0:0:
256,192,54395,1,0,0:0:0:0:
256,192,54753,1,8,0:0:0:0:
256,192,55111,1,0,0:0:0:0:
256,192,55828,1,8,0:0:0:0:
256,192,56544,1,8,0:0:0:0:
256,192,56902,1,8,0:0:0:0:
256,192,57261,1,0,0:0:0:0:
256,192,58694,1,0,0:0:0:0:
256,192,59410,1,8,0:0:0:0:
256,192,60126,1,8,0:0:0:0:
256,192,60485,1,8,0:0:0:0:
256,192,60843,1,0,0:0:0:0:
256,192,61559,1,8,0:0:0:0:
256,192,62275,1,8,0:0:0:0:
256,192,62633,1,8,0:0:0:0:
256,192,62992,1,0,0:0:0:0:
256,192,64425,1,0,0:0:0:0:
256,192,65141,1,8,0:0:0:0:
256,192,65857,1,8,0:0:0:0:
256,192,67291,1,4,0:0:0:0:
256,192,67649,1,8,0:0:0:0:
256,192,68007,1,8,0:0:0:0:
256,192,68723,1,8,0:0:0:0:
256,192,69440,1,8,0:0:0:0:
256,192,70156,1,0,0:0:0:0:
256,192,70514,1,8,0:0:0:0:
256,192,70873,1,8,0:0:0:0:
256,192,71589,1,8,0:0:0:0:
256,192,73022,1,0,0:0:0:0:
256,192,73380,1,8,0:0:0:0:
256,192,73738,1,8,0:0:0:0:
256,192,74455,1,8,0:0:0:0:
256,192,75171,1,8,0:0:0:0:
256,192,75888,1,0,0:0:0:0:
256,192,76604,1,0,0:0:0:0:
256,192,77320,1,0,0:0:0:0:
256,192,77679,1,8,0:0:0:0:
256,192,78037,1,0,0:0:0:0:
256,192,78753,1,8,0:0:0:0:
256,192,79470,1,8,0:0:0:0:
256,192,79828,1,0,0:0:0:0:
256,192,80186,1,8,0:0:0:0:
256,192,81619,1,0,0:0:0:0:
256,192,82335,1,0,0:0:0:0:
256,192,82694,1,8,0:0:0:0:
256,192,83052,1,0,0:0:0:0:
256,192,84485,1,8,0:0:0:0:
256,192,85201,1,0,0:0:0:0:
256,192,85559,1,0,0:0:0:0:
256,192,85917,1,8,0:0:0:0:
256,192,87350,1,0,0:0:0:0:
256,192,88067,1,8,0:0:0:0:
256,192,88425,1,8,0:0:0:0:
256,192,88783,1,0,0:0:0:0:
256,192,90216,1,4,0:0:0:0:
256,192,90932,1,8,0:0:0:0:
256,192,91649,1,0,0:0:0:0:
256,192,92007,1,0,0:0:0:0:
256,192,92365,1,8,0:0:0:0:
256,192,92723,1,8,0:0:0:0:
256,192,93082,1,0,0:0:0:0:
256,192,93798,1,8,0:0:0:0:
256,192,94514,1,0,0:0:0:0:
256,192,95947,1,0,0:0:0:0:
256,192,96664,1,8,0:0:0:0:
256,192,97380,1,0,0:0:0:0:
256,192,97738,1,0,0:0:0:0:
256,192,98097,1,8,0:0:0:0:
256,192,98455,1,8,0:0:0:0:
256,192,98813,1,0,0:0:0:0:
256,192,99529,1,8,0:0:0:0:
256,192,100246,1,0,0:0:0:0:
256,192,101679,1,0,0:0:0:0:
256,192,102395,1,0,0:0:0:0:
256,192,103111,1,0,0:0:0:0:
256,192,104544,1,0,0:0:0:0:
256,192,105261,1,0,0:0:0:0:
256,192,105977,1,0,0:0:0:0:
256,192,107410,1,0,0:0:0:0:
256,192,108126,1,0,0:0:0:0:
256,192,108843,1,0,0:0:0:0:
256,192,110276,1,0,0:0:0:0:
256,192,110992,1,0,0:0:0:0:
256,192,111708,1,0,0:0:0:0:
256,192,113141,1,8,0:0:0:0:
256,192,113858,1,8,0:0:0:0:
256,192,114574,1,8,0:0:0:0:
256,192,116007,1,8,0:0:0:0:
256,192,116723,1,8,0:0:0:0:
256,192,117440,1,8,0:0:0:0:
256,192,118873,1,0,0:0:0:0:
256,192,120305,1,0,0:0:0:0:
256,192,121738,1,8,0:0:0:0:
256,192,123171,1,8,0:0:0:0:
256,192,124604,1,4,0:0:0:0:
256,192,124783,12,0,128902,0:0:0:0:
256,192,130335,5,12,0:0:0:0:
256,192,133201,1,4,0:0:0:0:
256,192,134634,1,4,0:0:0:0:
256,192,136067,1,4,0:0:0:0:
256,192,136783,1,8,0:0:0:0:
256,192,137500,1,0,0:0:0:0:
256,192,137858,1,0,0:0:0:0:
256,192,138216,1,8,0:0:0:0:
256,192,138574,1,8,0:0:0:0:
256,192,138933,1,0,0:0:0:0:
256,192,139649,1,8,0:0:0:0:
256,192,140365,1,0,0:0:0:0:
256,192,141798,1,4,0:0:0:0:
256,192,142515,1,8,0:0:0:0:
256,192,143231,1,0,0:0:0:0:
256,192,143589,1,0,0:0:0:0:
256,192,143947,1,8,0:0:0:0:
256,192,144305,1,8,0:0:0:0:
256,192,144664,1,0,0:0:0:0:
256,192,145380,1,8,0:0:0:0:
256,192,146097,1,0,0:0:0:0:
256,192,147529,1,4,0:0:0:0:
256,192,148245,1,8,0:0:0:0:
256,192,148962,1,0,0:0:0:0:
256,192,149320,1,0,0:0:0:0:
256,192,149678,1,8,0:0:0:0:
256,192,150036,1,8,0:0:0:0:
256,192,150395,1,0,0:0:0:0:
256,192,151111,1,8,0:0:0:0:
256,192,151827,1,0,0:0:0:0:
256,192,152186,1,0,0:0:0:0:
256,192,152544,1,8,0:0:0:0:
256,192,153261,1,0,0:0:0:0:
256,192,153977,1,8,0:0:0:0:
256,192,154693,1,0,0:0:0:0:
256,192,155052,1,0,0:0:0:0:
256,192,155409,1,8,0:0:0:0:
256,192,155767,1,8,0:0:0:0:
256,192,156126,1,0,0:0:0:0:
256,192,156842,1,8,0:0:0:0:
256,192,157559,1,0,0:0:0:0:
256,192,158276,1,8,0:0:0:0:
256,192,158634,1,8,0:0:0:0:
256,192,158992,1,4,0:0:0:0:
