osu file format v14

[General]
AudioFilename: speedcore.mp3
AudioLeadIn: 0
PreviewTime: 136067
Countdown: 0
SampleSet: Normal
StackLeniency: 0.7
Mode: 1
LetterboxInBreaks: 0
WidescreenStoryboard: 0

[Editor]
DistanceSpacing: 1.1
BeatDivisor: 4
GridSize: 32
TimelineZoom: 1.9

[Metadata]
Title:Comfort BLAST
TitleUnicode:Comfort BLAST
Artist:Filthy
ArtistUnicode:Filthy
Creator:Nishizumi
Version:Muzukashii
Source:
Tags:THE PSYCHO BLAST Vol.1 DJ Myosuke speedcore
BeatmapID:1013864
BeatmapSetID:448463

[Difficulty]
HPDrainRate:6
CircleSize:5
OverallDifficulty:5
ApproachRate:5
SliderMultiplier:1.4
SliderTickRate:1

[Events]
//Background and Video events
0,0,"b.jpg",0,0
//Break Periods
//Storyboard Layer 0 (Background)
//Storyboard Layer 1 (Fail)
//Storyboard Layer 2 (Pass)
//Storyboard Layer 3 (Foreground)
//Storyboard Sound Samples

[TimingPoints]
260,416.666666666667,4,1,0,80,1,0
260,-117.64705882353,4,1,0,80,0,0
2760,405.405405405405,4,1,0,80,1,8
2760,-121.951219512195,4,1,0,80,0,8
3570,405.405405405405,4,1,0,80,1,0
3570,-121.951219512195,4,1,0,80,0,0
6002,375,4,1,0,80,1,8
6002,-131.578947368421,4,1,0,80,0,8
6752,400,4,1,0,80,1,0
6752,-125,4,1,0,80,0,0
9152,405.405405405405,4,1,0,80,1,8
9152,-121.951219512195,4,1,0,80,0,8
9962,408.163265306122,4,1,0,80,1,0
9962,-120.481927710843,4,1,0,80,0,0
12410,312.174817898023,4,1,0,80,1,8
12410,-161.290322580645,4,1,0,80,0,8
13034,400,4,1,0,90,1,0
13034,-125,4,1,0,90,0,0
38634,358.315915198567,4,1,0,90,1,0
38634,-142.857142857143,4,1,0,90,0,0
38813,-142.857142857143,4,1,0,80,0,0
41500,179.10447761194,4,1,0,100,1,0
41500,-200,4,1,0,100,0,0
90216,-200,4,1,0,100,0,1
101679,-200,4,1,0,100,0,0
124694,-200,4,1,0,95,0,0
126037,-200,4,1,0,90,0,0
127470,-200,4,1,0,85,0,0
128902,-200,4,1,0,80,0,0
136067,-200,4,1,0,100,0,1
158992,-200,4,1,0,100,0,0

[HitObjects]
256,192,260,5,0,0:0:0:0:
256,192,2760,1,0,0:0:0:0:
256,192,3570,1,8,0:0:0:0:
256,192,6002,1,8,0:0:0:0:
256,192,6752,1,0,0:0:0:0:
256,192,9152,1,0,0:0:0:0:
256,192,9962,1,8,0:0:0:0:
256,192,12410,1,8,0:0:0:0:
256,192,13034,1,4,0:0:0:0:
256,192,13834,1,8,0:0:0:0:
256,192,14234,1,0,0:0:0:0:
256,192,14634,1,8,0:0:0:0:
256,192,15434,1,4,0:0:0:0:
256,192,16234,1,4,0:0:0:0:
256,192,16634,1,0,0:0:0:0:
256,192,17034,1,8,0:0:0:0:
256,192,17434,1,0,0:0:0:0:
256,192,17834,1,8,0:0:0:0:
256,192,18634,1,4,0:0:0:0:
256,192,19434,1,4,0:0:0:0:
256,192,20234,1,8,0:0:0:0:
256,192,20634,1,0,0:0:0:0:
256,192,21034,1,8,0:0:0:0:
256,192,21834,1,4,0:0:0:0:
256,192,22634,1,4,0:0:0:0:
256,192,23034,1,0,0:0:0:0:
256,192,23434,1,8,0:0:0:0:
256,192,23834,1,0,0:0:0:0:
256,192,24234,1,8,0:0:0:0:
256,192,25034,1,4,0:0:0:0:
256,192,25834,1,4,0:0:0:0:
256,192,26234,1,0,0:0:0:0:
256,192,26634,1,8,0:0:0:0:
256,192,27034,1,0,0:0:0:0:
256,192,27434,1,8,0:0:0:0:
256,192,28234,1,4,0:0:0:0:
256,192,29034,1,4,0:0:0:0:
256,192,29434,1,0,0:0:0:0:
256,192,29834,1,8,0:0:0:0:
256,192,30234,1,0,0:0:0:0:
256,192,30434,1,0,0:0:0:0:
256,192,30634,1,8,0:0:0:0:
256,192,31434,1,4,0:0:0:0:
256,192,32234,1,4,0:0:0:0:
256,192,32634,1,0,0:0:0:0:
256,192,33034,1,8,0:0:0:0:
256,192,33434,1,0,0:0:0:0:
256,192,33834,1,8,0:0:0:0:
256,192,34634,1,4,0:0:0:0:
256,192,35434,1,4,0:0:0:0:
256,192,35834,1,0,0:0:0:0:
256,192,36234,1,8,0:0:0:0:
256,192,36634,1,0,0:0:0:0:
256,192,36834,1,0,0:0:0:0:
256,192,37034,1,8,0:0:0:0:
256,192,37834,1,4,0:0:0:0:
256,192,38634,1,4,0:0:0:0:
256,192,38813,12,0,41142,0:0:0:0:
256,192,41500,5,8,0:0:0:0:
256,192,41858,1,0,0:0:0:0:
256,192,42037,1,0,0:0:0:0:
256,192,42216,1,8,0:0:0:0:
256,192,42395,1,8,0:0:0:0:
256,192,42574,1,0,0:0:0:0:
256,192,42932,1,8,0:0:0:0:
256,192,43111,1,8,0:0:0:0:
256,192,43291,1,0,0:0:0:0:
256,192,43470,1,0,0:0:0:0:
256,192,43649,1,8,0:0:0:0:
256,192,44365,1,4,0:0:0:0:
256,192,44723,1,8,0:0:0:0:
256,192,44902,1,0,0:0:0:0:
256,192,45082,1,8,0:0:0:0:
256,192,45440,1,0,0:0:0:0:
256,192,45619,1,0,0:0:0:0:
256,192,45798,1,8,0:0:0:0:
256,192,46156,1,8,0:0:0:0:
256,192,46335,1,8,0:0:0:0:
256,192,46514,1,0,0:0:0:0:
256,192,46873,1,8,0:0:0:0:
256,192,47231,1,0,0:0:0:0:
256,192,47589,1,8,0:0:0:0:
256,192,47768,1,0,0:0:0:0:
256,192,47947,1,8,0:0:0:0:
256,192,48305,1,0,0:0:0:0:
256,192,48485,1,0,0:0:0:0:
256,192,48664,1,8,0:0:0:0:
256,192,49022,1,8,0:0:0:0:
256,192,49201,1,8,0:0:0:0:
256,192,49380,1,0,0:0:0:0:
256,192,49559,1,0,0:0:0:0:
256,192,49738,1,8,0:0:0:0:
256,192,50097,1,4,0:0:0:0:
256,192,50455,1,8,0:0:0:0:
256,192,50634,1,0,0:0:0:0:
256,192,50813,1,8,0:0:0:0:
256,192,51171,1,0,0:0:0:0:
256,192,51350,1,0,0:0:0:0:
256,192,51529,1,8,0:0:0:0:
256,192,51888,1,8,0:0:0:0:
256,192,52067,1,8,0:0:0:0:
256,192,52246,1,0,0:0:0:0:
256,192,52604,1,8,0:0:0:0:
256,192,52962,1,0,0:0:0:0:
256,192,53320,1,8,0:0:0:0:
256,192,53499,1,8,0:0:0:0:
256,192,53679,1,0,0:0:0:0:
256,192,54037,1,8,0:0:0:0:
256,192,54395,1,0,0:0:0:0:
256,192,54574,1,0,0:0:0:0:
256,192,54753,1,8,0:0:0:0:
256,192,54932,1,8,0:0:0:0:
256,192,55111,1,0,0:0:0:0:
256,192,55828,1,12,0:0:0:0:
256,192,56186,1,0,0:0:0:0:
256,192,56365,1,0,0:0:0:0:
256,192,56544,1,8,0:0:0:0:
256,192,56902,1,8,0:0:0:0:
256,192,57082,1,0,0:0:0:0:
256,192,57261,1,8,0:0:0:0:
256,192,57619,1,0,0:0:0:0:
256,192,57798,1,0,0:0:0:0:
256,192,57977,1,8,0:0:0:0:
256,192,58335,1,0,0:0:0:0:
256,192,58694,1,12,0:0:0:0:
256,192,59052,1,8,0:0:0:0:
256,192,59231,1,8,0:0:0:0:
256,192,59410,1,0,0:0:0:0:
256,192,59768,1,0,0:0:0:0:
256,192,59947,1,0,0:0:0:0:
256,192,60126,1,8,0:0:0:0:
256,192,60485,1,0,0:0:0:0:
256,192,60664,1,8,0:0:0:0:
256,192,60843,1,0,0:0:0:0:
256,192,61559,1,12,0:0:0:0:
256,192,61917,1,0,0:0:0:0:
256,192,62096,1,0,0:0:0:0:
256,192,62275,1,8,0:0:0:0:
256,192,62633,1,8,0:0:0:0:
256,192,62813,1,0,0:0:0:0:
256,192,62992,1,8,0:0:0:0:
256,192,63350,1,0,0:0:0:0:
256,192,63529,1,0,0:0:0:0:
256,192,63708,1,8,0:0:0:0:
256,192,64067,1,0,0:0:0:0:
256,192,64425,1,12,0:0:0:0:
256,192,64783,1,8,0:0:0:0:
256,192,64962,1,8,0:0:0:0:
256,192,65141,1,0,0:0:0:0:
256,192,65499,1,0,0:0:0:0:
256,192,65857,1,8,0:0:0:0:
256,192,66216,1,0,0:0:0:0:
256,192,66395,1,8,0:0:0:0:
256,192,66574,1,0,0:0:0:0:
256,192,67291,1,4,0:0:0:0:
256,192,67649,1,8,0:0:0:0:
256,192,67828,5,0,0:0:0:0:
256,192,68008,1,8,0:0:0:0:
256,192,68366,1,0,0:0:0:0:
256,192,68544,1,0,0:0:0:0:
256,192,68724,1,8,0:0:0:0:
256,192,69082,1,8,0:0:0:0:
256,192,69261,1,8,0:0:0:0:
256,192,69440,1,0,0:0:0:0:
256,192,69798,1,8,0:0:0:0:
256,192,70157,1,0,0:0:0:0:
256,192,70515,1,8,0:0:0:0:
256,192,70694,1,0,0:0:0:0:
256,192,70873,1,8,0:0:0:0:
256,192,71231,1,0,0:0:0:0:
256,192,71410,1,0,0:0:0:0:
256,192,71590,1,8,0:0:0:0:
256,192,71948,1,8,0:0:0:0:
256,192,72126,1,8,0:0:0:0:
256,192,72306,1,0,0:0:0:0:
256,192,72485,1,0,0:0:0:0:
256,192,72664,1,8,0:0:0:0:
256,192,73023,1,4,0:0:0:0:
256,192,73381,1,8,0:0:0:0:
256,192,73559,1,0,0:0:0:0:
256,192,73739,1,8,0:0:0:0:
256,192,74097,1,0,0:0:0:0:
256,192,74276,1,0,0:0:0:0:
256,192,74455,1,8,0:0:0:0:
256,192,74814,1,8,0:0:0:0:
256,192,74993,1,8,0:0:0:0:
256,192,75172,1,0,0:0:0:0:
256,192,75529,1,8,0:0:0:0:
256,192,75888,1,0,0:0:0:0:
256,192,76246,1,8,0:0:0:0:
256,192,76425,1,8,0:0:0:0:
256,192,76605,1,0,0:0:0:0:
256,192,76963,1,8,0:0:0:0:
256,192,77321,1,0,0:0:0:0:
256,192,77500,1,0,0:0:0:0:
256,192,77679,1,8,0:0:0:0:
256,192,77858,1,8,0:0:0:0:
256,192,78037,1,0,0:0:0:0:
256,192,78753,1,4,0:0:0:0:
256,192,79111,1,0,0:0:0:0:
256,192,79291,1,0,0:0:0:0:
256,192,79470,1,8,0:0:0:0:
256,192,79828,1,0,0:0:0:0:
256,192,80007,1,0,0:0:0:0:
256,192,80186,1,8,0:0:0:0:
256,192,80544,1,8,0:0:0:0:
256,192,80723,1,0,0:0:0:0:
256,192,80902,1,8,0:0:0:0:
256,192,81261,1,8,0:0:0:0:
256,192,81619,1,4,0:0:0:0:
256,192,81977,1,0,0:0:0:0:
256,192,82156,1,0,0:0:0:0:
256,192,82335,1,8,0:0:0:0:
256,192,82694,1,0,0:0:0:0:
256,192,82873,1,0,0:0:0:0:
256,192,83052,1,8,0:0:0:0:
256,192,83410,1,8,0:0:0:0:
256,192,83589,1,8,0:0:0:0:
256,192,83768,1,0,0:0:0:0:
256,192,84485,1,4,0:0:0:0:
256,192,84843,1,8,0:0:0:0:
256,192,85022,1,0,0:0:0:0:
256,192,85201,1,8,0:0:0:0:
256,192,85559,1,0,0:0:0:0:
256,192,85738,1,0,0:0:0:0:
256,192,85917,1,8,0:0:0:0:
256,192,86276,1,0,0:0:0:0:
256,192,86455,1,0,0:0:0:0:
256,192,86634,1,8,0:0:0:0:
256,192,86992,1,8,0:0:0:0:
256,192,87171,1,8,0:0:0:0:
256,192,87350,1,0,0:0:0:0:
256,192,87708,1,0,0:0:0:0:
256,192,88067,1,8,0:0:0:0:
256,192,88425,1,8,0:0:0:0:
256,192,88604,1,0,0:0:0:0:
256,192,88783,1,0,0:0:0:0:
256,192,90216,1,4,0:0:0:0:
256,192,90395,1,0,0:0:0:0:
256,192,90574,1,8,0:0:0:0:
256,192,90753,1,0,0:0:0:0:
256,192,90843,1,0,0:0:0:0:
256,192,90932,1,8,0:0:0:0:
256,192,91291,1,8,0:0:0:0:
256,192,91649,1,0,0:0:0:0:
256,192,91828,1,0,0:0:0:0:
256,192,92007,1,8,0:0:0:0:
256,192,92186,1,8,0:0:0:0:
256,192,92276,1,8,0:0:0:0:
256,192,92365,1,8,0:0:0:0:
256,192,92723,1,8,0:0:0:0:
256,192,93082,1,4,0:0:0:0:
256,192,93261,1,8,0:0:0:0:
256,192,93440,1,0,0:0:0:0:
256,192,93619,1,0,0:0:0:0:
256,192,93708,1,0,0:0:0:0:
256,192,93798,1,8,0:0:0:0:
256,192,94156,1,8,0:0:0:0:
256,192,94514,1,0,0:0:0:0:
256,192,94694,1,8,0:0:0:0:
256,192,94783,1,8,0:0:0:0:
256,192,94873,1,8,0:0:0:0:
256,192,95052,1,0,0:0:0:0:
256,192,95231,1,8,0:0:0:0:
256,192,95589,1,8,0:0:0:0:
256,192,95947,1,4,0:0:0:0:
256,192,96126,1,0,0:0:0:0:
256,192,96305,1,8,0:0:0:0:
256,192,96484,1,0,0:0:0:0:
256,192,96574,1,0,0:0:0:0:
256,192,96663,1,8,0:0:0:0:
256,192,97022,1,8,0:0:0:0:
256,192,97380,1,0,0:0:0:0:
256,192,97559,1,0,0:0:0:0:
256,192,97738,1,8,0:0:0:0:
256,192,97917,1,8,0:0:0:0:
256,192,98007,1,8,0:0:0:0:
256,192,98096,1,8,0:0:0:0:
256,192,98454,1,8,0:0:0:0:
256,192,98813,1,4,0:0:0:0:
256,192,98992,1,8,0:0:0:0:
256,192,99171,1,0,0:0:0:0:
256,192,99350,1,0,0:0:0:0:
256,192,99439,1,0,0:0:0:0:
256,192,99529,1,8,0:0:0:0:
256,192,99887,1,8,0:0:0:0:
256,192,100245,1,0,0:0:0:0:
256,192,100425,1,8,0:0:0:0:
256,192,100514,1,8,0:0:0:0:
256,192,100604,1,8,0:0:0:0:
256,192,100783,1,0,0:0:0:0:
256,192,100962,1,8,0:0:0:0:
256,192,101320,1,8,0:0:0:0:
256,192,101499,1,8,0:0:0:0:
256,192,101679,1,0,0:0:0:0:
256,192,101858,1,0,0:0:0:0:
256,192,102216,1,0,0:0:0:0:
256,192,102395,1,0,0:0:0:0:
256,192,102753,1,0,0:0:0:0:
256,192,102932,1,0,0:0:0:0:
256,192,103111,1,0,0:0:0:0:
256,192,103291,1,0,0:0:0:0:
256,192,103649,1,0,0:0:0:0:
256,192,103828,1,0,0:0:0:0:
256,192,104186,1,0,0:0:0:0:
256,192,104544,1,0,0:0:0:0:
256,192,104723,1,0,0:0:0:0:
256,192,105082,1,0,0:0:0:0:
256,192,105261,1,0,0:0:0:0:
256,192,105619,1,0,0:0:0:0:
256,192,105798,1,0,0:0:0:0:
256,192,105977,1,0,0:0:0:0:
256,192,106156,1,0,0:0:0:0:
256,192,106514,1,0,0:0:0:0:
256,192,106694,1,0,0:0:0:0:
256,192,107052,1,0,0:0:0:0:
256,192,107410,1,0,0:0:0:0:
256,192,107589,1,0,0:0:0:0:
256,192,107947,1,0,0:0:0:0:
256,192,108126,1,0,0:0:0:0:
256,192,108485,1,0,0:0:0:0:
256,192,108664,1,0,0:0:0:0:
256,192,108843,1,0,0:0:0:0:
256,192,108932,1,0,0:0:0:0:
256,192,109022,1,0,0:0:0:0:
256,192,109380,1,0,0:0:0:0:
256,192,109559,1,0,0:0:0:0:
256,192,109917,1,0,0:0:0:0:
256,192,110276,1,0,0:0:0:0:
256,192,110455,1,0,0:0:0:0:
256,192,110813,1,0,0:0:0:0:
256,192,110992,1,0,0:0:0:0:
256,192,111350,1,0,0:0:0:0:
256,192,111529,1,0,0:0:0:0:
256,192,111708,1,0,0:0:0:0:
256,192,111798,1,0,0:0:0:0:
256,192,111888,1,0,0:0:0:0:
256,192,112246,1,0,0:0:0:0:
256,192,112425,1,0,0:0:0:0:
256,192,112783,1,0,0:0:0:0:
256,192,113141,1,8,0:0:0:0:
256,192,113320,1,8,0:0:0:0:
256,192,113679,1,8,0:0:0:0:
256,192,113858,1,8,0:0:0:0:
256,192,114216,1,8,0:0:0:0:
256,192,114395,1,8,0:0:0:0:
256,192,114574,1,8,0:0:0:0:
256,192,114664,1,8,0:0:0:0:
256,192,114753,1,8,0:0:0:0:
256,192,115111,1,8,0:0:0:0:
256,192,115291,1,8,0:0:0:0:
256,192,115649,1,8,0:0:0:0:
256,192,116007,1,8,0:0:0:0:
256,192,116186,1,8,0:0:0:0:
256,192,116545,1,8,0:0:0:0:
256,192,116724,1,8,0:0:0:0:
256,192,117082,1,8,0:0:0:0:
256,192,117261,1,8,0:0:0:0:
256,192,117440,1,8,0:0:0:0:
256,192,117529,1,8,0:0:0:0:
256,192,117619,1,8,0:0:0:0:
256,192,117977,1,8,0:0:0:0:
256,192,118157,1,8,0:0:0:0:
256,192,118515,1,8,0:0:0:0:
256,192,118873,1,0,0:0:0:0:
256,192,119052,1,0,0:0:0:0:
256,192,119410,1,0,0:0:0:0:
256,192,119589,1,0,0:0:0:0:
256,192,119947,1,0,0:0:0:0:
256,192,120126,1,0,0:0:0:0:
256,192,120305,1,0,0:0:0:0:
256,192,120395,1,0,0:0:0:0:
256,192,120485,1,0,0:0:0:0:
256,192,120843,1,0,0:0:0:0:
256,192,121022,1,0,0:0:0:0:
256,192,121380,1,0,0:0:0:0:
256,192,121738,1,0,0:0:0:0:
256,192,121917,1,0,0:0:0:0:
256,192,122275,1,0,0:0:0:0:
256,192,122454,1,0,0:0:0:0:
256,192,122812,1,0,0:0:0:0:
256,192,122991,1,0,0:0:0:0:
256,192,123170,1,0,0:0:0:0:
256,192,123260,1,0,0:0:0:0:
256,192,123350,1,0,0:0:0:0:
256,192,123708,1,0,0:0:0:0:
256,192,123887,1,0,0:0:0:0:
256,192,124245,1,0,0:0:0:0:
256,192,124604,1,4,0:0:0:0:
256,192,124694,12,0,129619,0:0:0:0:
256,192,130156,5,0,0:0:0:0:
256,192,130335,1,12,0:0:0:0:
256,192,131052,1,0,0:0:0:0:
256,192,131410,1,8,0:0:0:0:
256,192,131768,1,4,0:0:0:0:
256,192,132485,1,0,0:0:0:0:
256,192,132843,1,8,0:0:0:0:
256,192,133201,1,4,0:0:0:0:
256,192,133917,1,4,0:0:0:0:
256,192,134634,1,4,0:0:0:0:
256,192,134992,1,4,0:0:0:0:
256,192,135350,1,4,0:0:0:0:
256,192,135529,1,4,0:0:0:0:
256,192,135708,1,0,0:0:0:0:
256,192,135888,1,8,0:0:0:0:
256,192,136067,1,4,0:0:0:0:
256,192,136246,1,0,0:0:0:0:
256,192,136425,1,8,0:0:0:0:
256,192,136604,1,0,0:0:0:0:
256,192,136694,1,0,0:0:0:0:
256,192,136783,1,8,0:0:0:0:
256,192,137142,1,8,0:0:0:0:
256,192,137320,1,8,0:0:0:0:
256,192,137500,1,0,0:0:0:0:
256,192,137679,1,0,0:0:0:0:
256,192,137858,1,8,0:0:0:0:
256,192,138037,1,8,0:0:0:0:
256,192,138127,1,8,0:0:0:0:
256,192,138216,1,8,0:0:0:0:
256,192,138574,1,8,0:0:0:0:
256,192,138753,1,8,0:0:0:0:
256,192,138933,1,4,0:0:0:0:
256,192,139112,1,8,0:0:0:0:
256,192,139291,1,0,0:0:0:0:
256,192,139470,1,0,0:0:0:0:
256,192,139559,1,0,0:0:0:0:
256,192,139649,1,8,0:0:0:0:
256,192,140007,1,8,0:0:0:0:
256,192,140186,1,8,0:0:0:0:
256,192,140365,1,0,0:0:0:0:
256,192,140545,1,8,0:0:0:0:
256,192,140634,1,8,0:0:0:0:
256,192,140724,1,8,0:0:0:0:
256,192,140903,1,0,0:0:0:0:
256,192,141082,1,8,0:0:0:0:
256,192,141440,1,8,0:0:0:0:
256,192,141619,1,8,0:0:0:0:
256,192,141798,1,4,0:0:0:0:
256,192,141977,1,0,0:0:0:0:
256,192,142156,1,8,0:0:0:0:
256,192,142335,1,0,0:0:0:0:
256,192,142425,1,0,0:0:0:0:
256,192,142514,1,8,0:0:0:0:
256,192,142873,1,8,0:0:0:0:
256,192,143052,1,8,0:0:0:0:
256,192,143231,1,0,0:0:0:0:
256,192,143410,1,0,0:0:0:0:
256,192,143589,1,8,0:0:0:0:
256,192,143768,1,8,0:0:0:0:
256,192,143858,1,8,0:0:0:0:
256,192,143947,1,8,0:0:0:0:
256,192,144305,1,8,0:0:0:0:
256,192,144485,1,8,0:0:0:0:
256,192,144664,1,4,0:0:0:0:
256,192,144843,1,8,0:0:0:0:
256,192,145022,1,0,0:0:0:0:
256,192,145201,1,0,0:0:0:0:
256,192,145290,1,0,0:0:0:0:
256,192,145380,1,8,0:0:0:0:
256,192,145738,1,8,0:0:0:0:
256,192,145917,1,8,0:0:0:0:
256,192,146096,1,0,0:0:0:0:
256,192,146276,1,8,0:0:0:0:
256,192,146365,1,8,0:0:0:0:
256,192,146455,1,8,0:0:0:0:
256,192,146634,1,0,0:0:0:0:
256,192,146813,1,8,0:0:0:0:
256,192,146992,1,8,0:0:0:0:
256,192,147171,1,8,0:0:0:0:
256,192,147261,1,8,0:0:0:0:
256,192,147350,1,8,0:0:0:0:
256,192,147529,1,4,0:0:0:0:
256,192,147708,1,0,0:0:0:0:
256,192,147887,1,8,0:0:0:0:
256,192,148066,1,0,0:0:0:0:
256,192,148156,1,0,0:0:0:0:
256,192,148245,1,8,0:0:0:0:
256,192,148604,1,8,0:0:0:0:
256,192,148783,1,8,0:0:0:0:
256,192,148962,1,0,0:0:0:0:
256,192,149141,1,0,0:0:0:0:
256,192,149320,1,8,0:0:0:0:
256,192,149499,1,8,0:0:0:0:
256,192,149589,1,8,0:0:0:0:
256,192,149678,1,8,0:0:0:0:
256,192,149858,1,0,0:0:0:0:
256,192,150036,1,8,0:0:0:0:
256,192,150216,1,8,0:0:0:0:
256,192,150395,1,4,0:0:0:0:
256,192,150574,1,8,0:0:0:0:
256,192,150753,1,0,0:0:0:0:
256,192,150932,1,0,0:0:0:0:
256,192,151021,1,0,0:0:0:0:
256,192,151111,1,8,0:0:0:0:
256,192,151469,1,8,0:0:0:0:
256,192,151649,1,8,0:0:0:0:
256,192,151827,1,0,0:0:0:0:
256,192,152007,1,8,0:0:0:0:
256,192,152096,1,8,0:0:0:0:
256,192,152186,1,8,0:0:0:0:
256,192,152365,1,0,0:0:0:0:
256,192,152544,1,8,0:0:0:0:
256,192,152723,1,0,0:0:0:0:
256,192,152902,1,8,0:0:0:0:
256,192,153082,1,8,0:0:0:0:
256,192,153260,1,4,0:0:0:0:
256,192,153439,1,0,0:0:0:0:
256,192,153618,1,8,0:0:0:0:
256,192,153797,1,0,0:0:0:0:
256,192,153887,1,0,0:0:0:0:
256,192,153976,1,8,0:0:0:0:
256,192,154335,1,8,0:0:0:0:
256,192,154514,1,8,0:0:0:0:
256,192,154693,1,0,0:0:0:0:
256,192,154872,1,0,0:0:0:0:
256,192,155051,1,8,0:0:0:0:
256,192,155230,1,8,0:0:0:0:
256,192,155320,1,8,0:0:0:0:
256,192,155409,1,8,0:0:0:0:
256,192,155589,1,0,0:0:0:0:
256,192,155767,1,8,0:0:0:0:
256,192,155947,1,8,0:0:0:0:
256,192,156126,1,4,0:0:0:0:
256,192,156305,1,8,0:0:0:0:
256,192,156484,1,0,0:0:0:0:
256,192,156663,1,0,0:0:0:0:
256,192,156752,1,0,0:0:0:0:
256,192,156842,1,8,0:0:0:0:
256,192,157200,1,8,0:0:0:0:
256,192,157380,1,8,0:0:0:0:
256,192,157558,1,0,0:0:0:0:
256,192,157738,1,8,0:0:0:0:
256,192,157827,1,8,0:0:0:0:
256,192,157917,1,8,0:0:0:0:
256,192,158096,1,0,0:0:0:0:
256,192,158275,1,8,0:0:0:0:
256,192,158455,1,8,0:0:0:0:
256,192,158634,1,8,0:0:0:0:
256,192,158723,1,8,0:0:0:0:
256,192,158813,1,8,0:0:0:0:
256,192,158992,1,4,0:0:0:0:
