osu file format v14

[General]
AudioFilename: speedcore.mp3
AudioLeadIn: 0
PreviewTime: 136067
Countdown: 0
SampleSet: Normal
StackLeniency: 0.7
Mode: 1
LetterboxInBreaks: 0
WidescreenStoryboard: 0

[Editor]
Bookmarks: 146455
DistanceSpacing: 1.1
BeatDivisor: 4
GridSize: 32
TimelineZoom: 2.8

[Metadata]
Title:Comfort BLAST
TitleUnicode:Comfort BLAST
Artist:Filthy
ArtistUnicode:Filthy
Creator:Nishizumi
Version:Inner Oni
Source:
Tags:THE PSYCHO BLAST Vol.1 DJ Myosuke speedcore
BeatmapID:1148540
BeatmapSetID:448463

[Difficulty]
HPDrainRate:5
CircleSize:5
OverallDifficulty:8
ApproachRate:5
SliderMultiplier:1.4
SliderTickRate:1

[Events]
//Background and Video events
0,0,"b.jpg",0,0
//Break Periods
//Storyboard Layer 0 (Background)
//Storyboard Layer 1 (Fail)
//Storyboard Layer 2 (Pass)
//Storyboard Layer 3 (Foreground)
//Storyboard Sound Samples

[TimingPoints]
260,416.666666666667,4,1,0,80,1,0
260,-95.2380952380952,4,1,0,80,0,0
2760,405.405405405405,4,1,0,80,1,8
2760,-98.0392156862745,4,1,0,80,0,8
3570,405.405405405405,4,1,0,80,1,0
3570,-98.0392156862745,4,1,0,80,0,0
6002,375,4,1,0,80,1,8
6002,-104.166666666667,4,1,0,80,0,8
6752,400,4,1,0,80,1,0
9152,405.405405405405,4,1,0,80,1,8
9152,-98.0392156862745,4,1,0,80,0,8
9962,408.163265306122,4,1,0,80,1,0
9962,-97.0873786407767,4,1,0,80,0,0
12410,312.174817898023,4,1,0,80,1,8
12410,-128.205128205128,4,1,0,80,0,8
13034,400,4,1,0,90,1,0
13034,-100,4,1,0,90,0,0
38634,358.315915198567,4,1,0,90,1,0
38634,-111.111111111111,4,1,0,90,0,0
38813,-111.111111111111,4,1,0,80,0,0
41500,179.10447761194,4,1,0,100,1,0
41500,-117.647058823529,4,1,0,100,0,0
90216,-117.647058823529,4,1,0,100,0,1
101679,-117.647058823529,4,1,0,100,0,0
118514,-153.846153846153,4,1,0,100,0,0
118873,-200,4,1,0,100,0,0
124694,-200,4,1,0,95,0,0
126037,-200,4,1,0,90,0,0
127470,-200,4,1,0,85,0,0
128902,-200,4,1,0,80,0,0
130156,-166.666666666667,4,1,0,100,0,0
131723,-153.846153846154,4,1,0,100,0,0
133156,-142.857142857143,4,1,0,100,0,0
133873,-133.333333333333,4,1,0,100,0,0
134589,-125,4,1,0,100,0,0
134947,-117.647058823529,4,1,0,100,0,0
136067,-117.647058823529,4,1,0,100,0,1
158992,-117.647058823529,4,1,0,100,0,0

[HitObjects]
256,192,260,5,0,0:0:0:0:
256,192,2760,1,0,0:0:0:0:
256,192,3570,1,8,0:0:0:0:
256,192,6002,1,8,0:0:0:0:
256,192,6752,1,0,0:0:0:0:
256,192,9152,1,0,0:0:0:0:
256,192,9962,1,8,0:0:0:0:
256,192,12410,1,8,0:0:0:0:
256,192,13034,1,4,0:0:0:0:
256,192,13434,1,0,0:0:0:0:
256,192,13834,1,8,0:0:0:0:
256,192,14234,1,0,0:0:0:0:
256,192,14434,1,0,0:0:0:0:
256,192,14634,1,8,0:0:0:0:
256,192,15434,1,4,0:0:0:0:
256,192,16234,1,4,0:0:0:0:
256,192,16634,1,0,0:0:0:0:
256,192,17034,1,8,0:0:0:0:
256,192,17234,1,8,0:0:0:0:
256,192,17434,1,0,0:0:0:0:
256,192,17634,1,0,0:0:0:0:
256,192,17834,1,8,0:0:0:0:
256,192,18634,1,4,0:0:0:0:
256,192,19434,1,4,0:0:0:0:
256,192,19834,1,0,0:0:0:0:
256,192,20234,1,8,0:0:0:0:
256,192,20634,1,0,0:0:0:0:
256,192,20834,1,0,0:0:0:0:
256,192,21034,1,8,0:0:0:0:
256,192,21834,1,4,0:0:0:0:
256,192,22634,1,4,0:0:0:0:
256,192,23034,1,0,0:0:0:0:
256,192,23434,1,8,0:0:0:0:
256,192,23634,1,8,0:0:0:0:
256,192,23834,1,0,0:0:0:0:
256,192,24034,1,0,0:0:0:0:
256,192,24234,1,8,0:0:0:0:
256,192,25034,1,4,0:0:0:0:
256,192,25834,1,4,0:0:0:0:
256,192,26234,1,0,0:0:0:0:
256,192,26634,1,8,0:0:0:0:
256,192,26834,1,8,0:0:0:0:
256,192,27034,1,0,0:0:0:0:
256,192,27234,1,0,0:0:0:0:
256,192,27434,1,8,0:0:0:0:
256,192,27834,1,8,0:0:0:0:
256,192,28034,1,8,0:0:0:0:
256,192,28234,1,4,0:0:0:0:
256,192,28634,1,8,0:0:0:0:
256,192,29034,1,4,0:0:0:0:
256,192,29434,1,0,0:0:0:0:
256,192,29634,1,0,0:0:0:0:
256,192,29834,1,8,0:0:0:0:
256,192,30034,1,8,0:0:0:0:
256,192,30234,1,0,0:0:0:0:
256,192,30434,1,0,0:0:0:0:
256,192,30634,1,8,0:0:0:0:
256,192,31034,1,0,0:0:0:0:
256,192,31234,1,8,0:0:0:0:
256,192,31434,1,4,0:0:0:0:
256,192,31834,1,8,0:0:0:0:
256,192,32234,1,4,0:0:0:0:
256,192,32634,1,0,0:0:0:0:
256,192,32834,1,0,0:0:0:0:
256,192,33034,1,8,0:0:0:0:
256,192,33234,1,8,0:0:0:0:
256,192,33434,1,0,0:0:0:0:
256,192,33634,1,0,0:0:0:0:
256,192,33834,1,8,0:0:0:0:
256,192,34234,1,8,0:0:0:0:
256,192,34434,1,8,0:0:0:0:
256,192,34634,1,4,0:0:0:0:
256,192,35034,1,8,0:0:0:0:
256,192,35434,1,4,0:0:0:0:
256,192,35834,1,0,0:0:0:0:
256,192,36034,1,0,0:0:0:0:
256,192,36234,1,8,0:0:0:0:
256,192,36434,1,8,0:0:0:0:
256,192,36634,1,0,0:0:0:0:
256,192,36834,1,0,0:0:0:0:
256,192,37034,1,12,0:0:0:0:
256,192,37834,1,4,0:0:0:0:
256,192,38634,1,4,0:0:0:0:
256,192,38813,12,0,41142,0:0:0:0:
256,192,41500,5,8,0:0:0:0:
256,192,41589,1,0,0:0:0:0:
256,192,41679,1,8,0:0:0:0:
256,192,41768,1,0,0:0:0:0:
256,192,41947,1,0,0:0:0:0:
256,192,42037,1,8,0:0:0:0:
256,192,42126,1,0,0:0:0:0:
256,192,42216,1,0,0:0:0:0:
256,192,42305,1,8,0:0:0:0:
256,192,42485,1,8,0:0:0:0:
256,192,42574,1,0,0:0:0:0:
256,192,42753,1,0,0:0:0:0:
256,192,42843,1,0,0:0:0:0:
256,192,42932,1,8,0:0:0:0:
256,192,43111,1,0,0:0:0:0:
256,192,43201,1,0,0:0:0:0:
256,192,43291,1,8,0:0:0:0:
256,192,43380,1,8,0:0:0:0:
256,192,43470,1,0,0:0:0:0:
256,192,43559,1,0,0:0:0:0:
256,192,43649,1,8,0:0:0:0:
256,192,44365,1,4,0:0:0:0:
256,192,44544,1,0,0:0:0:0:
256,192,44634,1,0,0:0:0:0:
256,192,44723,1,8,0:0:0:0:
256,192,44813,1,8,0:0:0:0:
256,192,44902,1,0,0:0:0:0:
256,192,44992,1,0,0:0:0:0:
256,192,45082,1,8,0:0:0:0:
256,192,45171,1,0,0:0:0:0:
256,192,45261,1,8,0:0:0:0:
256,192,45350,1,0,0:0:0:0:
256,192,45440,1,8,0:0:0:0:
256,192,45529,1,8,0:0:0:0:
256,192,45619,1,0,0:0:0:0:
256,192,45708,1,0,0:0:0:0:
256,192,45798,1,8,0:0:0:0:
256,192,45888,1,0,0:0:0:0:
256,192,45977,1,8,0:0:0:0:
256,192,46067,1,0,0:0:0:0:
256,192,46156,1,8,0:0:0:0:
256,192,46246,1,0,0:0:0:0:
256,192,46335,1,8,0:0:0:0:
256,192,46425,1,8,0:0:0:0:
256,192,46514,1,0,0:0:0:0:
256,192,46694,1,12,0:0:0:0:
256,192,46873,1,12,0:0:0:0:
256,192,47052,1,12,0:0:0:0:
256,192,47231,1,4,0:0:0:0:
256,192,47409,1,0,0:0:0:0:
256,192,47499,1,0,0:0:0:0:
256,192,47588,1,8,0:0:0:0:
256,192,47678,1,8,0:0:0:0:
256,192,47767,1,0,0:0:0:0:
256,192,47857,1,0,0:0:0:0:
256,192,47947,1,8,0:0:0:0:
256,192,48036,1,0,0:0:0:0:
256,192,48126,1,8,0:0:0:0:
256,192,48215,1,0,0:0:0:0:
256,192,48305,1,8,0:0:0:0:
256,192,48395,1,8,0:0:0:0:
256,192,48484,1,0,0:0:0:0:
256,192,48574,1,0,0:0:0:0:
256,192,48663,1,8,0:0:0:0:
256,192,48753,1,0,0:0:0:0:
256,192,48842,1,8,0:0:0:0:
256,192,48932,1,0,0:0:0:0:
256,192,49021,1,8,0:0:0:0:
256,192,49111,1,8,0:0:0:0:
256,192,49200,1,0,0:0:0:0:
256,192,49290,1,8,0:0:0:0:
256,192,49379,1,0,0:0:0:0:
256,192,49440,1,0,0:0:0:0:
256,192,49499,1,0,0:0:0:0:
256,192,49559,1,0,0:0:0:0:
256,192,49619,1,0,0:0:0:0:
256,192,49679,1,0,0:0:0:0:
256,192,49738,1,8,0:0:0:0:
256,192,49917,1,8,0:0:0:0:
256,192,50097,1,4,0:0:0:0:
256,192,50276,1,8,0:0:0:0:
256,192,50365,1,0,0:0:0:0:
256,192,50455,1,8,0:0:0:0:
256,192,50544,1,8,0:0:0:0:
256,192,50634,1,0,0:0:0:0:
256,192,50723,1,0,0:0:0:0:
256,192,50813,1,8,0:0:0:0:
256,192,50902,1,0,0:0:0:0:
256,192,50992,1,8,0:0:0:0:
256,192,51082,1,0,0:0:0:0:
256,192,51171,1,8,0:0:0:0:
256,192,51261,1,8,0:0:0:0:
256,192,51350,1,0,0:0:0:0:
256,192,51440,1,0,0:0:0:0:
256,192,51529,1,8,0:0:0:0:
256,192,51619,1,0,0:0:0:0:
256,192,51708,1,8,0:0:0:0:
256,192,51798,1,0,0:0:0:0:
256,192,51888,1,8,0:0:0:0:
256,192,51977,1,8,0:0:0:0:
256,192,52067,1,8,0:0:0:0:
256,192,52156,1,8,0:0:0:0:
256,192,52246,1,0,0:0:0:0:
256,192,52425,1,12,0:0:0:0:
256,192,52604,1,12,0:0:0:0:
256,192,52783,1,12,0:0:0:0:
256,192,52962,1,4,0:0:0:0:
256,192,53141,1,8,0:0:0:0:
256,192,53231,1,0,0:0:0:0:
256,192,53320,1,8,0:0:0:0:
256,192,53410,1,0,0:0:0:0:
256,192,53499,1,8,0:0:0:0:
256,192,53589,1,8,0:0:0:0:
256,192,53679,1,0,0:0:0:0:
256,192,53768,1,0,0:0:0:0:
256,192,53858,1,8,0:0:0:0:
256,192,53947,1,0,0:0:0:0:
256,192,54037,1,8,0:0:0:0:
256,192,54126,1,8,0:0:0:0:
256,192,54216,1,0,0:0:0:0:
256,192,54305,1,0,0:0:0:0:
256,192,54395,1,8,0:0:0:0:
256,192,54485,1,0,0:0:0:0:
256,192,54574,1,0,0:0:0:0:
256,192,54664,1,0,0:0:0:0:
256,192,54753,1,8,0:0:0:0:
256,192,54843,1,0,0:0:0:0:
256,192,54932,1,8,0:0:0:0:
256,192,55022,1,8,0:0:0:0:
256,192,55111,1,0,0:0:0:0:
256,192,55828,1,12,0:0:0:0:
256,192,56007,1,0,0:0:0:0:
256,192,56097,1,0,0:0:0:0:
256,192,56186,1,8,0:0:0:0:
256,192,56276,1,0,0:0:0:0:
256,192,56365,1,0,0:0:0:0:
256,192,56455,1,8,0:0:0:0:
256,192,56544,1,8,0:0:0:0:
256,192,56634,1,8,0:0:0:0:
256,192,56723,1,0,0:0:0:0:
256,192,56813,1,8,0:0:0:0:
256,192,56902,1,0,0:0:0:0:
256,192,56992,1,8,0:0:0:0:
256,192,57082,1,0,0:0:0:0:
256,192,57171,1,8,0:0:0:0:
256,192,57261,1,8,0:0:0:0:
256,192,57350,1,0,0:0:0:0:
256,192,57440,1,0,0:0:0:0:
256,192,57529,1,8,0:0:0:0:
256,192,57619,1,0,0:0:0:0:
256,192,57708,1,0,0:0:0:0:
256,192,57798,1,0,0:0:0:0:
256,192,57888,1,8,0:0:0:0:
256,192,57977,1,8,0:0:0:0:
256,192,58067,1,8,0:0:0:0:
256,192,58156,1,0,0:0:0:0:
256,192,58246,1,8,0:0:0:0:
256,192,58335,1,0,0:0:0:0:
256,192,58425,1,8,0:0:0:0:
256,192,58514,1,0,0:0:0:0:
256,192,58694,1,12,0:0:0:0:
256,192,58873,1,0,0:0:0:0:
256,192,58962,1,0,0:0:0:0:
256,192,59052,1,8,0:0:0:0:
256,192,59141,1,0,0:0:0:0:
256,192,59231,1,0,0:0:0:0:
256,192,59320,1,8,0:0:0:0:
256,192,59410,1,8,0:0:0:0:
256,192,59499,1,8,0:0:0:0:
256,192,59589,1,0,0:0:0:0:
256,192,59679,1,8,0:0:0:0:
256,192,59768,1,0,0:0:0:0:
256,192,59858,1,8,0:0:0:0:
256,192,59947,1,0,0:0:0:0:
256,192,60037,1,8,0:0:0:0:
256,192,60126,1,8,0:0:0:0:
256,192,60216,1,0,0:0:0:0:
256,192,60305,1,0,0:0:0:0:
256,192,60395,1,0,0:0:0:0:
256,192,60485,1,8,0:0:0:0:
256,192,60574,1,0,0:0:0:0:
256,192,60664,1,8,0:0:0:0:
256,192,60753,1,8,0:0:0:0:
256,192,60843,1,0,0:0:0:0:
256,192,61201,1,8,0:0:0:0:
256,192,61291,1,8,0:0:0:0:
256,192,61380,1,8,0:0:0:0:
256,192,61470,1,8,0:0:0:0:
256,192,61559,1,4,0:0:0:0:
256,192,61738,1,8,0:0:0:0:
256,192,61828,1,8,0:0:0:0:
256,192,61917,1,0,0:0:0:0:
256,192,62007,1,8,0:0:0:0:
256,192,62097,1,0,0:0:0:0:
256,192,62186,1,8,0:0:0:0:
256,192,62276,1,8,0:0:0:0:
256,192,62365,1,8,0:0:0:0:
256,192,62455,1,0,0:0:0:0:
256,192,62544,1,8,0:0:0:0:
256,192,62634,1,0,0:0:0:0:
256,192,62723,1,8,0:0:0:0:
256,192,62813,1,0,0:0:0:0:
256,192,62902,1,8,0:0:0:0:
256,192,62992,1,8,0:0:0:0:
256,192,63082,1,0,0:0:0:0:
256,192,63171,1,8,0:0:0:0:
256,192,63261,1,8,0:0:0:0:
256,192,63350,1,0,0:0:0:0:
256,192,63440,1,8,0:0:0:0:
256,192,63529,1,0,0:0:0:0:
256,192,63619,1,8,0:0:0:0:
256,192,63708,1,8,0:0:0:0:
256,192,63798,1,8,0:0:0:0:
256,192,63888,1,0,0:0:0:0:
256,192,63977,1,8,0:0:0:0:
256,192,64067,1,0,0:0:0:0:
256,192,64156,1,0,0:0:0:0:
256,192,64246,1,8,0:0:0:0:
256,192,64425,1,4,0:0:0:0:
256,192,64604,1,0,0:0:0:0:
256,192,64694,1,0,0:0:0:0:
256,192,64783,1,0,0:0:0:0:
256,192,64873,1,8,0:0:0:0:
256,192,64962,1,8,0:0:0:0:
256,192,65141,1,0,0:0:0:0:
256,192,65320,1,0,0:0:0:0:
256,192,65410,1,0,0:0:0:0:
256,192,65499,1,8,0:0:0:0:
256,192,65589,1,8,0:0:0:0:
256,192,65679,1,8,0:0:0:0:
256,192,65858,1,8,0:0:0:0:
256,192,65947,1,8,0:0:0:0:
256,192,66037,1,8,0:0:0:0:
256,192,66126,1,8,0:0:0:0:
256,192,66216,1,0,0:0:0:0:
256,192,66305,1,0,0:0:0:0:
256,192,66395,1,0,0:0:0:0:
256,192,66485,1,0,0:0:0:0:
256,192,66574,1,8,0:0:0:0:
256,192,66664,1,8,0:0:0:0:
256,192,66753,1,0,0:0:0:0:
256,192,66843,1,0,0:0:0:0:
256,192,66932,1,8,0:0:0:0:
256,192,67291,1,4,0:0:0:0:
256,192,67470,1,0,0:0:0:0:
256,192,67560,1,0,0:0:0:0:
256,192,67649,1,8,0:0:0:0:
256,192,67739,1,8,0:0:0:0:
256,192,67828,1,0,0:0:0:0:
256,192,67918,1,0,0:0:0:0:
256,192,68008,1,8,0:0:0:0:
256,192,68097,1,0,0:0:0:0:
256,192,68187,1,8,0:0:0:0:
256,192,68276,1,0,0:0:0:0:
256,192,68366,1,8,0:0:0:0:
256,192,68455,1,8,0:0:0:0:
256,192,68545,1,0,0:0:0:0:
256,192,68634,1,0,0:0:0:0:
256,192,68724,1,8,0:0:0:0:
256,192,68814,1,0,0:0:0:0:
256,192,68903,1,8,0:0:0:0:
256,192,68993,1,0,0:0:0:0:
256,192,69082,1,8,0:0:0:0:
256,192,69172,1,0,0:0:0:0:
256,192,69261,1,8,0:0:0:0:
256,192,69351,1,8,0:0:0:0:
256,192,69440,1,0,0:0:0:0:
256,192,69620,1,12,0:0:0:0:
256,192,69799,1,12,0:0:0:0:
256,192,69978,1,12,0:0:0:0:
256,192,70157,1,4,0:0:0:0:
256,192,70335,1,0,0:0:0:0:
256,192,70425,1,0,0:0:0:0:
256,192,70514,1,8,0:0:0:0:
256,192,70604,1,8,0:0:0:0:
256,192,70693,1,0,0:0:0:0:
256,192,70783,1,0,0:0:0:0:
256,192,70873,1,8,0:0:0:0:
256,192,70962,1,0,0:0:0:0:
256,192,71052,1,8,0:0:0:0:
256,192,71141,1,0,0:0:0:0:
256,192,71231,1,8,0:0:0:0:
256,192,71321,1,8,0:0:0:0:
256,192,71410,1,0,0:0:0:0:
256,192,71500,1,0,0:0:0:0:
256,192,71589,1,8,0:0:0:0:
256,192,71679,1,0,0:0:0:0:
256,192,71768,1,8,0:0:0:0:
256,192,71858,1,0,0:0:0:0:
256,192,71947,1,8,0:0:0:0:
256,192,72037,1,8,0:0:0:0:
256,192,72126,1,0,0:0:0:0:
256,192,72216,1,8,0:0:0:0:
256,192,72305,1,0,0:0:0:0:
256,192,72366,1,0,0:0:0:0:
256,192,72425,1,0,0:0:0:0:
256,192,72485,1,0,0:0:0:0:
256,192,72545,1,0,0:0:0:0:
256,192,72605,1,0,0:0:0:0:
256,192,72664,1,8,0:0:0:0:
256,192,72843,1,8,0:0:0:0:
256,192,73023,1,4,0:0:0:0:
256,192,73202,1,8,0:0:0:0:
256,192,73291,1,0,0:0:0:0:
256,192,73381,1,8,0:0:0:0:
256,192,73470,1,8,0:0:0:0:
256,192,73560,1,0,0:0:0:0:
256,192,73649,1,0,0:0:0:0:
256,192,73739,1,8,0:0:0:0:
256,192,73828,1,0,0:0:0:0:
256,192,73918,1,8,0:0:0:0:
256,192,74008,1,0,0:0:0:0:
256,192,74097,1,8,0:0:0:0:
256,192,74187,1,8,0:0:0:0:
256,192,74276,1,0,0:0:0:0:
256,192,74366,1,0,0:0:0:0:
256,192,74455,1,8,0:0:0:0:
256,192,74545,1,0,0:0:0:0:
256,192,74634,1,8,0:0:0:0:
256,192,74724,1,0,0:0:0:0:
256,192,74814,1,8,0:0:0:0:
256,192,74903,1,8,0:0:0:0:
256,192,74993,1,8,0:0:0:0:
256,192,75082,1,8,0:0:0:0:
256,192,75172,1,0,0:0:0:0:
256,192,75351,1,12,0:0:0:0:
256,192,75530,1,12,0:0:0:0:
256,192,75709,1,12,0:0:0:0:
256,192,75888,1,4,0:0:0:0:
256,192,76067,1,8,0:0:0:0:
256,192,76157,1,0,0:0:0:0:
256,192,76246,1,8,0:0:0:0:
256,192,76336,1,0,0:0:0:0:
256,192,76425,1,8,0:0:0:0:
256,192,76515,1,8,0:0:0:0:
256,192,76605,1,0,0:0:0:0:
256,192,76694,1,0,0:0:0:0:
256,192,76784,1,8,0:0:0:0:
256,192,76873,1,0,0:0:0:0:
256,192,76963,1,8,0:0:0:0:
256,192,77052,1,8,0:0:0:0:
256,192,77142,1,0,0:0:0:0:
256,192,77231,1,0,0:0:0:0:
256,192,77321,1,8,0:0:0:0:
256,192,77411,1,0,0:0:0:0:
256,192,77500,1,0,0:0:0:0:
256,192,77590,1,0,0:0:0:0:
256,192,77679,1,8,0:0:0:0:
256,192,77769,1,0,0:0:0:0:
256,192,77858,1,8,0:0:0:0:
256,192,77948,1,8,0:0:0:0:
256,192,78037,1,0,0:0:0:0:
256,192,78753,1,8,0:0:0:0:
256,192,78843,1,8,0:0:0:0:
256,192,78932,1,0,0:0:0:0:
256,192,79111,1,8,0:0:0:0:
256,192,79291,1,0,0:0:0:0:
256,192,79380,1,8,0:0:0:0:
256,192,79470,1,8,0:0:0:0:
256,192,79559,1,8,0:0:0:0:
256,192,79649,1,0,0:0:0:0:
256,192,79828,1,8,0:0:0:0:
256,192,80007,1,0,0:0:0:0:
256,192,80097,1,0,0:0:0:0:
256,192,80186,1,8,0:0:0:0:
256,192,80365,1,0,0:0:0:0:
256,192,80455,1,0,0:0:0:0:
256,192,80544,1,0,0:0:0:0:
256,192,80634,1,0,0:0:0:0:
256,192,80723,1,8,0:0:0:0:
256,192,80813,1,8,0:0:0:0:
256,192,80902,1,8,0:0:0:0:
256,192,81082,1,0,0:0:0:0:
256,192,81171,1,8,0:0:0:0:
256,192,81350,1,0,0:0:0:0:
256,192,81440,1,8,0:0:0:0:
256,192,81529,1,8,0:0:0:0:
256,192,81619,1,0,0:0:0:0:
256,192,81798,1,8,0:0:0:0:
256,192,81888,1,8,0:0:0:0:
256,192,81977,1,0,0:0:0:0:
256,192,82156,1,0,0:0:0:0:
256,192,82335,1,8,0:0:0:0:
256,192,82514,1,0,0:0:0:0:
256,192,82604,1,0,0:0:0:0:
256,192,82694,1,8,0:0:0:0:
256,192,82783,1,8,0:0:0:0:
256,192,82873,1,0,0:0:0:0:
256,192,82962,1,0,0:0:0:0:
256,192,83052,1,8,0:0:0:0:
256,192,83231,1,0,0:0:0:0:
256,192,83320,1,0,0:0:0:0:
256,192,83410,1,8,0:0:0:0:
256,192,83589,1,8,0:0:0:0:
256,192,83679,1,0,0:0:0:0:
256,192,83768,1,0,0:0:0:0:
256,192,84126,1,8,0:0:0:0:
256,192,84186,1,8,0:0:0:0:
256,192,84246,1,8,0:0:0:0:
256,192,84305,1,8,0:0:0:0:
256,192,84365,1,8,0:0:0:0:
256,192,84425,1,8,0:0:0:0:
256,192,84485,1,0,0:0:0:0:
256,192,84664,1,8,0:0:0:0:
256,192,84753,1,8,0:0:0:0:
256,192,84843,1,0,0:0:0:0:
256,192,85022,1,0,0:0:0:0:
256,192,85201,1,8,0:0:0:0:
256,192,85380,1,0,0:0:0:0:
256,192,85470,1,0,0:0:0:0:
256,192,85559,1,8,0:0:0:0:
256,192,85649,1,8,0:0:0:0:
256,192,85738,1,0,0:0:0:0:
256,192,85917,1,8,0:0:0:0:
256,192,86097,1,0,0:0:0:0:
256,192,86186,1,8,0:0:0:0:
256,192,86276,1,8,0:0:0:0:
256,192,86365,1,8,0:0:0:0:
256,192,86455,1,0,0:0:0:0:
256,192,86544,1,0,0:0:0:0:
256,192,86634,1,8,0:0:0:0:
256,192,86813,1,0,0:0:0:0:
256,192,86902,1,0,0:0:0:0:
256,192,86992,1,0,0:0:0:0:
256,192,87171,1,8,0:0:0:0:
256,192,87350,1,0,0:0:0:0:
256,192,87440,1,0,0:0:0:0:
256,192,87529,1,0,0:0:0:0:
256,192,87619,1,0,0:0:0:0:
256,192,87708,1,8,0:0:0:0:
256,192,87888,1,0,0:0:0:0:
256,192,87977,1,0,0:0:0:0:
256,192,88067,1,8,0:0:0:0:
256,192,88246,1,0,0:0:0:0:
256,192,88335,1,0,0:0:0:0:
256,192,88425,1,8,0:0:0:0:
256,192,88604,1,8,0:0:0:0:
256,192,88694,1,0,0:0:0:0:
256,192,88783,1,0,0:0:0:0:
256,192,90216,1,4,0:0:0:0:
256,192,90395,1,8,0:0:0:0:
256,192,90485,1,0,0:0:0:0:
256,192,90574,1,8,0:0:0:0:
256,192,90664,1,8,0:0:0:0:
256,192,90753,1,0,0:0:0:0:
256,192,90843,1,0,0:0:0:0:
256,192,90932,1,8,0:0:0:0:
256,192,91022,1,0,0:0:0:0:
256,192,91067,1,0,0:0:0:0:
256,192,91111,1,0,0:0:0:0:
256,192,91201,1,8,0:0:0:0:
256,192,91291,1,0,0:0:0:0:
256,192,91335,1,0,0:0:0:0:
256,192,91380,1,0,0:0:0:0:
256,192,91470,1,8,0:0:0:0:
256,192,91649,1,0,0:0:0:0:
256,192,91828,1,8,0:0:0:0:
256,192,91917,1,0,0:0:0:0:
256,192,92007,1,8,0:0:0:0:
256,192,92097,1,8,0:0:0:0:
256,192,92186,1,0,0:0:0:0:
256,192,92276,1,0,0:0:0:0:
256,192,92365,1,8,0:0:0:0:
256,192,92455,1,0,0:0:0:0:
256,192,92499,1,0,0:0:0:0:
256,192,92544,1,0,0:0:0:0:
256,192,92634,1,8,0:0:0:0:
256,192,92723,1,0,0:0:0:0:
256,192,92768,1,0,0:0:0:0:
256,192,92813,1,0,0:0:0:0:
256,192,92858,1,0,0:0:0:0:
256,192,92902,1,8,0:0:0:0:
256,192,92992,1,8,0:0:0:0:
256,192,93082,1,4,0:0:0:0:
256,192,93261,1,8,0:0:0:0:
256,192,93440,1,0,0:0:0:0:
256,192,93529,1,8,0:0:0:0:
256,192,93619,1,0,0:0:0:0:
256,192,93708,1,0,0:0:0:0:
256,192,93798,1,8,0:0:0:0:
256,192,93888,1,0,0:0:0:0:
256,192,93932,1,0,0:0:0:0:
256,192,93977,1,0,0:0:0:0:
256,192,94067,1,8,0:0:0:0:
256,192,94156,1,0,0:0:0:0:
256,192,94201,1,0,0:0:0:0:
256,192,94246,1,0,0:0:0:0:
256,192,94335,1,8,0:0:0:0:
256,192,94425,1,8,0:0:0:0:
256,192,94514,1,0,0:0:0:0:
256,192,94694,1,8,0:0:0:0:
256,192,94873,1,0,0:0:0:0:
256,192,94962,1,8,0:0:0:0:
256,192,95052,1,0,0:0:0:0:
256,192,95141,1,0,0:0:0:0:
256,192,95231,1,8,0:0:0:0:
256,192,95276,1,8,0:0:0:0:
256,192,95320,1,8,0:0:0:0:
256,192,95365,1,8,0:0:0:0:
256,192,95410,1,8,0:0:0:0:
256,192,95499,1,0,0:0:0:0:
256,192,95589,1,0,0:0:0:0:
256,192,95768,1,8,0:0:0:0:
256,192,95947,1,4,0:0:0:0:
256,192,96126,1,8,0:0:0:0:
256,192,96216,1,0,0:0:0:0:
256,192,96305,1,8,0:0:0:0:
256,192,96395,1,8,0:0:0:0:
256,192,96485,1,0,0:0:0:0:
256,192,96574,1,0,0:0:0:0:
256,192,96664,1,8,0:0:0:0:
256,192,96753,1,0,0:0:0:0:
256,192,96798,1,0,0:0:0:0:
256,192,96843,1,0,0:0:0:0:
256,192,96932,1,8,0:0:0:0:
256,192,97022,1,0,0:0:0:0:
256,192,97067,1,0,0:0:0:0:
256,192,97111,1,0,0:0:0:0:
256,192,97201,1,8,0:0:0:0:
256,192,97380,1,0,0:0:0:0:
256,192,97559,1,8,0:0:0:0:
256,192,97648,1,0,0:0:0:0:
256,192,97738,1,8,0:0:0:0:
256,192,97828,1,8,0:0:0:0:
256,192,97917,1,0,0:0:0:0:
256,192,98007,1,0,0:0:0:0:
256,192,98096,1,8,0:0:0:0:
256,192,98186,1,0,0:0:0:0:
256,192,98230,1,0,0:0:0:0:
256,192,98275,1,0,0:0:0:0:
256,192,98365,1,8,0:0:0:0:
256,192,98454,1,0,0:0:0:0:
256,192,98499,1,0,0:0:0:0:
256,192,98544,1,0,0:0:0:0:
256,192,98589,1,0,0:0:0:0:
256,192,98633,1,8,0:0:0:0:
256,192,98723,1,8,0:0:0:0:
256,192,98813,1,4,0:0:0:0:
256,192,98992,1,8,0:0:0:0:
256,192,99171,1,0,0:0:0:0:
256,192,99260,1,8,0:0:0:0:
256,192,99350,1,0,0:0:0:0:
256,192,99439,1,0,0:0:0:0:
256,192,99529,1,8,0:0:0:0:
256,192,99619,1,0,0:0:0:0:
256,192,99663,1,0,0:0:0:0:
256,192,99708,1,0,0:0:0:0:
256,192,99798,1,8,0:0:0:0:
256,192,99887,1,0,0:0:0:0:
256,192,99932,1,0,0:0:0:0:
256,192,99977,1,0,0:0:0:0:
256,192,100066,1,8,0:0:0:0:
256,192,100156,1,8,0:0:0:0:
256,192,100245,1,0,0:0:0:0:
256,192,100425,1,8,0:0:0:0:
256,192,100604,1,0,0:0:0:0:
256,192,100693,1,8,0:0:0:0:
256,192,100783,1,0,0:0:0:0:
256,192,100873,1,8,0:0:0:0:
256,192,100962,1,0,0:0:0:0:
256,192,101007,1,0,0:0:0:0:
256,192,101052,1,0,0:0:0:0:
256,192,101141,1,0,0:0:0:0:
256,192,101231,1,0,0:0:0:0:
256,192,101320,1,8,0:0:0:0:
256,192,101365,1,8,0:0:0:0:
256,192,101410,1,8,0:0:0:0:
256,192,101499,1,8,0:0:0:0:
256,192,101589,1,8,0:0:0:0:
256,192,101679,1,0,0:0:0:0:
256,192,101858,1,0,0:0:0:0:
256,192,102037,1,8,0:0:0:0:
256,192,102215,1,0,0:0:0:0:
256,192,102305,1,0,0:0:0:0:
256,192,102395,1,0,0:0:0:0:
256,192,102753,1,0,0:0:0:0:
256,192,102843,1,0,0:0:0:0:
256,192,102932,1,0,0:0:0:0:
256,192,103022,1,0,0:0:0:0:
256,192,103111,1,0,0:0:0:0:
256,192,103201,1,0,0:0:0:0:
256,192,103291,1,0,0:0:0:0:
256,192,103470,1,8,0:0:0:0:
256,192,103649,1,0,0:0:0:0:
256,192,103738,1,0,0:0:0:0:
256,192,103828,1,0,0:0:0:0:
256,192,104007,1,8,0:0:0:0:
256,192,104186,1,0,0:0:0:0:
256,192,104544,1,0,0:0:0:0:
256,192,104634,1,0,0:0:0:0:
256,192,104723,1,0,0:0:0:0:
256,192,104902,1,8,0:0:0:0:
256,192,105082,1,0,0:0:0:0:
256,192,105171,1,0,0:0:0:0:
256,192,105261,1,0,0:0:0:0:
256,192,105619,1,0,0:0:0:0:
256,192,105709,1,0,0:0:0:0:
256,192,105798,1,0,0:0:0:0:
256,192,105888,1,0,0:0:0:0:
256,192,105977,1,0,0:0:0:0:
256,192,106067,1,0,0:0:0:0:
256,192,106157,1,0,0:0:0:0:
256,192,106336,1,8,0:0:0:0:
256,192,106515,1,0,0:0:0:0:
256,192,106604,1,0,0:0:0:0:
256,192,106694,1,0,0:0:0:0:
256,192,106873,1,8,0:0:0:0:
256,192,107052,1,0,0:0:0:0:
256,192,107410,1,0,0:0:0:0:
256,192,107500,1,0,0:0:0:0:
256,192,107589,1,0,0:0:0:0:
256,192,107768,1,8,0:0:0:0:
256,192,107948,1,0,0:0:0:0:
256,192,108037,1,0,0:0:0:0:
256,192,108127,1,0,0:0:0:0:
256,192,108305,1,8,0:0:0:0:
256,192,108485,1,0,0:0:0:0:
256,192,108575,1,0,0:0:0:0:
256,192,108664,1,0,0:0:0:0:
256,192,108754,1,0,0:0:0:0:
256,192,108843,1,0,0:0:0:0:
256,192,108933,1,0,0:0:0:0:
256,192,109023,1,0,0:0:0:0:
256,192,109202,1,8,0:0:0:0:
256,192,109381,1,0,0:0:0:0:
256,192,109470,1,0,0:0:0:0:
256,192,109560,1,0,0:0:0:0:
256,192,109739,1,8,0:0:0:0:
256,192,109918,1,0,0:0:0:0:
256,192,110276,1,0,0:0:0:0:
256,192,110366,1,0,0:0:0:0:
256,192,110455,1,0,0:0:0:0:
256,192,110634,1,8,0:0:0:0:
256,192,110814,1,0,0:0:0:0:
256,192,110903,1,0,0:0:0:0:
256,192,110993,1,0,0:0:0:0:
256,192,111171,1,8,0:0:0:0:
256,192,111351,1,0,0:0:0:0:
256,192,111441,1,0,0:0:0:0:
256,192,111530,1,0,0:0:0:0:
256,192,111620,1,0,0:0:0:0:
256,192,111709,1,0,0:0:0:0:
256,192,111799,1,0,0:0:0:0:
256,192,111889,1,0,0:0:0:0:
256,192,112068,1,8,0:0:0:0:
256,192,112247,1,0,0:0:0:0:
256,192,112336,1,0,0:0:0:0:
256,192,112426,1,0,0:0:0:0:
256,192,112605,1,8,0:0:0:0:
256,192,112784,1,0,0:0:0:0:
256,160,113141,1,8,0:0:0:0:
256,160,113231,1,8,0:0:0:0:
256,160,113320,1,8,0:0:0:0:
256,160,113499,1,0,0:0:0:0:
256,160,113679,1,8,0:0:0:0:
256,160,113768,1,8,0:0:0:0:
256,160,113858,1,8,0:0:0:0:
256,160,114216,1,8,0:0:0:0:
256,160,114305,1,8,0:0:0:0:
256,160,114395,1,8,0:0:0:0:
256,160,114574,1,8,0:0:0:0:
256,160,114664,1,8,0:0:0:0:
256,160,114753,1,0,0:0:0:0:
256,160,114932,1,0,0:0:0:0:
256,160,115111,1,8,0:0:0:0:
256,160,115201,1,8,0:0:0:0:
256,160,115291,1,8,0:0:0:0:
256,160,115649,1,0,0:0:0:0:
256,160,116007,1,8,0:0:0:0:
256,160,116097,1,8,0:0:0:0:
256,160,116186,1,8,0:0:0:0:
256,160,116365,1,0,0:0:0:0:
256,160,116545,1,8,0:0:0:0:
256,160,116634,1,8,0:0:0:0:
256,160,116724,1,8,0:0:0:0:
256,160,117082,1,8,0:0:0:0:
256,160,117171,1,8,0:0:0:0:
256,160,117261,1,8,0:0:0:0:
256,160,117440,1,8,0:0:0:0:
256,160,117530,1,8,0:0:0:0:
256,160,117619,1,0,0:0:0:0:
256,160,117798,1,0,0:0:0:0:
256,160,117977,1,8,0:0:0:0:
256,160,118067,1,8,0:0:0:0:
256,160,118157,1,8,0:0:0:0:
256,160,118515,1,0,0:0:0:0:
256,160,118873,1,8,0:0:0:0:
256,160,118962,1,8,0:0:0:0:
256,192,119052,1,0,0:0:0:0:
256,160,119410,1,8,0:0:0:0:
256,160,119499,1,8,0:0:0:0:
256,160,119589,1,0,0:0:0:0:
256,192,119947,1,8,0:0:0:0:
256,192,120037,1,8,0:0:0:0:
256,192,120126,1,8,0:0:0:0:
256,192,120305,1,8,0:0:0:0:
256,192,120395,1,8,0:0:0:0:
256,192,120485,1,0,0:0:0:0:
256,192,120843,1,8,0:0:0:0:
256,192,120932,1,8,0:0:0:0:
256,192,121022,1,0,0:0:0:0:
256,192,121380,1,0,0:0:0:0:
256,192,121738,1,8,0:0:0:0:
256,192,121828,1,8,0:0:0:0:
256,192,121917,1,0,0:0:0:0:
256,192,122276,1,8,0:0:0:0:
256,192,122365,1,8,0:0:0:0:
256,192,122455,1,0,0:0:0:0:
256,192,122813,1,8,0:0:0:0:
256,192,122902,1,8,0:0:0:0:
256,192,122992,1,8,0:0:0:0:
256,192,123171,1,8,0:0:0:0:
256,192,123261,1,8,0:0:0:0:
256,192,123350,1,0,0:0:0:0:
256,192,123708,1,8,0:0:0:0:
256,192,123798,1,8,0:0:0:0:
256,192,123888,1,0,0:0:0:0:
256,192,124246,1,0,0:0:0:0:
256,192,124604,5,4,0:0:0:0:
256,192,124694,12,0,129619,0:0:0:0:
256,192,130156,5,0,0:0:0:0:
256,192,130201,1,0,0:0:0:0:
256,192,130246,1,0,0:0:0:0:
256,192,130335,1,8,0:0:0:0:
256,192,131052,1,0,0:0:0:0:
256,192,131410,1,8,0:0:0:0:
256,192,131768,1,4,0:0:0:0:
256,160,132485,1,0,0:0:0:0:
256,160,132664,1,0,0:0:0:0:
256,160,132843,1,8,0:0:0:0:
256,160,133022,1,0,0:0:0:0:
256,160,133201,1,4,0:0:0:0:
256,160,133917,1,4,0:0:0:0:
256,160,134634,1,4,0:0:0:0:
256,160,134992,1,4,0:0:0:0:
256,160,135350,1,4,0:0:0:0:
256,160,135529,1,4,0:0:0:0:
256,160,135708,1,0,0:0:0:0:
256,160,135798,1,0,0:0:0:0:
256,160,135888,1,8,0:0:0:0:
256,160,135977,1,8,0:0:0:0:
256,160,136067,1,4,0:0:0:0:
256,192,136246,1,8,0:0:0:0:
256,192,136336,1,0,0:0:0:0:
256,192,136425,1,8,0:0:0:0:
256,192,136470,1,8,0:0:0:0:
256,192,136515,1,8,0:0:0:0:
256,192,136604,1,0,0:0:0:0:
256,192,136694,1,0,0:0:0:0:
256,192,136783,1,8,0:0:0:0:
256,192,136873,1,0,0:0:0:0:
256,192,136918,1,0,0:0:0:0:
256,192,136962,1,0,0:0:0:0:
256,192,137052,1,8,0:0:0:0:
256,192,137142,1,0,0:0:0:0:
256,192,137186,1,0,0:0:0:0:
256,192,137231,1,0,0:0:0:0:
256,192,137321,1,8,0:0:0:0:
256,192,137410,1,8,0:0:0:0:
256,192,137500,1,0,0:0:0:0:
256,192,137679,1,8,0:0:0:0:
256,192,137768,1,0,0:0:0:0:
256,192,137858,1,8,0:0:0:0:
256,192,137902,1,8,0:0:0:0:
256,192,137948,1,8,0:0:0:0:
256,192,138037,1,0,0:0:0:0:
256,192,138127,1,0,0:0:0:0:
256,192,138216,1,8,0:0:0:0:
256,192,138306,1,0,0:0:0:0:
256,192,138350,1,0,0:0:0:0:
256,192,138395,1,0,0:0:0:0:
256,192,138485,1,8,0:0:0:0:
256,192,138574,1,0,0:0:0:0:
256,192,138619,1,0,0:0:0:0:
256,192,138664,1,0,0:0:0:0:
256,192,138709,1,0,0:0:0:0:
256,192,138753,1,8,0:0:0:0:
256,192,138843,1,8,0:0:0:0:
256,192,138933,1,4,0:0:0:0:
256,192,139112,1,8,0:0:0:0:
256,192,139201,1,8,0:0:0:0:
256,192,139291,1,0,0:0:0:0:
256,192,139380,1,8,0:0:0:0:
256,192,139425,1,8,0:0:0:0:
256,192,139470,1,0,0:0:0:0:
256,192,139559,1,0,0:0:0:0:
256,192,139649,1,8,0:0:0:0:
256,192,139739,1,0,0:0:0:0:
256,192,139783,1,0,0:0:0:0:
256,192,139828,1,0,0:0:0:0:
256,192,139918,1,8,0:0:0:0:
256,192,140007,1,0,0:0:0:0:
256,192,140052,1,0,0:0:0:0:
256,192,140097,1,0,0:0:0:0:
256,192,140186,1,8,0:0:0:0:
256,192,140276,1,8,0:0:0:0:
256,192,140365,1,0,0:0:0:0:
256,192,140545,1,8,0:0:0:0:
256,192,140634,1,8,0:0:0:0:
256,192,140724,1,0,0:0:0:0:
256,192,140813,1,8,0:0:0:0:
256,192,140903,1,0,0:0:0:0:
256,192,140992,1,0,0:0:0:0:
256,192,141082,1,8,0:0:0:0:
256,192,141127,1,8,0:0:0:0:
256,192,141171,1,8,0:0:0:0:
256,192,141216,1,8,0:0:0:0:
256,192,141261,1,8,0:0:0:0:
256,192,141350,1,0,0:0:0:0:
256,192,141440,1,0,0:0:0:0:
256,192,141619,1,8,0:0:0:0:
256,192,141798,1,4,0:0:0:0:
256,192,141977,1,8,0:0:0:0:
256,192,142067,1,0,0:0:0:0:
256,192,142156,1,8,0:0:0:0:
256,192,142201,1,8,0:0:0:0:
256,192,142246,1,8,0:0:0:0:
256,192,142336,1,0,0:0:0:0:
256,192,142425,1,0,0:0:0:0:
256,192,142515,1,8,0:0:0:0:
256,192,142604,1,0,0:0:0:0:
256,192,142649,1,0,0:0:0:0:
256,192,142694,1,0,0:0:0:0:
256,192,142783,1,8,0:0:0:0:
256,192,142873,1,0,0:0:0:0:
256,192,142918,1,0,0:0:0:0:
256,192,142962,1,0,0:0:0:0:
256,192,143052,1,8,0:0:0:0:
256,192,143141,1,8,0:0:0:0:
256,192,143231,1,0,0:0:0:0:
256,192,143410,1,8,0:0:0:0:
256,192,143499,1,0,0:0:0:0:
256,192,143589,1,8,0:0:0:0:
256,192,143634,1,8,0:0:0:0:
256,192,143679,1,8,0:0:0:0:
256,192,143768,1,0,0:0:0:0:
256,192,143858,1,0,0:0:0:0:
256,192,143947,1,8,0:0:0:0:
256,192,144037,1,0,0:0:0:0:
256,192,144081,1,0,0:0:0:0:
256,192,144126,1,0,0:0:0:0:
256,192,144216,1,8,0:0:0:0:
256,192,144305,1,0,0:0:0:0:
256,192,144350,1,0,0:0:0:0:
256,192,144395,1,0,0:0:0:0:
256,192,144440,1,0,0:0:0:0:
256,192,144484,1,8,0:0:0:0:
256,192,144574,1,8,0:0:0:0:
256,192,144664,1,4,0:0:0:0:
256,192,144843,1,8,0:0:0:0:
256,192,144932,1,8,0:0:0:0:
256,192,145022,1,0,0:0:0:0:
256,192,145111,1,8,0:0:0:0:
256,192,145156,1,8,0:0:0:0:
256,192,145201,1,0,0:0:0:0:
256,192,145290,1,0,0:0:0:0:
256,192,145380,1,8,0:0:0:0:
256,192,145470,1,0,0:0:0:0:
256,192,145514,1,0,0:0:0:0:
256,192,145559,1,0,0:0:0:0:
256,192,145649,1,8,0:0:0:0:
256,192,145738,1,0,0:0:0:0:
256,192,145783,1,0,0:0:0:0:
256,192,145828,1,0,0:0:0:0:
256,192,145917,1,8,0:0:0:0:
256,192,146007,1,8,0:0:0:0:
256,192,146096,1,0,0:0:0:0:
256,192,146276,1,8,0:0:0:0:
256,192,146365,1,8,0:0:0:0:
256,192,146455,1,0,0:0:0:0:
256,192,146544,1,8,0:0:0:0:
256,192,146634,1,0,0:0:0:0:
256,192,146724,1,8,0:0:0:0:
256,192,146813,1,0,0:0:0:0:
256,192,146858,1,0,0:0:0:0:
256,192,146903,1,0,0:0:0:0:
256,192,146992,1,0,0:0:0:0:
256,192,147082,1,0,0:0:0:0:
256,192,147171,1,8,0:0:0:0:
256,192,147216,1,8,0:0:0:0:
256,192,147261,1,8,0:0:0:0:
256,192,147350,1,8,0:0:0:0:
256,192,147440,1,8,0:0:0:0:
256,192,147530,1,4,0:0:0:0:
256,192,147709,1,8,0:0:0:0:
256,192,147799,1,0,0:0:0:0:
256,192,147888,1,8,0:0:0:0:
256,192,147932,1,8,0:0:0:0:
256,192,147978,1,8,0:0:0:0:
256,192,148067,1,0,0:0:0:0:
256,192,148157,1,0,0:0:0:0:
256,192,148246,1,8,0:0:0:0:
256,192,148336,1,0,0:0:0:0:
256,192,148381,1,0,0:0:0:0:
256,192,148425,1,0,0:0:0:0:
256,192,148515,1,8,0:0:0:0:
256,192,148605,1,0,0:0:0:0:
256,192,148649,1,0,0:0:0:0:
256,192,148694,1,0,0:0:0:0:
256,192,148784,1,8,0:0:0:0:
256,192,148873,1,8,0:0:0:0:
256,192,148963,1,0,0:0:0:0:
256,192,149052,1,0,0:0:0:0:
256,192,149142,1,8,0:0:0:0:
256,192,149231,1,0,0:0:0:0:
256,192,149321,1,8,0:0:0:0:
256,192,149365,1,8,0:0:0:0:
256,192,149411,1,8,0:0:0:0:
256,192,149500,1,0,0:0:0:0:
256,192,149590,1,0,0:0:0:0:
256,192,149679,1,8,0:0:0:0:
256,192,149769,1,0,0:0:0:0:
256,192,149813,1,0,0:0:0:0:
256,192,149858,1,0,0:0:0:0:
256,192,149948,1,8,0:0:0:0:
256,192,150037,1,0,0:0:0:0:
256,192,150082,1,0,0:0:0:0:
256,192,150127,1,0,0:0:0:0:
256,192,150172,1,0,0:0:0:0:
256,192,150216,1,8,0:0:0:0:
256,192,150305,1,8,0:0:0:0:
256,192,150396,1,4,0:0:0:0:
256,192,150575,1,8,0:0:0:0:
256,192,150664,1,8,0:0:0:0:
256,192,150754,1,0,0:0:0:0:
256,192,150843,1,8,0:0:0:0:
256,192,150888,1,8,0:0:0:0:
256,192,150933,1,0,0:0:0:0:
256,192,151022,1,0,0:0:0:0:
256,192,151112,1,8,0:0:0:0:
256,192,151202,1,0,0:0:0:0:
256,192,151246,1,0,0:0:0:0:
256,192,151291,1,0,0:0:0:0:
256,192,151381,1,8,0:0:0:0:
256,192,151470,1,0,0:0:0:0:
256,192,151515,1,0,0:0:0:0:
256,192,151560,1,0,0:0:0:0:
256,192,151649,1,8,0:0:0:0:
256,192,151739,1,8,0:0:0:0:
256,192,151828,1,0,0:0:0:0:
256,192,151917,1,0,0:0:0:0:
256,192,152008,1,8,0:0:0:0:
256,192,152097,1,8,0:0:0:0:
256,192,152187,1,0,0:0:0:0:
256,192,152276,1,8,0:0:0:0:
256,192,152366,1,0,0:0:0:0:
256,192,152455,1,0,0:0:0:0:
256,192,152545,1,8,0:0:0:0:
256,192,152590,1,8,0:0:0:0:
256,192,152634,1,8,0:0:0:0:
256,192,152679,1,8,0:0:0:0:
256,192,152724,1,8,0:0:0:0:
256,192,152813,1,0,0:0:0:0:
256,192,152903,1,0,0:0:0:0:
256,192,152992,1,0,0:0:0:0:
256,192,153037,1,0,0:0:0:0:
256,192,153082,1,8,0:0:0:0:
256,192,153261,1,4,0:0:0:0:
256,192,153440,1,8,0:0:0:0:
256,192,153530,1,0,0:0:0:0:
256,192,153619,1,8,0:0:0:0:
256,192,153664,1,8,0:0:0:0:
256,192,153709,1,8,0:0:0:0:
256,192,153799,1,0,0:0:0:0:
256,192,153888,1,0,0:0:0:0:
256,192,153978,1,8,0:0:0:0:
256,192,154067,1,0,0:0:0:0:
256,192,154112,1,0,0:0:0:0:
256,192,154157,1,0,0:0:0:0:
256,192,154246,1,8,0:0:0:0:
256,192,154336,1,0,0:0:0:0:
256,192,154381,1,0,0:0:0:0:
256,192,154425,1,0,0:0:0:0:
256,192,154515,1,8,0:0:0:0:
256,192,154604,1,8,0:0:0:0:
256,192,154694,1,0,0:0:0:0:
256,192,154783,1,0,0:0:0:0:
256,192,154873,1,8,0:0:0:0:
256,192,154962,1,0,0:0:0:0:
256,192,155052,1,8,0:0:0:0:
256,192,155097,1,8,0:0:0:0:
256,192,155142,1,8,0:0:0:0:
256,192,155231,1,0,0:0:0:0:
256,192,155321,1,0,0:0:0:0:
256,192,155410,1,8,0:0:0:0:
256,192,155500,1,0,0:0:0:0:
256,192,155544,1,0,0:0:0:0:
256,192,155589,1,0,0:0:0:0:
256,192,155679,1,8,0:0:0:0:
256,192,155768,1,0,0:0:0:0:
256,192,155813,1,0,0:0:0:0:
256,192,155858,1,0,0:0:0:0:
256,192,155947,1,8,0:0:0:0:
256,192,156037,1,8,0:0:0:0:
256,192,156127,1,0,0:0:0:0:
256,192,156306,1,8,0:0:0:0:
256,192,156395,1,0,0:0:0:0:
256,192,156485,1,8,0:0:0:0:
256,192,156529,1,8,0:0:0:0:
256,192,156574,1,8,0:0:0:0:
256,192,156664,1,0,0:0:0:0:
256,192,156753,1,0,0:0:0:0:
256,192,156843,1,8,0:0:0:0:
256,192,156933,1,0,0:0:0:0:
256,192,156977,1,0,0:0:0:0:
256,192,157022,1,0,0:0:0:0:
256,192,157112,1,8,0:0:0:0:
256,192,157201,1,0,0:0:0:0:
256,192,157246,1,0,0:0:0:0:
256,192,157291,1,0,0:0:0:0:
256,192,157336,1,0,0:0:0:0:
256,192,157380,1,8,0:0:0:0:
256,192,157470,1,8,0:0:0:0:
256,192,157559,1,0,0:0:0:0:
256,192,157649,1,0,0:0:0:0:
256,192,157694,1,0,0:0:0:0:
256,192,157739,1,8,0:0:0:0:
256,192,157828,1,8,0:0:0:0:
256,192,157918,1,0,0:0:0:0:
256,192,158007,1,8,0:0:0:0:
256,192,158097,1,0,0:0:0:0:
256,192,158187,1,8,0:0:0:0:
256,192,158276,1,0,0:0:0:0:
256,192,158321,1,0,0:0:0:0:
256,192,158366,1,0,0:0:0:0:
256,192,158455,1,0,0:0:0:0:
256,192,158499,1,0,0:0:0:0:
256,192,158545,1,0,0:0:0:0:
256,192,158634,1,8,0:0:0:0:
256,192,158679,1,8,0:0:0:0:
256,192,158724,1,8,0:0:0:0:
256,192,158813,1,8,0:0:0:0:
256,192,158858,1,8,0:0:0:0:
256,192,158903,1,8,0:0:0:0:
256,192,158947,1,8,0:0:0:0:
256,192,158993,1,0,0:0:0:0:
