osu file format v14

[General]
AudioFilename: speedcore.mp3
AudioLeadIn: 0
PreviewTime: 136067
Countdown: 0
SampleSet: Normal
StackLeniency: 0.7
Mode: 1
LetterboxInBreaks: 0
WidescreenStoryboard: 0

[Editor]
DistanceSpacing: 1.1
BeatDivisor: 2
GridSize: 32
TimelineZoom: 1.300001

[Metadata]
Title:Comfort BLAST
TitleUnicode:Comfort BLAST
Artist:Filthy
ArtistUnicode:Filthy
Creator:Nishizumi
Version:Futsuu
Source:
Tags:THE PSYCHO BLAST Vol.1 DJ Myosuke speedcore
BeatmapID:1393562
BeatmapSetID:448463

[Difficulty]
HPDrainRate:7
CircleSize:5
OverallDifficulty:4
ApproachRate:5
SliderMultiplier:1.4
SliderTickRate:1

[Events]
//Background and Video events
0,0,"b.jpg",0,0
//Break Periods
//Storyboard Layer 0 (Background)
//Storyboard Layer 1 (Fail)
//Storyboard Layer 2 (Pass)
//Storyboard Layer 3 (Foreground)
//Storyboard Sound Samples

[TimingPoints]
260,416.666666666667,4,1,0,80,1,0
260,-117.64705882353,4,1,0,80,0,0
2760,405.405405405405,4,1,0,80,1,8
2760,-121.951219512195,4,1,0,80,0,8
3570,405.405405405405,4,1,0,80,1,0
3570,-121.951219512195,4,1,0,80,0,0
6002,375,4,1,0,80,1,8
6002,-131.578947368421,4,1,0,80,0,8
6752,400,4,1,0,80,1,0
6752,-125,4,1,0,80,0,0
9152,405.405405405405,4,1,0,80,1,8
9152,-121.951219512195,4,1,0,80,0,8
9962,408.163265306122,4,1,0,80,1,0
9962,-120.481927710843,4,1,0,80,0,0
12410,312.174817898023,4,1,0,80,1,8
12410,-161.290322580645,4,1,0,80,0,8
13034,400,4,1,0,90,1,0
13034,-125,4,1,0,90,0,0
38634,358.315915198567,4,1,0,90,1,0
38634,-142.857142857143,4,1,0,90,0,0
38813,-142.857142857143,4,1,0,80,0,0
41500,179.10447761194,4,1,0,100,1,0
41500,-200,4,1,0,100,0,0
90216,-200,4,1,0,100,0,1
101679,-200,4,1,0,100,0,0
124694,-200,4,1,0,95,0,0
126037,-200,4,1,0,90,0,0
127470,-200,4,1,0,85,0,0
128902,-200,4,1,0,80,0,0
130335,-200,4,1,0,100,0,0
136067,-200,4,1,0,100,0,1
158992,-200,4,1,0,100,0,0

[HitObjects]
256,192,260,5,0,0:0:0:0:
256,192,2760,1,0,0:0:0:0:
256,192,3570,1,8,0:0:0:0:
256,192,6752,1,0,0:0:0:0:
256,192,9152,1,0,0:0:0:0:
256,192,9962,1,8,0:0:0:0:
256,192,13034,1,4,0:0:0:0:
256,192,13834,1,8,0:0:0:0:
256,192,14634,1,8,0:0:0:0:
256,192,16234,1,0,0:0:0:0:
256,192,17034,1,8,0:0:0:0:
256,192,17434,1,0,0:0:0:0:
256,192,17834,1,8,0:0:0:0:
256,192,19434,1,0,0:0:0:0:
256,192,20234,1,8,0:0:0:0:
256,192,21034,1,8,0:0:0:0:
256,192,22634,1,0,0:0:0:0:
256,192,23434,1,8,0:0:0:0:
256,192,23834,1,0,0:0:0:0:
256,192,24234,1,8,0:0:0:0:
256,192,25834,1,4,0:0:0:0:
256,192,26634,1,8,0:0:0:0:
256,192,27034,1,0,0:0:0:0:
256,192,27434,1,8,0:0:0:0:
256,192,29034,1,0,0:0:0:0:
256,192,29434,1,0,0:0:0:0:
256,192,29834,1,8,0:0:0:0:
256,192,30234,1,0,0:0:0:0:
256,192,30634,1,8,0:0:0:0:
256,192,32234,1,0,0:0:0:0:
256,192,33034,1,8,0:0:0:0:
256,192,33434,1,0,0:0:0:0:
256,192,33834,1,8,0:0:0:0:
256,192,35434,1,0,0:0:0:0:
256,192,35834,1,0,0:0:0:0:
256,192,36234,1,8,0:0:0:0:
256,192,36634,1,0,0:0:0:0:
256,192,37034,1,8,0:0:0:0:
256,192,37834,1,0,0:0:0:0:
256,192,38634,1,4,0:0:0:0:
256,192,38813,12,0,41142,0:0:0:0:
256,192,41500,5,8,0:0:0:0:
256,192,41858,1,8,0:0:0:0:
256,192,42216,1,0,0:0:0:0:
256,192,42574,1,0,0:0:0:0:
256,192,42932,1,8,0:0:0:0:
256,192,43291,1,0,0:0:0:0:
256,192,43470,1,0,0:0:0:0:
256,192,43649,1,8,0:0:0:0:
256,192,44365,5,4,0:0:0:0:
256,192,44723,1,8,0:0:0:0:
256,192,44902,1,0,0:0:0:0:
256,192,45082,1,8,0:0:0:0:
256,192,45440,1,0,0:0:0:0:
256,192,45798,1,8,0:0:0:0:
256,192,46156,1,8,0:0:0:0:
256,192,46514,1,0,0:0:0:0:
256,192,47231,5,0,0:0:0:0:
256,192,47589,1,8,0:0:0:0:
256,192,47768,1,0,0:0:0:0:
256,192,47947,1,8,0:0:0:0:
256,192,48305,1,0,0:0:0:0:
256,192,48664,1,8,0:0:0:0:
256,192,49022,1,0,0:0:0:0:
256,192,49380,1,0,0:0:0:0:
256,192,50097,5,4,0:0:0:0:
256,192,50455,1,8,0:0:0:0:
256,192,50634,1,0,0:0:0:0:
256,192,50814,1,8,0:0:0:0:
256,192,51172,1,0,0:0:0:0:
256,192,51530,1,8,0:0:0:0:
256,192,51888,1,8,0:0:0:0:
256,192,52246,1,0,0:0:0:0:
256,192,52962,5,0,0:0:0:0:
256,192,53320,1,8,0:0:0:0:
256,192,53679,1,0,0:0:0:0:
256,192,54037,1,8,0:0:0:0:
256,192,54395,1,0,0:0:0:0:
256,192,54753,1,8,0:0:0:0:
256,192,54932,1,8,0:0:0:0:
256,192,55111,1,0,0:0:0:0:
256,192,55828,1,12,0:0:0:0:
256,192,56544,1,8,0:0:0:0:
256,192,56902,1,0,0:0:0:0:
256,192,57082,1,0,0:0:0:0:
256,192,57261,1,8,0:0:0:0:
256,192,57619,1,8,0:0:0:0:
256,192,57977,1,8,0:0:0:0:
256,192,58694,1,8,0:0:0:0:
256,192,59410,1,8,0:0:0:0:
256,192,59768,1,0,0:0:0:0:
256,192,60126,1,8,0:0:0:0:
256,192,60485,1,8,0:0:0:0:
256,192,60664,1,8,0:0:0:0:
256,192,60843,1,0,0:0:0:0:
256,192,61559,1,8,0:0:0:0:
256,192,62276,1,8,0:0:0:0:
256,192,62634,1,0,0:0:0:0:
256,192,62813,1,0,0:0:0:0:
256,192,62992,1,8,0:0:0:0:
256,192,63350,1,8,0:0:0:0:
256,192,63708,1,8,0:0:0:0:
256,192,64425,5,8,0:0:0:0:
256,192,65141,1,0,0:0:0:0:
256,192,65499,1,8,0:0:0:0:
256,192,65858,1,8,0:0:0:0:
256,192,66216,1,0,0:0:0:0:
256,192,66574,1,0,0:0:0:0:
256,192,67291,1,4,0:0:0:0:
256,192,67649,1,8,0:0:0:0:
256,192,67828,1,0,0:0:0:0:
256,192,68007,1,8,0:0:0:0:
256,192,68365,1,0,0:0:0:0:
256,192,68723,1,8,0:0:0:0:
256,192,69082,1,8,0:0:0:0:
256,192,69440,1,0,0:0:0:0:
256,192,70156,1,0,0:0:0:0:
256,192,70514,1,8,0:0:0:0:
256,192,70694,1,0,0:0:0:0:
256,192,70873,1,8,0:0:0:0:
256,192,71231,1,0,0:0:0:0:
256,192,71589,1,8,0:0:0:0:
256,192,71947,1,0,0:0:0:0:
256,192,72305,1,0,0:0:0:0:
256,192,73022,1,0,0:0:0:0:
256,192,73380,1,8,0:0:0:0:
256,192,73559,1,0,0:0:0:0:
256,192,73738,1,8,0:0:0:0:
256,192,74097,1,0,0:0:0:0:
256,192,74455,1,8,0:0:0:0:
256,192,74813,1,8,0:0:0:0:
256,192,75171,1,0,0:0:0:0:
256,192,75888,1,0,0:0:0:0:
256,192,76246,1,8,0:0:0:0:
256,192,76604,1,0,0:0:0:0:
256,192,76962,1,8,0:0:0:0:
256,192,77320,1,0,0:0:0:0:
256,192,77679,1,8,0:0:0:0:
256,192,77858,1,8,0:0:0:0:
256,192,78037,1,0,0:0:0:0:
256,192,78753,5,4,0:0:0:0:
256,192,79111,1,8,0:0:0:0:
256,192,79470,1,8,0:0:0:0:
256,192,79828,1,0,0:0:0:0:
256,192,80007,1,0,0:0:0:0:
256,192,80186,1,8,0:0:0:0:
256,192,80544,1,8,0:0:0:0:
256,192,80902,1,8,0:0:0:0:
256,192,81619,1,0,0:0:0:0:
256,192,81977,1,8,0:0:0:0:
256,192,82335,1,8,0:0:0:0:
256,192,82694,1,0,0:0:0:0:
256,192,82873,1,0,0:0:0:0:
256,192,83052,1,8,0:0:0:0:
256,192,83410,1,8,0:0:0:0:
256,192,83768,1,0,0:0:0:0:
256,192,84485,1,4,0:0:0:0:
256,192,84843,1,8,0:0:0:0:
256,192,85201,1,8,0:0:0:0:
256,192,85559,1,0,0:0:0:0:
256,192,85738,1,0,0:0:0:0:
256,192,85917,1,8,0:0:0:0:
256,192,86276,1,8,0:0:0:0:
256,192,86634,1,8,0:0:0:0:
256,192,87350,1,0,0:0:0:0:
256,192,87708,1,8,0:0:0:0:
256,192,88067,1,8,0:0:0:0:
256,192,88425,1,8,0:0:0:0:
256,192,88604,1,8,0:0:0:0:
256,192,88783,1,0,0:0:0:0:
256,192,90216,1,4,0:0:0:0:
256,192,90574,1,8,0:0:0:0:
256,192,90932,1,8,0:0:0:0:
256,192,91291,1,0,0:0:0:0:
256,192,91470,1,8,0:0:0:0:
256,192,92007,1,0,0:0:0:0:
256,192,92365,1,8,0:0:0:0:
256,192,92723,1,8,0:0:0:0:
256,192,92902,1,8,0:0:0:0:
256,192,93082,1,0,0:0:0:0:
256,192,93440,1,8,0:0:0:0:
256,192,93798,1,8,0:0:0:0:
256,192,94156,1,0,0:0:0:0:
256,192,94335,1,8,0:0:0:0:
256,192,94873,1,0,0:0:0:0:
256,192,95231,1,8,0:0:0:0:
256,192,95947,1,0,0:0:0:0:
256,192,96305,1,8,0:0:0:0:
256,192,96664,1,8,0:0:0:0:
256,192,97022,1,0,0:0:0:0:
256,192,97201,1,8,0:0:0:0:
256,192,97738,1,0,0:0:0:0:
256,192,98097,1,8,0:0:0:0:
256,192,98455,1,8,0:0:0:0:
256,192,98634,1,8,0:0:0:0:
256,192,98813,1,0,0:0:0:0:
256,192,99171,1,8,0:0:0:0:
256,192,99529,1,8,0:0:0:0:
256,192,99888,1,0,0:0:0:0:
256,192,100067,1,8,0:0:0:0:
256,192,100604,1,0,0:0:0:0:
256,192,101679,1,0,0:0:0:0:
256,192,102216,1,0,0:0:0:0:
256,192,102753,1,0,0:0:0:0:
256,192,103111,1,0,0:0:0:0:
256,192,103291,1,0,0:0:0:0:
256,192,103649,1,0,0:0:0:0:
256,192,103828,1,0,0:0:0:0:
256,192,104544,1,0,0:0:0:0:
256,192,105082,1,0,0:0:0:0:
256,192,105619,1,0,0:0:0:0:
256,192,105977,1,0,0:0:0:0:
256,192,106156,1,0,0:0:0:0:
256,192,106514,1,0,0:0:0:0:
256,192,106694,1,0,0:0:0:0:
256,192,107410,1,0,0:0:0:0:
256,192,107947,1,0,0:0:0:0:
256,192,108485,1,0,0:0:0:0:
256,192,108843,1,0,0:0:0:0:
256,192,109022,1,0,0:0:0:0:
256,192,109380,1,0,0:0:0:0:
256,192,109559,1,0,0:0:0:0:
256,192,110276,1,0,0:0:0:0:
256,192,110813,1,0,0:0:0:0:
256,192,111350,1,0,0:0:0:0:
256,192,111708,1,0,0:0:0:0:
256,192,111888,1,0,0:0:0:0:
256,192,112246,1,0,0:0:0:0:
256,192,112425,1,0,0:0:0:0:
256,192,113141,1,8,0:0:0:0:
256,192,113679,1,8,0:0:0:0:
256,192,114216,1,8,0:0:0:0:
256,192,114574,1,8,0:0:0:0:
256,192,114753,1,8,0:0:0:0:
256,192,115111,1,8,0:0:0:0:
256,192,115291,1,8,0:0:0:0:
256,192,116007,1,8,0:0:0:0:
256,192,116544,1,8,0:0:0:0:
256,192,117082,1,8,0:0:0:0:
256,192,117440,1,8,0:0:0:0:
256,192,117619,1,8,0:0:0:0:
256,192,117977,1,8,0:0:0:0:
256,192,118156,1,8,0:0:0:0:
256,192,118873,1,0,0:0:0:0:
256,192,119410,1,0,0:0:0:0:
256,192,119947,1,0,0:0:0:0:
256,192,120305,1,0,0:0:0:0:
256,192,120843,1,0,0:0:0:0:
256,192,121738,1,8,0:0:0:0:
256,192,122276,1,8,0:0:0:0:
256,192,122813,1,8,0:0:0:0:
256,192,123171,1,8,0:0:0:0:
256,192,123708,1,8,0:0:0:0:
256,192,124246,1,8,0:0:0:0:
256,192,124604,1,4,0:0:0:0:
256,192,124694,12,0,128902,0:0:0:0:
256,192,130335,5,12,0:0:0:0:
256,192,131768,1,4,0:0:0:0:
256,192,133201,1,4,0:0:0:0:
256,192,133917,1,4,0:0:0:0:
256,192,134634,1,4,0:0:0:0:
256,192,135350,1,4,0:0:0:0:
256,192,136067,1,4,0:0:0:0:
256,192,136425,1,8,0:0:0:0:
256,192,136783,1,8,0:0:0:0:
256,192,137142,1,0,0:0:0:0:
256,192,137321,1,8,0:0:0:0:
256,192,137858,1,0,0:0:0:0:
256,192,138216,1,8,0:0:0:0:
256,192,138574,1,8,0:0:0:0:
256,192,138753,1,8,0:0:0:0:
256,192,138933,1,0,0:0:0:0:
256,192,139291,1,8,0:0:0:0:
256,192,139649,1,8,0:0:0:0:
256,192,140007,1,0,0:0:0:0:
256,192,140186,1,8,0:0:0:0:
256,192,140724,1,0,0:0:0:0:
256,192,141082,1,8,0:0:0:0:
256,192,141798,1,0,0:0:0:0:
256,192,142156,1,8,0:0:0:0:
256,192,142515,1,8,0:0:0:0:
256,192,142873,1,0,0:0:0:0:
256,192,143052,1,8,0:0:0:0:
256,192,143589,1,0,0:0:0:0:
256,192,143948,1,8,0:0:0:0:
256,192,144306,1,8,0:0:0:0:
256,192,144485,1,8,0:0:0:0:
256,192,144664,1,0,0:0:0:0:
256,192,145022,1,8,0:0:0:0:
256,192,145380,1,8,0:0:0:0:
256,192,145739,1,0,0:0:0:0:
256,192,145918,1,8,0:0:0:0:
256,192,146455,1,0,0:0:0:0:
256,192,146813,1,8,0:0:0:0:
256,192,147529,1,4,0:0:0:0:
256,192,147887,1,8,0:0:0:0:
256,192,148245,1,8,0:0:0:0:
256,192,148604,1,0,0:0:0:0:
256,192,148783,1,8,0:0:0:0:
256,192,149320,1,0,0:0:0:0:
256,192,149678,1,8,0:0:0:0:
256,192,150036,1,8,0:0:0:0:
256,192,150215,1,8,0:0:0:0:
256,192,150395,1,0,0:0:0:0:
256,192,150753,1,8,0:0:0:0:
256,192,151111,1,8,0:0:0:0:
256,192,151469,1,0,0:0:0:0:
256,192,151648,1,8,0:0:0:0:
256,192,152186,1,0,0:0:0:0:
256,192,152544,1,8,0:0:0:0:
256,192,153260,1,0,0:0:0:0:
256,192,153618,1,8,0:0:0:0:
256,192,153977,1,8,0:0:0:0:
256,192,154335,1,0,0:0:0:0:
256,192,154514,1,8,0:0:0:0:
256,192,155051,1,0,0:0:0:0:
256,192,155410,1,8,0:0:0:0:
256,192,155768,1,8,0:0:0:0:
256,192,155947,1,8,0:0:0:0:
256,192,156126,1,0,0:0:0:0:
256,192,156484,1,8,0:0:0:0:
256,192,156842,1,8,0:0:0:0:
256,192,157201,1,0,0:0:0:0:
256,192,157380,1,8,0:0:0:0:
256,192,157917,1,0,0:0:0:0:
256,192,158276,1,8,0:0:0:0:
256,192,158634,1,8,0:0:0:0:
256,192,158992,1,4,0:0:0:0:
