osu file format v14

[General]
AudioFilename: speedcore.mp3
AudioLeadIn: 0
PreviewTime: 136067
Countdown: 0
SampleSet: Normal
StackLeniency: 0.7
Mode: 1
LetterboxInBreaks: 0
WidescreenStoryboard: 0

[Editor]
DistanceSpacing: 1.1
BeatDivisor: 8
GridSize: 32
TimelineZoom: 3

[Metadata]
Title:Comfort BLAST
TitleUnicode:Comfort BLAST
Artist:Filthy
ArtistUnicode:Filthy
Creator:Nishizumi
Version:BOOM
Source:
Tags:THE PSYCHO BLAST Vol.1 DJ Myosuke speedcore
BeatmapID:962495
BeatmapSetID:448463

[Difficulty]
HPDrainRate:4
CircleSize:5
OverallDifficulty:10
ApproachRate:5
SliderMultiplier:1.4
SliderTickRate:1

[Events]
//Background and Video events
0,0,"b.jpg",0,0
//Break Periods
//Storyboard Layer 0 (Background)
//Storyboard Layer 1 (Fail)
//Storyboard Layer 2 (Pass)
//Storyboard Layer 3 (Foreground)
//Storyboard Sound Samples

[TimingPoints]
260,416.666666666667,4,1,0,80,1,0
260,-95.2380952380952,4,1,0,80,0,0
2760,405.405405405405,4,1,0,80,1,8
2760,-98.0392156862745,4,1,0,80,0,8
3570,405.405405405405,4,1,0,80,1,0
3570,-98.0392156862745,4,1,0,80,0,0
6002,375,4,1,0,80,1,8
6002,-104.166666666667,4,1,0,80,0,8
6752,400,4,1,0,80,1,0
9152,405.405405405405,4,1,0,80,1,8
9152,-98.0392156862745,4,1,0,80,0,8
9962,408.163265306122,4,1,0,80,1,0
9962,-97.0873786407767,4,1,0,80,0,0
12410,312.174817898023,4,1,0,80,1,8
12410,-128.205128205128,4,1,0,80,0,8
13034,400,4,1,0,90,1,0
13034,-100,4,1,0,90,0,0
38634,358.315915198567,4,1,0,90,1,0
38634,-111.111111111111,4,1,0,90,0,0
38813,-111.111111111111,4,1,0,80,0,0
41500,179.10447761194,4,1,0,100,1,0
90216,-100,4,1,0,100,0,1
101679,-100,4,1,0,100,0,0
118514,-117.647058823529,4,1,0,100,0,0
118873,-142.857142857143,4,1,0,100,0,0
124694,-142.857142857143,4,1,0,95,0,0
126037,-142.857142857143,4,1,0,90,0,0
127470,-142.857142857143,4,1,0,85,0,0
128902,-142.857142857143,4,1,0,80,0,0
130156,-140.845070422535,4,1,0,100,0,0
130201,-138.888888888889,4,1,0,100,0,0
130246,-136.986301369863,4,1,0,100,0,0
130291,-135.135135135135,4,1,0,100,0,0
130335,-133.333333333333,4,1,0,100,0,0
131768,-125,4,1,0,100,0,0
133201,-117.647058823529,4,1,0,100,0,0
133917,-111.111111111111,4,1,0,100,0,0
134634,-105.263157894737,4,1,0,100,0,0
134992,-100,4,1,0,100,0,0
136067,-100,4,1,0,100,0,1
158992,-100,4,1,0,100,0,0

[HitObjects]
256,192,260,5,0,0:0:0:0:
256,192,2760,1,0,0:0:0:0:
256,192,3570,1,8,0:0:0:0:
256,192,6002,1,8,0:0:0:0:
256,192,6752,1,0,0:0:0:0:
256,192,9152,1,0,0:0:0:0:
256,192,9962,1,8,0:0:0:0:
256,192,12410,1,8,0:0:0:0:
256,192,13034,1,4,0:0:0:0:
256,192,13434,1,0,0:0:0:0:
256,192,13834,1,8,0:0:0:0:
256,192,14034,1,8,0:0:0:0:
256,192,14234,1,0,0:0:0:0:
256,192,14434,1,0,0:0:0:0:
256,192,14634,1,8,0:0:0:0:
256,192,15434,1,4,0:0:0:0:
256,192,16234,1,4,0:0:0:0:
256,192,16634,1,0,0:0:0:0:
256,192,16834,1,0,0:0:0:0:
256,192,17034,1,8,0:0:0:0:
256,192,17234,1,8,0:0:0:0:
256,192,17434,1,0,0:0:0:0:
256,192,17634,1,0,0:0:0:0:
256,192,17834,1,8,0:0:0:0:
256,192,18634,1,4,0:0:0:0:
256,192,19434,1,4,0:0:0:0:
256,192,19834,1,0,0:0:0:0:
256,192,20234,1,8,0:0:0:0:
256,192,20434,1,8,0:0:0:0:
256,192,20634,1,0,0:0:0:0:
256,192,20834,1,0,0:0:0:0:
256,192,21034,1,8,0:0:0:0:
256,192,21834,1,4,0:0:0:0:
256,192,22634,1,4,0:0:0:0:
256,192,23034,1,0,0:0:0:0:
256,192,23234,1,0,0:0:0:0:
256,192,23434,1,8,0:0:0:0:
256,192,23634,1,8,0:0:0:0:
256,192,23834,1,0,0:0:0:0:
256,192,24034,1,0,0:0:0:0:
256,192,24234,1,8,0:0:0:0:
256,192,25034,1,4,0:0:0:0:
256,192,25834,1,4,0:0:0:0:
256,192,26234,1,0,0:0:0:0:
256,192,26434,1,0,0:0:0:0:
256,192,26634,1,8,0:0:0:0:
256,192,26834,1,8,0:0:0:0:
256,192,27034,1,0,0:0:0:0:
256,192,27234,1,0,0:0:0:0:
256,192,27434,1,8,0:0:0:0:
256,192,27634,1,0,0:0:0:0:
256,192,27834,1,8,0:0:0:0:
256,192,28034,1,8,0:0:0:0:
256,192,28234,1,4,0:0:0:0:
256,192,28434,1,8,0:0:0:0:
256,192,28634,1,8,0:0:0:0:
256,192,28834,1,8,0:0:0:0:
256,192,29034,1,4,0:0:0:0:
256,192,29434,1,0,0:0:0:0:
256,192,29634,1,0,0:0:0:0:
256,192,29834,1,8,0:0:0:0:
256,192,30034,1,8,0:0:0:0:
256,192,30234,1,0,0:0:0:0:
256,192,30434,1,0,0:0:0:0:
256,192,30634,1,8,0:0:0:0:
256,192,30834,1,8,0:0:0:0:
256,192,31034,1,0,0:0:0:0:
256,192,31234,1,8,0:0:0:0:
256,192,31434,1,4,0:0:0:0:
256,192,31634,1,8,0:0:0:0:
256,192,31834,1,8,0:0:0:0:
256,192,32034,1,8,0:0:0:0:
256,192,32234,1,4,0:0:0:0:
256,192,32634,1,0,0:0:0:0:
256,192,32834,1,0,0:0:0:0:
256,192,33034,1,8,0:0:0:0:
256,192,33234,1,8,0:0:0:0:
256,192,33434,1,0,0:0:0:0:
256,192,33634,1,0,0:0:0:0:
256,192,33834,1,8,0:0:0:0:
256,192,34034,1,0,0:0:0:0:
256,192,34234,1,8,0:0:0:0:
256,192,34434,1,8,0:0:0:0:
256,192,34634,1,4,0:0:0:0:
256,192,34834,1,8,0:0:0:0:
256,192,35034,1,8,0:0:0:0:
256,192,35234,1,8,0:0:0:0:
256,192,35434,1,4,0:0:0:0:
256,192,35634,1,8,0:0:0:0:
256,192,35834,1,0,0:0:0:0:
256,192,36034,1,0,0:0:0:0:
256,192,36234,1,8,0:0:0:0:
256,192,36434,1,8,0:0:0:0:
256,192,36634,1,0,0:0:0:0:
256,192,36834,1,0,0:0:0:0:
256,192,37034,1,12,0:0:0:0:
256,192,37834,1,4,0:0:0:0:
256,192,38634,1,4,0:0:0:0:
256,192,38813,12,0,41142,0:0:0:0:
256,192,41500,5,8,0:0:0:0:
256,192,41589,1,0,0:0:0:0:
256,192,41634,1,0,0:0:0:0:
256,192,41679,1,8,0:0:0:0:
256,192,41768,1,0,0:0:0:0:
256,192,41947,1,0,0:0:0:0:
256,192,42037,1,8,0:0:0:0:
256,192,42082,1,8,0:0:0:0:
256,192,42126,1,0,0:0:0:0:
256,192,42216,1,8,0:0:0:0:
256,192,42305,1,0,0:0:0:0:
256,192,42485,1,0,0:0:0:0:
256,192,42529,1,0,0:0:0:0:
256,192,42574,1,8,0:0:0:0:
256,192,42753,1,8,0:0:0:0:
256,192,42798,1,8,0:0:0:0:
256,192,42843,1,8,0:0:0:0:
256,192,42888,1,8,0:0:0:0:
256,192,42932,1,0,0:0:0:0:
256,192,43111,1,0,0:0:0:0:
256,192,43156,1,0,0:0:0:0:
256,192,43201,1,0,0:0:0:0:
256,192,43246,1,0,0:0:0:0:
256,192,43291,1,8,0:0:0:0:
256,192,43335,1,8,0:0:0:0:
256,192,43380,1,8,0:0:0:0:
256,192,43425,1,8,0:0:0:0:
256,192,43470,1,0,0:0:0:0:
256,192,43514,1,0,0:0:0:0:
256,192,43559,1,0,0:0:0:0:
256,192,43604,1,0,0:0:0:0:
256,192,43649,1,8,0:0:0:0:
256,192,44365,1,4,0:0:0:0:
256,192,44455,1,0,0:0:0:0:
256,192,44499,1,0,0:0:0:0:
256,192,44544,1,8,0:0:0:0:
256,192,44634,1,0,0:0:0:0:
256,192,44723,1,8,0:0:0:0:
256,192,44768,1,8,0:0:0:0:
256,192,44813,1,0,0:0:0:0:
256,192,44902,1,8,0:0:0:0:
256,192,44992,1,0,0:0:0:0:
256,192,45082,1,8,0:0:0:0:
256,192,45171,1,0,0:0:0:0:
256,192,45216,1,0,0:0:0:0:
256,192,45261,1,8,0:0:0:0:
256,192,45350,1,0,0:0:0:0:
256,192,45440,1,8,0:0:0:0:
256,192,45529,1,0,0:0:0:0:
256,192,45619,1,8,0:0:0:0:
256,192,45664,1,0,0:0:0:0:
256,192,45708,1,0,0:0:0:0:
256,192,45798,1,8,0:0:0:0:
256,192,45888,1,0,0:0:0:0:
256,192,45932,1,0,0:0:0:0:
256,192,45977,1,8,0:0:0:0:
256,192,46067,1,0,0:0:0:0:
256,192,46156,1,8,0:0:0:0:
256,192,46201,1,8,0:0:0:0:
256,192,46246,1,0,0:0:0:0:
256,192,46335,1,8,0:0:0:0:
256,192,46425,1,8,0:0:0:0:
256,192,46514,1,0,0:0:0:0:
256,192,46604,1,0,0:0:0:0:
256,192,46694,1,12,0:0:0:0:
256,192,46783,1,0,0:0:0:0:
256,192,46873,1,12,0:0:0:0:
256,192,46962,1,0,0:0:0:0:
256,192,47052,1,12,0:0:0:0:
256,192,47141,1,8,0:0:0:0:
256,192,47231,1,4,0:0:0:0:
256,192,47320,1,0,0:0:0:0:
256,192,47410,1,8,0:0:0:0:
256,192,47499,1,0,0:0:0:0:
256,192,47544,1,0,0:0:0:0:
256,192,47589,1,8,0:0:0:0:
256,192,47679,1,0,0:0:0:0:
256,192,47768,1,8,0:0:0:0:
256,192,47813,1,8,0:0:0:0:
256,192,47858,1,0,0:0:0:0:
256,192,47947,1,8,0:0:0:0:
256,192,48037,1,0,0:0:0:0:
256,192,48126,1,8,0:0:0:0:
256,192,48216,1,0,0:0:0:0:
256,192,48261,1,0,0:0:0:0:
256,192,48305,1,8,0:0:0:0:
256,192,48395,1,0,0:0:0:0:
256,192,48485,1,8,0:0:0:0:
256,192,48574,1,0,0:0:0:0:
256,192,48664,1,8,0:0:0:0:
256,192,48708,1,0,0:0:0:0:
256,192,48753,1,0,0:0:0:0:
256,192,48843,1,8,0:0:0:0:
256,192,48932,1,0,0:0:0:0:
256,192,49022,1,8,0:0:0:0:
256,192,49111,1,0,0:0:0:0:
256,192,49201,1,8,0:0:0:0:
256,192,49291,1,8,0:0:0:0:
256,192,49380,1,0,0:0:0:0:
256,192,49440,1,0,0:0:0:0:
256,192,49499,1,0,0:0:0:0:
256,192,49559,1,0,0:0:0:0:
256,192,49619,1,0,0:0:0:0:
256,192,49679,1,0,0:0:0:0:
256,192,49738,1,8,0:0:0:0:
256,192,49798,1,8,0:0:0:0:
256,192,49858,1,8,0:0:0:0:
256,192,49917,1,8,0:0:0:0:
256,192,49977,1,8,0:0:0:0:
256,192,50037,1,8,0:0:0:0:
256,192,50097,1,0,0:0:0:0:
256,192,50186,1,0,0:0:0:0:
256,192,50276,1,8,0:0:0:0:
256,192,50365,1,0,0:0:0:0:
256,192,50410,1,0,0:0:0:0:
256,192,50455,1,8,0:0:0:0:
256,192,50544,1,8,0:0:0:0:
256,192,50634,1,0,0:0:0:0:
256,192,50679,1,0,0:0:0:0:
256,192,50723,1,0,0:0:0:0:
256,192,50813,1,8,0:0:0:0:
256,192,50902,1,0,0:0:0:0:
256,192,50992,1,8,0:0:0:0:
256,192,51082,1,0,0:0:0:0:
256,192,51171,1,8,0:0:0:0:
256,192,51216,1,8,0:0:0:0:
256,192,51261,1,8,0:0:0:0:
256,192,51350,1,8,0:0:0:0:
256,192,51440,1,8,0:0:0:0:
256,192,51529,1,4,0:0:0:0:
256,192,51619,1,0,0:0:0:0:
256,192,51664,1,0,0:0:0:0:
256,192,51708,1,8,0:0:0:0:
256,192,51798,1,0,0:0:0:0:
256,192,51888,1,8,0:0:0:0:
256,192,51932,1,8,0:0:0:0:
256,192,51977,1,0,0:0:0:0:
256,192,52022,1,0,0:0:0:0:
256,192,52067,1,8,0:0:0:0:
256,192,52156,1,8,0:0:0:0:
256,192,52246,1,4,0:0:0:0:
256,192,52425,1,0,0:0:0:0:
256,192,52514,1,0,0:0:0:0:
256,192,52604,1,8,0:0:0:0:
256,192,52694,1,0,0:0:0:0:
256,192,52783,1,0,0:0:0:0:
256,192,52873,1,0,0:0:0:0:
256,192,52962,1,8,0:0:0:0:
256,192,53052,1,0,0:0:0:0:
256,192,53097,1,0,0:0:0:0:
256,192,53141,1,8,0:0:0:0:
256,192,53231,1,0,0:0:0:0:
256,192,53320,1,8,0:0:0:0:
256,192,53410,1,0,0:0:0:0:
256,192,53499,1,8,0:0:0:0:
256,192,53544,1,8,0:0:0:0:
256,192,53589,1,8,0:0:0:0:
256,192,53634,1,8,0:0:0:0:
256,192,53679,1,0,0:0:0:0:
256,192,53768,1,0,0:0:0:0:
256,192,53858,1,8,0:0:0:0:
256,192,53947,1,0,0:0:0:0:
256,192,54037,1,8,0:0:0:0:
256,192,54082,1,8,0:0:0:0:
256,192,54126,1,0,0:0:0:0:
256,192,54171,1,0,0:0:0:0:
256,192,54216,1,0,0:0:0:0:
256,192,54305,1,0,0:0:0:0:
256,192,54395,1,8,0:0:0:0:
256,192,54485,1,0,0:0:0:0:
256,192,54529,1,0,0:0:0:0:
256,192,54574,1,0,0:0:0:0:
256,192,54664,1,0,0:0:0:0:
256,192,54753,1,8,0:0:0:0:
256,192,54798,1,8,0:0:0:0:
256,192,54843,1,0,0:0:0:0:
256,192,54888,1,0,0:0:0:0:
256,192,54932,1,8,0:0:0:0:
256,192,55022,1,8,0:0:0:0:
256,192,55111,1,4,0:0:0:0:
256,192,55828,1,8,0:0:0:0:
256,192,55873,1,8,0:0:0:0:
256,192,55917,1,0,0:0:0:0:
256,192,56007,1,0,0:0:0:0:
256,192,56097,1,0,0:0:0:0:
256,192,56141,1,0,0:0:0:0:
256,192,56186,1,8,0:0:0:0:
256,192,56276,1,0,0:0:0:0:
256,192,56365,1,8,0:0:0:0:
256,192,56455,1,0,0:0:0:0:
256,192,56499,1,0,0:0:0:0:
256,192,56544,1,8,0:0:0:0:
256,192,56589,1,8,0:0:0:0:
256,192,56634,1,0,0:0:0:0:
256,192,56723,1,0,0:0:0:0:
256,192,56813,1,8,0:0:0:0:
256,192,56858,1,8,0:0:0:0:
256,192,56902,1,0,0:0:0:0:
256,192,56992,1,8,0:0:0:0:
256,192,57037,1,8,0:0:0:0:
256,192,57082,1,0,0:0:0:0:
256,192,57171,1,8,0:0:0:0:
256,192,57216,1,8,0:0:0:0:
256,192,57261,1,8,0:0:0:0:
256,192,57305,1,0,0:0:0:0:
256,192,57350,1,0,0:0:0:0:
256,192,57440,1,0,0:0:0:0:
256,192,57529,1,8,0:0:0:0:
256,192,57619,1,0,0:0:0:0:
256,192,57708,1,0,0:0:0:0:
256,192,57798,1,8,0:0:0:0:
256,192,57888,1,0,0:0:0:0:
256,192,57932,1,8,0:0:0:0:
256,192,57977,1,8,0:0:0:0:
256,192,58022,1,8,0:0:0:0:
256,192,58067,1,0,0:0:0:0:
256,192,58156,1,0,0:0:0:0:
256,192,58246,1,8,0:0:0:0:
256,192,58291,1,8,0:0:0:0:
256,192,58335,1,0,0:0:0:0:
256,192,58425,1,0,0:0:0:0:
256,192,58470,1,0,0:0:0:0:
256,192,58514,1,8,0:0:0:0:
256,192,58559,1,8,0:0:0:0:
256,192,58604,1,0,0:0:0:0:
256,192,58694,1,0,0:0:0:0:
256,192,58738,1,0,0:0:0:0:
256,192,58783,1,0,0:0:0:0:
256,192,58873,1,0,0:0:0:0:
256,192,58962,1,8,0:0:0:0:
256,192,59007,1,8,0:0:0:0:
256,192,59052,1,0,0:0:0:0:
256,192,59141,1,0,0:0:0:0:
256,192,59231,1,8,0:0:0:0:
256,192,59320,1,0,0:0:0:0:
256,192,59365,1,0,0:0:0:0:
256,192,59410,1,8,0:0:0:0:
256,192,59455,1,8,0:0:0:0:
256,192,59499,1,0,0:0:0:0:
256,192,59589,1,0,0:0:0:0:
256,192,59679,1,0,0:0:0:0:
256,192,59723,1,8,0:0:0:0:
256,192,59768,1,8,0:0:0:0:
256,192,59858,1,0,0:0:0:0:
256,192,59902,1,8,0:0:0:0:
256,192,59947,1,8,0:0:0:0:
256,192,60037,1,8,0:0:0:0:
256,192,60082,1,8,0:0:0:0:
256,192,60126,1,8,0:0:0:0:
256,192,60171,1,8,0:0:0:0:
256,192,60216,1,0,0:0:0:0:
256,192,60305,1,8,0:0:0:0:
256,192,60395,1,0,0:0:0:0:
256,192,60485,1,8,0:0:0:0:
256,192,60529,1,8,0:0:0:0:
256,192,60574,1,0,0:0:0:0:
256,192,60664,1,0,0:0:0:0:
256,192,60708,1,0,0:0:0:0:
256,192,60753,1,8,0:0:0:0:
256,192,60843,1,4,0:0:0:0:
256,192,61201,1,8,0:0:0:0:
256,192,61246,1,8,0:0:0:0:
256,192,61291,1,8,0:0:0:0:
256,192,61335,1,8,0:0:0:0:
256,192,61380,1,8,0:0:0:0:
256,192,61425,1,8,0:0:0:0:
256,192,61470,1,8,0:0:0:0:
256,192,61514,1,8,0:0:0:0:
256,192,61559,1,0,0:0:0:0:
256,192,61649,1,0,0:0:0:0:
256,192,61738,1,8,0:0:0:0:
256,192,61828,1,8,0:0:0:0:
256,192,61917,1,0,0:0:0:0:
256,192,61962,1,0,0:0:0:0:
256,192,62007,1,0,0:0:0:0:
256,192,62097,1,8,0:0:0:0:
256,192,62186,1,0,0:0:0:0:
256,192,62231,1,0,0:0:0:0:
256,192,62276,1,8,0:0:0:0:
256,192,62320,1,8,0:0:0:0:
256,192,62365,1,0,0:0:0:0:
256,192,62455,1,8,0:0:0:0:
256,192,62544,1,0,0:0:0:0:
256,192,62589,1,8,0:0:0:0:
256,192,62634,1,8,0:0:0:0:
256,192,62723,1,0,0:0:0:0:
256,192,62768,1,8,0:0:0:0:
256,192,62813,1,8,0:0:0:0:
256,192,62902,1,8,0:0:0:0:
256,192,62947,1,8,0:0:0:0:
256,192,62992,1,0,0:0:0:0:
256,192,63037,1,0,0:0:0:0:
256,192,63082,1,0,0:0:0:0:
256,192,63171,1,8,0:0:0:0:
256,192,63261,1,8,0:0:0:0:
256,192,63350,1,0,0:0:0:0:
256,192,63440,1,0,0:0:0:0:
256,192,63529,1,8,0:0:0:0:
256,192,63619,1,0,0:0:0:0:
256,192,63664,1,0,0:0:0:0:
256,192,63708,1,8,0:0:0:0:
256,192,63753,1,8,0:0:0:0:
256,192,63798,1,0,0:0:0:0:
256,192,63888,1,0,0:0:0:0:
256,192,63977,1,8,0:0:0:0:
256,192,64067,1,0,0:0:0:0:
256,192,64111,1,0,0:0:0:0:
256,192,64156,1,0,0:0:0:0:
256,192,64201,1,0,0:0:0:0:
256,192,64246,1,8,0:0:0:0:
256,192,64291,1,8,0:0:0:0:
256,192,64335,1,8,0:0:0:0:
256,192,64380,1,8,0:0:0:0:
256,192,64425,1,0,0:0:0:0:
256,192,64514,1,0,0:0:0:0:
256,192,64604,1,8,0:0:0:0:
256,192,64694,1,0,0:0:0:0:
256,192,64783,1,0,0:0:0:0:
256,192,64873,1,0,0:0:0:0:
256,192,64962,1,8,0:0:0:0:
256,192,65007,1,0,0:0:0:0:
256,192,65052,1,8,0:0:0:0:
256,192,65097,1,8,0:0:0:0:
256,192,65141,1,0,0:0:0:0:
256,192,65231,1,0,0:0:0:0:
256,192,65320,1,8,0:0:0:0:
256,192,65410,1,0,0:0:0:0:
256,192,65499,1,8,0:0:0:0:
256,192,65544,1,8,0:0:0:0:
256,192,65589,1,8,0:0:0:0:
256,192,65634,1,8,0:0:0:0:
256,192,65679,1,0,0:0:0:0:
256,192,65723,1,0,0:0:0:0:
256,192,65768,1,0,0:0:0:0:
256,192,65813,1,0,0:0:0:0:
256,192,65858,1,8,0:0:0:0:
256,192,65902,1,8,0:0:0:0:
256,192,65947,1,8,0:0:0:0:
256,192,65992,1,8,0:0:0:0:
256,192,66037,1,0,0:0:0:0:
256,192,66126,1,0,0:0:0:0:
256,192,66216,1,8,0:0:0:0:
256,192,66305,1,0,0:0:0:0:
256,192,66395,1,8,0:0:0:0:
256,192,66485,1,8,0:0:0:0:
256,192,66574,1,0,0:0:0:0:
256,192,66619,1,0,0:0:0:0:
256,192,66664,1,0,0:0:0:0:
256,192,66708,1,0,0:0:0:0:
256,192,66753,1,0,0:0:0:0:
256,192,66798,1,0,0:0:0:0:
256,192,66843,1,0,0:0:0:0:
256,192,66888,1,0,0:0:0:0:
256,192,66932,1,8,0:0:0:0:
256,192,66977,1,8,0:0:0:0:
256,192,67022,1,8,0:0:0:0:
256,192,67067,1,8,0:0:0:0:
256,192,67111,1,8,0:0:0:0:
256,192,67156,1,8,0:0:0:0:
256,192,67201,1,8,0:0:0:0:
256,192,67246,1,8,0:0:0:0:
256,192,67291,1,0,0:0:0:0:
256,192,67380,1,0,0:0:0:0:
256,192,67424,1,0,0:0:0:0:
256,192,67469,1,8,0:0:0:0:
256,192,67559,1,0,0:0:0:0:
256,192,67648,1,8,0:0:0:0:
256,192,67738,1,0,0:0:0:0:
256,192,67827,1,8,0:0:0:0:
256,192,67872,1,8,0:0:0:0:
256,192,67917,1,0,0:0:0:0:
256,192,67962,1,0,0:0:0:0:
256,192,68007,1,8,0:0:0:0:
256,192,68096,1,0,0:0:0:0:
256,192,68141,1,0,0:0:0:0:
256,192,68186,1,8,0:0:0:0:
256,192,68275,1,0,0:0:0:0:
256,192,68365,1,8,0:0:0:0:
256,192,68454,1,0,0:0:0:0:
256,192,68499,1,0,0:0:0:0:
256,192,68544,1,0,0:0:0:0:
256,192,68589,1,0,0:0:0:0:
256,192,68633,1,0,0:0:0:0:
256,192,68723,1,8,0:0:0:0:
256,192,68813,1,0,0:0:0:0:
256,192,68857,1,0,0:0:0:0:
256,192,68902,1,8,0:0:0:0:
256,192,68992,1,0,0:0:0:0:
256,192,69081,1,8,0:0:0:0:
256,192,69126,1,8,0:0:0:0:
256,192,69171,1,0,0:0:0:0:
256,192,69260,1,8,0:0:0:0:
256,192,69350,1,0,0:0:0:0:
256,192,69439,1,0,0:0:0:0:
256,192,69529,1,0,0:0:0:0:
256,192,69619,1,12,0:0:0:0:
256,192,69708,1,0,0:0:0:0:
256,192,69798,1,12,0:0:0:0:
256,192,69887,1,0,0:0:0:0:
256,192,69977,1,12,0:0:0:0:
256,192,70066,1,8,0:0:0:0:
256,192,70156,1,4,0:0:0:0:
256,192,70245,1,0,0:0:0:0:
256,192,70335,1,8,0:0:0:0:
256,192,70424,1,0,0:0:0:0:
256,192,70469,1,0,0:0:0:0:
256,192,70514,1,8,0:0:0:0:
256,192,70604,1,0,0:0:0:0:
256,192,70648,1,0,0:0:0:0:
256,192,70693,1,8,0:0:0:0:
256,192,70738,1,8,0:0:0:0:
256,192,70783,1,0,0:0:0:0:
256,192,70872,1,8,0:0:0:0:
256,192,70962,1,0,0:0:0:0:
256,192,71007,1,0,0:0:0:0:
256,192,71051,1,8,0:0:0:0:
256,192,71141,1,0,0:0:0:0:
256,192,71230,1,8,0:0:0:0:
256,192,71320,1,0,0:0:0:0:
256,192,71365,1,0,0:0:0:0:
256,192,71410,1,8,0:0:0:0:
256,192,71499,1,0,0:0:0:0:
256,192,71589,1,8,0:0:0:0:
256,192,71634,1,8,0:0:0:0:
256,192,71678,1,0,0:0:0:0:
256,192,71723,1,0,0:0:0:0:
256,192,71768,1,8,0:0:0:0:
256,192,71857,1,8,0:0:0:0:
256,192,71947,1,0,0:0:0:0:
256,192,72037,1,0,0:0:0:0:
256,192,72126,1,8,0:0:0:0:
256,192,72216,1,8,0:0:0:0:
256,192,72305,1,0,0:0:0:0:
256,192,72365,1,0,0:0:0:0:
256,192,72424,1,0,0:0:0:0:
256,192,72484,1,0,0:0:0:0:
256,192,72544,1,0,0:0:0:0:
256,192,72604,1,0,0:0:0:0:
256,192,72663,1,8,0:0:0:0:
256,192,72723,1,8,0:0:0:0:
256,192,72783,1,8,0:0:0:0:
256,192,72842,1,8,0:0:0:0:
256,192,72902,1,8,0:0:0:0:
256,192,72962,1,8,0:0:0:0:
256,192,73022,1,0,0:0:0:0:
256,192,73111,1,0,0:0:0:0:
256,192,73201,1,8,0:0:0:0:
256,192,73290,1,0,0:0:0:0:
256,192,73335,1,0,0:0:0:0:
256,192,73380,1,8,0:0:0:0:
256,192,73469,1,8,0:0:0:0:
256,192,73559,1,0,0:0:0:0:
256,192,73604,1,0,0:0:0:0:
256,192,73648,1,0,0:0:0:0:
256,192,73694,1,0,0:0:0:0:
256,192,73738,1,8,0:0:0:0:
256,192,73827,1,0,0:0:0:0:
256,192,73917,1,8,0:0:0:0:
256,192,74007,1,0,0:0:0:0:
256,192,74096,1,8,0:0:0:0:
256,192,74141,1,8,0:0:0:0:
256,192,74186,1,8,0:0:0:0:
256,192,74231,1,8,0:0:0:0:
256,192,74275,1,8,0:0:0:0:
256,192,74365,1,8,0:0:0:0:
256,192,74454,1,4,0:0:0:0:
256,192,74544,1,0,0:0:0:0:
256,192,74589,1,0,0:0:0:0:
256,192,74633,1,8,0:0:0:0:
256,192,74723,1,0,0:0:0:0:
256,192,74813,1,8,0:0:0:0:
256,192,74857,1,8,0:0:0:0:
256,192,74902,1,0,0:0:0:0:
256,192,74947,1,0,0:0:0:0:
256,192,74992,1,8,0:0:0:0:
256,192,75081,1,8,0:0:0:0:
256,192,75171,1,4,0:0:0:0:
256,192,75350,1,0,0:0:0:0:
256,192,75439,1,0,0:0:0:0:
256,192,75529,1,8,0:0:0:0:
256,192,75619,1,0,0:0:0:0:
256,192,75664,1,0,0:0:0:0:
256,192,75708,1,0,0:0:0:0:
256,192,75798,1,0,0:0:0:0:
256,192,75887,1,8,0:0:0:0:
256,192,75977,1,0,0:0:0:0:
256,192,76022,1,0,0:0:0:0:
256,192,76066,1,8,0:0:0:0:
256,192,76156,1,0,0:0:0:0:
256,192,76245,1,8,0:0:0:0:
256,192,76335,1,0,0:0:0:0:
256,192,76424,1,8,0:0:0:0:
256,192,76469,1,8,0:0:0:0:
256,192,76514,1,8,0:0:0:0:
256,192,76559,1,8,0:0:0:0:
256,192,76604,1,0,0:0:0:0:
256,192,76693,1,0,0:0:0:0:
256,192,76783,1,8,0:0:0:0:
256,192,76872,1,0,0:0:0:0:
256,192,76962,1,8,0:0:0:0:
256,192,77007,1,8,0:0:0:0:
256,192,77051,1,0,0:0:0:0:
256,192,77096,1,0,0:0:0:0:
256,192,77141,1,0,0:0:0:0:
256,192,77230,1,0,0:0:0:0:
256,192,77320,1,8,0:0:0:0:
256,192,77410,1,0,0:0:0:0:
256,192,77454,1,0,0:0:0:0:
256,192,77499,1,0,0:0:0:0:
256,192,77589,1,0,0:0:0:0:
256,192,77678,1,8,0:0:0:0:
256,192,77723,1,8,0:0:0:0:
256,192,77768,1,0,0:0:0:0:
256,192,77813,1,0,0:0:0:0:
256,192,77857,1,8,0:0:0:0:
256,192,77947,1,8,0:0:0:0:
256,192,78036,1,4,0:0:0:0:
256,192,78753,1,4,0:0:0:0:
256,192,78843,1,0,0:0:0:0:
256,192,78888,1,0,0:0:0:0:
256,192,78932,1,8,0:0:0:0:
256,192,79022,1,8,0:0:0:0:
256,192,79067,1,8,0:0:0:0:
256,192,79111,1,0,0:0:0:0:
256,192,79201,1,0,0:0:0:0:
256,192,79246,1,0,0:0:0:0:
256,192,79291,1,8,0:0:0:0:
256,192,79380,1,8,0:0:0:0:
256,192,79425,1,8,0:0:0:0:
256,192,79470,1,0,0:0:0:0:
256,192,79514,1,0,0:0:0:0:
256,192,79559,1,8,0:0:0:0:
256,192,79649,1,8,0:0:0:0:
256,192,79694,1,8,0:0:0:0:
256,192,79738,1,8,0:0:0:0:
256,192,79783,1,8,0:0:0:0:
256,192,79828,1,0,0:0:0:0:
256,192,79917,1,0,0:0:0:0:
256,192,79962,1,0,0:0:0:0:
256,192,80007,1,8,0:0:0:0:
256,192,80097,1,8,0:0:0:0:
256,192,80141,1,8,0:0:0:0:
256,192,80186,1,8,0:0:0:0:
256,192,80231,1,8,0:0:0:0:
256,192,80276,1,0,0:0:0:0:
256,192,80365,1,0,0:0:0:0:
256,192,80455,1,8,0:0:0:0:
256,192,80499,1,8,0:0:0:0:
256,192,80544,1,0,0:0:0:0:
256,192,80589,1,0,0:0:0:0:
256,192,80634,1,8,0:0:0:0:
256,192,80723,1,0,0:0:0:0:
256,192,80768,1,0,0:0:0:0:
256,192,80813,1,8,0:0:0:0:
256,192,80858,1,8,0:0:0:0:
256,192,80902,1,0,0:0:0:0:
256,192,80947,1,0,0:0:0:0:
256,192,80992,1,8,0:0:0:0:
256,192,81037,1,0,0:0:0:0:
256,192,81082,1,8,0:0:0:0:
256,192,81126,1,8,0:0:0:0:
256,192,81171,1,0,0:0:0:0:
256,192,81261,1,8,0:0:0:0:
256,192,81305,1,8,0:0:0:0:
256,192,81350,1,0,0:0:0:0:
256,192,81440,1,8,0:0:0:0:
256,192,81485,1,0,0:0:0:0:
256,192,81529,1,8,0:0:0:0:
256,192,81619,1,0,0:0:0:0:
256,192,81708,1,0,0:0:0:0:
256,160,81798,1,8,0:0:0:0:
256,192,81888,1,0,0:0:0:0:
256,192,81932,1,0,0:0:0:0:
256,192,81977,1,0,0:0:0:0:
256,192,82067,1,8,0:0:0:0:
256,192,82111,1,8,0:0:0:0:
256,192,82156,1,0,0:0:0:0:
256,192,82246,1,0,0:0:0:0:
256,192,82291,1,0,0:0:0:0:
256,192,82335,1,8,0:0:0:0:
256,192,82380,1,8,0:0:0:0:
256,192,82425,1,0,0:0:0:0:
256,192,82514,1,8,0:0:0:0:
256,192,82559,1,8,0:0:0:0:
256,192,82604,1,8,0:0:0:0:
256,192,82649,1,8,0:0:0:0:
256,192,82694,1,0,0:0:0:0:
256,192,82783,1,0,0:0:0:0:
256,192,82828,1,0,0:0:0:0:
256,192,82873,1,8,0:0:0:0:
256,192,82962,1,8,0:0:0:0:
256,192,83052,1,8,0:0:0:0:
256,192,83097,1,8,0:0:0:0:
256,192,83141,1,8,0:0:0:0:
256,192,83231,1,0,0:0:0:0:
256,192,83320,1,0,0:0:0:0:
256,192,83410,1,8,0:0:0:0:
256,192,83455,1,8,0:0:0:0:
256,192,83499,1,8,0:0:0:0:
256,192,83544,1,8,0:0:0:0:
256,192,83589,1,0,0:0:0:0:
256,192,83679,1,8,0:0:0:0:
256,192,83768,1,4,0:0:0:0:
256,192,84126,1,8,0:1:0:0:
256,192,84171,1,8,0:1:0:0:
256,192,84216,1,8,0:1:0:0:
256,192,84261,1,8,0:0:0:0:
256,192,84305,1,8,0:0:0:0:
256,192,84350,1,8,0:0:0:0:
256,192,84395,1,8,0:0:0:0:
256,192,84440,1,8,0:0:0:0:
256,192,84485,1,0,0:0:0:0:
256,192,84574,1,8,0:0:0:0:
256,192,84664,1,0,0:0:0:0:
256,192,84753,1,8,0:0:0:0:
256,192,84798,1,8,0:0:0:0:
256,192,84843,1,0,0:0:0:0:
256,192,84932,1,0,0:0:0:0:
256,192,84977,1,0,0:0:0:0:
256,192,85022,1,8,0:0:0:0:
256,192,85111,1,0,0:0:0:0:
256,192,85156,1,0,0:0:0:0:
256,192,85201,1,8,0:0:0:0:
256,192,85246,1,8,0:0:0:0:
256,192,85291,1,0,0:0:0:0:
256,192,85380,1,8,0:0:0:0:
256,192,85425,1,0,0:0:0:0:
256,192,85470,1,8,0:0:0:0:
256,192,85514,1,8,0:0:0:0:
256,192,85559,1,0,0:0:0:0:
256,192,85649,1,8,0:0:0:0:
256,192,85738,1,0,0:0:0:0:
256,192,85828,1,8,0:0:0:0:
256,192,85873,1,8,0:0:0:0:
256,192,85917,1,0,0:0:0:0:
256,192,86007,1,8,0:0:0:0:
256,192,86097,1,0,0:0:0:0:
256,192,86186,1,0,0:0:0:0:
256,192,86231,1,0,0:0:0:0:
256,192,86276,1,8,0:0:0:0:
256,192,86320,1,0,0:0:0:0:
256,192,86365,1,0,0:0:0:0:
256,192,86455,1,0,0:0:0:0:
256,192,86499,1,0,0:0:0:0:
256,192,86544,1,8,0:0:0:0:
256,192,86634,1,8,0:0:0:0:
256,192,86679,1,8,0:0:0:0:
256,192,86723,1,0,0:0:0:0:
256,192,86768,1,0,0:0:0:0:
256,192,86813,1,8,0:0:0:0:
256,192,86858,1,0,0:0:0:0:
256,192,86902,1,8,0:0:0:0:
256,192,86992,1,0,0:0:0:0:
256,192,87037,1,0,0:0:0:0:
256,192,87082,1,0,0:0:0:0:
256,192,87171,1,8,0:0:0:0:
256,192,87216,1,8,0:0:0:0:
256,192,87261,1,0,0:0:0:0:
256,192,87350,1,8,0:0:0:0:
256,192,87440,1,8,0:0:0:0:
256,192,87529,1,0,0:0:0:0:
256,192,87619,1,0,0:0:0:0:
256,192,87664,1,0,0:0:0:0:
256,192,87708,1,8,0:0:0:0:
256,192,87798,1,8,0:0:0:0:
256,192,87843,1,8,0:0:0:0:
256,192,87888,1,0,0:0:0:0:
256,192,87977,1,0,0:0:0:0:
256,192,88067,5,8,0:0:0:0:
256,192,88111,1,8,0:0:0:0:
256,192,88156,1,0,0:0:0:0:
256,192,88201,1,0,0:0:0:0:
256,192,88246,1,8,0:0:0:0:
256,192,88291,1,0,0:0:0:0:
256,192,88335,1,8,0:0:0:0:
256,192,88380,1,0,0:0:0:0:
256,192,88425,1,8,0:0:0:0:
256,192,88470,1,8,0:0:0:0:
256,192,88514,1,0,0:0:0:0:
256,192,88559,1,0,0:0:0:0:
256,192,88604,1,8,0:0:0:0:
256,192,88649,1,0,0:0:0:0:
256,192,88694,1,8,0:0:0:0:
256,192,88738,1,8,0:0:0:0:
256,192,88783,1,0,0:0:0:0:
256,192,90216,1,4,0:0:0:0:
256,192,90305,1,0,0:0:0:0:
256,192,90350,1,0,0:0:0:0:
256,192,90395,1,8,0:0:0:0:
256,192,90485,1,0,0:0:0:0:
256,192,90574,1,8,0:0:0:0:
256,192,90664,1,8,0:0:0:0:
256,192,90753,1,0,0:0:0:0:
256,192,90798,1,0,0:0:0:0:
256,192,90843,1,0,0:0:0:0:
256,192,90888,1,0,0:0:0:0:
256,192,90932,1,8,0:0:0:0:
256,192,91022,1,0,0:0:0:0:
256,192,91067,1,0,0:0:0:0:
256,192,91111,1,0,0:0:0:0:
256,192,91201,1,8,0:0:0:0:
256,192,91291,1,0,0:0:0:0:
256,192,91335,1,0,0:0:0:0:
256,192,91380,1,0,0:0:0:0:
256,192,91470,1,8,0:0:0:0:
256,192,91559,1,8,0:0:0:0:
256,192,91604,1,8,0:0:0:0:
256,192,91649,1,0,0:0:0:0:
256,192,91738,1,0,0:0:0:0:
256,192,91783,1,0,0:0:0:0:
256,192,91828,1,8,0:0:0:0:
256,192,91917,1,0,0:0:0:0:
256,192,92007,1,8,0:0:0:0:
256,192,92097,1,8,0:0:0:0:
256,192,92186,1,0,0:0:0:0:
256,192,92231,1,0,0:0:0:0:
256,192,92276,1,0,0:0:0:0:
256,192,92320,1,0,0:0:0:0:
256,192,92365,1,8,0:0:0:0:
256,192,92455,1,0,0:0:0:0:
256,192,92499,1,0,0:0:0:0:
256,192,92544,1,0,0:0:0:0:
256,192,92634,1,8,0:0:0:0:
256,192,92723,1,0,0:0:0:0:
256,192,92768,1,0,0:0:0:0:
256,192,92813,1,0,0:0:0:0:
256,192,92858,1,0,0:0:0:0:
256,192,92902,1,8,0:0:0:0:
256,192,92947,1,8,0:0:0:0:
256,192,92992,1,0,0:0:0:0:
256,192,93082,1,4,0:0:0:0:
256,192,93171,1,0,0:0:0:0:
256,192,93216,1,0,0:0:0:0:
256,192,93261,1,8,0:0:0:0:
256,192,93350,1,0,0:0:0:0:
256,192,93440,1,8,0:0:0:0:
256,192,93529,1,8,0:0:0:0:
256,192,93619,1,8,0:0:0:0:
256,192,93664,1,8,0:0:0:0:
256,192,93708,1,0,0:0:0:0:
256,192,93753,1,0,0:0:0:0:
256,192,93798,1,8,0:0:0:0:
256,192,93888,1,0,0:0:0:0:
256,192,93932,1,0,0:0:0:0:
256,192,93977,1,0,0:0:0:0:
256,192,94067,1,8,0:0:0:0:
256,192,94156,1,0,0:0:0:0:
256,192,94201,1,0,0:0:0:0:
256,192,94246,1,0,0:0:0:0:
256,192,94291,1,0,0:0:0:0:
256,192,94335,1,8,0:0:0:0:
256,192,94380,1,8,0:0:0:0:
256,192,94425,1,8,0:0:0:0:
256,192,94470,1,8,0:0:0:0:
256,192,94514,1,0,0:0:0:0:
256,192,94604,1,0,0:0:0:0:
256,192,94649,1,0,0:0:0:0:
256,192,94694,1,8,0:0:0:0:
256,192,94783,1,0,0:0:0:0:
256,192,94873,1,8,0:0:0:0:
256,192,94962,1,8,0:0:0:0:
256,192,95052,1,8,0:0:0:0:
256,192,95141,1,0,0:0:0:0:
256,192,95231,1,8,0:0:0:0:
256,192,95276,1,8,0:0:0:0:
256,192,95320,1,8,0:0:0:0:
256,192,95365,1,8,0:0:0:0:
256,192,95410,1,0,0:0:0:0:
256,192,95499,1,8,0:0:0:0:
256,192,95589,1,0,0:0:0:0:
256,192,95634,1,0,0:0:0:0:
256,192,95679,1,0,0:0:0:0:
256,192,95768,1,8,0:0:0:0:
256,192,95947,1,4,0:0:0:0:
256,192,96036,1,0,0:0:0:0:
256,192,96081,1,0,0:0:0:0:
256,192,96126,1,8,0:0:0:0:
256,192,96216,1,0,0:0:0:0:
256,192,96305,1,8,0:0:0:0:
256,192,96395,1,8,0:0:0:0:
256,192,96484,1,0,0:0:0:0:
256,192,96529,1,0,0:0:0:0:
256,192,96574,1,0,0:0:0:0:
256,192,96619,1,0,0:0:0:0:
256,192,96663,1,8,0:0:0:0:
256,192,96753,1,0,0:0:0:0:
256,192,96798,1,0,0:0:0:0:
256,192,96842,1,0,0:0:0:0:
256,192,96932,1,8,0:0:0:0:
256,192,97022,1,0,0:0:0:0:
256,192,97066,1,0,0:0:0:0:
256,192,97111,1,0,0:0:0:0:
256,192,97201,1,8,0:0:0:0:
256,192,97290,1,8,0:0:0:0:
256,192,97380,1,0,0:0:0:0:
256,192,97469,1,0,0:0:0:0:
256,192,97514,1,0,0:0:0:0:
256,192,97559,1,8,0:0:0:0:
256,192,97648,1,0,0:0:0:0:
256,192,97738,1,8,0:0:0:0:
256,192,97828,1,8,0:0:0:0:
256,192,97917,1,0,0:0:0:0:
256,192,97962,1,0,0:0:0:0:
256,192,98007,1,0,0:0:0:0:
256,192,98051,1,0,0:0:0:0:
256,192,98096,1,8,0:0:0:0:
256,192,98186,1,0,0:0:0:0:
256,192,98230,1,0,0:0:0:0:
256,192,98275,1,0,0:0:0:0:
256,192,98365,1,8,0:0:0:0:
256,192,98454,1,0,0:0:0:0:
256,192,98499,1,0,0:0:0:0:
256,192,98544,1,0,0:0:0:0:
256,192,98589,1,0,0:0:0:0:
256,192,98633,1,8,0:0:0:0:
256,192,98678,1,8,0:0:0:0:
256,192,98723,1,0,0:0:0:0:
256,192,98813,1,4,0:0:0:0:
256,192,98902,1,0,0:0:0:0:
256,192,98947,1,0,0:0:0:0:
256,192,98992,1,8,0:0:0:0:
256,192,99081,1,0,0:0:0:0:
256,192,99171,1,8,0:0:0:0:
256,192,99260,1,8,0:0:0:0:
256,192,99350,1,8,0:0:0:0:
256,192,99395,1,8,0:0:0:0:
256,192,99439,1,0,0:0:0:0:
256,192,99484,1,0,0:0:0:0:
256,192,99529,1,8,0:0:0:0:
256,192,99619,1,0,0:0:0:0:
256,192,99663,1,0,0:0:0:0:
256,192,99708,1,0,0:0:0:0:
256,192,99798,5,8,0:0:0:0:
256,192,99887,1,0,0:0:0:0:
256,192,99932,1,0,0:0:0:0:
256,192,99977,1,0,0:0:0:0:
256,192,100022,1,0,0:0:0:0:
256,192,100066,1,8,0:0:0:0:
256,192,100111,1,8,0:0:0:0:
256,192,100156,1,8,0:0:0:0:
256,192,100201,1,8,0:0:0:0:
256,192,100245,1,0,0:0:0:0:
256,192,100335,1,0,0:0:0:0:
256,192,100380,1,0,0:0:0:0:
256,192,100425,1,8,0:0:0:0:
256,192,100514,1,0,0:0:0:0:
256,192,100604,1,8,0:0:0:0:
256,192,100693,1,8,0:0:0:0:
256,192,100783,1,8,0:0:0:0:
256,192,100872,1,0,0:0:0:0:
256,192,100962,5,8,0:0:0:0:
256,192,101007,1,8,0:0:0:0:
256,192,101052,1,0,0:0:0:0:
256,192,101097,1,0,0:0:0:0:
256,192,101141,1,8,0:0:0:0:
256,192,101186,1,8,0:0:0:0:
256,192,101231,1,0,0:0:0:0:
256,192,101276,1,0,0:0:0:0:
256,192,101320,1,8,0:0:0:0:
256,192,101365,1,0,0:0:0:0:
256,192,101410,1,8,0:0:0:0:
256,192,101455,1,0,0:0:0:0:
256,192,101499,1,8,0:0:0:0:
256,192,101544,1,0,0:0:0:0:
256,192,101589,1,8,0:0:0:0:
256,192,101634,1,8,0:0:0:0:
256,192,101679,1,0,0:0:0:0:
256,192,101858,1,0,0:0:0:0:
256,192,102037,1,8,0:0:0:0:
256,192,102216,1,0,0:0:0:0:
256,192,102261,1,0,0:0:0:0:
256,192,102305,1,0,0:0:0:0:
256,192,102395,1,0,0:0:0:0:
256,192,102753,1,0,0:0:0:0:
256,192,102843,1,0,0:0:0:0:
256,192,102932,1,0,0:0:0:0:
256,192,103022,1,0,0:0:0:0:
256,192,103111,1,0,0:0:0:0:
256,192,103156,1,0,0:0:0:0:
256,192,103201,1,0,0:0:0:0:
256,192,103291,1,0,0:0:0:0:
256,192,103470,1,8,0:0:0:0:
256,192,103649,1,0,0:0:0:0:
256,192,103694,1,0,0:0:0:0:
256,192,103738,1,0,0:0:0:0:
256,192,103828,1,0,0:0:0:0:
256,192,104007,1,8,0:0:0:0:
256,192,104186,1,0,0:0:0:0:
256,192,104544,1,0,0:0:0:0:
256,192,104589,1,0,0:0:0:0:
256,192,104634,1,0,0:0:0:0:
256,192,104723,1,0,0:0:0:0:
256,192,104902,1,8,0:0:0:0:
256,192,105082,1,0,0:0:0:0:
256,192,105126,1,0,0:0:0:0:
256,192,105171,1,0,0:0:0:0:
256,160,105261,1,0,0:0:0:0:
256,160,105619,1,0,0:0:0:0:
256,160,105708,1,0,0:0:0:0:
256,160,105798,1,0,0:0:0:0:
256,160,105888,1,0,0:0:0:0:
256,160,105977,1,0,0:0:0:0:
256,160,106022,1,0,0:0:0:0:
256,160,106067,1,0,0:0:0:0:
256,160,106156,1,0,0:0:0:0:
256,160,106335,1,8,0:0:0:0:
256,160,106514,1,0,0:0:0:0:
256,160,106559,1,0,0:0:0:0:
256,160,106604,1,0,0:0:0:0:
256,160,106694,1,0,0:0:0:0:
256,160,106873,1,8,0:0:0:0:
256,160,107052,1,0,0:0:0:0:
256,192,107410,1,0,0:0:0:0:
256,192,107455,1,0,0:0:0:0:
256,192,107500,1,0,0:0:0:0:
256,192,107589,1,0,0:0:0:0:
256,192,107768,1,8,0:0:0:0:
256,192,107948,1,0,0:0:0:0:
256,192,107992,1,0,0:0:0:0:
256,192,108037,1,0,0:0:0:0:
256,160,108127,1,0,0:0:0:0:
256,192,108305,1,8,0:0:0:0:
256,160,108485,1,0,0:0:0:0:
256,160,108574,1,0,0:0:0:0:
256,160,108664,1,0,0:0:0:0:
256,160,108754,1,0,0:0:0:0:
256,160,108843,1,0,0:0:0:0:
256,160,108888,1,0,0:0:0:0:
256,160,108933,1,0,0:0:0:0:
256,160,109022,1,0,0:0:0:0:
256,160,109201,1,8,0:0:0:0:
256,160,109380,1,0,0:0:0:0:
256,160,109425,1,0,0:0:0:0:
256,160,109470,1,0,0:0:0:0:
256,160,109560,1,0,0:0:0:0:
256,160,109739,1,8,0:0:0:0:
256,160,109918,1,0,0:0:0:0:
256,192,110276,1,0,0:0:0:0:
256,192,110321,1,0,0:0:0:0:
256,192,110366,1,0,0:0:0:0:
256,192,110455,1,0,0:0:0:0:
256,192,110634,1,8,0:0:0:0:
256,192,110814,1,0,0:0:0:0:
256,192,110858,1,0,0:0:0:0:
256,192,110903,1,0,0:0:0:0:
256,160,110993,1,0,0:0:0:0:
256,192,111171,1,8,0:0:0:0:
256,160,111351,1,0,0:0:0:0:
256,160,111440,1,0,0:0:0:0:
256,160,111530,1,0,0:0:0:0:
256,160,111620,1,0,0:0:0:0:
256,160,111709,1,0,0:0:0:0:
256,160,111754,1,0,0:0:0:0:
256,160,111799,1,0,0:0:0:0:
256,160,111888,1,0,0:0:0:0:
256,160,112067,1,8,0:0:0:0:
256,160,112246,1,0,0:0:0:0:
256,160,112291,1,0,0:0:0:0:
256,160,112336,1,0,0:0:0:0:
256,160,112426,1,0,0:0:0:0:
256,160,112605,1,8,0:0:0:0:
256,160,112784,1,0,0:0:0:0:
256,160,113141,1,8,0:0:0:0:
256,160,113231,1,8,0:0:0:0:
256,160,113320,1,8,0:0:0:0:
256,160,113499,1,0,0:0:0:0:
256,160,113679,1,8,0:0:0:0:
256,160,113768,1,8,0:0:0:0:
256,160,113858,1,8,0:0:0:0:
256,160,114216,1,8,0:0:0:0:
256,160,114305,1,8,0:0:0:0:
256,160,114395,1,8,0:0:0:0:
256,160,114485,1,8,0:0:0:0:
256,160,114574,1,8,0:0:0:0:
256,160,114664,1,8,0:0:0:0:
256,160,114753,1,0,0:0:0:0:
256,160,114932,1,0,0:0:0:0:
256,160,115111,1,8,0:0:0:0:
256,160,115201,1,8,0:0:0:0:
256,160,115291,1,8,0:0:0:0:
256,160,115649,1,0,0:0:0:0:
256,160,116007,1,8,0:0:0:0:
256,160,116097,1,8,0:0:0:0:
256,160,116186,1,8,0:0:0:0:
256,160,116365,1,0,0:0:0:0:
256,160,116545,1,8,0:0:0:0:
256,160,116634,1,8,0:0:0:0:
256,160,116724,1,8,0:0:0:0:
256,160,117082,1,8,0:0:0:0:
256,160,117171,1,8,0:0:0:0:
256,160,117261,1,8,0:0:0:0:
256,160,117351,1,8,0:0:0:0:
256,160,117440,1,8,0:0:0:0:
256,160,117530,1,8,0:0:0:0:
256,160,117619,1,0,0:0:0:0:
256,160,117798,1,0,0:0:0:0:
256,160,117977,1,8,0:0:0:0:
256,160,118067,1,8,0:0:0:0:
256,160,118157,1,8,0:0:0:0:
256,160,118514,1,0,0:0:0:0:
256,160,118873,1,8,0:0:0:0:
256,160,118962,1,8,0:0:0:0:
256,192,119052,1,0,0:0:0:0:
256,160,119410,1,8,0:0:0:0:
256,160,119499,1,8,0:0:0:0:
256,160,119589,1,0,0:0:0:0:
256,192,119947,1,8,0:0:0:0:
256,192,120037,1,8,0:0:0:0:
256,192,120126,1,8,0:0:0:0:
256,192,120216,1,8,0:0:0:0:
256,192,120305,1,8,0:0:0:0:
256,192,120395,1,8,0:0:0:0:
256,192,120485,1,0,0:0:0:0:
256,192,120843,1,8,0:0:0:0:
256,192,120932,1,8,0:0:0:0:
256,192,121022,1,0,0:0:0:0:
256,192,121380,1,0,0:0:0:0:
256,192,121738,1,8,0:0:0:0:
256,192,121828,1,8,0:0:0:0:
256,192,121917,1,0,0:0:0:0:
256,192,122276,1,8,0:0:0:0:
256,192,122365,1,8,0:0:0:0:
256,192,122455,1,0,0:0:0:0:
256,192,122813,1,8,0:0:0:0:
256,192,122902,1,8,0:0:0:0:
256,192,122992,1,8,0:0:0:0:
256,192,123082,1,8,0:0:0:0:
256,192,123171,1,8,0:0:0:0:
256,192,123261,1,8,0:0:0:0:
256,192,123350,1,0,0:0:0:0:
256,192,123708,1,8,0:0:0:0:
256,192,123798,1,8,0:0:0:0:
256,192,123888,1,0,0:0:0:0:
256,192,124246,1,0,0:0:0:0:
256,192,124604,5,4,0:0:0:0:
256,192,124694,12,0,129619,0:0:0:0:
256,160,130156,5,0,0:0:0:0:
256,160,130201,1,0,0:0:0:0:
256,160,130246,1,0,0:0:0:0:
256,160,130291,1,0,0:0:0:0:
256,160,130335,1,8,0:0:0:0:
256,160,131052,1,0,0:0:0:0:
256,160,131410,1,8,0:0:0:0:
256,160,131768,1,4,0:0:0:0:
256,160,132485,1,0,0:0:0:0:
256,160,132664,1,0,0:0:0:0:
256,160,132843,1,8,0:0:0:0:
256,160,133022,1,0,0:0:0:0:
256,160,133201,1,4,0:0:0:0:
256,160,133917,1,4,0:0:0:0:
256,160,134634,1,4,0:0:0:0:
256,160,134992,1,4,0:0:0:0:
256,160,135350,1,4,0:0:0:0:
256,160,135529,1,4,0:0:0:0:
256,160,135708,1,0,0:0:0:0:
256,160,135798,1,0,0:0:0:0:
256,160,135888,1,8,0:0:0:0:
256,160,135932,1,8,0:0:0:0:
256,160,135977,1,8,0:0:0:0:
256,160,136022,1,8,0:0:0:0:
256,192,136067,1,0,0:0:0:0:
256,192,136156,1,0,0:0:0:0:
256,192,136201,1,0,0:0:0:0:
256,192,136246,1,8,0:0:0:0:
256,192,136336,1,0,0:0:0:0:
256,192,136425,1,8,0:0:0:0:
256,192,136470,1,8,0:0:0:0:
256,192,136515,1,8,0:0:0:0:
256,192,136604,1,0,0:0:0:0:
256,192,136649,1,0,0:0:0:0:
256,192,136694,1,0,0:0:0:0:
256,192,136739,1,0,0:0:0:0:
256,192,136783,1,8,0:0:0:0:
256,192,136873,1,0,0:0:0:0:
256,192,136918,1,0,0:0:0:0:
256,192,136962,1,0,0:0:0:0:
256,192,137052,1,8,0:0:0:0:
256,192,137142,1,0,0:0:0:0:
256,192,137186,1,0,0:0:0:0:
256,192,137231,1,0,0:0:0:0:
256,192,137321,1,8,0:0:0:0:
256,192,137410,1,8,0:0:0:0:
256,192,137455,1,8,0:0:0:0:
256,192,137500,1,0,0:0:0:0:
256,192,137589,1,0,0:0:0:0:
256,192,137634,1,0,0:0:0:0:
256,192,137679,1,8,0:0:0:0:
256,192,137768,1,0,0:0:0:0:
256,192,137858,1,8,0:0:0:0:
256,192,137902,1,8,0:0:0:0:
256,192,137948,1,8,0:0:0:0:
256,192,138037,1,0,0:0:0:0:
256,192,138082,1,0,0:0:0:0:
256,192,138127,1,0,0:0:0:0:
256,192,138171,1,0,0:0:0:0:
256,192,138216,1,8,0:0:0:0:
256,192,138306,1,0,0:0:0:0:
256,192,138350,1,0,0:0:0:0:
256,192,138395,1,0,0:0:0:0:
256,192,138485,1,8,0:0:0:0:
256,192,138574,1,0,0:0:0:0:
256,192,138619,1,0,0:0:0:0:
256,192,138664,1,0,0:0:0:0:
256,192,138709,1,0,0:0:0:0:
256,192,138753,1,8,0:0:0:0:
256,192,138798,1,8,0:0:0:0:
256,192,138843,1,0,0:0:0:0:
256,192,138933,1,4,0:0:0:0:
256,192,139022,1,0,0:0:0:0:
256,192,139067,1,0,0:0:0:0:
256,192,139112,1,8,0:0:0:0:
256,192,139201,1,0,0:0:0:0:
256,192,139291,1,8,0:0:0:0:
256,192,139335,1,0,0:0:0:0:
256,192,139380,1,8,0:0:0:0:
256,192,139470,1,8,0:0:0:0:
256,192,139515,1,8,0:0:0:0:
256,192,139559,1,0,0:0:0:0:
256,192,139604,1,0,0:0:0:0:
256,192,139649,1,8,0:0:0:0:
256,192,139739,1,0,0:0:0:0:
256,192,139783,1,0,0:0:0:0:
256,192,139828,1,0,0:0:0:0:
256,192,139918,1,8,0:0:0:0:
256,192,140007,1,0,0:0:0:0:
256,192,140052,1,0,0:0:0:0:
256,192,140097,1,0,0:0:0:0:
256,192,140142,1,0,0:0:0:0:
256,192,140186,1,8,0:0:0:0:
256,192,140231,1,8,0:0:0:0:
256,192,140276,1,8,0:0:0:0:
256,192,140321,1,8,0:0:0:0:
256,192,140365,1,0,0:0:0:0:
256,192,140455,1,0,0:0:0:0:
256,192,140499,1,0,0:0:0:0:
256,192,140545,1,8,0:0:0:0:
256,192,140634,1,0,0:0:0:0:
256,192,140724,1,8,0:0:0:0:
256,192,140768,1,0,0:0:0:0:
256,192,140813,1,8,0:0:0:0:
256,192,140903,1,8,0:0:0:0:
256,192,140992,1,0,0:0:0:0:
256,192,141082,1,8,0:0:0:0:
256,192,141127,1,8,0:0:0:0:
256,192,141171,1,8,0:0:0:0:
256,192,141216,1,8,0:0:0:0:
256,192,141261,1,0,0:0:0:0:
256,192,141350,1,8,0:0:0:0:
256,192,141440,1,0,0:0:0:0:
256,192,141485,1,0,0:0:0:0:
256,192,141530,1,0,0:0:0:0:
256,192,141619,1,8,0:0:0:0:
256,192,141798,1,4,0:0:0:0:
256,192,141887,1,0,0:0:0:0:
256,192,141932,1,0,0:0:0:0:
256,192,141977,1,8,0:0:0:0:
256,192,142067,1,0,0:0:0:0:
256,192,142156,1,8,0:0:0:0:
256,192,142201,1,0,0:0:0:0:
256,192,142246,1,8,0:0:0:0:
256,192,142335,1,0,0:0:0:0:
256,192,142380,1,0,0:0:0:0:
256,192,142425,1,0,0:0:0:0:
256,192,142470,1,0,0:0:0:0:
256,192,142514,1,8,0:0:0:0:
256,192,142604,1,0,0:0:0:0:
256,192,142649,1,0,0:0:0:0:
256,192,142693,1,0,0:0:0:0:
256,192,142783,1,8,0:0:0:0:
256,192,142873,1,0,0:0:0:0:
256,192,142917,1,0,0:0:0:0:
256,192,142962,1,0,0:0:0:0:
256,192,143052,1,8,0:0:0:0:
256,192,143141,1,8,0:0:0:0:
256,192,143186,1,8,0:0:0:0:
256,192,143231,1,0,0:0:0:0:
256,192,143320,1,0,0:0:0:0:
256,192,143365,1,0,0:0:0:0:
256,192,143410,1,8,0:0:0:0:
256,192,143499,1,0,0:0:0:0:
256,192,143589,1,8,0:0:0:0:
256,192,143634,1,0,0:0:0:0:
256,192,143679,1,8,0:0:0:0:
256,192,143768,1,0,0:0:0:0:
256,192,143813,1,0,0:0:0:0:
256,192,143858,1,0,0:0:0:0:
256,192,143902,1,0,0:0:0:0:
256,192,143947,1,8,0:0:0:0:
256,192,144037,1,0,0:0:0:0:
256,192,144081,1,0,0:0:0:0:
256,192,144126,1,0,0:0:0:0:
256,192,144216,1,8,0:0:0:0:
256,192,144305,1,0,0:0:0:0:
256,192,144350,1,0,0:0:0:0:
256,192,144395,1,0,0:0:0:0:
256,192,144440,1,0,0:0:0:0:
256,192,144484,1,8,0:0:0:0:
256,192,144529,1,8,0:0:0:0:
256,192,144574,1,0,0:0:0:0:
256,192,144664,1,4,0:0:0:0:
256,192,144753,1,0,0:0:0:0:
256,192,144798,1,0,0:0:0:0:
256,192,144843,1,8,0:0:0:0:
256,192,144932,1,0,0:0:0:0:
256,192,145022,1,8,0:0:0:0:
256,192,145067,1,0,0:0:0:0:
256,192,145111,1,8,0:0:0:0:
256,192,145201,1,8,0:0:0:0:
256,192,145246,1,8,0:0:0:0:
256,192,145290,1,0,0:0:0:0:
256,192,145335,1,0,0:0:0:0:
256,192,145380,1,8,0:0:0:0:
256,192,145470,1,0,0:0:0:0:
256,192,145514,1,0,0:0:0:0:
256,192,145559,1,0,0:0:0:0:
256,192,145649,5,8,0:0:0:0:
256,192,145738,1,0,0:0:0:0:
256,192,145783,1,0,0:0:0:0:
256,192,145828,1,0,0:0:0:0:
256,192,145873,1,0,0:0:0:0:
256,192,145917,1,8,0:0:0:0:
256,192,145962,1,8,0:0:0:0:
256,192,146007,1,8,0:0:0:0:
256,192,146052,1,8,0:0:0:0:
256,192,146096,1,0,0:0:0:0:
256,192,146186,1,0,0:0:0:0:
256,192,146231,1,0,0:0:0:0:
256,192,146276,1,8,0:0:0:0:
256,192,146365,1,0,0:0:0:0:
256,192,146455,1,8,0:0:0:0:
256,192,146499,1,0,0:0:0:0:
256,192,146544,1,8,0:0:0:0:
256,192,146634,1,8,0:0:0:0:
256,192,146723,1,0,0:0:0:0:
256,192,146813,5,8,0:0:0:0:
256,192,146858,1,8,0:0:0:0:
256,192,146903,1,0,0:0:0:0:
256,192,146948,1,0,0:0:0:0:
256,192,146992,1,8,0:0:0:0:
256,192,147037,1,8,0:0:0:0:
256,192,147082,1,0,0:0:0:0:
256,192,147127,1,0,0:0:0:0:
256,192,147171,1,8,0:0:0:0:
256,192,147216,1,0,0:0:0:0:
256,192,147261,1,8,0:0:0:0:
256,192,147306,1,0,0:0:0:0:
256,192,147350,1,8,0:0:0:0:
256,192,147395,1,0,0:0:0:0:
256,192,147440,1,8,0:0:0:0:
256,192,147485,1,8,0:0:0:0:
256,192,147530,1,0,0:0:0:0:
256,192,147619,1,0,0:0:0:0:
256,192,147664,1,0,0:0:0:0:
256,192,147709,1,8,0:0:0:0:
256,192,147799,1,0,0:0:0:0:
256,192,147888,1,8,0:0:0:0:
256,192,147932,1,0,0:0:0:0:
256,192,147978,1,8,0:0:0:0:
256,192,148022,1,8,0:0:0:0:
256,192,148067,1,0,0:0:0:0:
256,192,148112,1,0,0:0:0:0:
256,192,148157,1,0,0:0:0:0:
256,192,148202,1,0,0:0:0:0:
256,192,148246,1,8,0:0:0:0:
256,192,148336,1,0,0:0:0:0:
256,192,148381,1,0,0:0:0:0:
256,192,148425,1,0,0:0:0:0:
256,192,148470,1,0,0:0:0:0:
256,192,148515,1,8,0:0:0:0:
256,192,148605,1,0,0:0:0:0:
256,192,148649,1,0,0:0:0:0:
256,192,148694,1,0,0:0:0:0:
256,192,148738,1,0,0:0:0:0:
256,192,148784,1,8,0:0:0:0:
256,192,148873,1,8,0:0:0:0:
256,192,148918,1,8,0:0:0:0:
256,192,148963,1,0,0:0:0:0:
256,192,149052,1,0,0:0:0:0:
256,192,149097,1,0,0:0:0:0:
256,192,149142,1,8,0:0:0:0:
256,192,149231,1,0,0:0:0:0:
256,192,149321,1,8,0:0:0:0:
256,192,149365,1,0,0:0:0:0:
256,192,149411,1,8,0:0:0:0:
256,192,149455,1,8,0:0:0:0:
256,192,149500,1,0,0:0:0:0:
256,192,149545,1,0,0:0:0:0:
256,192,149590,1,0,0:0:0:0:
256,192,149634,1,0,0:0:0:0:
256,192,149679,1,8,0:0:0:0:
256,192,149769,1,0,0:0:0:0:
256,192,149813,1,0,0:0:0:0:
256,192,149858,1,0,0:0:0:0:
256,192,149902,1,0,0:0:0:0:
256,192,149948,1,8,0:0:0:0:
256,192,150037,1,0,0:0:0:0:
256,192,150082,1,0,0:0:0:0:
256,192,150127,1,0,0:0:0:0:
256,192,150172,1,0,0:0:0:0:
256,192,150216,1,8,0:0:0:0:
256,192,150261,1,8,0:0:0:0:
256,192,150306,1,0,0:0:0:0:
256,192,150396,1,4,0:0:0:0:
256,192,150485,1,0,0:0:0:0:
256,192,150530,1,0,0:0:0:0:
256,192,150575,1,8,0:0:0:0:
256,192,150664,1,0,0:0:0:0:
256,192,150754,1,8,0:0:0:0:
256,192,150798,1,0,0:0:0:0:
256,192,150843,1,8,0:0:0:0:
256,192,150888,1,0,0:0:0:0:
256,192,150933,1,8,0:0:0:0:
256,192,150978,1,8,0:0:0:0:
256,192,151022,1,0,0:0:0:0:
256,192,151067,1,0,0:0:0:0:
256,192,151112,1,8,0:0:0:0:
256,192,151202,1,0,0:0:0:0:
256,192,151246,1,0,0:0:0:0:
256,192,151291,1,0,0:0:0:0:
256,192,151381,1,8,0:0:0:0:
256,192,151470,1,0,0:0:0:0:
256,192,151515,1,0,0:0:0:0:
256,192,151560,1,0,0:0:0:0:
256,192,151605,1,0,0:0:0:0:
256,192,151649,1,8,0:0:0:0:
256,192,151694,1,8,0:0:0:0:
256,192,151739,1,8,0:0:0:0:
256,192,151784,1,8,0:0:0:0:
256,192,151828,1,0,0:0:0:0:
256,192,151918,1,0,0:0:0:0:
256,192,151962,1,0,0:0:0:0:
256,192,152008,1,8,0:0:0:0:
256,192,152097,1,0,0:0:0:0:
256,192,152187,1,8,0:0:0:0:
256,192,152231,1,0,0:0:0:0:
256,192,152276,1,8,0:0:0:0:
256,192,152320,1,0,0:0:0:0:
256,192,152366,1,8,0:0:0:0:
256,192,152455,1,0,0:0:0:0:
256,192,152545,1,8,0:0:0:0:
256,192,152590,1,8,0:0:0:0:
256,192,152634,1,8,0:0:0:0:
256,192,152679,1,8,0:0:0:0:
256,192,152724,1,0,0:0:0:0:
256,192,152813,1,8,0:0:0:0:
256,192,152903,1,0,0:0:0:0:
256,192,152948,1,0,0:0:0:0:
256,192,152993,1,0,0:0:0:0:
256,192,153037,1,0,0:0:0:0:
256,192,153082,1,8,0:0:0:0:
256,192,153261,1,4,0:0:0:0:
256,192,153350,1,0,0:0:0:0:
256,192,153395,1,0,0:0:0:0:
256,192,153440,1,8,0:0:0:0:
256,192,153530,1,0,0:0:0:0:
256,192,153619,1,8,0:0:0:0:
256,192,153664,1,0,0:0:0:0:
256,192,153709,1,8,0:0:0:0:
256,192,153753,1,8,0:0:0:0:
256,192,153798,1,0,0:0:0:0:
256,192,153843,1,0,0:0:0:0:
256,192,153888,1,0,0:0:0:0:
256,192,153933,1,0,0:0:0:0:
256,192,153977,1,8,0:0:0:0:
256,192,154067,1,0,0:0:0:0:
256,192,154112,1,0,0:0:0:0:
256,192,154156,1,0,0:0:0:0:
256,192,154201,1,0,0:0:0:0:
256,192,154246,1,8,0:0:0:0:
256,192,154336,1,0,0:0:0:0:
256,192,154380,1,0,0:0:0:0:
256,192,154425,1,0,0:0:0:0:
256,192,154470,1,0,0:0:0:0:
256,192,154515,1,8,0:0:0:0:
256,192,154604,1,8,0:0:0:0:
256,192,154649,1,8,0:0:0:0:
256,192,154694,1,0,0:0:0:0:
256,192,154783,1,0,0:0:0:0:
256,192,154828,1,0,0:0:0:0:
256,192,154873,1,8,0:0:0:0:
256,192,154962,1,0,0:0:0:0:
256,192,155052,1,8,0:0:0:0:
256,192,155097,1,0,0:0:0:0:
256,192,155142,1,8,0:0:0:0:
256,192,155186,1,8,0:0:0:0:
256,192,155231,1,0,0:0:0:0:
256,192,155276,1,0,0:0:0:0:
256,192,155321,1,0,0:0:0:0:
256,192,155365,1,0,0:0:0:0:
256,192,155410,1,8,0:0:0:0:
256,192,155500,1,0,0:0:0:0:
256,192,155544,1,0,0:0:0:0:
256,192,155589,1,0,0:0:0:0:
256,192,155634,1,0,0:0:0:0:
256,192,155679,1,8,0:0:0:0:
256,192,155768,1,0,0:0:0:0:
256,192,155813,1,0,0:0:0:0:
256,192,155858,1,0,0:0:0:0:
256,192,155903,1,0,0:0:0:0:
256,192,155947,1,8,0:0:0:0:
256,192,155992,1,8,0:0:0:0:
256,192,156037,1,0,0:0:0:0:
256,192,156127,1,4,0:0:0:0:
256,192,156216,1,0,0:0:0:0:
256,192,156261,1,0,0:0:0:0:
256,192,156306,1,8,0:0:0:0:
256,192,156395,1,0,0:0:0:0:
256,192,156485,1,8,0:0:0:0:
256,192,156529,1,0,0:0:0:0:
256,192,156574,1,8,0:0:0:0:
256,192,156619,1,0,0:0:0:0:
256,192,156664,1,8,0:0:0:0:
256,192,156709,1,8,0:0:0:0:
256,192,156753,1,0,0:0:0:0:
256,192,156798,1,0,0:0:0:0:
256,192,156843,1,8,0:0:0:0:
256,192,156933,1,0,0:0:0:0:
256,192,156977,1,0,0:0:0:0:
256,192,157022,1,0,0:0:0:0:
256,192,157067,1,0,0:0:0:0:
256,192,157112,5,8,0:0:0:0:
256,192,157201,1,0,0:0:0:0:
256,192,157246,1,0,0:0:0:0:
256,192,157291,1,0,0:0:0:0:
256,192,157336,1,0,0:0:0:0:
256,192,157380,1,8,0:0:0:0:
256,192,157425,1,8,0:0:0:0:
256,192,157470,1,8,0:0:0:0:
256,192,157515,1,8,0:0:0:0:
256,192,157559,1,0,0:0:0:0:
256,192,157649,1,0,0:0:0:0:
256,192,157694,1,0,0:0:0:0:
256,192,157739,1,8,0:0:0:0:
256,192,157828,1,0,0:0:0:0:
256,192,157918,1,8,0:0:0:0:
256,192,157962,1,0,0:0:0:0:
256,192,158007,1,8,0:0:0:0:
256,192,158052,1,0,0:0:0:0:
256,192,158097,1,8,0:0:0:0:
256,192,158186,1,0,0:0:0:0:
256,192,158276,5,8,0:0:0:0:
256,192,158321,1,8,0:0:0:0:
256,192,158366,1,0,0:0:0:0:
256,192,158411,1,0,0:0:0:0:
256,192,158455,1,8,0:0:0:0:
256,192,158500,1,8,0:0:0:0:
256,192,158545,1,0,0:0:0:0:
256,192,158590,1,0,0:0:0:0:
256,192,158634,1,8,0:0:0:0:
256,192,158679,1,0,0:0:0:0:
256,192,158724,1,8,0:0:0:0:
256,192,158769,1,0,0:0:0:0:
256,192,158813,1,8,0:0:0:0:
256,192,158858,1,8,0:0:0:0:
256,192,158903,1,8,0:0:0:0:
256,192,158948,1,8,0:0:0:0:
256,192,158993,1,0,0:0:0:0:
